  0
SECTION
  2
HEADER
  9
$ACADVER
  1
AC1015
  9
$ACADMAINTVER
 70
     6
  9
$DWGCODEPAGE
  3
DOS932
  9
$INSBASE
 10
0.0
 20
0.0
 30
0.0
  9
$EXTMIN
 10
0.0
 20
0.0
 30
0.0
  9
$EXTMAX
 10
210.0
 20
297.0
 30
0.0
  9
$LIMMIN
 10
0.0
 20
0.0
  9
$LIMMAX
 10
210.0
 20
297.0
  9
$ORTHOMODE
 70
     0
  9
$REGENMODE
 70
     1
  9
$FILLMODE
 70
     1
  9
$QTEXTMODE
 70
     0
  9
$MIRRTEXT
 70
     1
  9
$LTSCALE
 40
1.0
  9
$ATTMODE
 70
     1
  9
$TEXTSIZE
 40
3.5
  9
$TRACEWID
 40
1.0
  9
$TEXTSTYLE
  7
Standard
  9
$CLAYER
  8
0
  9
$CELTYPE
  6
ByLayer
  9
$CECOLOR
 62
   256
  9
$CELTSCALE
 40
1.0
  9
$DISPSILH
 70
     0
  9
$DIMSCALE
 40
1.0
  9
$DIMASZ
 40
2.0
  9
$DIMEXO
 40
1.0
  9
$DIMDLI
 40
3.75
  9
$DIMRND
 40
0.0
  9
$DIMDLE
 40
0.0
  9
$DIMEXE
 40
1.0
  9
$DIMTP
 40
0.0
  9
$DIMTM
 40
0.0
  9
$DIMTXT
 40
3.5
  9
$DIMCEN
 40
2.5
  9
$DIMTSZ
 40
0.0
  9
$DIMTOL
 70
     0
  9
$DIMLIM
 70
     0
  9
$DIMTIH
 70
     1
  9
$DIMTOH
 70
     1
  9
$DIMSE1
 70
     0
  9
$DIMSE2
 70
     0
  9
$DIMTAD
 70
     1
  9
$DIMZIN
 70
     0
  9
$DIMBLK
  1

  9
$DIMASO
 70
     1
  9
$DIMSHO
 70
     1
  9
$DIMPOST
  1

  9
$DIMAPOST
  1

  9
$DIMALT
 70
     0
  9
$DIMALTD
 70
     3
  9
$DIMALTF
 40
0.0393700787
  9
$DIMLFAC
 40
1.0
  9
$DIMTOFL
 70
     1
  9
$DIMTVP
 40
0.0
  9
$DIMTIX
 70
     0
  9
$DIMSOXD
 70
     0
  9
$DIMSAH
 70
     0
  9
$DIMBLK1
  1

  9
$DIMBLK2
  1

  9
$DIMSTYLE
  2
ISO-25
  9
$DIMCLRD
 70
     0
  9
$DIMCLRE
 70
     0
  9
$DIMCLRT
 70
     0
  9
$DIMTFAC
 40
1.0
  9
$DIMGAP
 40
1.524
  9
$DIMJUST
 70
     0
  9
$DIMSD1
 70
     0
  9
$DIMSD2
 70
     0
  9
$DIMTOLJ
 70
     0
  9
$DIMTZIN
 70
     0
  9
$DIMALTZ
 70
     0
  9
$DIMALTTZ
 70
     0
  9
$DIMUPT
 70
     0
  9
$DIMDEC
 70
     2
  9
$DIMTDEC
 70
     2
  9
$DIMALTU
 70
     2
  9
$DIMALTTD
 70
     3
  9
$DIMTXSTY
  7
Standard
  9
$DIMAUNIT
 70
     0
  9
$DIMADEC
 70
     2
  9
$DIMALTRND
 40
0.0
  9
$DIMAZIN
 70
     0
  9
$DIMDSEP
 70
    44
  9
$DIMATFIT
 70
     3
  9
$DIMFRAC
 70
     0
  9
$DIMLDRBLK
  1

  9
$DIMLUNIT
 70
     2
  9
$DIMLWD
 70
    -2
  9
$DIMLWE
 70
    -2
  9
$DIMTMOVE
 70
     0
  9
$LUNITS
 70
     2
  9
$LUPREC
 70
     2
  9
$SKETCHINC
 40
1.0
  9
$FILLETRAD
 40
10.0
  9
$AUNITS
 70
     0
  9
$AUPREC
 70
     2
  9
$MENU
  1
.
  9
$ELEVATION
 40
0.0
  9
$PELEVATION
 40
0.0
  9
$THICKNESS
 40
0.0
  9
$LIMCHECK
 70
     0
  9
$CHAMFERA
 40
10.0
  9
$CHAMFERB
 40
10.0
  9
$CHAMFERC
 40
20.0
  9
$CHAMFERD
 40
0.0
  9
$SKPOLY
 70
     0
  9
$TDCREATE
 40
2456909.858735857
  9
$TDUCREATE
 40
2456909.483735857
  9
$TDUPDATE
 40
2456909.858737662
  9
$TDUUPDATE
 40
2456909.483737662
  9
$TDINDWG
 40
0.0000000116
  9
$TDUSRTIMER
 40
0.0000000116
  9
$USRTIMER
 70
     1
  9
$ANGBASE
 50
0.0
  9
$ANGDIR
 70
     0
  9
$PDMODE
 70
     0
  9
$PDSIZE
 40
-1.0
  9
$PLINEWID
 40
0.0
  9
$SPLFRAME
 70
     0
  9
$SPLINETYPE
 70
     6
  9
$SPLINESEGS
 70
     8
  9
$HANDSEED
  5
23F
  9
$SURFTAB1
 70
     6
  9
$SURFTAB2
 70
     6
  9
$SURFTYPE
 70
     6
  9
$SURFU
 70
     6
  9
$SURFV
 70
     6
  9
$UCSBASE
  2

  9
$UCSNAME
  2

  9
$UCSORG
 10
0.0
 20
0.0
 30
0.0
  9
$UCSXDIR
 10
1.0
 20
0.0
 30
0.0
  9
$UCSYDIR
 10
0.0
 20
1.0
 30
0.0
  9
$UCSORTHOREF
  2

  9
$UCSORTHOVIEW
 70
     0
  9
$UCSORGTOP
 10
0.0
 20
0.0
 30
0.0
  9
$UCSORGBOTTOM
 10
0.0
 20
0.0
 30
0.0
  9
$UCSORGLEFT
 10
0.0
 20
0.0
 30
0.0
  9
$UCSORGRIGHT
 10
0.0
 20
0.0
 30
0.0
  9
$UCSORGFRONT
 10
0.0
 20
0.0
 30
0.0
  9
$UCSORGBACK
 10
0.0
 20
0.0
 30
0.0
  9
$PUCSBASE
  2

  9
$PUCSNAME
  2

  9
$PUCSORG
 10
0.0
 20
0.0
 30
0.0
  9
$PUCSXDIR
 10
1.0
 20
0.0
 30
0.0
  9
$PUCSYDIR
 10
0.0
 20
1.0
 30
0.0
  9
$PUCSORTHOREF
  2

  9
$PUCSORTHOVIEW
 70
     0
  9
$PUCSORGTOP
 10
0.0
 20
0.0
 30
0.0
  9
$PUCSORGBOTTOM
 10
0.0
 20
0.0
 30
0.0
  9
$PUCSORGLEFT
 10
0.0
 20
0.0
 30
0.0
  9
$PUCSORGRIGHT
 10
0.0
 20
0.0
 30
0.0
  9
$PUCSORGFRONT
 10
0.0
 20
0.0
 30
0.0
  9
$PUCSORGBACK
 10
0.0
 20
0.0
 30
0.0
  9
$USERI1
 70
     0
  9
$USERI2
 70
     0
  9
$USERI3
 70
     0
  9
$USERI4
 70
     0
  9
$USERI5
 70
     0
  9
$USERR1
 40
0.0
  9
$USERR2
 40
0.0
  9
$USERR3
 40
0.0
  9
$USERR4
 40
0.0
  9
$USERR5
 40
0.0
  9
$WORLDVIEW
 70
     1
  9
$SHADEDGE
 70
     3
  9
$SHADEDIF
 70
    70
  9
$TILEMODE
 70
     1
  9
$MAXACTVP
 70
    64
  9
$PINSBASE
 10
0.0
 20
0.0
 30
0.0
  9
$PLIMCHECK
 70
     0
  9
$PEXTMIN
 10
1.0000000000E+20
 20
1.0000000000E+20
 30
1.0000000000E+20
  9
$PEXTMAX
 10
-1.0000000000E+20
 20
-1.0000000000E+20
 30
-1.0000000000E+20
  9
$PLIMMIN
 10
0.0
 20
0.0
  9
$PLIMMAX
 10
420.0
 20
297.0
  9
$UNITMODE
 70
     0
  9
$VISRETAIN
 70
     1
  9
$PLINEGEN
 70
     0
  9
$PSLTSCALE
 70
     1
  9
$TREEDEPTH
 70
  3020
  9
$CMLSTYLE
  2
Standard
  9
$CMLJUST
 70
     0
  9
$CMLSCALE
 40
20.0
  9
$PROXYGRAPHICS
 70
     1
  9
$MEASUREMENT
 70
     1
  9
$CELWEIGHT
370
    -1
  9
$ENDCAPS
280
     0
  9
$JOINSTYLE
280
     0
  9
$LWDISPLAY
290
     1
  9
$INSUNITS
 70
     4
  9
$HYPERLINKBASE
  1

  9
$STYLESHEET
  1

  9
$XEDIT
290
     1
  9
$CEPSNTYPE
380
     0
  9
$PSTYLEMODE
290
     1
  9
$FINGERPRINTGUID
  2
{1B276A5B-C292-453A-B26D-A19DB5BA8BDB}
  9
$VERSIONGUID
  2
{FAEB1C32-E019-11D5-929B-00C0DF256EC4}
  9
$EXTNAMES
290
     1
  9
$PSVPSCALE
 40
0.0
  9
$OLESTARTUP
290
     0
  0
ENDSEC
  0
SECTION
  2
CLASSES
  0
CLASS
  1
ACDBDICTIONARYWDFLT
  2
AcDbDictionaryWithDefault
  3
ObjectDBX Classes
 90
        0
280
     0
281
     0
  0
CLASS
  1
VISUALSTYLE
  2
AcDbVisualStyle
  3
ObjectDBX Classes
 90
     4095
280
     0
281
     0
  0
CLASS
  1
MATERIAL
  2
AcDbMaterial
  3
ObjectDBX Classes
 90
     1153
280
     0
281
     0
  0
CLASS
  1
ACDBPLACEHOLDER
  2
AcDbPlaceHolder
  3
ObjectDBX Classes
 90
        0
280
     0
281
     0
  0
CLASS
  1
LAYOUT
  2
AcDbLayout
  3
ObjectDBX Classes
 90
        0
280
     0
281
     0
  0
ENDSEC
  0
SECTION
  2
TABLES
  0
TABLE
  2
VPORT
  5
8
330
0
100
AcDbSymbolTable
 70
     1
  0
VPORT
  5
29
330
8
100
AcDbSymbolTableRecord
100
AcDbViewportTableRecord
  2
*Active
 70
     0
 10
0.0
 20
0.0
 11
1.0
 21
1.0
 12
105.0
 22
148.5
 13
0.0
 23
0.0
 14
10.0
 24
10.0
 15
10.0
 25
10.0
 16
0.0
 26
0.0
 36
1.0
 17
0.0
 27
0.0
 37
0.0
 40
297.0
 41
0.7070707071
 42
50.0
 43
0.0
 44
0.0
 50
0.0
 51
0.0
 71
     0
 72
  2000
 73
     1
 74
     3
 75
     0
 76
     0
 77
     0
 78
     0
281
     0
 65
     1
110
0.0
120
0.0
130
0.0
111
1.0
121
0.0
131
0.0
112
0.0
122
1.0
132
0.0
 79
     0
146
0.0
  0
ENDTAB
  0
TABLE
  2
LTYPE
  5
5
330
0
100
AcDbSymbolTable
 70
     6
  0
LTYPE
  5
14
330
5
100
AcDbSymbolTableRecord
100
AcDbLinetypeTableRecord
  2
ByBlock
 70
     0
  3

 72
    65
 73
     0
 40
0.0
  0
LTYPE
  5
15
330
5
100
AcDbSymbolTableRecord
100
AcDbLinetypeTableRecord
  2
ByLayer
 70
     0
  3

 72
    65
 73
     0
 40
0.0
  0
LTYPE
  5
16
330
5
100
AcDbSymbolTableRecord
100
AcDbLinetypeTableRecord
  2
Continuous
 70
     0
  3
Solid line
 72
    65
 73
     0
 40
0.0
  0
LTYPE
  5
3F
330
5
100
AcDbSymbolTableRecord
100
AcDbLinetypeTableRecord
  2
HIDDEN
 70
     0
  3
Hidden __ __ __ __ __ __ __ __ __ __ __ __ __ __
 72
    65
 73
     2
 40
1.905
 49
1.27
 74
     0
 49
-0.635
 74
     0
  0
LTYPE
  5
40
330
5
100
AcDbSymbolTableRecord
100
AcDbLinetypeTableRecord
  2
PHANTOM
 70
     0
  3
Phantom ______  __  __  ______  __  __  ______
 72
    65
 73
     6
 40
12.7
 49
6.35
 74
     0
 49
-1.27
 74
     0
 49
1.27
 74
     0
 49
-1.27
 74
     0
 49
1.27
 74
     0
 49
-1.27
 74
     0
  0
LTYPE
  5
41
330
5
100
AcDbSymbolTableRecord
100
AcDbLinetypeTableRecord
  2
CENTER
 70
     0
  3
Center ____ _ ____ _ ____ _ ____ _ ____ _ ____
 72
    65
 73
     4
 40
10.16
 49
6.35
 74
     0
 49
-1.27
 74
     0
 49
1.27
 74
     0
 49
-1.27
 74
     0
  0
LTYPE
  5
42
330
5
100
AcDbSymbolTableRecord
100
AcDbLinetypeTableRecord
  2
CENTERX2
 70
     0
  3
Center (2x) ________  __  ________  __  _____
 72
    65
 73
     4
 40
20.32
 49
12.7
 74
     0
 49
-2.54
 74
     0
 49
2.54
 74
     0
 49
-2.54
 74
     0
  0
LTYPE
  5
43
330
5
100
AcDbSymbolTableRecord
100
AcDbLinetypeTableRecord
  2
DOT2
 70
     0
  3
Dot (.5x) ........................................
 72
    65
 73
     2
 40
0.635
 49
0.0
 74
     0
 49
-0.635
 74
     0
  0
ENDTAB
  0
TABLE
  2
LAYER
  5
2
330
0
100
AcDbSymbolTable
 70
     1
  0
LAYER
  5
10
330
2
100
AcDbSymbolTableRecord
100
AcDbLayerTableRecord
  2
0
 70
     0
 62
     7
  6
Continuous
370
    -3
390
F
  0
ENDTAB
  0
TABLE
  2
STYLE
  5
3
330
0
100
AcDbSymbolTable
 70
     3
  0
STYLE
  5
11
330
3
100
AcDbSymbolTableRecord
100
AcDbTextStyleTableRecord
  2
Standard
 70
     0
 40
0.0
 41
1.0
 50
0.0
 71
     0
 42
3.5
  3
txt
  4
bigfont
  0
STYLE
  5
4C
330
3
100
AcDbSymbolTableRecord
100
AcDbTextStyleTableRecord
  2
SLDTEXTSTYLE0
 70
     0
 40
0.0
 41
0.7
 50
0.0
 71
     0
 42
0.2
  3
TXT
  4
bigfont
  0
STYLE
  5
A8
330
3
100
AcDbSymbolTableRecord
100
AcDbTextStyleTableRecord
  2
SLDTEXTSTYLE1
 70
     0
 40
0.0
 41
0.75
 50
0.0
 71
     0
 42
0.2
  3
TXT
  4
bigfont
  0
ENDTAB
  0
TABLE
  2
VIEW
  5
6
330
0
100
AcDbSymbolTable
 70
     0
  0
ENDTAB
  0
TABLE
  2
UCS
  5
7
330
0
100
AcDbSymbolTable
 70
     0
  0
ENDTAB
  0
TABLE
  2
APPID
  5
9
330
0
100
AcDbSymbolTable
 70
     1
  0
APPID
  5
12
330
9
100
AcDbSymbolTableRecord
100
AcDbRegAppTableRecord
  2
ACAD
 70
     0
  0
ENDTAB
  0
TABLE
  2
DIMSTYLE
  5
A
330
0
100
AcDbSymbolTable
 70
     4
100
AcDbDimStyleTable
  0
DIMSTYLE
105
27
330
A
100
AcDbSymbolTableRecord
100
AcDbDimStyleTableRecord
  2
ISO-25
 70
     0
 41
2.5
 42
0.625
 43
3.75
 44
1.25
 73
     0
 74
     0
 77
     1
 78
     8
140
2.5
141
2.5
143
0.0393700787
147
0.625
171
     3
172
     1
178
     0
271
     2
272
     2
274
     3
278
    44
283
     0
284
     8
340
11
  0
DIMSTYLE
105
AA
330
A
100
AcDbSymbolTableRecord
100
AcDbDimStyleTableRecord
  2
SLDDIMSTYLE0
 70
     0
 41
2.0
 44
0.0
 45
0.000000001
140
0.0
146
2.0
147
0.0
173
     1
178
     0
271
     0
272
     0
276
     2
340
11
  0
DIMSTYLE
105
1C5
102
{ACAD_REACTORS
330
1C4
330
1D2
330
1F4
330
200
330
22A
102
}
330
A
100
AcDbSymbolTableRecord
100
AcDbDimStyleTableRecord
  2
SLDDIMSTYLE1
 70
     0
 41
2.0
 44
0.0
 45
0.000000001
 73
     0
 74
     0
 77
     3
 78
    12
 79
     3
140
3.5
147
0.875
172
     1
173
     1
178
     0
271
     1
272
     1
276
     2
284
    12
289
     0
340
A8
  0
DIMSTYLE
105
1DF
102
{ACAD_REACTORS
330
1DE
330
1EA
330
20C
330
216
330
220
102
}
330
A
100
AcDbSymbolTableRecord
100
AcDbDimStyleTableRecord
  2
SLDDIMSTYLE2
 70
     0
 41
2.0
 44
0.0
 45
0.000000001
 73
     0
 74
     0
 77
     3
 78
    12
 79
     3
140
3.5
147
0.875
173
     1
178
     0
271
     1
272
     1
276
     2
284
    12
340
A8
  0
ENDTAB
  0
TABLE
  2
BLOCK_RECORD
  5
1
330
0
100
AcDbSymbolTable
 70
    12
  0
BLOCK_RECORD
  5
1F
330
1
100
AcDbSymbolTableRecord
100
AcDbBlockTableRecord
  2
*Model_Space
340
22
  0
BLOCK_RECORD
  5
1B
330
1
100
AcDbSymbolTableRecord
100
AcDbBlockTableRecord
  2
*Paper_Space
340
1E
  0
BLOCK_RECORD
  5
23
330
1
100
AcDbSymbolTableRecord
100
AcDbBlockTableRecord
  2
*Paper_Space0
340
26
  0
BLOCK_RECORD
  5
AC
330
1
100
AcDbSymbolTableRecord
100
AcDbBlockTableRecord
  2
SW_CENTERMARKSYMBOL_0
340
0
102
{BLKREFS
331
B7
102
}
  0
BLOCK_RECORD
  5
1C6
330
1
100
AcDbSymbolTableRecord
100
AcDbBlockTableRecord
  2
_D
340
0
  0
BLOCK_RECORD
  5
1D3
330
1
100
AcDbSymbolTableRecord
100
AcDbBlockTableRecord
  2
_D_1
340
0
  0
BLOCK_RECORD
  5
1E0
330
1
100
AcDbSymbolTableRecord
100
AcDbBlockTableRecord
  2
_D_2
340
0
  0
BLOCK_RECORD
  5
1EB
330
1
100
AcDbSymbolTableRecord
100
AcDbBlockTableRecord
  2
_D_3
340
0
  0
BLOCK_RECORD
  5
1F5
330
1
100
AcDbSymbolTableRecord
100
AcDbBlockTableRecord
  2
_D_4
340
0
  0
BLOCK_RECORD
  5
201
330
1
100
AcDbSymbolTableRecord
100
AcDbBlockTableRecord
  2
_D_5
340
0
  0
BLOCK_RECORD
  5
20D
330
1
100
AcDbSymbolTableRecord
100
AcDbBlockTableRecord
  2
_D_6
340
0
  0
BLOCK_RECORD
  5
217
330
1
100
AcDbSymbolTableRecord
100
AcDbBlockTableRecord
  2
_D_7
340
0
  0
BLOCK_RECORD
  5
221
330
1
100
AcDbSymbolTableRecord
100
AcDbBlockTableRecord
  2
_D_8
340
0
  0
BLOCK_RECORD
  5
22B
330
1
100
AcDbSymbolTableRecord
100
AcDbBlockTableRecord
  2
_D_9
340
0
  0
ENDTAB
  0
ENDSEC
  0
SECTION
  2
BLOCKS
  0
BLOCK
  5
20
330
1F
100
AcDbEntity
  8
0
100
AcDbBlockBegin
  2
*Model_Space
 70
     0
 10
0.0
 20
0.0
 30
0.0
  3
*Model_Space
  1

  0
ENDBLK
  5
21
330
1F
100
AcDbEntity
  8
0
100
AcDbBlockEnd
  0
BLOCK
  5
1C
330
1B
100
AcDbEntity
 67
     1
  8
0
100
AcDbBlockBegin
  2
*Paper_Space
 70
     0
 10
0.0
 20
0.0
 30
0.0
  3
*Paper_Space
  1

  0
ENDBLK
  5
1D
330
1B
100
AcDbEntity
 67
     1
  8
0
100
AcDbBlockEnd
  0
BLOCK
  5
24
330
23
100
AcDbEntity
  8
0
100
AcDbBlockBegin
  2
*Paper_Space0
 70
     0
 10
0.0
 20
0.0
 30
0.0
  3
*Paper_Space0
  1

  0
ENDBLK
  5
25
330
23
100
AcDbEntity
  8
0
100
AcDbBlockEnd
  0
BLOCK
  5
AD
330
AC
100
AcDbEntity
  8
0
100
AcDbBlockBegin
  2
SW_CENTERMARKSYMBOL_0
 70
     0
 10
0.0
 20
0.0
 30
0.0
  3
SW_CENTERMARKSYMBOL_0
  1

  0
LINE
  5
AF
330
AC
100
AcDbEntity
  8
0
  6
Continuous
 62
     0
370
     0
100
AcDbLine
 10
0.0
 20
0.0
 30
0.0
 11
0.0
 21
2.5
 31
0.0
  0
LINE
  5
B0
330
AC
100
AcDbEntity
  8
0
  6
Continuous
 62
     0
370
     0
100
AcDbLine
 10
0.0
 20
0.0
 30
0.0
 11
-2.5
 21
0.0
 31
0.0
  0
LINE
  5
B1
330
AC
100
AcDbEntity
  8
0
  6
Continuous
 62
     0
370
     0
100
AcDbLine
 10
0.0
 20
0.0
 30
0.0
 11
0.0
 21
-2.5
 31
0.0
  0
LINE
  5
B2
330
AC
100
AcDbEntity
  8
0
  6
Continuous
 62
     0
370
     0
100
AcDbLine
 10
0.0
 20
0.0
 30
0.0
 11
2.5
 21
0.0
 31
0.0
  0
LINE
  5
B3
330
AC
100
AcDbEntity
  8
0
  6
Continuous
 62
     0
370
     0
100
AcDbLine
 10
0.0
 20
5.0
 30
0.0
 11
0.0
 21
6.0
 31
0.0
  0
LINE
  5
B4
330
AC
100
AcDbEntity
  8
0
  6
Continuous
 62
     0
370
     0
100
AcDbLine
 10
-5.0
 20
0.0
 30
0.0
 11
-6.0
 21
0.0
 31
0.0
  0
LINE
  5
B5
330
AC
100
AcDbEntity
  8
0
  6
Continuous
 62
     0
370
     0
100
AcDbLine
 10
0.0
 20
-5.0
 30
0.0
 11
0.0
 21
-6.0
 31
0.0
  0
LINE
  5
B6
330
AC
100
AcDbEntity
  8
0
  6
Continuous
 62
     0
370
     0
100
AcDbLine
 10
5.0
 20
0.0
 30
0.0
 11
6.0
 21
0.0
 31
0.0
  0
ENDBLK
  5
AE
330
AC
100
AcDbEntity
  8
0
100
AcDbBlockEnd
  0
BLOCK
  5
1C7
330
1C6
100
AcDbEntity
  8
0
100
AcDbBlockBegin
  2
_D
 70
     0
 10
0.0
 20
0.0
 30
0.0
  3
_D
  1

  0
SOLID
  5
1C9
330
1C6
100
AcDbEntity
  8
0
  6
Continuous
 62
     7
370
     0
100
AcDbTrace
 10
92.0532121469
 20
172.2370870716
 30
0.0
 11
92.8032121469
 21
174.2370870716
 31
0.0
 12
91.3032121469
 22
174.2370870716
 32
0.0
 13
91.3032121469
 23
174.2370870716
 33
0.0
  0
SOLID
  5
1CA
330
1C6
100
AcDbEntity
  8
0
  6
Continuous
 62
     7
370
     0
100
AcDbTrace
 10
92.0532121469
 20
165.2370870716
 30
0.0
 11
91.3032121469
 21
163.2370870716
 31
0.0
 12
92.8032121469
 22
163.2370870716
 32
0.0
 13
92.8032121469
 23
163.2370870716
 33
0.0
  0
LINE
  5
1CB
330
1C6
100
AcDbEntity
  8
0
  6
Continuous
 62
     7
370
     0
100
AcDbLine
 10
101.0532121469
 20
172.2370870716
 30
0.0
 11
91.0532121469
 21
172.2370870716
 31
0.0
  0
LINE
  5
1CC
330
1C6
100
AcDbEntity
  8
0
  6
Continuous
 62
     7
370
     0
100
AcDbLine
 10
101.0532121469
 20
165.2370870716
 30
0.0
 11
91.0532121469
 21
165.2370870716
 31
0.0
  0
LINE
  5
1CD
330
1C6
100
AcDbEntity
  8
0
  6
Continuous
 62
     7
370
     0
100
AcDbLine
 10
92.0532121469
 20
172.2370870716
 30
0.0
 11
92.0532121469
 21
177.2370870716
 31
0.0
  0
LINE
  5
1CE
330
1C6
100
AcDbEntity
  8
0
  6
Continuous
 62
     7
370
     0
100
AcDbLine
 10
92.0532121469
 20
172.2370870716
 30
0.0
 11
92.0532121469
 21
165.2370870716
 31
0.0
  0
LINE
  5
1CF
330
1C6
100
AcDbEntity
  8
0
  6
Continuous
 62
     7
370
     0
100
AcDbLine
 10
92.0532121469
 20
165.2370870716
 30
0.0
 11
92.0532121469
 21
160.2370870716
 31
0.0
  0
MTEXT
  5
1D0
330
1C6
100
AcDbEntity
  8
0
  6
Continuous
 62
     7
370
     0
100
AcDbMText
 10
87.5414750577
 20
164.8048126593
 30
0.1
 40
3.5
 41
0.0
 71
     1
 72
     1
  1
%%c
  7
SLDTEXTSTYLE1
 11
-7.044195017643634E-15
 21
1.0
 31
0.0
 73
     1
 44
1.0
  0
MTEXT
  5
1D1
330
1C6
100
AcDbEntity
  8
0
  6
Continuous
 62
     7
370
     0
100
AcDbMText
 10
87.488002881
 20
170.0832500577
 30
0.1
 40
3.5
 41
0.0
 71
     1
 72
     1
  1
7
  7
SLDTEXTSTYLE1
 11
-7.044195017643634E-15
 21
1.0
 31
0.0
 73
     1
 44
1.0
  0
ENDBLK
  5
1C8
330
1C6
100
AcDbEntity
  8
0
100
AcDbBlockEnd
  0
BLOCK
  5
1D4
330
1D3
100
AcDbEntity
  8
0
100
AcDbBlockBegin
  2
_D_1
 70
     0
 10
0.0
 20
0.0
 30
0.0
  3
_D_1
  1

  0
SOLID
  5
1D6
330
1D3
100
AcDbEntity
  8
0
  6
Continuous
 62
     7
370
     0
100
AcDbTrace
 10
102.0532121469
 20
188.7154144298
 30
0.0
 11
100.0532121469
 21
189.4654144298
 31
0.0
 12
100.0532121469
 22
187.9654144298
 32
0.0
 13
100.0532121469
 23
187.9654144298
 33
0.0
  0
SOLID
  5
1D7
330
1D3
100
AcDbEntity
  8
0
  6
Continuous
 62
     7
370
     0
100
AcDbTrace
 10
107.5532121469
 20
188.7154144298
 30
0.0
 11
109.5532121469
 21
187.9654144298
 31
0.0
 12
109.5532121469
 22
189.4654144298
 32
0.0
 13
109.5532121469
 23
189.4654144298
 33
0.0
  0
LINE
  5
1D8
330
1D3
100
AcDbEntity
  8
0
  6
Continuous
 62
     7
370
     0
100
AcDbLine
 10
102.0532121469
 20
173.2370870716
 30
0.0
 11
102.0532121469
 21
189.7154144298
 31
0.0
  0
LINE
  5
1D9
330
1D3
100
AcDbEntity
  8
0
  6
Continuous
 62
     7
370
     0
100
AcDbLine
 10
107.5532121469
 20
175.7370870716
 30
0.0
 11
107.5532121469
 21
189.7154144298
 31
0.0
  0
LINE
  5
1DA
330
1D3
100
AcDbEntity
  8
0
  6
Continuous
 62
     7
370
     0
100
AcDbLine
 10
102.0532121469
 20
188.7154144298
 30
0.0
 11
97.0532121469
 21
188.7154144298
 31
0.0
  0
LINE
  5
1DB
330
1D3
100
AcDbEntity
  8
0
  6
Continuous
 62
     7
370
     0
100
AcDbLine
 10
102.0532121469
 20
188.7154144298
 30
0.0
 11
107.5532121469
 21
188.7154144298
 31
0.0
  0
LINE
  5
1DC
330
1D3
100
AcDbEntity
  8
0
  6
Continuous
 62
     7
370
     0
100
AcDbLine
 10
107.5532121469
 20
188.7154144298
 30
0.0
 11
120.089893408
 21
188.7154144298
 31
0.0
  0
MTEXT
  5
1DD
330
1D3
100
AcDbEntity
  8
0
  6
Continuous
 62
     7
370
     0
100
AcDbMText
 10
113.6246157734
 20
193.2271513444
 30
0.1
 40
3.5
 41
0.0
 71
     1
 72
     1
  1
5.5
  7
SLDTEXTSTYLE1
 73
     1
 44
1.0
  0
ENDBLK
  5
1D5
330
1D3
100
AcDbEntity
  8
0
100
AcDbBlockEnd
  0
BLOCK
  5
1E1
330
1E0
100
AcDbEntity
  8
0
100
AcDbBlockBegin
  2
_D_2
 70
     0
 10
0.0
 20
0.0
 30
0.0
  3
_D_2
  1

  0
SOLID
  5
1E3
330
1E0
100
AcDbEntity
  8
0
  6
Continuous
 62
     7
370
     0
100
AcDbTrace
 10
119.5532121469
 20
143.1555003628
 30
0.0
 11
121.5532121469
 21
142.4055003628
 31
0.0
 12
121.5532121469
 22
143.9055003628
 32
0.0
 13
121.5532121469
 23
143.9055003628
 33
0.0
  0
SOLID
  5
1E4
330
1E0
100
AcDbEntity
  8
0
  6
Continuous
 62
     7
370
     0
100
AcDbTrace
 10
139.5532121469
 20
143.1555003628
 30
0.0
 11
137.5532121469
 21
143.9055003628
 31
0.0
 12
137.5532121469
 22
142.4055003628
 32
0.0
 13
137.5532121469
 23
142.4055003628
 33
0.0
  0
LINE
  5
1E5
330
1E0
100
AcDbEntity
  8
0
  6
Continuous
 62
     7
370
     0
100
AcDbLine
 10
119.5532121469
 20
163.9870870716
 30
0.0
 11
119.5532121469
 21
142.1555003628
 31
0.0
  0
LINE
  5
1E6
330
1E0
100
AcDbEntity
  8
0
  6
Continuous
 62
     7
370
     0
100
AcDbLine
 10
139.5532121469
 20
164.4870870716
 30
0.0
 11
139.5532121469
 21
142.1555003628
 31
0.0
  0
LINE
  5
1E7
330
1E0
100
AcDbEntity
  8
0
  6
Continuous
 62
     7
370
     0
100
AcDbLine
 10
119.5532121469
 20
143.1555003628
 30
0.0
 11
139.5532121469
 21
143.1555003628
 31
0.0
  0
MTEXT
  5
1E8
330
1E0
100
AcDbEntity
  8
0
  6
Continuous
 62
     7
370
     0
100
AcDbMText
 10
125.2705732506
 20
147.6672372774
 30
0.1
 40
3.5
 41
0.0
 71
     1
 72
     1
  1
20
  7
SLDTEXTSTYLE1
 73
     1
 44
1.0
  0
MTEXT
  5
1E9
330
1E0
100
AcDbEntity
  8
0
  6
Continuous
 62
     7
370
     0
100
AcDbMText
 10
130.4427956376
 20
147.6672372774
 30
0.1
 40
3.5
 41
0.0
 71
     1
 72
     1
  1
st
  7
SLDTEXTSTYLE1
 73
     1
 44
1.0
  0
ENDBLK
  5
1E2
330
1E0
100
AcDbEntity
  8
0
100
AcDbBlockEnd
  0
BLOCK
  5
1EC
330
1EB
100
AcDbEntity
  8
0
100
AcDbBlockBegin
  2
_D_3
 70
     0
 10
0.0
 20
0.0
 30
0.0
  3
_D_3
  1

  0
SOLID
  5
1EE
330
1EB
100
AcDbEntity
  8
0
  6
Continuous
 62
     7
370
     0
100
AcDbTrace
 10
102.0532121469
 20
129.9370870716
 30
0.0
 11
104.0532121469
 21
129.1870870716
 31
0.0
 12
104.0532121469
 22
130.6870870716
 32
0.0
 13
104.0532121469
 23
130.6870870716
 33
0.0
  0
SOLID
  5
1EF
330
1EB
100
AcDbEntity
  8
0
  6
Continuous
 62
     7
370
     0
100
AcDbTrace
 10
158.5532121469
 20
129.9370870716
 30
0.0
 11
156.5532121469
 21
130.6870870716
 31
0.0
 12
156.5532121469
 22
129.1870870716
 32
0.0
 13
156.5532121469
 23
129.1870870716
 33
0.0
  0
LINE
  5
1F0
330
1EB
100
AcDbEntity
  8
0
  6
Continuous
 62
     7
370
     0
100
AcDbLine
 10
102.0532121469
 20
164.2370870716
 30
0.0
 11
102.0532121469
 21
128.9370870716
 31
0.0
  0
LINE
  5
1F1
330
1EB
100
AcDbEntity
  8
0
  6
Continuous
 62
     7
370
     0
100
AcDbLine
 10
158.5532121469
 20
165.7370870716
 30
0.0
 11
158.5532121469
 21
128.9370870716
 31
0.0
  0
LINE
  5
1F2
330
1EB
100
AcDbEntity
  8
0
  6
Continuous
 62
     7
370
     0
100
AcDbLine
 10
102.0532121469
 20
129.9370870716
 30
0.0
 11
158.5532121469
 21
129.9370870716
 31
0.0
  0
MTEXT
  5
1F3
330
1EB
100
AcDbEntity
  8
0
  6
Continuous
 62
     7
370
     0
100
AcDbMText
 10
125.7775176164
 20
134.4488239862
 30
0.1
 40
3.5
 41
0.0
 71
     1
 72
     1
  1
56.5
  7
SLDTEXTSTYLE1
 73
     1
 44
1.0
  0
ENDBLK
  5
1ED
330
1EB
100
AcDbEntity
  8
0
100
AcDbBlockEnd
  0
BLOCK
  5
1F6
330
1F5
100
AcDbEntity
  8
0
100
AcDbBlockBegin
  2
_D_4
 70
     0
 10
0.0
 20
0.0
 30
0.0
  3
_D_4
  1

  0
SOLID
  5
1F8
330
1F5
100
AcDbEntity
  8
0
  6
Continuous
 62
     7
370
     0
100
AcDbTrace
 10
141.5532121469
 20
150.9767413144
 30
0.0
 11
139.5532121469
 21
151.7267413144
 31
0.0
 12
139.5532121469
 22
150.2267413144
 32
0.0
 13
139.5532121469
 23
150.2267413144
 33
0.0
  0
SOLID
  5
1F9
330
1F5
100
AcDbEntity
  8
0
  6
Continuous
 62
     7
370
     0
100
AcDbTrace
 10
144.5532121469
 20
150.9767413144
 30
0.0
 11
146.5532121469
 21
150.2267413144
 31
0.0
 12
146.5532121469
 22
151.7267413144
 32
0.0
 13
146.5532121469
 23
151.7267413144
 33
0.0
  0
LINE
  5
1FA
330
1F5
100
AcDbEntity
  8
0
  6
Continuous
 62
     7
370
     0
100
AcDbLine
 10
141.5532121469
 20
160.2315335722
 30
0.0
 11
141.5532121469
 21
149.9767413144
 31
0.0
  0
LINE
  5
1FB
330
1F5
100
AcDbEntity
  8
0
  6
Continuous
 62
     7
370
     0
100
AcDbLine
 10
144.5532121469
 20
160.2315335722
 30
0.0
 11
144.5532121469
 21
149.9767413144
 31
0.0
  0
LINE
  5
1FC
330
1F5
100
AcDbEntity
  8
0
  6
Continuous
 62
     7
370
     0
100
AcDbLine
 10
141.5532121469
 20
150.9767413144
 30
0.0
 11
136.5532121469
 21
150.9767413144
 31
0.0
  0
LINE
  5
1FD
330
1F5
100
AcDbEntity
  8
0
  6
Continuous
 62
     7
370
     0
100
AcDbLine
 10
141.5532121469
 20
150.9767413144
 30
0.0
 11
144.5532121469
 21
150.9767413144
 31
0.0
  0
LINE
  5
1FE
330
1F5
100
AcDbEntity
  8
0
  6
Continuous
 62
     7
370
     0
100
AcDbLine
 10
144.5532121469
 20
150.9767413144
 30
0.0
 11
150.3305191175
 21
150.9767413144
 31
0.0
  0
MTEXT
  5
1FF
330
1F5
100
AcDbEntity
  8
0
  6
Continuous
 62
     7
370
     0
100
AcDbMText
 10
147.744407924
 20
155.488478229
 30
0.1
 40
3.5
 41
0.0
 71
     1
 72
     1
  1
3
  7
SLDTEXTSTYLE1
 73
     1
 44
1.0
  0
ENDBLK
  5
1F7
330
1F5
100
AcDbEntity
  8
0
100
AcDbBlockEnd
  0
BLOCK
  5
202
330
201
100
AcDbEntity
  8
0
100
AcDbBlockBegin
  2
_D_5
 70
     0
 10
0.0
 20
0.0
 30
0.0
  3
_D_5
  1

  0
SOLID
  5
204
330
201
100
AcDbEntity
  8
0
  6
Continuous
 62
     7
370
     0
100
AcDbTrace
 10
139.5532121469
 20
188.0370870716
 30
0.0
 11
137.5532121469
 21
188.7870870716
 31
0.0
 12
137.5532121469
 22
187.2870870716
 32
0.0
 13
137.5532121469
 23
187.2870870716
 33
0.0
  0
SOLID
  5
205
330
201
100
AcDbEntity
  8
0
  6
Continuous
 62
     7
370
     0
100
AcDbTrace
 10
144.5532121469
 20
188.0370870716
 30
0.0
 11
146.5532121469
 21
187.2870870716
 31
0.0
 12
146.5532121469
 22
188.7870870716
 32
0.0
 13
146.5532121469
 23
188.7870870716
 33
0.0
  0
LINE
  5
206
330
201
100
AcDbEntity
  8
0
  6
Continuous
 62
     7
370
     0
100
AcDbLine
 10
139.5532121469
 20
172.9870870716
 30
0.0
 11
139.5532121469
 21
189.0370870716
 31
0.0
  0
LINE
  5
207
330
201
100
AcDbEntity
  8
0
  6
Continuous
 62
     7
370
     0
100
AcDbLine
 10
144.5532121469
 20
177.2426405711
 30
0.0
 11
144.5532121469
 21
189.0370870716
 31
0.0
  0
LINE
  5
208
330
201
100
AcDbEntity
  8
0
  6
Continuous
 62
     7
370
     0
100
AcDbLine
 10
139.5532121469
 20
188.0370870716
 30
0.0
 11
134.5532121469
 21
188.0370870716
 31
0.0
  0
LINE
  5
209
330
201
100
AcDbEntity
  8
0
  6
Continuous
 62
     7
370
     0
100
AcDbLine
 10
139.5532121469
 20
188.0370870716
 30
0.0
 11
144.5532121469
 21
188.0370870716
 31
0.0
  0
LINE
  5
20A
330
201
100
AcDbEntity
  8
0
  6
Continuous
 62
     7
370
     0
100
AcDbLine
 10
144.5532121469
 20
188.0370870716
 30
0.0
 11
149.5532121469
 21
188.0370870716
 31
0.0
  0
MTEXT
  5
20B
330
201
100
AcDbEntity
  8
0
  6
Continuous
 62
     7
370
     0
100
AcDbMText
 10
140.7601565501
 20
192.5488239862
 30
0.1
 40
3.5
 41
0.0
 71
     1
 72
     1
  1
5
  7
SLDTEXTSTYLE1
 73
     1
 44
1.0
  0
ENDBLK
  5
203
330
201
100
AcDbEntity
  8
0
100
AcDbBlockEnd
  0
BLOCK
  5
20E
330
20D
100
AcDbEntity
  8
0
100
AcDbBlockBegin
  2
_D_6
 70
     0
 10
0.0
 20
0.0
 30
0.0
  3
_D_6
  1

  0
SOLID
  5
210
330
20D
100
AcDbEntity
  8
0
  6
Continuous
 62
     7
370
     0
100
AcDbTrace
 10
144.5532121469
 20
188.0370870716
 30
0.0
 11
146.5532121469
 21
187.2870870716
 31
0.0
 12
146.5532121469
 22
188.7870870716
 32
0.0
 13
146.5532121469
 23
188.7870870716
 33
0.0
  0
SOLID
  5
211
330
20D
100
AcDbEntity
  8
0
  6
Continuous
 62
     7
370
     0
100
AcDbTrace
 10
156.5532121469
 20
188.0370870716
 30
0.0
 11
154.5532121469
 21
188.7870870716
 31
0.0
 12
154.5532121469
 22
187.2870870716
 32
0.0
 13
154.5532121469
 23
187.2870870716
 33
0.0
  0
LINE
  5
212
330
20D
100
AcDbEntity
  8
0
  6
Continuous
 62
     7
370
     0
100
AcDbLine
 10
144.5532121469
 20
177.2426405711
 30
0.0
 11
144.5532121469
 21
189.0370870716
 31
0.0
  0
LINE
  5
213
330
20D
100
AcDbEntity
  8
0
  6
Continuous
 62
     7
370
     0
100
AcDbLine
 10
156.5532121469
 20
173.7370870716
 30
0.0
 11
156.5532121469
 21
189.0370870716
 31
0.0
  0
LINE
  5
214
330
20D
100
AcDbEntity
  8
0
  6
Continuous
 62
     7
370
     0
100
AcDbLine
 10
144.5532121469
 20
188.0370870716
 30
0.0
 11
156.5532121469
 21
188.0370870716
 31
0.0
  0
MTEXT
  5
215
330
20D
100
AcDbEntity
  8
0
  6
Continuous
 62
     7
370
     0
100
AcDbMText
 10
147.9671009533
 20
192.5488239862
 30
0.1
 40
3.5
 41
0.0
 71
     1
 72
     1
  1
12
  7
SLDTEXTSTYLE1
 73
     1
 44
1.0
  0
ENDBLK
  5
20F
330
20D
100
AcDbEntity
  8
0
100
AcDbBlockEnd
  0
BLOCK
  5
218
330
217
100
AcDbEntity
  8
0
100
AcDbBlockBegin
  2
_D_7
 70
     0
 10
0.0
 20
0.0
 30
0.0
  3
_D_7
  1

  0
SOLID
  5
21A
330
217
100
AcDbEntity
  8
0
  6
Continuous
 62
     7
370
     0
100
AcDbTrace
 10
144.5532121469
 20
200.0370870716
 30
0.0
 11
146.5532121469
 21
199.2870870716
 31
0.0
 12
146.5532121469
 22
200.7870870716
 32
0.0
 13
146.5532121469
 23
200.7870870716
 33
0.0
  0
SOLID
  5
21B
330
217
100
AcDbEntity
  8
0
  6
Continuous
 62
     7
370
     0
100
AcDbTrace
 10
158.5532121469
 20
200.0370870716
 30
0.0
 11
156.5532121469
 21
200.7870870716
 31
0.0
 12
156.5532121469
 22
199.2870870716
 32
0.0
 13
156.5532121469
 23
199.2870870716
 33
0.0
  0
LINE
  5
21C
330
217
100
AcDbEntity
  8
0
  6
Continuous
 62
     7
370
     0
100
AcDbLine
 10
144.5532121469
 20
177.2426405711
 30
0.0
 11
144.5532121469
 21
201.0370870716
 31
0.0
  0
LINE
  5
21D
330
217
100
AcDbEntity
  8
0
  6
Continuous
 62
     7
370
     0
100
AcDbLine
 10
158.5532121469
 20
171.7370870716
 30
0.0
 11
158.5532121469
 21
201.0370870716
 31
0.0
  0
LINE
  5
21E
330
217
100
AcDbEntity
  8
0
  6
Continuous
 62
     7
370
     0
100
AcDbLine
 10
144.5532121469
 20
200.0370870716
 30
0.0
 11
158.5532121469
 21
200.0370870716
 31
0.0
  0
MTEXT
  5
21F
330
217
100
AcDbEntity
  8
0
  6
Continuous
 62
     7
370
     0
100
AcDbMText
 10
148.9671009533
 20
204.5488239862
 30
0.1
 40
3.5
 41
0.0
 71
     1
 72
     1
  1
14
  7
SLDTEXTSTYLE1
 73
     1
 44
1.0
  0
ENDBLK
  5
219
330
217
100
AcDbEntity
  8
0
100
AcDbBlockEnd
  0
BLOCK
  5
222
330
221
100
AcDbEntity
  8
0
100
AcDbBlockBegin
  2
_D_8
 70
     0
 10
0.0
 20
0.0
 30
0.0
  3
_D_8
  1

  0
SOLID
  5
224
330
221
100
AcDbEntity
  8
0
  6
Continuous
 62
     7
370
     0
100
AcDbTrace
 10
180.3832116788
 20
176.8199908403
 30
0.0
 11
179.6332116788
 21
174.8199908403
 31
0.0
 12
181.1332116788
 22
174.8199908403
 32
0.0
 13
181.1332116788
 23
174.8199908403
 33
0.0
  0
SOLID
  5
225
330
221
100
AcDbEntity
  8
0
  6
Continuous
 62
     7
370
     0
100
AcDbTrace
 10
180.3832116788
 20
160.654183303
 30
0.0
 11
181.1332116788
 21
162.654183303
 31
0.0
 12
179.6332116788
 22
162.654183303
 32
0.0
 13
179.6332116788
 23
162.654183303
 33
0.0
  0
LINE
  5
226
330
221
100
AcDbEntity
  8
0
  6
Continuous
 62
     7
370
     0
100
AcDbLine
 10
154.6266320644
 20
176.8199908403
 30
0.0
 11
181.3832116788
 21
176.8199908403
 31
0.0
  0
LINE
  5
227
330
221
100
AcDbEntity
  8
0
  6
Continuous
 62
     7
370
     0
100
AcDbLine
 10
154.6266320644
 20
160.654183303
 30
0.0
 11
181.3832116788
 21
160.654183303
 31
0.0
  0
LINE
  5
228
330
221
100
AcDbEntity
  8
0
  6
Continuous
 62
     7
370
     0
100
AcDbLine
 10
180.3832116788
 20
176.8199908403
 30
0.0
 11
180.3832116788
 21
160.654183303
 31
0.0
  0
MTEXT
  5
229
330
221
100
AcDbEntity
  8
0
  6
Continuous
 62
     7
370
     0
100
AcDbMText
 10
175.8714747643
 20
164.2113925412
 30
0.1
 40
3.5
 41
0.0
 71
     1
 72
     1
  1
16.2
  7
SLDTEXTSTYLE1
 11
-7.044195017643634E-15
 21
1.0
 31
0.0
 73
     1
 44
1.0
  0
ENDBLK
  5
223
330
221
100
AcDbEntity
  8
0
100
AcDbBlockEnd
  0
BLOCK
  5
22C
330
22B
100
AcDbEntity
  8
0
100
AcDbBlockBegin
  2
_D_9
 70
     0
 10
0.0
 20
0.0
 30
0.0
  3
_D_9
  1

  0
SOLID
  5
22E
330
22B
100
AcDbEntity
  8
0
  6
Continuous
 62
     7
370
     0
100
AcDbTrace
 10
168.5532121469
 20
171.2370870716
 30
0.0
 11
169.3032121469
 21
173.2370870716
 31
0.0
 12
167.8032121469
 22
173.2370870716
 32
0.0
 13
167.8032121469
 23
173.2370870716
 33
0.0
  0
SOLID
  5
22F
330
22B
100
AcDbEntity
  8
0
  6
Continuous
 62
     7
370
     0
100
AcDbTrace
 10
168.5532121469
 20
166.2370870716
 30
0.0
 11
167.8032121469
 21
164.2370870716
 31
0.0
 12
169.3032121469
 22
164.2370870716
 32
0.0
 13
169.3032121469
 23
164.2370870716
 33
0.0
  0
LINE
  5
230
330
22B
100
AcDbEntity
  8
0
  6
Continuous
 62
     7
370
     0
100
AcDbLine
 10
159.0532121469
 20
171.2370870716
 30
0.0
 11
169.5532121469
 21
171.2370870716
 31
0.0
  0
LINE
  5
231
330
22B
100
AcDbEntity
  8
0
  6
Continuous
 62
     7
370
     0
100
AcDbLine
 10
159.0532121469
 20
166.2370870716
 30
0.0
 11
169.5532121469
 21
166.2370870716
 31
0.0
  0
LINE
  5
232
330
22B
100
AcDbEntity
  8
0
  6
Continuous
 62
     7
370
     0
100
AcDbLine
 10
168.5532121469
 20
171.2370870716
 30
0.0
 11
168.5532121469
 21
176.2370870716
 31
0.0
  0
LINE
  5
233
330
22B
100
AcDbEntity
  8
0
  6
Continuous
 62
     7
370
     0
100
AcDbLine
 10
168.5532121469
 20
171.2370870716
 30
0.0
 11
168.5532121469
 21
166.2370870716
 31
0.0
  0
LINE
  5
234
330
22B
100
AcDbEntity
  8
0
  6
Continuous
 62
     7
370
     0
100
AcDbLine
 10
168.5532121469
 20
166.2370870716
 30
0.0
 11
168.5532121469
 21
151.1897635094
 31
0.0
  0
MTEXT
  5
235
330
22B
100
AcDbEntity
  8
0
  6
Continuous
 62
     7
370
     0
100
AcDbMText
 10
164.0414750577
 20
151.1897635094
 30
0.1
 40
3.5
 41
0.0
 71
     1
 72
     1
  1
%%c
  7
SLDTEXTSTYLE1
 11
-7.044195017643634E-15
 21
1.0
 31
0.0
 73
     1
 44
1.0
  0
MTEXT
  5
236
330
22B
100
AcDbEntity
  8
0
  6
Continuous
 62
     7
370
     0
100
AcDbMText
 10
163.988002881
 20
156.4682009077
 30
0.1
 40
3.5
 41
0.0
 71
     1
 72
     1
  1
5
  7
SLDTEXTSTYLE1
 11
-7.044195017643634E-15
 21
1.0
 31
0.0
 73
     1
 44
1.0
  0
ENDBLK
  5
22D
330
22B
100
AcDbEntity
  8
0
100
AcDbBlockEnd
  0
ENDSEC
  0
SECTION
  2
ENTITIES
  0
LINE
  5
44
330
1F
100
AcDbEntity
  8
0
  6
Continuous
 62
     7
370
     0
100
AcDbLine
 10
20.2604743903
 20
285.0
 30
0.0
 11
196.7604743903
 21
285.0
 31
0.0
  0
LINE
  5
45
330
1F
100
AcDbEntity
  8
0
  6
Continuous
 62
     7
370
     0
100
AcDbLine
 10
20.2604743903
 20
285.0
 30
0.0
 11
20.2604743903
 21
10.0
 31
0.0
  0
LINE
  5
46
330
1F
100
AcDbEntity
  8
0
  6
Continuous
 62
     7
370
     0
100
AcDbLine
 10
20.2604743903
 20
10.0
 30
0.0
 11
196.7604743903
 21
10.0
 31
0.0
  0
LINE
  5
47
330
1F
100
AcDbEntity
  8
0
  6
Continuous
 62
     7
370
     0
100
AcDbLine
 10
196.7604743903
 20
285.0
 30
0.0
 11
196.7604743903
 21
10.0
 31
0.0
  0
LINE
  5
48
330
1F
100
AcDbEntity
  8
0
  6
Continuous
 62
     7
370
     0
100
AcDbLine
 10
127.0104743903
 20
50.75
 30
0.0
 11
196.7604743903
 21
50.75
 31
0.0
  0
LINE
  5
49
330
1F
100
AcDbEntity
  8
0
  6
Continuous
 62
     7
370
     0
100
AcDbLine
 10
127.0104743903
 20
50.75
 30
0.0
 11
127.0104743903
 21
10.0
 31
0.0
  0
LINE
  5
4A
330
1F
100
AcDbEntity
  8
0
  6
Continuous
 62
     7
370
     0
100
AcDbLine
 10
127.0104743903
 20
22.75
 30
0.0
 11
196.7604743903
 21
22.75
 31
0.0
  0
LINE
  5
4B
330
1F
100
AcDbEntity
  8
0
  6
Continuous
 62
     7
370
     0
100
AcDbLine
 10
127.0104743903
 20
36.75
 30
0.0
 11
196.7604743903
 21
36.75
 31
0.0
  0
MTEXT
  5
4D
330
1F
100
AcDbEntity
  8
0
  6
Continuous
 62
     7
370
     0
100
AcDbMText
 10
161.7193714727
 20
30.4171582345
 30
0.0
 40
4.2333333333
 41
0.0
 71
     2
 72
     1
  1
VFIL1-SS-20
  7
SLDTEXTSTYLE0
 73
     1
 44
1.0
  0
MTEXT
  5
4E
330
1F
100
AcDbEntity
  8
0
  6
Continuous
 62
     7
370
     0
100
AcDbMText
 10
161.3686533351
 20
43.9409718514
 30
0.0
 40
4.2333333333
 41
0.0
 71
     2
 72
     1
  1
吸着金具・ミニ用
  7
SLDTEXTSTYLE0
 73
     1
 44
1.0
  0
MTEXT
  5
4F
330
1F
100
AcDbEntity
  8
0
  6
Continuous
 62
     7
370
     0
100
AcDbMText
 10
162.6500706919
 20
16.8228189052
 30
0.0
 40
4.2333333333
 41
0.0
 71
     2
 72
     1
  1
211035
  7
SLDTEXTSTYLE0
 73
     1
 44
1.0
  0
LINE
  5
50
330
1F
100
AcDbEntity
  8
0
  6
Continuous
 62
     7
370
    15
100
AcDbLine
 10
53.2214959614
 20
156.9370870716
 30
0.0
 11
53.5714959614
 21
154.4370870716
 31
0.0
  0
LINE
  5
51
330
1F
100
AcDbEntity
  8
0
  6
Continuous
 62
     7
370
    15
100
AcDbLine
 10
57.5714959614
 20
154.4370870716
 30
0.0
 11
57.9214959614
 21
156.9370870716
 31
0.0
  0
LINE
  5
52
330
1F
100
AcDbEntity
  8
0
  6
Continuous
 62
     7
370
    15
100
AcDbLine
 10
53.2214959614
 20
154.4370870716
 30
0.0
 11
53.5714959614
 21
151.9370870716
 31
0.0
  0
LINE
  5
53
330
1F
100
AcDbEntity
  8
0
  6
Continuous
 62
     7
370
    15
100
AcDbLine
 10
57.5714959614
 20
151.9370870716
 30
0.0
 11
57.9214959614
 21
154.4370870716
 31
0.0
  0
LINE
  5
54
330
1F
100
AcDbEntity
  8
0
  6
Continuous
 62
     7
370
    15
100
AcDbLine
 10
57.6714959614
 20
156.9370870716
 30
0.0
 11
57.6714959614
 21
159.4370870716
 31
0.0
  0
LINE
  5
55
330
1F
100
AcDbEntity
  8
0
  6
Continuous
 62
     7
370
    15
100
AcDbLine
 10
53.4714959614
 20
159.4370870716
 30
0.0
 11
53.4714959614
 21
156.9370870716
 31
0.0
  0
LINE
  5
56
330
1F
100
AcDbEntity
  8
0
  6
Continuous
 62
     7
370
    15
100
AcDbLine
 10
51.5714959614
 20
175.5370870716
 30
0.0
 11
51.5714959614
 21
174.7370870716
 31
0.0
  0
LINE
  5
57
330
1F
100
AcDbEntity
  8
0
  6
Continuous
 62
     7
370
    15
100
AcDbLine
 10
59.5714959614
 20
174.7370870716
 30
0.0
 11
59.5714959614
 21
175.5370870716
 31
0.0
  0
LINE
  5
58
330
1F
100
AcDbEntity
  8
0
  6
Continuous
 62
     7
370
    15
100
AcDbLine
 10
51.5714959614
 20
162.7370870716
 30
0.0
 11
51.5714959614
 21
161.9370870716
 31
0.0
  0
LINE
  5
59
330
1F
100
AcDbEntity
  8
0
  6
Continuous
 62
     7
370
    15
100
AcDbLine
 10
59.5714959614
 20
161.9370870716
 30
0.0
 11
59.5714959614
 21
162.7370870716
 31
0.0
  0
LINE
  5
5A
330
1F
100
AcDbEntity
  8
0
  6
Continuous
 62
     7
370
    15
100
AcDbLine
 10
49.0714959614
 20
172.4898638214
 30
0.0
 11
51.679191116
 21
173.9954173208
 31
0.0
  0
LINE
  5
5B
330
1F
100
AcDbEntity
  8
0
  6
Continuous
 62
     7
370
    15
100
AcDbLine
 10
62.0714959614
 20
172.4898638214
 30
0.0
 11
62.0714959614
 21
169.4787568225
 31
0.0
  0
LINE
  5
5C
330
1F
100
AcDbEntity
  8
0
  6
Continuous
 62
     7
370
    15
100
AcDbLine
 10
62.0714959614
 20
167.9954173208
 30
0.0
 11
62.0714959614
 21
164.9843103219
 31
0.0
  0
LINE
  5
5D
330
1F
100
AcDbEntity
  8
0
  6
Continuous
 62
     7
370
    15
100
AcDbLine
 10
49.0714959614
 20
164.9843103219
 30
0.0
 11
49.0714959614
 21
167.9954173208
 31
0.0
  0
LINE
  5
5E
330
1F
100
AcDbEntity
  8
0
  6
Continuous
 62
     7
370
    15
100
AcDbLine
 10
49.0714959614
 20
169.4787568225
 30
0.0
 11
49.0714959614
 21
172.4898638214
 31
0.0
  0
LINE
  5
5F
330
1F
100
AcDbEntity
  8
0
  6
Continuous
 62
     7
370
    15
100
AcDbLine
 10
51.679191116
 20
163.4787568225
 30
0.0
 11
49.0714959614
 21
164.9843103219
 31
0.0
  0
LINE
  5
60
330
1F
100
AcDbEntity
  8
0
  6
Continuous
 62
     7
370
    15
100
AcDbLine
 10
62.0714959614
 20
164.9843103219
 30
0.0
 11
59.4638008068
 21
163.4787568225
 31
0.0
  0
LINE
  5
61
330
1F
100
AcDbEntity
  8
0
  6
Continuous
 62
     7
370
    15
100
AcDbLine
 10
59.4638008068
 20
173.9954173208
 30
0.0
 11
62.0714959614
 21
172.4898638214
 31
0.0
  0
LINE
  5
62
330
1F
100
AcDbEntity
  8
0
  6
Continuous
 62
     7
370
    15
100
AcDbLine
 10
57.5964959614
 20
159.4370870716
 30
0.0
 11
57.5964959614
 21
161.9370870716
 31
0.0
  0
LINE
  5
63
330
1F
100
AcDbEntity
  8
0
  6
Continuous
 62
     7
370
    15
100
AcDbLine
 10
53.5464959614
 20
159.4370870716
 30
0.0
 11
53.5464959613
 21
161.9370870716
 31
0.0
  0
LINE
  5
64
330
1F
100
AcDbEntity
  8
0
  6
Continuous
 62
     7
370
    15
100
AcDbLine
 10
53.5464959613
 20
161.9370870716
 30
0.0
 11
53.648445
 21
161.9370870716
 31
0.0
  0
LINE
  5
65
330
1F
100
AcDbEntity
  8
0
  6
Continuous
 62
     7
370
    15
100
AcDbLine
 10
57.4945469227
 20
161.9370870716
 30
0.0
 11
57.5964959614
 21
161.9370870716
 31
0.0
  0
LINE
  5
66
330
1F
100
AcDbEntity
  8
0
  6
Continuous
 62
     7
370
    15
100
AcDbLine
 10
53.5464959614
 20
159.4370870716
 30
0.0
 11
57.5964959614
 21
159.4370870716
 31
0.0
  0
LINE
  5
67
330
1F
100
AcDbEntity
  8
0
  6
Continuous
 62
     7
370
    15
100
AcDbLine
 10
51.5214959614
 20
161.9370870716
 30
0.0
 11
51.5214959614
 21
159.4370870716
 31
0.0
  0
LINE
  5
68
330
1F
100
AcDbEntity
  8
0
  6
Continuous
 62
     7
370
    15
100
AcDbLine
 10
51.5214959614
 20
161.9370870716
 30
0.0
 11
51.5724704807
 21
161.9370870716
 31
0.0
  0
LINE
  5
69
330
1F
100
AcDbEntity
  8
0
  6
Continuous
 62
     7
370
    15
100
AcDbLine
 10
53.4955214421
 20
161.9370870716
 30
0.0
 11
53.5464959613
 21
161.9370870716
 31
0.0
  0
LINE
  5
6A
330
1F
100
AcDbEntity
  8
0
  6
Continuous
 62
     7
370
    15
100
AcDbLine
 10
51.5214959614
 20
159.4370870716
 30
0.0
 11
53.5464959614
 21
159.4370870716
 31
0.0
  0
LINE
  5
6B
330
1F
100
AcDbEntity
  8
0
  6
Continuous
 62
     7
370
    15
100
AcDbLine
 10
59.6214959614
 20
159.4370870716
 30
0.0
 11
59.6214959614
 21
161.9370870716
 31
0.0
  0
LINE
  5
6C
330
1F
100
AcDbEntity
  8
0
  6
Continuous
 62
     7
370
    15
100
AcDbLine
 10
57.5964959614
 20
161.9370870716
 30
0.0
 11
57.6474704807
 21
161.9370870716
 31
0.0
  0
LINE
  5
6D
330
1F
100
AcDbEntity
  8
0
  6
Continuous
 62
     7
370
    15
100
AcDbLine
 10
59.5705214421
 20
161.9370870716
 30
0.0
 11
59.6214959614
 21
161.9370870716
 31
0.0
  0
LINE
  5
6E
330
1F
100
AcDbEntity
  8
0
  6
Continuous
 62
     7
370
    15
100
AcDbLine
 10
57.5964959614
 20
159.4370870716
 30
0.0
 11
59.6214959614
 21
159.4370870716
 31
0.0
  0
LINE
  5
6F
330
1F
100
AcDbEntity
  8
0
  6
Continuous
 62
     7
370
    15
100
AcDbLine
 10
57.9214959614
 20
156.9370870716
 30
0.0
 11
53.2214959614
 21
156.9370870716
 31
0.0
  0
LINE
  5
70
330
1F
100
AcDbEntity
  8
0
  6
Continuous
 62
     7
370
    15
100
AcDbLine
 10
57.9214959614
 20
154.4370870716
 30
0.0
 11
53.2214959614
 21
154.4370870716
 31
0.0
  0
LINE
  5
71
330
1F
100
AcDbEntity
  8
0
  6
Continuous
 62
     7
370
    15
100
AcDbLine
 10
57.5714959614
 20
151.9370870716
 30
0.0
 11
53.5714959614
 21
151.9370870716
 31
0.0
  0
CIRCLE
  5
72
330
1F
100
AcDbEntity
  8
0
  6
Continuous
 62
     7
370
    15
100
AcDbCircle
 10
55.5714959614
 20
168.7370870716
 30
0.0
 40
3.5
  0
CIRCLE
  5
73
330
1F
100
AcDbEntity
  8
0
  6
Continuous
 62
     7
370
    15
100
AcDbCircle
 10
55.5714959614
 20
168.7370870716
 30
0.0
 40
1.25
  0
LINE
  5
74
330
1F
100
AcDbEntity
  8
0
  6
Continuous
 62
     7
370
    15
100
AcDbLine
 10
52.1073943462
 20
162.7370870716
 30
0.0
 11
48.6432927311
 21
168.7370870716
 31
0.0
  0
LINE
  5
75
330
1F
100
AcDbEntity
  8
0
  6
Continuous
 62
     7
370
    15
100
AcDbLine
 10
48.6432927311
 20
168.7370870716
 30
0.0
 11
52.1073943462
 21
174.7370870716
 31
0.0
  0
LINE
  5
76
330
1F
100
AcDbEntity
  8
0
  6
Continuous
 62
     7
370
    15
100
AcDbLine
 10
52.1073943462
 20
174.7370870716
 30
0.0
 11
59.0355975765
 21
174.7370870716
 31
0.0
  0
LINE
  5
77
330
1F
100
AcDbEntity
  8
0
  6
Continuous
 62
     7
370
    15
100
AcDbLine
 10
59.0355975765
 20
174.7370870716
 30
0.0
 11
62.4996991917
 21
168.7370870716
 31
0.0
  0
LINE
  5
78
330
1F
100
AcDbEntity
  8
0
  6
Continuous
 62
     7
370
    15
100
AcDbLine
 10
62.4996991917
 20
168.7370870716
 30
0.0
 11
59.0355975765
 21
162.7370870716
 31
0.0
  0
LINE
  5
79
330
1F
100
AcDbEntity
  8
0
  6
Continuous
 62
     7
370
    15
100
AcDbLine
 10
59.0355975765
 20
162.7370870716
 30
0.0
 11
52.1073943462
 21
162.7370870716
 31
0.0
  0
ARC
  5
7A
330
1F
100
AcDbEntity
  8
0
  6
Continuous
 62
     7
370
    15
100
AcDbCircle
 10
55.5714959614
 20
168.7370870716
 30
0.0
 40
7.250000000000002
100
AcDbArc
 50
195.0901851794
 51
206.2915552747
  0
ARC
  5
7B
330
1F
100
AcDbEntity
  8
0
  6
Continuous
 62
     7
370
    15
100
AcDbCircle
 10
55.5714959614
 20
168.7370870716
 30
0.0
 40
7.250000000000013
100
AcDbArc
 50
213.7084447253
 51
224.9098148206
  0
ARC
  5
7C
330
1F
100
AcDbEntity
  8
0
  6
Continuous
 62
     7
370
    15
100
AcDbCircle
 10
55.5714959614
 20
168.7370870716
 30
0.0
 40
7.249999999999982
100
AcDbArc
 50
135.0901851794
 51
146.2915552747
  0
ARC
  5
7D
330
1F
100
AcDbEntity
  8
0
  6
Continuous
 62
     7
370
    15
100
AcDbCircle
 10
55.5714959614
 20
168.7370870716
 30
0.0
 40
7.249999999999997
100
AcDbArc
 50
153.7084447253
 51
164.9098148206
  0
ARC
  5
7E
330
1F
100
AcDbEntity
  8
0
  6
Continuous
 62
     7
370
    15
100
AcDbCircle
 10
55.5714959614
 20
168.7370870716
 30
0.0
 40
7.249999999999995
100
AcDbArc
 50
15.0901851794
 51
26.2915552747
  0
ARC
  5
7F
330
1F
100
AcDbEntity
  8
0
  6
Continuous
 62
     7
370
    15
100
AcDbCircle
 10
55.5714959614
 20
168.7370870716
 30
0.0
 40
7.249999999999976
100
AcDbArc
 50
33.7084447253
 51
44.9098148206
  0
ARC
  5
80
330
1F
100
AcDbEntity
  8
0
  6
Continuous
 62
     7
370
    15
100
AcDbCircle
 10
55.5714959614
 20
168.7370870716
 30
0.0
 40
7.250000000000011
100
AcDbArc
 50
315.0901851794
 51
326.2915552747
  0
ARC
  5
81
330
1F
100
AcDbEntity
  8
0
  6
Continuous
 62
     7
370
    15
100
AcDbCircle
 10
55.5714959614
 20
168.7370870716
 30
0.0
 40
7.250000000000002
100
AcDbArc
 50
333.7084447253
 51
344.9098148206
  0
LINE
  5
82
330
1F
100
AcDbEntity
  8
0
  6
Continuous
 62
     7
370
    15
100
AcDbLine
 10
60.7060830652
 20
163.6186385496
 30
0.0
 11
59.179191116
 21
162.7370870716
 31
0.0
  0
LINE
  5
83
330
1F
100
AcDbEntity
  8
0
  6
Continuous
 62
     7
370
    15
100
AcDbLine
 10
51.9638008068
 20
162.7370870716
 30
0.0
 11
50.4369088575
 21
163.6186385496
 31
0.0
  0
LINE
  5
84
330
1F
100
AcDbEntity
  8
0
  6
Continuous
 62
     7
370
    15
100
AcDbLine
 10
48.5714959614
 20
166.8496284628
 30
0.0
 11
48.5714959614
 21
170.6245456805
 31
0.0
  0
LINE
  5
85
330
1F
100
AcDbEntity
  8
0
  6
Continuous
 62
     7
370
    15
100
AcDbLine
 10
50.4369088575
 20
173.8555355937
 30
0.0
 11
51.9638008068
 21
174.7370870716
 31
0.0
  0
LINE
  5
86
330
1F
100
AcDbEntity
  8
0
  6
Continuous
 62
     7
370
    15
100
AcDbLine
 10
59.179191116
 20
174.7370870716
 30
0.0
 11
60.7060830652
 21
173.8555355937
 31
0.0
  0
LINE
  5
87
330
1F
100
AcDbEntity
  8
0
  6
Continuous
 62
     7
370
    15
100
AcDbLine
 10
62.5714959614
 20
170.6245456805
 30
0.0
 11
62.5714959614
 21
166.8496284628
 31
0.0
  0
SPLINE
  5
88
330
1F
100
AcDbEntity
  8
0
  6
Continuous
 62
     7
370
    15
100
AcDbSpline
210
0.0
220
0.0
230
1.0
 70
    24
 71
     3
 72
     8
 73
     4
 74
     0
 42
0.00000001
 43
0.00000001
 12
1.0
 22
0.0
 32
0.0
 13
1.0
 23
0.0
 33
0.0
 40
0.0
 40
0.0
 40
0.0
 40
0.0
 40
1.0
 40
1.0
 40
1.0
 40
1.0
 10
60.70608306520487
 20
163.6186385495673
 30
0.0
 10
61.34081336439895
 20
163.9851002586698
 30
0.0
 10
61.96084585104705
 20
164.3430761817424
 30
0.0
 10
62.57149596137716
 20
164.6956351873221
 30
0.0
  0
SPLINE
  5
89
330
1F
100
AcDbEntity
  8
0
  6
Continuous
 62
     7
370
    15
100
AcDbSpline
210
0.0
220
0.0
230
1.0
 70
    24
 71
     3
 72
    10
 73
     6
 74
     0
 42
0.00000001
 43
0.00000001
 12
1.0
 22
0.0
 32
0.0
 13
1.0
 23
0.0
 33
0.0
 40
0.0
 40
0.0
 40
0.0
 40
0.0
 40
0.5
 40
0.5
 40
1.0
 40
1.0
 40
1.0
 40
1.0
 10
62.57149596137715
 20
164.6956351873221
 30
0.0
 10
62.57149596137715
 20
165.0480552972119
 30
0.0
 10
62.57149596137715
 20
165.4036683103018
 30
0.0
 10
62.57149596137715
 20
166.1230530883975
 30
0.0
 10
62.57149596137715
 20
166.4868481908976
 30
0.0
 10
62.57149596137715
 20
166.8496284628318
 30
0.0
  0
SPLINE
  5
8A
330
1F
100
AcDbEntity
  8
0
  6
Continuous
 62
     7
370
    15
100
AcDbSpline
210
0.0
220
0.0
230
1.0
 70
    24
 71
     3
 72
     8
 73
     4
 74
     0
 42
0.00000001
 43
0.00000001
 12
1.0
 22
0.0
 32
0.0
 13
1.0
 23
0.0
 33
0.0
 40
0.0
 40
0.0
 40
0.0
 40
0.0
 40
1.0
 40
1.0
 40
1.0
 40
1.0
 10
48.57149596137715
 20
164.6956351873221
 30
0.0
 10
49.18439452310053
 20
164.3417780377252
 30
0.0
 10
49.81048872287349
 20
163.9803023829482
 30
0.0
 10
50.43690885754943
 20
163.6186385495673
 30
0.0
  0
SPLINE
  5
8B
330
1F
100
AcDbEntity
  8
0
  6
Continuous
 62
     7
370
    15
100
AcDbSpline
210
0.0
220
0.0
230
1.0
 70
    24
 71
     3
 72
    10
 73
     6
 74
     0
 42
0.00000001
 43
0.00000001
 12
1.0
 22
0.0
 32
0.0
 13
1.0
 23
0.0
 33
0.0
 40
0.0
 40
0.0
 40
0.0
 40
0.0
 40
0.5
 40
0.5
 40
1.0
 40
1.0
 40
1.0
 40
1.0
 10
48.57149596137715
 20
166.8496284628319
 30
0.0
 10
48.57149596137715
 20
166.4840961229754
 30
0.0
 10
48.57149596137715
 20
166.1199227681085
 30
0.0
 10
48.57149596137715
 20
165.4023194015529
 30
0.0
 10
48.57149596137715
 20
165.0474388358088
 30
0.0
 10
48.57149596137715
 20
164.6956351873221
 30
0.0
  0
SPLINE
  5
8C
330
1F
100
AcDbEntity
  8
0
  6
Continuous
 62
     7
370
    15
100
AcDbSpline
210
0.0
220
0.0
230
1.0
 70
    24
 71
     3
 72
     8
 73
     4
 74
     0
 42
0.00000001
 43
0.00000001
 12
1.0
 22
0.0
 32
0.0
 13
1.0
 23
0.0
 33
0.0
 40
0.0
 40
0.0
 40
0.0
 40
0.0
 40
1.0
 40
1.0
 40
1.0
 40
1.0
 10
62.57149596137715
 20
172.7785389559769
 30
0.0
 10
61.95859739965378
 20
173.1323961055739
 30
0.0
 10
61.33250319988082
 20
173.4938717603508
 30
0.0
 10
60.70608306520488
 20
173.8555355937318
 30
0.0
  0
SPLINE
  5
8D
330
1F
100
AcDbEntity
  8
0
  6
Continuous
 62
     7
370
    15
100
AcDbSpline
210
0.0
220
0.0
230
1.0
 70
    24
 71
     3
 72
    10
 73
     6
 74
     0
 42
0.00000001
 43
0.00000001
 12
1.0
 22
0.0
 32
0.0
 13
1.0
 23
0.0
 33
0.0
 40
0.0
 40
0.0
 40
0.0
 40
0.0
 40
0.5
 40
0.5
 40
1.0
 40
1.0
 40
1.0
 40
1.0
 10
62.57149596137715
 20
170.6245456804672
 30
0.0
 10
62.57149596137715
 20
170.9900780203237
 30
0.0
 10
62.57149596137715
 20
171.3542513751905
 30
0.0
 10
62.57149596137715
 20
172.0718547417462
 30
0.0
 10
62.57149596137715
 20
172.4267353074902
 30
0.0
 10
62.57149596137715
 20
172.7785389559769
 30
0.0
  0
SPLINE
  5
8E
330
1F
100
AcDbEntity
  8
0
  6
Continuous
 62
     7
370
    15
100
AcDbSpline
210
0.0
220
0.0
230
1.0
 70
    24
 71
     3
 72
    10
 73
     6
 74
     0
 42
0.00000001
 43
0.00000001
 12
1.0
 22
0.0
 32
0.0
 13
1.0
 23
0.0
 33
0.0
 40
0.0
 40
0.0
 40
0.0
 40
0.0
 40
0.5
 40
0.5
 40
1.0
 40
1.0
 40
1.0
 40
1.0
 10
48.57149596137715
 20
172.7785389559769
 30
0.0
 10
48.57149596137715
 20
172.4261188460871
 30
0.0
 10
48.57149596137715
 20
172.0705058329972
 30
0.0
 10
48.57149596137715
 20
171.3511210549016
 30
0.0
 10
48.57149596137715
 20
170.9873259524014
 30
0.0
 10
48.57149596137715
 20
170.6245456804672
 30
0.0
  0
SPLINE
  5
8F
330
1F
100
AcDbEntity
  8
0
  6
Continuous
 62
     7
370
    15
100
AcDbSpline
210
0.0
220
0.0
230
1.0
 70
    24
 71
     3
 72
     8
 73
     4
 74
     0
 42
0.00000001
 43
0.00000001
 12
1.0
 22
0.0
 32
0.0
 13
1.0
 23
0.0
 33
0.0
 40
0.0
 40
0.0
 40
0.0
 40
0.0
 40
1.0
 40
1.0
 40
1.0
 40
1.0
 10
50.43690885754943
 20
173.8555355937318
 30
0.0
 10
49.80217855835534
 20
173.4890738846292
 30
0.0
 10
49.18214607170724
 20
173.1310979615567
 30
0.0
 10
48.57149596137714
 20
172.7785389559769
 30
0.0
  0
LINE
  5
90
330
1F
100
AcDbEntity
  8
0
  6
Continuous
 62
     7
370
    15
100
AcDbLine
 10
53.5464959614
 20
175.5370870716
 30
0.0
 11
53.5464959614
 21
178.0370870716
 31
0.0
  0
LINE
  5
91
330
1F
100
AcDbEntity
  8
0
  6
Continuous
 62
     7
370
    15
100
AcDbLine
 10
51.5214959614
 20
175.5370870716
 30
0.0
 11
51.5724704807
 21
175.5370870716
 31
0.0
  0
LINE
  5
92
330
1F
100
AcDbEntity
  8
0
  6
Continuous
 62
     7
370
    15
100
AcDbLine
 10
53.4955214421
 20
175.5370870716
 30
0.0
 11
53.5464959614
 21
175.5370870716
 31
0.0
  0
LINE
  5
93
330
1F
100
AcDbEntity
  8
0
  6
Continuous
 62
     7
370
    15
100
AcDbLine
 10
51.5214959614
 20
175.5370870716
 30
0.0
 11
51.5214959614
 21
178.0370870716
 31
0.0
  0
LINE
  5
94
330
1F
100
AcDbEntity
  8
0
  6
Continuous
 62
     7
370
    15
100
AcDbLine
 10
51.5214959614
 20
178.0370870716
 30
0.0
 11
53.5464959614
 21
178.0370870716
 31
0.0
  0
LINE
  5
95
330
1F
100
AcDbEntity
  8
0
  6
Continuous
 62
     7
370
    15
100
AcDbLine
 10
57.5964959614
 20
175.5370870716
 30
0.0
 11
57.5964959614
 21
178.0370870716
 31
0.0
  0
LINE
  5
96
330
1F
100
AcDbEntity
  8
0
  6
Continuous
 62
     7
370
    15
100
AcDbLine
 10
53.5464959614
 20
175.5370870716
 30
0.0
 11
53.648445
 21
175.5370870716
 31
0.0
  0
LINE
  5
97
330
1F
100
AcDbEntity
  8
0
  6
Continuous
 62
     7
370
    15
100
AcDbLine
 10
57.4945469227
 20
175.5370870716
 30
0.0
 11
57.5964959614
 21
175.5370870716
 31
0.0
  0
LINE
  5
98
330
1F
100
AcDbEntity
  8
0
  6
Continuous
 62
     7
370
    15
100
AcDbLine
 10
53.5464959614
 20
178.0370870716
 30
0.0
 11
57.5964959614
 21
178.0370870716
 31
0.0
  0
LINE
  5
99
330
1F
100
AcDbEntity
  8
0
  6
Continuous
 62
     7
370
    15
100
AcDbLine
 10
59.6214959614
 20
175.5370870716
 30
0.0
 11
59.6214959613
 21
178.0370870716
 31
0.0
  0
LINE
  5
9A
330
1F
100
AcDbEntity
  8
0
  6
Continuous
 62
     7
370
    15
100
AcDbLine
 10
57.5964959614
 20
175.5370870716
 30
0.0
 11
57.6474704807
 21
175.5370870716
 31
0.0
  0
LINE
  5
9B
330
1F
100
AcDbEntity
  8
0
  6
Continuous
 62
     7
370
    15
100
AcDbLine
 10
59.5705214421
 20
175.5370870716
 30
0.0
 11
59.6214959614
 21
175.5370870716
 31
0.0
  0
LINE
  5
9C
330
1F
100
AcDbEntity
  8
0
  6
Continuous
 62
     7
370
    15
100
AcDbLine
 10
57.5964959614
 20
178.0370870716
 30
0.0
 11
59.6214959613
 21
178.0370870716
 31
0.0
  0
LINE
  5
9D
330
1F
100
AcDbEntity
  8
0
  6
Continuous
 62
     7
370
    15
100
AcDbLine
 10
59.5714959614
 20
174.7370870716
 30
0.0
 11
59.0355975765
 21
174.7370870716
 31
0.0
  0
LINE
  5
9E
330
1F
100
AcDbEntity
  8
0
  6
Continuous
 62
     7
370
    15
100
AcDbLine
 10
52.1073943462
 20
174.7370870716
 30
0.0
 11
51.5714959614
 21
174.7370870716
 31
0.0
  0
LINE
  5
9F
330
1F
100
AcDbEntity
  8
0
  6
Continuous
 62
     7
370
    15
100
AcDbLine
 10
59.5705214421
 20
175.5370870716
 30
0.0
 11
57.6474704807
 21
175.5370870716
 31
0.0
  0
LINE
  5
A0
330
1F
100
AcDbEntity
  8
0
  6
Continuous
 62
     7
370
    15
100
AcDbLine
 10
57.4945469227
 20
175.5370870716
 30
0.0
 11
53.648445
 21
175.5370870716
 31
0.0
  0
LINE
  5
A1
330
1F
100
AcDbEntity
  8
0
  6
Continuous
 62
     7
370
    15
100
AcDbLine
 10
53.4955214421
 20
175.5370870716
 30
0.0
 11
51.5724704807
 21
175.5370870716
 31
0.0
  0
LINE
  5
A2
330
1F
100
AcDbEntity
  8
0
  6
Continuous
 62
     7
370
    15
100
AcDbLine
 10
52.6064623467
 20
161.9370870716
 30
0.0
 11
51.5724704807
 21
161.9370870716
 31
0.0
  0
LINE
  5
A3
330
1F
100
AcDbEntity
  8
0
  6
Continuous
 62
     7
370
    15
100
AcDbLine
 10
59.5705214421
 20
161.9370870716
 30
0.0
 11
57.6474704807
 21
161.9370870716
 31
0.0
  0
LINE
  5
A4
330
1F
100
AcDbEntity
  8
0
  6
Continuous
 62
     7
370
    15
100
AcDbLine
 10
57.4945469227
 20
161.9370870716
 30
0.0
 11
53.648445
 21
161.9370870716
 31
0.0
  0
LINE
  5
A5
330
1F
100
AcDbEntity
  8
0
  6
Continuous
 62
     7
370
    15
100
AcDbLine
 10
53.4955214421
 20
161.9370870716
 30
0.0
 11
52.6064623467
 21
161.9370870716
 31
0.0
  0
LINE
  5
A6
330
1F
100
AcDbEntity
  8
0
  6
Continuous
 62
     7
370
    15
100
AcDbLine
 10
52.1073943462
 20
162.7370870716
 30
0.0
 11
51.5714959614
 21
162.7370870716
 31
0.0
  0
LINE
  5
A7
330
1F
100
AcDbEntity
  8
0
  6
Continuous
 62
     7
370
    15
100
AcDbLine
 10
59.5714959614
 20
162.7370870716
 30
0.0
 11
59.0355975765
 21
162.7370870716
 31
0.0
  0
MTEXT
  5
A9
330
1F
100
AcDbEntity
  8
0
  6
Continuous
 62
     7
370
     0
100
AcDbMText
 10
33.2466307806
 20
192.6210264727
 30
0.0
 40
3.5
 41
0.0
 71
     1
 72
     1
  1
M3
  7
SLDTEXTSTYLE1
 73
     1
 44
1.0
  0
LEADER
  5
AB
330
1F
100
AcDbEntity
  8
0
  6
Continuous
 62
     7
370
     0
100
AcDbLeader
  3
SLDDIMSTYLE0
 76
     3
 10
54.7314666203
 20
169.6627493784
 30
0.0
 10
40.4635036496
 20
188.0474452555
 30
0.0
 10
33.2116788321
 20
188.0474452555
 30
0.0
  0
INSERT
  5
B7
330
1F
100
AcDbEntity
  8
0
  6
Continuous
 62
     7
370
     0
100
AcDbBlockReference
  2
SW_CENTERMARKSYMBOL_0
 10
55.5714959614
 20
168.7370870716
 30
0.0
  0
LINE
  5
B8
330
1F
100
AcDbEntity
  8
0
  6
Continuous
 62
     7
370
    15
100
AcDbLine
 10
155.5532121469
 20
163.7370870716
 30
0.0
 11
156.5532121469
 21
164.7370870716
 31
0.0
  0
LINE
  5
B9
330
1F
100
AcDbEntity
  8
0
  6
Continuous
 62
     7
370
    15
100
AcDbLine
 10
156.5532121469
 20
172.7370870716
 30
0.0
 11
155.5532121469
 21
173.7370870716
 31
0.0
  0
LINE
  5
BA
330
1F
100
AcDbEntity
  8
0
  6
Continuous
 62
     7
370
    15
100
AcDbLine
 10
146.0532121469
 20
163.7370870716
 30
0.0
 11
148.1075092794
 21
163.7370870716
 31
0.0
  0
LINE
  5
BB
330
1F
100
AcDbEntity
  8
0
  6
Continuous
 62
     7
370
    15
100
AcDbLine
 10
154.1075092794
 20
163.7370870716
 30
0.0
 11
155.5532121469
 21
163.7370870716
 31
0.0
  0
LINE
  5
BC
330
1F
100
AcDbEntity
  8
0
  6
Continuous
 62
     7
370
    15
100
AcDbLine
 10
155.5532121469
 20
173.7370870716
 30
0.0
 11
154.1075092794
 21
173.7370870716
 31
0.0
  0
LINE
  5
BD
330
1F
100
AcDbEntity
  8
0
  6
Continuous
 62
     7
370
    15
100
AcDbLine
 10
148.1075092794
 20
173.7370870716
 30
0.0
 11
146.0532121469
 21
173.7370870716
 31
0.0
  0
LINE
  5
BE
330
1F
100
AcDbEntity
  8
0
  6
Continuous
 62
     7
370
    15
100
AcDbLine
 10
144.5532121469
 20
164.2370870716
 30
0.0
 11
146.0532121469
 21
164.2370870716
 31
0.0
  0
LINE
  5
BF
330
1F
100
AcDbEntity
  8
0
  6
Continuous
 62
     7
370
    15
100
AcDbLine
 10
146.0532121469
 20
173.2370870716
 30
0.0
 11
144.5532121469
 21
173.2370870716
 31
0.0
  0
LINE
  5
C0
330
1F
100
AcDbEntity
  8
0
  6
Continuous
 62
     7
370
    15
100
AcDbLine
 10
140.0532121469
 20
164.9870870716
 30
0.0
 11
141.5532121469
 21
164.9870870716
 31
0.0
  0
LINE
  5
C1
330
1F
100
AcDbEntity
  8
0
  6
Continuous
 62
     7
370
    15
100
AcDbLine
 10
141.5532121469
 20
172.4870870716
 30
0.0
 11
141.0220295318
 21
172.4870870716
 31
0.0
  0
LINE
  5
C2
330
1F
100
AcDbEntity
  8
0
  6
Continuous
 62
     7
370
    15
100
AcDbLine
 10
140.5130305342
 20
172.4870870716
 30
0.0
 11
140.0532121469
 21
172.4870870716
 31
0.0
  0
LINE
  5
C3
330
1F
100
AcDbEntity
  8
0
  6
Continuous
 62
     7
370
    15
100
AcDbLine
 10
140.0532121469
 20
172.4870870716
 30
0.0
 11
139.5532121469
 21
171.9870870716
 31
0.0
  0
LINE
  5
C4
330
1F
100
AcDbEntity
  8
0
  6
Continuous
 62
     7
370
    15
100
AcDbLine
 10
139.5532121469
 20
165.4870870716
 30
0.0
 11
140.0532121469
 21
164.9870870716
 31
0.0
  0
LINE
  5
C5
330
1F
100
AcDbEntity
  8
0
  6
Continuous
 62
     7
370
    15
100
AcDbLine
 10
156.6532121469
 20
165.2370870716
 30
0.0
 11
157.2532121469
 21
165.2370870716
 31
0.0
  0
LINE
  5
C6
330
1F
100
AcDbEntity
  8
0
  6
Continuous
 62
     7
370
    15
100
AcDbLine
 10
157.2532121469
 20
171.3200179194
 30
0.0
 11
156.6532121469
 21
171.3200179194
 31
0.0
  0
LINE
  5
C7
330
1F
100
AcDbEntity
  8
0
  6
Continuous
 62
     7
370
    15
100
AcDbLine
 10
109.2032121469
 20
156.9370870716
 30
0.0
 11
109.5532121469
 21
154.4370870716
 31
0.0
  0
LINE
  5
C8
330
1F
100
AcDbEntity
  8
0
  6
Continuous
 62
     7
370
    15
100
AcDbLine
 10
113.5532121469
 20
154.4370870716
 30
0.0
 11
113.9032121469
 21
156.9370870716
 31
0.0
  0
LINE
  5
C9
330
1F
100
AcDbEntity
  8
0
  6
Continuous
 62
     7
370
    15
100
AcDbLine
 10
109.2032121469
 20
154.4370870716
 30
0.0
 11
109.5532121469
 21
151.9370870716
 31
0.0
  0
LINE
  5
CA
330
1F
100
AcDbEntity
  8
0
  6
Continuous
 62
     7
370
    15
100
AcDbLine
 10
113.5532121469
 20
151.9370870716
 30
0.0
 11
113.9032121469
 21
154.4370870716
 31
0.0
  0
LINE
  5
CB
330
1F
100
AcDbEntity
  8
0
  6
Continuous
 62
     7
370
    15
100
AcDbLine
 10
113.6532121469
 20
156.9370870716
 30
0.0
 11
113.6532121469
 21
159.4370870716
 31
0.0
  0
LINE
  5
CC
330
1F
100
AcDbEntity
  8
0
  6
Continuous
 62
     7
370
    15
100
AcDbLine
 10
109.4532121469
 20
159.4370870716
 30
0.0
 11
109.4532121469
 21
156.9370870716
 31
0.0
  0
LINE
  5
CD
330
1F
100
AcDbEntity
  8
0
  6
Continuous
 62
     7
370
    15
100
AcDbLine
 10
115.5532121469
 20
164.9870870716
 30
0.0
 11
117.5497954081
 21
164.9870870716
 31
0.0
  0
LINE
  5
CE
330
1F
100
AcDbEntity
  8
0
  6
Continuous
 62
     7
370
    15
100
AcDbLine
 10
118.0584130589
 20
164.9870870716
 30
0.0
 11
119.5532121469
 21
164.9870870716
 31
0.0
  0
LINE
  5
CF
330
1F
100
AcDbEntity
  8
0
  6
Continuous
 62
     7
370
    15
100
AcDbLine
 10
119.5139300289
 20
172.4870870716
 30
0.0
 11
117.0221062313
 21
172.4870870716
 31
0.0
  0
LINE
  5
D0
330
1F
100
AcDbEntity
  8
0
  6
Continuous
 62
     7
370
    15
100
AcDbLine
 10
116.517009496
 20
172.4870870716
 30
0.0
 11
115.5532121469
 21
172.4870870716
 31
0.0
  0
LINE
  5
D1
330
1F
100
AcDbEntity
  8
0
  6
Continuous
 62
     7
370
    15
100
AcDbLine
 10
102.0532121469
 20
165.2370870716
 30
0.0
 11
104.0532121469
 21
165.2370870716
 31
0.0
  0
LINE
  5
D2
330
1F
100
AcDbEntity
  8
0
  6
Continuous
 62
     7
370
    15
100
AcDbLine
 10
104.0532121469
 20
172.2370870716
 30
0.0
 11
102.0532121469
 21
172.2370870716
 31
0.0
  0
LINE
  5
D3
330
1F
100
AcDbEntity
  8
0
  6
Continuous
 62
     7
370
    15
100
AcDbLine
 10
158.0532121469
 20
166.2370870716
 30
0.0
 11
158.5532121469
 21
166.7370870716
 31
0.0
  0
LINE
  5
D4
330
1F
100
AcDbEntity
  8
0
  6
Continuous
 62
     7
370
    15
100
AcDbLine
 10
158.5532121469
 20
170.7370870716
 30
0.0
 11
158.0532121469
 21
171.2370870716
 31
0.0
  0
LINE
  5
D5
330
1F
100
AcDbEntity
  8
0
  6
Continuous
 62
     7
370
    15
100
AcDbLine
 10
157.2532121469
 20
166.2370870716
 30
0.0
 11
158.0532121469
 21
166.2370870716
 31
0.0
  0
LINE
  5
D6
330
1F
100
AcDbEntity
  8
0
  6
Continuous
 62
     7
370
    15
100
AcDbLine
 10
158.0532121469
 20
171.2370870716
 30
0.0
 11
157.2532121469
 21
171.2370870716
 31
0.0
  0
LINE
  5
D7
330
1F
100
AcDbEntity
  8
0
  6
Continuous
 62
     7
370
    15
100
AcDbLine
 10
119.5532121469
 20
166.2370870716
 30
0.0
 11
120.3372049054
 21
166.2370870716
 31
0.0
  0
LINE
  5
D8
330
1F
100
AcDbEntity
  8
0
  6
Continuous
 62
     7
370
    15
100
AcDbLine
 10
120.8363215321
 20
166.2370870716
 30
0.0
 11
123.3370478223
 21
166.2370870716
 31
0.0
  0
LINE
  5
D9
330
1F
100
AcDbEntity
  8
0
  6
Continuous
 62
     7
370
    15
100
AcDbLine
 10
123.8363326219
 20
166.2370870716
 30
0.0
 11
126.3373113864
 21
166.2370870716
 31
0.0
  0
LINE
  5
DA
330
1F
100
AcDbEntity
  8
0
  6
Continuous
 62
     7
370
    15
100
AcDbLine
 10
126.836529337
 20
166.2370870716
 30
0.0
 11
129.3370128029
 21
166.2370870716
 31
0.0
  0
LINE
  5
DB
330
1F
100
AcDbEntity
  8
0
  6
Continuous
 62
     7
370
    15
100
AcDbLine
 10
129.8361709238
 20
166.2370870716
 30
0.0
 11
132.3374917512
 21
166.2370870716
 31
0.0
  0
LINE
  5
DC
330
1F
100
AcDbEntity
  8
0
  6
Continuous
 62
     7
370
    15
100
AcDbLine
 10
132.8372056576
 20
166.2370870716
 30
0.0
 11
135.3373292514
 21
166.2370870716
 31
0.0
  0
LINE
  5
DD
330
1F
100
AcDbEntity
  8
0
  6
Continuous
 62
     7
370
    15
100
AcDbLine
 10
135.8366025773
 20
166.2370870716
 30
0.0
 11
138.3368784857
 21
166.2370870716
 31
0.0
  0
LINE
  5
DE
330
1F
100
AcDbEntity
  8
0
  6
Continuous
 62
     7
370
    15
100
AcDbLine
 10
138.8368244188
 20
166.2370870716
 30
0.0
 11
139.5532121469
 21
166.2370870716
 31
0.0
  0
LINE
  5
DF
330
1F
100
AcDbEntity
  8
0
  6
Continuous
 62
     7
370
    15
100
AcDbLine
 10
139.5532121469
 20
171.2370870716
 30
0.0
 11
138.2346199221
 21
171.2370870716
 31
0.0
  0
LINE
  5
E0
330
1F
100
AcDbEntity
  8
0
  6
Continuous
 62
     7
370
    15
100
AcDbLine
 10
137.7353122646
 20
171.2370870716
 30
0.0
 11
135.2352367494
 21
171.2370870716
 31
0.0
  0
LINE
  5
E1
330
1F
100
AcDbEntity
  8
0
  6
Continuous
 62
     7
370
    15
100
AcDbLine
 10
134.7352517786
 20
171.2370870716
 30
0.0
 11
132.2345595063
 21
171.2370870716
 31
0.0
  0
LINE
  5
E2
330
1F
100
AcDbEntity
  8
0
  6
Continuous
 62
     7
370
    15
100
AcDbLine
 10
131.7346427237
 20
171.2370870716
 30
0.0
 11
129.2353279729
 21
171.2370870716
 31
0.0
  0
LINE
  5
E3
330
1F
100
AcDbEntity
  8
0
  6
Continuous
 62
     7
370
    15
100
AcDbLine
 10
128.7352981645
 20
171.2370870716
 30
0.0
 11
126.2353414034
 21
171.2370870716
 31
0.0
  0
LINE
  5
E4
330
1F
100
AcDbEntity
  8
0
  6
Continuous
 62
     7
370
    15
100
AcDbLine
 10
125.7353860012
 20
171.2370870716
 30
0.0
 11
123.2351419559
 21
171.2370870716
 31
0.0
  0
LINE
  5
E5
330
1F
100
AcDbEntity
  8
0
  6
Continuous
 62
     7
370
    15
100
AcDbLine
 10
122.7354895516
 20
171.2370870716
 30
0.0
 11
120.235445653
 21
171.2370870716
 31
0.0
  0
LINE
  5
E6
330
1F
100
AcDbEntity
  8
0
  6
Continuous
 62
     7
370
    15
100
AcDbLine
 10
119.7356589574
 20
171.2370870716
 30
0.0
 11
119.5532121469
 21
171.2370870716
 31
0.0
  0
LINE
  5
E7
330
1F
100
AcDbEntity
  8
0
  6
Continuous
 62
     7
370
    15
100
AcDbLine
 10
104.0532121469
 20
166.2370870716
 30
0.0
 11
107.5532121469
 21
166.2370870716
 31
0.0
  0
LINE
  5
E8
330
1F
100
AcDbEntity
  8
0
  6
Continuous
 62
     7
370
    15
100
AcDbLine
 10
107.5532121469
 20
171.2370870716
 30
0.0
 11
104.0532121469
 21
171.2370870716
 31
0.0
  0
LINE
  5
E9
330
1F
100
AcDbEntity
  8
0
  6
Continuous
 62
     7
370
    15
100
AcDbLine
 10
156.5532121469
 20
167.2370870716
 30
0.0
 11
156.6532121469
 21
167.2370870716
 31
0.0
  0
LINE
  5
EA
330
1F
100
AcDbEntity
  8
0
  6
Continuous
 62
     7
370
    15
100
AcDbLine
 10
156.6532121469
 20
170.2370870716
 30
0.0
 11
156.5532121469
 21
170.2370870716
 31
0.0
  0
SPLINE
  5
EB
330
1F
100
AcDbEntity
  8
0
  6
Continuous
 62
     7
370
    15
100
AcDbSpline
210
0.0
220
0.0
230
1.0
 70
     8
 71
     3
 72
    35
 73
    31
 74
     0
 42
0.00000001
 43
0.00000001
 12
1.0
 22
0.0
 32
0.0
 13
1.0
 23
0.0
 33
0.0
 40
0.0
 40
0.0
 40
0.0
 40
0.0
 40
0.0088684759624748
 40
0.0308557114731428
 40
0.0739411776975804
 40
0.1149216937384056
 40
0.1536341098608144
 40
0.1899572215506627
 40
0.2240510556319561
 40
0.2570820058859511
 40
0.3202739726279101
 40
0.3797193507380232
 40
0.4173070282018556
 40
0.4519331920401662
 40
0.4820327270490127
 40
0.5076165538758802
 40
0.5366769252715972
 40
0.5755788056146011
 40
0.6112590038078886
 40
0.6525234726880244
 40
0.6980313393832458
 40
0.7405969844539414
 40
0.7911351315954623
 40
0.8345668444976104
 40
0.8708337897250575
 40
0.893820862232994
 40
0.921277046294567
 40
0.9438770705573309
 40
0.9701202064372542
 40
1.0
 40
1.0
 40
1.0
 40
1.0
 10
116.4508737329021
 20
172.7497507439625
 30
0.0
 10
116.4494541382467
 20
172.7491789672698
 30
0.0
 10
116.4445150028998
 20
172.7471896089258
 30
0.0
 10
116.463979303496
 20
172.7021219362178
 30
0.0
 10
116.489079035656
 20
172.6044226080238
 30
0.0
 10
116.5350711775198
 20
172.4180252652922
 30
0.0
 10
116.5843258583613
 20
172.1803846625346
 30
0.0
 10
116.6346994335071
 20
171.902378152908
 30
0.0
 10
116.6842598033306
 20
171.5942388103744
 30
0.0
 10
116.7465434955382
 20
171.1685167789179
 30
0.0
 10
116.8214026846906
 20
170.5993149445573
 30
0.0
 10
116.8986117555674
 20
169.9547828116962
 30
0.0
 10
116.96198335524
 20
169.4029216804047
 30
0.0
 10
117.0112373367957
 20
168.9663882986688
 30
0.0
 10
117.0547175350916
 20
168.5789762301242
 30
0.0
 10
117.095528638528
 20
168.2164971342283
 30
0.0
 10
117.1406055948168
 20
167.8199796364258
 30
0.0
 10
117.1905962659298
 20
167.3894982830646
 30
0.0
 10
117.2464792100918
 20
166.9256162050232
 30
0.0
 10
117.3056301993969
 20
166.459533855795
 30
0.0
 10
117.3682302795285
 20
166.0040661930491
 30
0.0
 10
117.4356569146367
 20
165.565233695399
 30
0.0
 10
117.5028088632385
 20
165.1905625766862
 30
0.0
 10
117.5676465279476
 20
164.8940374700104
 30
0.0
 10
117.6215687086235
 20
164.7002004674067
 30
0.0
 10
117.6667134394668
 20
164.5677706129655
 30
0.0
 10
117.722020082772
 20
164.4467357162176
 30
0.0
 10
117.8024634789489
 20
164.3405287408383
 30
0.0
 10
117.9063817716544
 20
164.2568871730351
 30
0.0
 10
117.9944669852472
 20
164.2448819777065
 30
0.0
 10
118.0413634680968
 20
164.2384904232802
 30
0.0
  0
SPLINE
  5
EC
330
1F
100
AcDbEntity
  8
0
  6
Continuous
 62
     7
370
    15
100
AcDbSpline
210
0.0
220
0.0
230
1.0
 70
     8
 71
     3
 72
    39
 73
    35
 74
     0
 42
0.00000001
 43
0.00000001
 12
1.0
 22
0.0
 32
0.0
 13
1.0
 23
0.0
 33
0.0
 40
0.0
 40
0.0
 40
0.0
 40
0.0
 40
0.0179085121239047
 40
0.0369543412847389
 40
0.0723414154699159
 40
0.105439860153487
 40
0.1458571667333518
 40
0.1823201038386627
 40
0.2204251623339445
 40
0.2513133531286574
 40
0.284168139576104
 40
0.3189791686702933
 40
0.3557454043771524
 40
0.3928196422392651
 40
0.4241924663064375
 40
0.449295461017143
 40
0.4681082875444169
 40
0.4824527629989759
 40
0.502271255620297
 40
0.5290617611824546
 40
0.5628400133038133
 40
0.6036443460853453
 40
0.6502040461061244
 40
0.6939836909847278
 40
0.7334127677674486
 40
0.7685006371406107
 40
0.7992470398504158
 40
0.825631593798455
 40
0.8527816302563244
 40
0.8763987471156603
 40
0.9046826173616551
 40
0.9353611537570055
 40
0.9730522558020586
 40
1.0
 40
1.0
 40
1.0
 40
1.0
 10
119.4340171689157
 20
172.756083427356
 30
0.0
 10
119.4328161467562
 20
172.7541349859552
 30
0.0
 10
119.4303378290452
 20
172.7501143633595
 30
0.0
 10
119.4582883885244
 20
172.6862411458678
 30
0.0
 10
119.4913062422461
 20
172.580122479348
 30
0.0
 10
119.5376120310933
 20
172.3995737764895
 30
0.0
 10
119.5869052295307
 20
172.1666714744275
 30
0.0
 10
119.6408896429691
 20
171.8667366772536
 30
0.0
 10
119.6906520231891
 20
171.5522913094052
 30
0.0
 10
119.7388061573692
 20
171.2188453993261
 30
0.0
 10
119.7854966757974
 20
170.8722925697732
 30
0.0
 10
119.8350557767422
 20
170.4818992495314
 30
0.0
 10
119.8866938120964
 20
170.054361228262
 30
0.0
 10
119.9367085831646
 20
169.6242155979236
 30
0.0
 10
119.9811492575704
 20
169.2334398587025
 30
0.0
 10
120.0169077070446
 20
168.9158552542726
 30
0.0
 10
120.0445790962729
 20
168.669424832888
 30
0.0
 10
120.0697420040015
 20
168.4455018021807
 30
0.0
 10
120.0987071527672
 20
168.1885144476032
 30
0.0
 10
120.1369354797261
 20
167.8521495547188
 30
0.0
 10
120.1851809881139
 20
167.435459902481
 30
0.0
 10
120.2428470589187
 20
166.9541296617887
 30
0.0
 10
120.305293244879
 20
166.4617669808374
 30
0.0
 10
120.3671931271495
 20
166.0123540981647
 30
0.0
 10
120.4238222884278
 20
165.6409913773259
 30
0.0
 10
120.4743557937973
 20
165.3463128847513
 30
0.0
 10
120.5190033849213
 20
165.1165385341819
 30
0.0
 10
120.5596576374732
 20
164.9325267329532
 30
0.0
 10
120.5990375108957
 20
164.7773695890204
 30
0.0
 10
120.6458383461802
 20
164.6272011198172
 30
0.0
 10
120.7009732906665
 20
164.4910276648512
 30
0.0
 10
120.7780654339549
 20
164.3664717663353
 30
0.0
 10
120.870162891941
 20
164.2663964721473
 30
0.0
 10
120.9908946764046
 20
164.2465273159916
 30
0.0
 10
121.0412274009718
 20
164.23824392344
 30
0.0
  0
SPLINE
  5
ED
330
1F
100
AcDbEntity
  8
0
  6
Continuous
 62
     7
370
    15
100
AcDbSpline
210
0.0
220
0.0
230
1.0
 70
     8
 71
     3
 72
    36
 73
    32
 74
     0
 42
0.00000001
 43
0.00000001
 12
1.0
 22
0.0
 32
0.0
 13
1.0
 23
0.0
 33
0.0
 40
0.0
 40
0.0
 40
0.0
 40
0.0
 40
0.0110391976826682
 40
0.0391741801060074
 40
0.0672405951350557
 40
0.0977229317269631
 40
0.130611494001653
 40
0.1658924160572051
 40
0.2035667211437431
 40
0.2434060476611312
 40
0.2815423069872813
 40
0.3165955792560424
 40
0.3485410887966435
 40
0.3862808771983652
 40
0.4213499328198195
 40
0.4577717803927095
 40
0.4958189264814817
 40
0.5375277162894135
 40
0.5833622773357161
 40
0.6204996608879005
 40
0.660010638154235
 40
0.701132096342297
 40
0.740306284146291
 40
0.7888291980669896
 40
0.8331857023194728
 40
0.873366127201147
 40
0.9007496258467835
 40
0.9289335547607879
 40
0.9503147431570788
 40
0.9739952611094058
 40
1.0
 40
1.0
 40
1.0
 40
1.0
 10
122.4416290118446
 20
172.7495894901194
 30
0.0
 10
122.4385733829011
 20
172.750070731521
 30
0.0
 10
122.4277300442809
 20
172.7517784858236
 30
0.0
 10
122.454790533356
 20
172.6980124193119
 30
0.0
 10
122.4874912551956
 20
172.5922452823458
 30
0.0
 10
122.5265984299735
 20
172.4458787328834
 30
0.0
 10
122.5703335972926
 20
172.2485905830738
 30
0.0
 10
122.6188955324328
 20
171.9944691731273
 30
0.0
 10
122.6715706468211
 20
171.6783255382655
 30
0.0
 10
122.7261841703804
 20
171.3109815716043
 30
0.0
 10
122.7796473853211
 20
170.9175951139592
 30
0.0
 10
122.8294763363206
 20
170.5262412409198
 30
0.0
 10
122.8792000321779
 20
170.1170913369333
 30
0.0
 10
122.929025682614
 20
169.6912999355259
 30
0.0
 10
122.9809652395003
 20
169.2356113838518
 30
0.0
 10
123.0330286442603
 20
168.7725541240753
 30
0.0
 10
123.0882453711578
 20
168.2805286557822
 30
0.0
 10
123.1479853204594
 20
167.7543831225737
 30
0.0
 10
123.207394555931
 20
167.2468729335948
 30
0.0
 10
123.2657543376477
 20
166.7710615911435
 30
0.0
 10
123.3219359086764
 20
166.3384764571909
 30
0.0
 10
123.3791735682097
 20
165.93113139661
 30
0.0
 10
123.4411848860408
 20
165.5328887845457
 30
0.0
 10
123.5057691798819
 20
165.1757060646889
 30
0.0
 10
123.5722310029173
 20
164.8758500641754
 30
0.0
 10
123.6317174571224
 20
164.6683517543469
 30
0.0
 10
123.6830093997019
 20
164.5295801564412
 30
0.0
 10
123.7358796106688
 20
164.4229148788272
 30
0.0
 10
123.8133474161704
 20
164.3275396594741
 30
0.0
 10
123.9109801595567
 20
164.2543125070803
 30
0.0
 10
123.9966981468609
 20
164.243540065208
 30
0.0
 10
124.0415620364675
 20
164.2379018828596
 30
0.0
  0
SPLINE
  5
EE
330
1F
100
AcDbEntity
  8
0
  6
Continuous
 62
     7
370
    15
100
AcDbSpline
210
0.0
220
0.0
230
1.0
 70
     8
 71
     3
 72
     9
 73
     5
 74
     0
 42
0.00000001
 43
0.00000001
 12
1.0
 22
0.0
 32
0.0
 13
1.0
 23
0.0
 33
0.0
 40
0.0
 40
0.0
 40
0.0
 40
0.0
 40
0.6138115080052421
 40
1.0
 40
1.0
 40
1.0
 40
1.0
 10
124.1062757994798
 20
165.4179216145505
 30
0.0
 10
124.0910242387769
 20
165.3375193967195
 30
0.0
 10
124.0661769354858
 20
165.206530947037
 30
0.0
 10
124.0446193156603
 20
165.1107562594463
 30
0.0
 10
124.0362940109688
 20
165.0737691772744
 30
0.0
  0
SPLINE
  5
EF
330
1F
100
AcDbEntity
  8
0
  6
Continuous
 62
     7
370
    15
100
AcDbSpline
210
0.0
220
0.0
230
1.0
 70
     8
 71
     3
 72
    17
 73
    13
 74
     0
 42
0.00000001
 43
0.00000001
 12
1.0
 22
0.0
 32
0.0
 13
1.0
 23
0.0
 33
0.0
 40
0.0
 40
0.0
 40
0.0
 40
0.0
 40
0.0685968589463665
 40
0.1325296706378378
 40
0.2462634314069428
 40
0.3440998550107963
 40
0.4365382442995701
 40
0.5560818087841819
 40
0.6717534247172527
 40
0.7857844435045102
 40
0.9107065222817535
 40
1.0
 40
1.0
 40
1.0
 40
1.0
 10
122.5422023992088
 20
173.2363938150879
 30
0.0
 10
122.5039537425057
 20
173.2322360927619
 30
0.0
 10
122.4300570371307
 20
173.2242033405494
 30
0.0
 10
122.314728615454
 20
173.1515087006611
 30
0.0
 10
122.2205175536769
 20
173.0291680676102
 30
0.0
 10
122.1613575153344
 20
172.8907258982271
 30
0.0
 10
122.1052600956261
 20
172.7222473347725
 30
0.0
 10
122.0493677086283
 20
172.5030485738496
 30
0.0
 10
121.9925320630208
 20
172.2278121729715
 30
0.0
 10
121.9365112726776
 20
171.9097155796728
 30
0.0
 10
121.8848080895064
 20
171.5826542449654
 30
0.0
 10
121.8511863379334
 20
171.3387542090729
 30
0.0
 10
121.8371714681731
 20
171.2370870716495
 30
0.0
  0
SPLINE
  5
F0
330
1F
100
AcDbEntity
  8
0
  6
Continuous
 62
     7
370
    15
100
AcDbSpline
210
0.0
220
0.0
230
1.0
 70
     8
 71
     3
 72
    11
 73
     7
 74
     0
 42
0.00000001
 43
0.00000001
 12
1.0
 22
0.0
 32
0.0
 13
1.0
 23
0.0
 33
0.0
 40
0.0
 40
0.0
 40
0.0
 40
0.0
 40
0.1600839204401858
 40
0.4664769499735084
 40
0.7494499265925813
 40
1.0
 40
1.0
 40
1.0
 40
1.0
 10
121.2350174633175
 20
166.2370870716495
 30
0.0
 10
121.2241385798984
 20
166.1582013541265
 30
0.0
 10
121.1924380296963
 20
165.9283321155083
 30
0.0
 10
121.1421621495663
 20
165.6151250951404
 30
0.0
 10
121.0864836003309
 20
165.3016629669858
 30
0.0
 10
121.0524895068656
 20
165.1469290417725
 30
0.0
 10
121.0365253932012
 20
165.0742637720735
 30
0.0
  0
SPLINE
  5
F1
330
1F
100
AcDbEntity
  8
0
  6
Continuous
 62
     7
370
    15
100
AcDbSpline
210
0.0
220
0.0
230
1.0
 70
     8
 71
     3
 72
    14
 73
    10
 74
     0
 42
0.00000001
 43
0.00000001
 12
1.0
 22
0.0
 32
0.0
 13
1.0
 23
0.0
 33
0.0
 40
0.0
 40
0.0
 40
0.0
 40
0.0
 40
0.1417053698068091
 40
0.2704038088745578
 40
0.3860832231356325
 40
0.5371873710010595
 40
0.6798960888217016
 40
0.8888619518516856
 40
1.0
 40
1.0
 40
1.0
 40
1.0
 10
119.5414977677912
 20
173.2367952575368
 30
0.0
 10
119.4974786929269
 20
173.231045526374
 30
0.0
 10
119.413480990351
 20
173.2200738235476
 30
0.0
 10
119.3164848742725
 20
173.1478515908829
 30
0.0
 10
119.2388534994334
 20
173.0541444528442
 30
0.0
 10
119.1848551515276
 20
172.9483143892087
 30
0.0
 10
119.135632044561
 20
172.8158920950309
 30
0.0
 10
119.0897023215191
 20
172.6670790521237
 30
0.0
 10
119.0602441067285
 20
172.5334739246902
 30
0.0
 10
119.0500164013508
 20
172.4870870716495
 30
0.0
  0
SPLINE
  5
F2
330
1F
100
AcDbEntity
  8
0
  6
Continuous
 62
     7
370
    15
100
AcDbSpline
210
0.0
220
0.0
230
1.0
 70
     8
 71
     3
 72
    14
 73
    10
 74
     0
 42
0.00000001
 43
0.00000001
 12
1.0
 22
0.0
 32
0.0
 13
1.0
 23
0.0
 33
0.0
 40
0.0
 40
0.0
 40
0.0
 40
0.0
 40
0.1313137851807127
 40
0.2746954599573324
 40
0.3819364446898403
 40
0.5224068684812937
 40
0.6994680960221463
 40
0.9127248614282115
 40
1.0
 40
1.0
 40
1.0
 40
1.0
 10
116.5415794814
 20
173.2370228887158
 30
0.0
 10
116.4926706154251
 20
173.2294045545371
 30
0.0
 10
116.3903581018037
 20
173.2134677524074
 30
0.0
 10
116.3098404257259
 20
173.1403404316093
 30
0.0
 10
116.2513985253353
 20
173.066482003621
 30
0.0
 10
116.1987914524675
 20
172.9700338396792
 30
0.0
 10
116.1400572128543
 20
172.8185702661684
 30
0.0
 10
116.0908330170365
 20
172.6591929221469
 30
0.0
 10
116.061755744317
 20
172.5258191221363
 30
0.0
 10
116.0533116391411
 20
172.4870870716495
 30
0.0
  0
SPLINE
  5
F3
330
1F
100
AcDbEntity
  8
0
  6
Continuous
 62
     7
370
    15
100
AcDbSpline
210
0.0
220
0.0
230
1.0
 70
     8
 71
     3
 72
    13
 73
     9
 74
     0
 42
0.00000001
 43
0.00000001
 12
1.0
 22
0.0
 32
0.0
 13
1.0
 23
0.0
 33
0.0
 40
0.0
 40
0.0
 40
0.0
 40
0.0
 40
0.138968217426495
 40
0.3019297657992875
 40
0.4858361821856733
 40
0.6684421293474601
 40
0.9051039468210677
 40
1.0
 40
1.0
 40
1.0
 40
1.0
 10
118.0297966034141
 20
164.2384951882769
 30
0.0
 10
118.0775524584091
 20
164.2455794920651
 30
0.0
 10
118.1813093776618
 20
164.2609712285588
 30
0.0
 10
118.2820822331734
 20
164.3517245627715
 30
0.0
 10
118.3612008347136
 20
164.4672739541572
 30
0.0
 10
118.4335642238875
 20
164.6421617313368
 30
0.0
 10
118.484372193528
 20
164.8116141670932
 30
0.0
 10
118.5139000224603
 20
164.948040213005
 30
0.0
 10
118.5223512603064
 20
164.9870870716495
 30
0.0
  0
SPLINE
  5
F4
330
1F
100
AcDbEntity
  8
0
  6
Continuous
 62
     7
370
    15
100
AcDbSpline
210
0.0
220
0.0
230
1.0
 70
     8
 71
     3
 72
    17
 73
    13
 74
     0
 42
0.00000001
 43
0.00000001
 12
1.0
 22
0.0
 32
0.0
 13
1.0
 23
0.0
 33
0.0
 40
0.0
 40
0.0
 40
0.0
 40
0.0
 40
0.0478880782822908
 40
0.1026779559488875
 40
0.1982413609131791
 40
0.3042459018253684
 40
0.4059014745276101
 40
0.5027577928619782
 40
0.6637045069526052
 40
0.8112611792764236
 40
0.9493019426824734
 40
1.0
 40
1.0
 40
1.0
 40
1.0
 10
121.0296843855499
 20
164.2382404730493
 30
0.0
 10
121.0607899200091
 20
164.2409988041122
 30
0.0
 10
121.1274840286793
 20
164.2469130066762
 30
0.0
 10
121.21697337688
 20
164.2945675613667
 30
0.0
 10
121.2974920440819
 20
164.3726983757746
 30
0.0
 10
121.3661769689124
 20
164.4914440875802
 30
0.0
 10
121.4323780375752
 20
164.6534254752347
 30
0.0
 10
121.5018330810847
 20
164.8860506515938
 30
0.0
 10
121.5725269928094
 20
165.2040556928387
 30
0.0
 10
121.6442304556884
 20
165.6161844356361
 30
0.0
 10
121.6971169956783
 20
165.9580665423217
 30
0.0
 10
121.7268561816713
 20
166.1780076228012
 30
0.0
 10
121.7348445698061
 20
166.2370870716495
 30
0.0
  0
SPLINE
  5
F5
330
1F
100
AcDbEntity
  8
0
  6
Continuous
 62
     7
370
    15
100
AcDbSpline
210
0.0
220
0.0
230
1.0
 70
     8
 71
     3
 72
    12
 73
     8
 74
     0
 42
0.00000001
 43
0.00000001
 12
1.0
 22
0.0
 32
0.0
 13
1.0
 23
0.0
 33
0.0
 40
0.0
 40
0.0
 40
0.0
 40
0.0
 40
0.0229907435785379
 40
0.3309856040038177
 40
0.6103967391397833
 40
0.8610953589733619
 40
1.0
 40
1.0
 40
1.0
 40
1.0
 10
122.3363181662443
 20
171.2370870716495
 30
0.0
 10
122.3378793466024
 20
171.248711249192
 30
0.0
 10
122.3603548364452
 20
171.4160583996571
 30
0.0
 10
122.4015929363001
 20
171.6842396659766
 30
0.0
 10
122.45770798015
 20
172.0197276607097
 30
0.0
 10
122.502102108811
 20
172.2522021965308
 30
0.0
 10
122.5271515314991
 20
172.3593648752769
 30
0.0
 10
122.5360823629781
 20
172.3975714174649
 30
0.0
  0
SPLINE
  5
F6
330
1F
100
AcDbEntity
  8
0
  6
Continuous
 62
     7
370
    15
100
AcDbSpline
210
0.0
220
0.0
230
1.0
 70
     8
 71
     3
 72
    13
 73
     9
 74
     0
 42
0.00000001
 43
0.00000001
 12
1.0
 22
0.0
 32
0.0
 13
1.0
 23
0.0
 33
0.0
 40
0.0
 40
0.0
 40
0.0
 40
0.0
 40
0.1019162794640684
 40
0.2303917656356228
 40
0.3849253846503587
 40
0.5649170830420311
 40
0.7699534640677724
 40
1.0
 40
1.0
 40
1.0
 40
1.0
 10
124.0300439029701
 20
164.2378765870775
 30
0.0
 10
124.0676584555232
 20
164.2423636110588
 30
0.0
 10
124.1526898481709
 20
164.2525069697346
 30
0.0
 10
124.2510558074411
 20
164.326810596177
 30
0.0
 10
124.3471784308065
 20
164.4529067899628
 30
0.0
 10
124.4353125366156
 20
164.6555985271778
 30
0.0
 10
124.5196897544301
 20
164.9481678423692
 30
0.0
 10
124.5716818715541
 20
165.2178038524081
 30
0.0
 10
124.599172278495
 20
165.3603716886857
 30
0.0
  0
SPLINE
  5
F7
330
1F
100
AcDbEntity
  8
0
  6
Continuous
 62
     7
370
    15
100
AcDbSpline
210
0.0
220
0.0
230
1.0
 70
     8
 71
     3
 72
    35
 73
    31
 74
     0
 42
0.00000001
 43
0.00000001
 12
1.0
 22
0.0
 32
0.0
 13
1.0
 23
0.0
 33
0.0
 40
0.0
 40
0.0
 40
0.0
 40
0.0
 40
0.0114482637335416
 40
0.0403172849517073
 40
0.0695188713607484
 40
0.1012557985755197
 40
0.1355157108833692
 40
0.1722818841318625
 40
0.2115557828705579
 40
0.2527382392429813
 40
0.2920412072371866
 40
0.3287819004041641
 40
0.3629406943632596
 40
0.4044607214170132
 40
0.4413959241863685
 40
0.4752575386866054
 40
0.5079114738352105
 40
0.5395067677686877
 40
0.5750133109383642
 40
0.6058056090416866
 40
0.6401851283308151
 40
0.6781620666925608
 40
0.7194644392416882
 40
0.7726615021990028
 40
0.8215586455428007
 40
0.8661939184821694
 40
0.8969113189968988
 40
0.9282273225263624
 40
0.9624793027799041
 40
1.0
 40
1.0
 40
1.0
 40
1.0
 10
124.1309322069992
 20
164.7236452562395
 30
0.0
 10
124.1340282934719
 20
164.7230961020839
 30
0.0
 10
124.1449317635056
 20
164.7211621490334
 30
0.0
 10
124.1160354880415
 20
164.7785808336668
 30
0.0
 10
124.0822353992868
 20
164.8893809551461
 30
0.0
 10
124.0412028063733
 20
165.0451133653933
 30
0.0
 10
123.9954448614246
 20
165.2554755088424
 30
0.0
 10
123.9446341517055
 20
165.5269928928164
 30
0.0
 10
123.889734317579
 20
165.8638922297638
 30
0.0
 10
123.8330906254672
 20
166.2530077197535
 30
0.0
 10
123.7776237053938
 20
166.6689912820325
 30
0.0
 10
123.7253761432459
 20
167.0863836650521
 30
0.0
 10
123.6719990234926
 20
167.5324333798496
 30
0.0
 10
123.618447530034
 20
167.9963191807329
 30
0.0
 10
123.5650584602403
 20
168.4688142216376
 30
0.0
 10
123.5158980435866
 20
168.9070265900174
 30
0.0
 10
123.4692678035853
 20
169.3212579784142
 30
0.0
 10
123.421841787164
 20
169.7371748677152
 30
0.0
 10
123.3752436728364
 20
170.1362657282135
 30
0.0
 10
123.3272986252707
 20
170.5328913219499
 30
0.0
 10
123.27814146299
 20
170.9222235701726
 30
0.0
 10
123.2238766678614
 20
171.3261313833109
 30
0.0
 10
123.160596065721
 20
171.7582784415138
 30
0.0
 10
123.0911957721527
 20
172.1708368614794
 30
0.0
 10
123.0188168962293
 20
172.5220675460021
 30
0.0
 10
122.953365297948
 20
172.7654105278712
 30
0.0
 10
122.8965967979073
 20
172.9284330786092
 30
0.0
 10
122.828383354035
 20
173.0655659186169
 30
0.0
 10
122.7144076086398
 20
173.2009387918141
 30
0.0
 10
122.5937548567076
 20
173.2242136687005
 30
0.0
 10
122.5306810585246
 20
173.2363811067734
 30
0.0
  0
SPLINE
  5
F8
330
1F
100
AcDbEntity
  8
0
  6
Continuous
 62
     7
370
    15
100
AcDbSpline
210
0.0
220
0.0
230
1.0
 70
     8
 71
     3
 72
    39
 73
    35
 74
     0
 42
0.00000001
 43
0.00000001
 12
1.0
 22
0.0
 32
0.0
 13
1.0
 23
0.0
 33
0.0
 40
0.0
 40
0.0
 40
0.0
 40
0.0
 40
0.0162211823062872
 40
0.0460948943798549
 40
0.0718275867317519
 40
0.0928302497888342
 40
0.1175704589783099
 40
0.1450458011868835
 40
0.1767514767415729
 40
0.2126951035218378
 40
0.2529084411320986
 40
0.2974146964583181
 40
0.341498809997961
 40
0.3788467615797288
 40
0.4094127078206085
 40
0.4331887776343804
 40
0.450155345706977
 40
0.4648638614466999
 40
0.4855319465799531
 40
0.5123308687448587
 40
0.545261098289792
 40
0.5823887877195573
 40
0.6295649947595523
 40
0.6735684581368608
 40
0.7143711216321834
 40
0.7519471180531665
 40
0.7890279295586926
 40
0.8300974643192366
 40
0.8636607410113657
 40
0.899654018673832
 40
0.9193726044405923
 40
0.9424478412895477
 40
0.969287725218853
 40
1.0
 40
1.0
 40
1.0
 40
1.0
 10
121.1278625021097
 20
164.7221053556818
 30
0.0
 10
121.1289459928082
 20
164.7247123010233
 30
0.0
 10
121.13202489226
 20
164.7321203227015
 30
0.0
 10
121.1156711854018
 20
164.779917535406
 30
0.0
 10
121.093254506975
 20
164.855731034909
 30
0.0
 10
121.0655823756093
 20
164.9536343657529
 30
0.0
 10
121.0314346026455
 20
165.0914182262853
 30
0.0
 10
120.9922898170403
 20
165.2743555020391
 30
0.0
 10
120.9473419565604
 20
165.5135926657654
 30
0.0
 10
120.8960982462894
 20
165.8231085845425
 30
0.0
 10
120.8385437103779
 20
166.2129380062576
 30
0.0
 10
120.7769767337278
 20
166.6722783022523
 30
0.0
 10
120.7166989009778
 20
167.1568588082002
 30
0.0
 10
120.6630423739836
 20
167.6097999474482
 30
0.0
 10
120.6190827371825
 20
167.9916682203453
 30
0.0
 10
120.5848982388423
 20
168.2931141343815
 30
0.0
 10
120.5583195010242
 20
168.5290416467563
 30
0.0
 10
120.5332342568652
 20
168.752308418059
 30
0.0
 10
120.5034384114236
 20
169.0176563409495
 30
0.0
 10
120.4649048208324
 20
169.359544974665
 30
0.0
 10
120.4184569407269
 20
169.7666873300156
 30
0.0
 10
120.3621974502409
 20
170.2474868351849
 30
0.0
 10
120.3005494334431
 20
170.7501666002204
 30
0.0
 10
120.2371308570245
 20
171.2314962988245
 30
0.0
 10
120.1781765537846
 20
171.6407796793151
 30
0.0
 10
120.1224508245426
 20
171.9886696552143
 30
0.0
 10
120.0659369471231
 20
172.2985188562155
 30
0.0
 10
120.009297175906
 20
172.5586454589137
 30
0.0
 10
119.9500553459616
 20
172.775892415778
 30
0.0
 10
119.9006771512654
 20
172.9152908084474
 30
0.0
 10
119.8515598797732
 20
173.0213306905879
 30
0.0
 10
119.7854618664942
 20
173.1196853405581
 30
0.0
 10
119.6807653112762
 20
173.2139938768528
 30
0.0
 10
119.5824488552923
 20
173.228837729033
 30
0.0
 10
119.5299830211804
 20
173.2367590386274
 30
0.0
  0
SPLINE
  5
F9
330
1F
100
AcDbEntity
  8
0
  6
Continuous
 62
     7
370
    15
100
AcDbSpline
210
0.0
220
0.0
230
1.0
 70
     8
 71
     3
 72
    37
 73
    33
 74
     0
 42
0.00000001
 43
0.00000001
 12
1.0
 22
0.0
 32
0.0
 13
1.0
 23
0.0
 33
0.0
 40
0.0
 40
0.0
 40
0.0
 40
0.0
 40
0.017083955103571
 40
0.0471776902156407
 40
0.076244454900562
 40
0.1145312904586705
 40
0.1522032684332423
 40
0.190561777106281
 40
0.2220200230003591
 40
0.2558995846353874
 40
0.2922143639078093
 40
0.3309585977330939
 40
0.3705865450347653
 40
0.404063264043478
 40
0.4305120339869091
 40
0.4499225909173165
 40
0.4634076148128463
 40
0.4810984643702945
 40
0.5054140055099905
 40
0.5363624032334875
 40
0.5739470450068698
 40
0.618182747173967
 40
0.667024800948463
 40
0.713369456587179
 40
0.7566143247010948
 40
0.7967584929964254
 40
0.8338285570709941
 40
0.8678366724214551
 40
0.8989387779061914
 40
0.9304360654153302
 40
0.9640396386143353
 40
1.0
 40
1.0
 40
1.0
 40
1.0
 10
118.1304020191087
 20
164.7254063881106
 30
0.0
 10
118.1340030479328
 20
164.7249512843742
 30
0.0
 10
118.1439473624251
 20
164.7236945061307
 30
0.0
 10
118.1085328333662
 20
164.7998131427697
 30
0.0
 10
118.0724501186652
 20
164.9255498795806
 30
0.0
 10
118.0259444158168
 20
165.1113970450207
 30
0.0
 10
117.9738029634095
 20
165.3675957698953
 30
0.0
 10
117.9230766732333
 20
165.6563547080714
 30
0.0
 10
117.8741618106617
 20
165.9691889628781
 30
0.0
 10
117.8260063697982
 20
166.3055037634791
 30
0.0
 10
117.7743391925573
 20
166.6946032292038
 30
0.0
 10
117.7198758445311
 20
167.1311508024071
 30
0.0
 10
117.6666972563975
 20
167.5784741890078
 30
0.0
 10
117.6193417518645
 20
167.9893575241661
 30
0.0
 10
117.5816022382339
 20
168.3222481187768
 30
0.0
 10
117.5533825770722
 20
168.5729049936451
 30
0.0
 10
117.5293345723555
 20
168.786956677863
 30
0.0
 10
117.502957358358
 20
169.0217624723948
 30
0.0
 10
117.4682728671445
 20
169.3295160336625
 30
0.0
 10
117.424105674368
 20
169.7173376302549
 30
0.0
 10
117.3704028614733
 20
170.1782579923457
 30
0.0
 10
117.3080791878479
 20
170.6905514334568
 30
0.0
 10
117.2415681331716
 20
171.2002541092069
 30
0.0
 10
117.1751643698494
 20
171.6615480785175
 30
0.0
 10
117.1123064210518
 20
172.0475812208626
 30
0.0
 10
117.0528249999685
 20
172.3607829350872
 30
0.0
 10
116.9967618317206
 20
172.6067121866975
 30
0.0
 10
116.9423318177436
 20
172.79720243844
 30
0.0
 10
116.8912979655882
 20
172.9405185946624
 30
0.0
 10
116.8206421983771
 20
173.075694151083
 30
0.0
 10
116.7079381905764
 20
173.2036475193012
 30
0.0
 10
116.5906585471829
 20
173.2256400147015
 30
0.0
 10
116.5300320402897
 20
173.2370088092801
 30
0.0
  0
SPLINE
  5
FA
330
1F
100
AcDbEntity
  8
0
  6
Continuous
 62
     7
370
    15
100
AcDbSpline
210
0.0
220
0.0
230
1.0
 70
     8
 71
     3
 72
    35
 73
    31
 74
     0
 42
0.00000001
 43
0.00000001
 12
1.0
 22
0.0
 32
0.0
 13
1.0
 23
0.0
 33
0.0
 40
0.0
 40
0.0
 40
0.0
 40
0.0
 40
0.0087051541336784
 40
0.0306454555520246
 40
0.0735970535769643
 40
0.1143747669804614
 40
0.1528069929690194
 40
0.1887613336493917
 40
0.2224285031899315
 40
0.2550860689175713
 40
0.3177353825450187
 40
0.3768764773177272
 40
0.4143977019965381
 40
0.4490250295008482
 40
0.4791305303162022
 40
0.5047211723804895
 40
0.5338819924774532
 40
0.5730423955654186
 40
0.6090258819177544
 40
0.6506951142389701
 40
0.6966712729868347
 40
0.7395532394790614
 40
0.7902283501534892
 40
0.8334873172734402
 40
0.8692678737959285
 40
0.8917210268140016
 40
0.9191411295872587
 40
0.9550722277943386
 40
0.976424436142532
 40
0.9999999999999999
 40
0.9999999999999999
 40
0.9999999999999999
 40
0.9999999999999999
 10
125.4507964190917
 20
172.7499734160251
 30
0.0
 10
125.4493818010398
 20
172.7494343172872
 30
0.0
 10
125.4444018071227
 20
172.7475364845599
 30
0.0
 10
125.46383673571
 20
172.7026204066168
 30
0.0
 10
125.4887057474418
 20
172.6054197269449
 30
0.0
 10
125.5343864539692
 20
172.4204431793245
 30
0.0
 10
125.5831997380387
 20
172.1859014362804
 30
0.0
 10
125.6330488858497
 20
171.9121228711869
 30
0.0
 10
125.6820477308527
 20
171.6087017960709
 30
0.0
 10
125.7436792934301
 20
171.1891234611356
 30
0.0
 10
125.8179100395946
 20
170.6268282622282
 30
0.0
 10
125.8946722972364
 20
169.9884425103619
 30
0.0
 10
125.9578713406895
 20
169.4391836024016
 30
0.0
 10
126.0070905235945
 20
169.0033663213601
 30
0.0
 10
126.0505642924733
 20
168.6160016430328
 30
0.0
 10
126.0914151752473
 20
168.2528827217351
 30
0.0
 10
126.1366555372281
 20
167.8542895448287
 30
0.0
 10
126.186969807016
 20
167.4201274964099
 30
0.0
 10
126.243319419534
 20
166.9512305048883
 30
0.0
 10
126.3030265771465
 20
166.4793940150209
 30
0.0
 10
126.3661758547026
 20
166.0183672415957
 30
0.0
 10
126.4340149250233
 20
165.5747977568165
 30
0.0
 10
126.5012484326726
 20
165.1983559512435
 30
0.0
 10
126.5656812330375
 20
164.9023844521276
 30
0.0
 10
126.6187005849035
 20
164.7099360893044
 30
0.0
 10
126.6630167669513
 20
164.5776552388355
 30
0.0
 10
126.7275080362724
 20
164.4323118791189
 30
0.0
 10
126.8226311606736
 20
164.317995305018
 30
0.0
 10
126.9351428025229
 20
164.2491247335731
 30
0.0
 10
127.0047706569649
 20
164.2420616772771
 30
0.0
 10
127.0413074325063
 20
164.2383553832286
 30
0.0
  0
SPLINE
  5
FB
330
1F
100
AcDbEntity
  8
0
  6
Continuous
 62
     7
370
    15
100
AcDbSpline
210
0.0
220
0.0
230
1.0
 70
     8
 71
     3
 72
    37
 73
    33
 74
     0
 42
0.00000001
 43
0.00000001
 12
1.0
 22
0.0
 32
0.0
 13
1.0
 23
0.0
 33
0.0
 40
0.0
 40
0.0
 40
0.0
 40
0.0
 40
0.0205512963962013
 40
0.0536618436178862
 40
0.0853318561576949
 40
0.1259403249484798
 40
0.1646025001137535
 40
0.2030059055264583
 40
0.2344879960191395
 40
0.2683950247945814
 40
0.3047171374967639
 40
0.3434415866056588
 40
0.383051430893091
 40
0.4165419107108459
 40
0.4430116898461163
 40
0.4624345717902652
 40
0.4759231691926272
 40
0.4936108141645021
 40
0.5179131305853986
 40
0.5488371011880526
 40
0.5864084601569908
 40
0.6306717383839959
 40
0.6794634187994785
 40
0.7253738397019093
 40
0.7678090246776524
 40
0.8068052784079961
 40
0.8423607582503879
 40
0.8744548181860182
 40
0.9032712165285209
 40
0.9327673123906471
 40
0.9649163646400651
 40
1.0
 40
1.0
 40
1.0
 40
1.0
 10
128.4441593815205
 20
172.7462953211023
 30
0.0
 10
128.4404156076864
 20
172.7458326720523
 30
0.0
 10
128.4306401754142
 20
172.7446246411576
 30
0.0
 10
128.4705166522737
 20
172.6537481889919
 30
0.0
 10
128.510343982637
 20
172.5085842379521
 30
0.0
 10
128.5598044989136
 20
172.3007416223103
 30
0.0
 10
128.6137942993141
 20
172.0229428358986
 30
0.0
 10
128.6651839965047
 20
171.7172654106569
 30
0.0
 10
128.7142057381078
 20
171.392580401832
 30
0.0
 10
128.7624128318105
 20
171.0469737869489
 30
0.0
 10
128.8141252984925
 20
170.6497617727822
 30
0.0
 10
128.868643797589
 20
170.2062589189133
 30
0.0
 10
128.9218734470716
 20
169.7532470928398
 30
0.0
 10
128.9692356096704
 20
169.3388209623447
 30
0.0
 10
129.0069801651364
 20
169.0042570085614
 30
0.0
 10
129.0352103809395
 20
168.7529423187875
 30
0.0
 10
129.059264295484
 20
168.5387636258178
 30
0.0
 10
129.0856457246146
 20
168.3042629021923
 30
0.0
 10
129.1203413764918
 20
167.9976261312412
 30
0.0
 10
129.164545358529
 20
167.612319866868
 30
0.0
 10
129.2183044601447
 20
167.1564169258594
 30
0.0
 10
129.2806091264189
 20
166.6521756091581
 30
0.0
 10
129.3469334964673
 20
166.1537676808381
 30
0.0
 10
129.4128513718613
 20
165.7080618473178
 30
0.0
 10
129.4747266929859
 20
165.3422384439576
 30
0.0
 10
129.5326337048805
 20
165.0507866376654
 30
0.0
 10
129.586535521936
 20
164.8241394812185
 30
0.0
 10
129.6382393009855
 20
164.6503731418303
 30
0.0
 10
129.6863369467932
 20
164.5199766373609
 30
0.0
 10
129.7545673938682
 20
164.3928279386655
 30
0.0
 10
129.8657816430983
 20
164.2701393157877
 30
0.0
 10
129.9809459309211
 20
164.2490254905573
 30
0.0
 10
130.041041429467
 20
164.2380077881304
 30
0.0
  0
SPLINE
  5
FC
330
1F
100
AcDbEntity
  8
0
  6
Continuous
 62
     7
370
    15
100
AcDbSpline
210
0.0
220
0.0
230
1.0
 70
     8
 71
     3
 72
    28
 73
    24
 74
     0
 42
0.00000001
 43
0.00000001
 12
1.0
 22
0.0
 32
0.0
 13
1.0
 23
0.0
 33
0.0
 40
0.0
 40
0.0
 40
0.0
 40
0.0
 40
0.0164738048326252
 40
0.0402190984639093
 40
0.0873201614420373
 40
0.1398565255886422
 40
0.1977944416766065
 40
0.2611009147732283
 40
0.3258704622603361
 40
0.3839311617093997
 40
0.4349467450668698
 40
0.479657406369933
 40
0.524634523623237
 40
0.5714340396786608
 40
0.5996813826052669
 40
0.6351003265677176
 40
0.6777017802359359
 40
0.727527693293741
 40
0.7846422293466436
 40
0.8490622612167108
 40
0.8960903185936709
 40
0.9463842617537597
 40
1.0
 40
1.0
 40
1.0
 40
1.0
 10
131.4379009205773
 20
172.7524971864111
 30
0.0
 10
131.4360879227413
 20
172.7515220951515
 30
0.0
 10
131.4316616751793
 20
172.7491415102301
 30
0.0
 10
131.4537115356378
 20
172.6984031628687
 30
0.0
 10
131.4961173073861
 20
172.5677584065271
 30
0.0
 10
131.5528561353431
 20
172.3357575045769
 30
0.0
 10
131.6195174603497
 20
171.9968670930434
 30
0.0
 10
131.692549960442
 20
171.5475874220703
 30
0.0
 10
131.766338026423
 20
171.0225781289231
 30
0.0
 10
131.8352914684325
 20
170.4816264920159
 30
0.0
 10
131.8964571088177
 20
169.9716766335779
 30
0.0
 10
131.9524855229554
 20
169.4867572026285
 30
0.0
 10
132.0068037597219
 20
169.006413021572
 30
0.0
 10
132.0545609363641
 20
168.5805168095241
 30
0.0
 10
132.0984931532804
 20
168.19037994025
 30
0.0
 10
132.1408002043747
 20
167.8181963997716
 30
0.0
 10
132.1917724302791
 20
167.379003359473
 30
0.0
 10
132.2514813179785
 20
166.8839677609122
 30
0.0
 10
132.3199634791355
 20
166.3504791406796
 30
0.0
 10
132.3874892639613
 20
165.8730082879289
 30
0.0
 10
132.4524015492725
 20
165.4687426019394
 30
0.0
 10
132.5131275904903
 20
165.1364641409481
 30
0.0
 10
132.5550056925277
 20
164.9586948970539
 30
0.0
 10
132.5766141252232
 20
164.8669688026239
 30
0.0
  0
SPLINE
  5
FD
330
1F
100
AcDbEntity
  8
0
  6
Continuous
 62
     7
370
    15
100
AcDbSpline
210
0.0
220
0.0
230
1.0
 70
     8
 71
     3
 72
    17
 73
    13
 74
     0
 42
0.00000001
 43
0.00000001
 12
1.0
 22
0.0
 32
0.0
 13
1.0
 23
0.0
 33
0.0
 40
0.0
 40
0.0
 40
0.0
 40
0.0
 40
0.0688327910527231
 40
0.1331892226916839
 40
0.2483340336216585
 40
0.3482825471575804
 40
0.4426222668715021
 40
0.5639520383741798
 40
0.680547219030542
 40
0.7947280852078515
 40
0.919670689596729
 40
1.0
 40
1.0
 40
1.0
 40
1.0
 10
131.5420127299268
 20
173.2361347273225
 30
0.0
 10
131.503715830165
 20
173.2319426838864
 30
0.0
 10
131.4296125687287
 20
173.2238312155265
 30
0.0
 10
131.3138418366094
 20
173.1506281071819
 30
0.0
 10
131.2190576717148
 20
173.026863069914
 30
0.0
 10
131.1591814727967
 20
172.8853420172525
 30
0.0
 10
131.1021578086533
 20
172.7116836671511
 30
0.0
 10
131.045615829462
 20
172.4863119746627
 30
0.0
 10
130.9884104249133
 20
172.2058754705186
 30
0.0
 10
130.9322862535003
 20
171.8839036702686
 30
0.0
 10
130.8820011981418
 20
171.5638703945033
 30
0.0
 10
130.849798293918
 20
171.3289994188678
 30
0.0
 10
130.8371962918765
 20
171.2370870716495
 30
0.0
  0
SPLINE
  5
FE
330
1F
100
AcDbEntity
  8
0
  6
Continuous
 62
     7
370
    15
100
AcDbSpline
210
0.0
220
0.0
230
1.0
 70
     8
 71
     3
 72
    11
 73
     7
 74
     0
 42
0.00000001
 43
0.00000001
 12
1.0
 22
0.0
 32
0.0
 13
1.0
 23
0.0
 33
0.0
 40
0.0
 40
0.0
 40
0.0
 40
0.0
 40
0.1795263415417671
 40
0.4845826822066985
 40
0.76546001546866
 40
1.0
 40
1.0
 40
1.0
 40
1.0
 10
130.2350093483547
 20
166.2370870716495
 30
0.0
 10
130.2228079850801
 20
166.1490924929508
 30
0.0
 10
130.1898737131988
 20
165.9115749866101
 30
0.0
 10
130.1385370298122
 20
165.593597328843
 30
0.0
 10
130.0841449437029
 20
165.2898189763122
 30
0.0
 10
130.0513182974867
 20
165.1418577506712
 30
0.0
 10
130.0363805745388
 20
165.0745281861124
 30
0.0
  0
SPLINE
  5
FF
330
1F
100
AcDbEntity
  8
0
  6
Continuous
 62
     7
370
    15
100
AcDbSpline
210
0.0
220
0.0
230
1.0
 70
     8
 71
     3
 72
    17
 73
    13
 74
     0
 42
0.00000001
 43
0.00000001
 12
1.0
 22
0.0
 32
0.0
 13
1.0
 23
0.0
 33
0.0
 40
0.0
 40
0.0
 40
0.0
 40
0.0
 40
0.0811503812375739
 40
0.1545921969103918
 40
0.220342050178388
 40
0.3058008869144256
 40
0.3881472368960805
 40
0.5094062758327361
 40
0.6438296769801813
 40
0.7915011189075665
 40
0.9109832901480964
 40
1.0
 40
1.0
 40
1.0
 40
1.0
 10
128.5417088832439
 20
173.2365517897704
 30
0.0
 10
128.4965502586747
 20
173.2305061021113
 30
0.0
 10
128.4105226778408
 20
173.2189890134324
 30
0.0
 10
128.3121906999464
 20
173.1438854708693
 30
0.0
 10
128.2344548135351
 20
173.0472870802734
 30
0.0
 10
128.1814036348529
 20
172.9400727372965
 30
0.0
 10
128.1303687573881
 20
172.8019738326214
 30
0.0
 10
128.0711466993297
 20
172.595338080281
 30
0.0
 10
128.0048026478669
 20
172.2939041902746
 30
0.0
 10
127.9402440799677
 20
171.9333389050148
 30
0.0
 10
127.8838478254094
 20
171.5747773049955
 30
0.0
 10
127.8510552134127
 20
171.3381240405901
 30
0.0
 10
127.8370547045749
 20
171.2370870716495
 30
0.0
  0
SPLINE
  5
100
330
1F
100
AcDbEntity
  8
0
  6
Continuous
 62
     7
370
    15
100
AcDbSpline
210
0.0
220
0.0
230
1.0
 70
     8
 71
     3
 72
    12
 73
     8
 74
     0
 42
0.00000001
 43
0.00000001
 12
1.0
 22
0.0
 32
0.0
 13
1.0
 23
0.0
 33
0.0
 40
0.0
 40
0.0
 40
0.0
 40
0.0
 40
0.049169834916642
 40
0.3251248022294854
 40
0.586581030945337
 40
0.8316857262474378
 40
1.0
 40
1.0
 40
1.0
 40
1.0
 10
127.2355224560118
 20
166.2370870716495
 30
0.0
 10
127.2321767346702
 20
166.2124552117319
 30
0.0
 10
127.2100538824917
 20
166.0495824138499
 30
0.0
 10
127.1702397705094
 20
165.7896534757688
 30
0.0
 10
127.1178179137663
 20
165.4753398574306
 30
0.0
 10
127.0732058223973
 20
165.2389839940739
 30
0.0
 10
127.047032767671
 20
165.1243596224825
 30
0.0
 10
127.0363769946468
 20
165.0776928768737
 30
0.0
  0
SPLINE
  5
101
330
1F
100
AcDbEntity
  8
0
  6
Continuous
 62
     7
370
    15
100
AcDbSpline
210
0.0
220
0.0
230
1.0
 70
     8
 71
     3
 72
    18
 73
    14
 74
     0
 42
0.00000001
 43
0.00000001
 12
1.0
 22
0.0
 32
0.0
 13
1.0
 23
0.0
 33
0.0
 40
0.0
 40
0.0
 40
0.0
 40
0.0
 40
0.0520128452353683
 40
0.1180403696542205
 40
0.2157782082777933
 40
0.3274523306443003
 40
0.4225297490524585
 40
0.4975407381989599
 40
0.5572931690599964
 40
0.6706850839970868
 40
0.8071960654977091
 40
0.9110468752787354
 40
1.0
 40
1.0
 40
1.0
 40
1.0
 10
125.5421147118896
 20
173.2369009050408
 30
0.0
 10
125.5087842959995
 20
173.2335917316487
 30
0.0
 10
125.433142700263
 20
173.2260817396709
 30
0.0
 10
125.3414771934045
 20
173.1702239327802
 30
0.0
 10
125.2521543100276
 20
173.0750399390408
 30
0.0
 10
125.1788297332799
 20
172.9345498619073
 30
0.0
 10
125.1200359441766
 20
172.7700472132317
 30
0.0
 10
125.0784035253033
 20
172.618156706718
 30
0.0
 10
125.0385550739501
 20
172.4509264460445
 30
0.0
 10
124.9890079397135
 20
172.2109068845193
 30
0.0
 10
124.9330493546096
 20
171.8890007610145
 30
0.0
 10
124.8811685932587
 20
171.555402189948
 30
0.0
 10
124.8508702796674
 20
171.3375818897623
 30
0.0
 10
124.836891676613
 20
171.2370870716495
 30
0.0
  0
SPLINE
  5
102
330
1F
100
AcDbEntity
  8
0
  6
Continuous
 62
     7
370
    15
100
AcDbSpline
210
0.0
220
0.0
230
1.0
 70
     8
 71
     3
 72
    10
 73
     6
 74
     0
 42
0.00000001
 43
0.00000001
 12
1.0
 22
0.0
 32
0.0
 13
1.0
 23
0.0
 33
0.0
 40
0.0
 40
0.0
 40
0.0
 40
0.0
 40
0.0752581825800343
 40
0.5203373694000339
 40
1.0
 40
1.0
 40
1.0
 40
1.0
 10
124.235542490131
 20
166.2370870716495
 30
0.0
 10
124.2322964256433
 20
166.2131996166273
 30
0.0
 10
124.209853036785
 20
166.0480410241421
 30
0.0
 10
124.1667135016047
 20
165.7638671989896
 30
0.0
 10
124.126876221123
 20
165.5361225881053
 30
0.0
 10
124.1062126646666
 20
165.4179916924283
 30
0.0
  0
SPLINE
  5
103
330
1F
100
AcDbEntity
  8
0
  6
Continuous
 62
     7
370
    15
100
AcDbSpline
210
0.0
220
0.0
230
1.0
 70
     8
 71
     3
 72
    10
 73
     6
 74
     0
 42
0.00000001
 43
0.00000001
 12
1.0
 22
0.0
 32
0.0
 13
1.0
 23
0.0
 33
0.0
 40
0.0
 40
0.0
 40
0.0
 40
0.0
 40
0.4558766700363169
 40
0.8786440858413905
 40
1.0
 40
1.0
 40
1.0
 40
1.0
 10
124.599085067217
 20
165.3603062840609
 30
0.0
 10
124.6197560114188
 20
165.4801645595158
 30
0.0
 10
124.6595966175857
 20
165.7111760847585
 30
0.0
 10
124.7049552238054
 20
166.0136846506812
 30
0.0
 10
124.7296055752664
 20
166.1963477018475
 30
0.0
 10
124.7351033471338
 20
166.2370870716495
 30
0.0
  0
SPLINE
  5
104
330
1F
100
AcDbEntity
  8
0
  6
Continuous
 62
     7
370
    15
100
AcDbSpline
210
0.0
220
0.0
230
1.0
 70
     8
 71
     3
 72
    12
 73
     8
 74
     0
 42
0.00000001
 43
0.00000001
 12
1.0
 22
0.0
 32
0.0
 13
1.0
 23
0.0
 33
0.0
 40
0.0
 40
0.0
 40
0.0
 40
0.0
 40
0.107093301964365
 40
0.3471561372671651
 40
0.6645392145016374
 40
0.9309868915116032
 40
1.0
 40
1.0
 40
1.0
 40
1.0
 10
125.3367099706459
 20
171.2370870716495
 30
0.0
 10
125.3439326068779
 20
171.2894950061143
 30
0.0
 10
125.3673456723935
 20
171.459381784813
 30
0.0
 10
125.4120016884658
 20
171.7496911697703
 30
0.0
 10
125.4671430785544
 20
172.0724955047345
 30
0.0
 10
125.5106441415165
 20
172.2917658488059
 30
0.0
 10
125.5325484831437
 20
172.3834719067605
 30
0.0
 10
125.5370547824503
 20
172.4023382553779
 30
0.0
  0
SPLINE
  5
105
330
1F
100
AcDbEntity
  8
0
  6
Continuous
 62
     7
370
    15
100
AcDbSpline
210
0.0
220
0.0
230
1.0
 70
     8
 71
     3
 72
    16
 73
    12
 74
     0
 42
0.00000001
 43
0.00000001
 12
1.0
 22
0.0
 32
0.0
 13
1.0
 23
0.0
 33
0.0
 40
0.0
 40
0.0
 40
0.0
 40
0.0
 40
0.0800438159683325
 40
0.1732035131287527
 40
0.2771073366419781
 40
0.3803302753132979
 40
0.5157308997434845
 40
0.6542932333565167
 40
0.8027875296498167
 40
0.9206977421250448
 40
1.0
 40
1.0
 40
1.0
 40
1.0
 10
127.0297380916477
 20
164.2383534407887
 30
0.0
 10
127.0792833837608
 20
164.2460826457315
 30
0.0
 10
127.1864923985882
 20
164.2628075536286
 30
0.0
 10
127.2876492222517
 20
164.3580672057103
 30
0.0
 10
127.3664363769954
 20
164.4780005973458
 30
0.0
 10
127.4391601803972
 20
164.6572593592672
 30
0.0
 10
127.504401322365
 20
164.8913757943789
 30
0.0
 10
127.5720724220864
 20
165.2050081164135
 30
0.0
 10
127.6368277670358
 20
165.5713904971381
 30
0.0
 10
127.691450067835
 20
165.9212713969492
 30
0.0
 10
127.7224767919026
 20
166.1465136102039
 30
0.0
 10
127.7349531290666
 20
166.2370870716495
 30
0.0
  0
SPLINE
  5
106
330
1F
100
AcDbEntity
  8
0
  6
Continuous
 62
     7
370
    15
100
AcDbSpline
210
0.0
220
0.0
230
1.0
 70
     8
 71
     3
 72
    12
 73
     8
 74
     0
 42
0.00000001
 43
0.00000001
 12
1.0
 22
0.0
 32
0.0
 13
1.0
 23
0.0
 33
0.0
 40
0.0
 40
0.0
 40
0.0
 40
0.0
 40
0.079500424253541
 40
0.3541912181045154
 40
0.6154758008663404
 40
0.8631875026679486
 40
0.9999999999999999
 40
0.9999999999999999
 40
0.9999999999999999
 40
0.9999999999999999
 10
128.3365933831954
 20
171.2370870716495
 30
0.0
 10
128.3420346895693
 20
171.2770361314406
 30
0.0
 10
128.36627686124
 20
171.455017648928
 30
0.0
 10
128.4078980037385
 20
171.7252606404961
 30
0.0
 10
128.4601041059653
 20
172.0354052863202
 30
0.0
 10
128.5024195687329
 20
172.2584989041628
 30
0.0
 10
128.5264291722084
 20
172.3614993396231
 30
0.0
 10
128.534971713403
 20
172.3981465697151
 30
0.0
  0
SPLINE
  5
107
330
1F
100
AcDbEntity
  8
0
  6
Continuous
 62
     7
370
    15
100
AcDbSpline
210
0.0
220
0.0
230
1.0
 70
     8
 71
     3
 72
    17
 73
    13
 74
     0
 42
0.00000001
 43
0.00000001
 12
1.0
 22
0.0
 32
0.0
 13
1.0
 23
0.0
 33
0.0
 40
0.0
 40
0.0
 40
0.0
 40
0.0
 40
0.0482799924932484
 40
0.1033288326231808
 40
0.1990163510090227
 40
0.3048810662607866
 40
0.4062495238213985
 40
0.5026606553760943
 40
0.6624696468200025
 40
0.8084878403870432
 40
0.9449480358919056
 40
1.0
 40
1.0
 40
1.0
 40
1.0
 10
130.0294970992198
 20
164.2380068783476
 30
0.0
 10
130.0606469881861
 20
164.2407650252098
 30
0.0
 10
130.1273139758348
 20
164.2466680107067
 30
0.0
 10
130.216941784139
 20
164.2944841582981
 30
0.0
 10
130.2975026181865
 20
164.3728968832415
 30
0.0
 10
130.366123578402
 20
164.4916640593688
 30
0.0
 10
130.4321381858197
 20
164.6529331297148
 30
0.0
 10
130.5012615392417
 20
164.8835886420003
 30
0.0
 10
130.5714337888625
 20
165.198128614251
 30
0.0
 10
130.6424248359095
 20
165.6063253030438
 30
0.0
 10
130.6954365409864
 20
165.9441781470626
 30
0.0
 10
130.7256008861885
 20
166.1716874045774
 30
0.0
 10
130.7342719097556
 20
166.2370870716495
 30
0.0
  0
SPLINE
  5
108
330
1F
100
AcDbEntity
  8
0
  6
Continuous
 62
     7
370
    15
100
AcDbSpline
210
0.0
220
0.0
230
1.0
 70
     8
 71
     3
 72
    12
 73
     8
 74
     0
 42
0.00000001
 43
0.00000001
 12
1.0
 22
0.0
 32
0.0
 13
1.0
 23
0.0
 33
0.0
 40
0.0
 40
0.0
 40
0.0
 40
0.0
 40
0.0129525053885435
 40
0.324093971412813
 40
0.6053918133620517
 40
0.8567187043001877
 40
1.0
 40
1.0
 40
1.0
 40
1.0
 10
131.3362050986916
 20
171.2370870716495
 30
0.0
 10
131.3370829442053
 20
171.2436409314611
 30
0.0
 10
131.3590481494153
 20
171.4076297807756
 30
0.0
 10
131.3998873656748
 20
171.6733810214733
 30
0.0
 10
131.4563186481022
 20
172.0119428587185
 30
0.0
 10
131.5011333943376
 20
172.2471360392063
 30
0.0
 10
131.5265434303652
 20
172.3563979512042
 30
0.0
 10
131.5357697541189
 20
172.3960706920438
 30
0.0
  0
SPLINE
  5
109
330
1F
100
AcDbEntity
  8
0
  6
Continuous
 62
     7
370
    15
100
AcDbSpline
210
0.0
220
0.0
230
1.0
 70
     8
 71
     3
 72
    30
 73
    26
 74
     0
 42
0.00000001
 43
0.00000001
 12
1.0
 22
0.0
 32
0.0
 13
1.0
 23
0.0
 33
0.0
 40
0.0
 40
0.0
 40
0.0
 40
0.0
 40
0.0493828442454067
 40
0.095777049920605
 40
0.1392020241097725
 40
0.1987057361151291
 40
0.2514039008408385
 40
0.2972299337133207
 40
0.336174545001898
 40
0.3682158602079095
 40
0.3933504644417782
 40
0.4369346966369965
 40
0.4786224775332891
 40
0.5206273751581764
 40
0.5689997363844241
 40
0.6241261228478328
 40
0.6853352887677633
 40
0.744166780584073
 40
0.798166861564093
 40
0.8473562775405961
 40
0.8917883943151778
 40
0.9146870490678768
 40
0.9402158081362224
 40
0.968636578267663
 40
1.0
 40
1.0
 40
1.0
 40
1.0
 10
133.0617506382452
 20
164.9707976466343
 30
0.0
 10
133.0406755673001
 20
165.0582770667242
 30
0.0
 10
132.9998008839393
 20
165.2279416721759
 30
0.0
 10
132.9401683719163
 20
165.5521361398165
 30
0.0
 10
132.8761322699505
 20
165.9503708811203
 30
0.0
 10
132.8092251490964
 20
166.4242262244848
 30
0.0
 10
132.7411593912022
 20
166.9557251877339
 30
0.0
 10
132.6817989132978
 20
167.4488813896609
 30
0.0
 10
132.6313070675801
 20
167.8844396586935
 30
0.0
 10
132.5897483571972
 20
168.2501431569254
 30
0.0
 10
132.546183752021
 20
168.6369726556711
 30
0.0
 10
132.4984155360256
 20
169.0629863904024
 30
0.0
 10
132.4433377948295
 20
169.5500534746053
 30
0.0
 10
132.3861482211529
 20
170.044842882752
 30
0.0
 10
132.3230900675901
 20
170.5698914249787
 30
0.0
 10
132.2515825955062
 20
171.1283180121082
 30
0.0
 10
132.1754402982652
 20
171.6656400572532
 30
0.0
 10
132.0987436183663
 20
172.1291777652568
 30
0.0
 10
132.0261890175657
 20
172.4895373327047
 30
0.0
 10
131.9555475449124
 20
172.7599240799536
 30
0.0
 10
131.9004797837977
 20
172.9194544659102
 30
0.0
 10
131.8412595115307
 20
173.0398079129216
 30
0.0
 10
131.7719810212848
 20
173.1334549205917
 30
0.0
 10
131.6699378742473
 20
173.2169456713196
 30
0.0
 10
131.5784700620242
 20
173.2295197624879
 30
0.0
 10
131.530485076692
 20
173.2361162642038
 30
0.0
  0
SPLINE
  5
10A
330
1F
100
AcDbEntity
  8
0
  6
Continuous
 62
     7
370
    15
100
AcDbSpline
210
0.0
220
0.0
230
1.0
 70
     8
 71
     3
 72
    40
 73
    36
 74
     0
 42
0.00000001
 43
0.00000001
 12
1.0
 22
0.0
 32
0.0
 13
1.0
 23
0.0
 33
0.0
 40
0.0
 40
0.0
 40
0.0
 40
0.0
 40
0.0176483288796315
 40
0.0483174238997115
 40
0.0746222371130069
 40
0.0959371080030133
 40
0.112524764430119
 40
0.1294341207410449
 40
0.1482216588448109
 40
0.1799208203604077
 40
0.2158629866399311
 40
0.256081344267341
 40
0.300586510210503
 40
0.3446586254432045
 40
0.3819953649145795
 40
0.4125599457450259
 40
0.4363377012847083
 40
0.4533052573193355
 40
0.4680127287758973
 40
0.4886775156103569
 40
0.5154690928784836
 40
0.548387487788284
 40
0.5854856549014962
 40
0.6325093381417494
 40
0.6762041662836666
 40
0.7165367014722661
 40
0.7534870621140117
 40
0.7899155297803582
 40
0.8305004379137203
 40
0.8638060321763702
 40
0.8996299919130439
 40
0.9193003944154869
 40
0.9423619197804439
 40
0.9692238275453356
 40
0.9999999999999999
 40
0.9999999999999999
 40
0.9999999999999999
 40
0.9999999999999999
 10
130.1270888217321
 20
164.7223829992314
 30
0.0
 10
130.1280991967027
 20
164.7255691798028
 30
0.0
 10
130.1308653915127
 20
164.7342922741163
 30
0.0
 10
130.1134982549665
 20
164.7858766370626
 30
0.0
 10
130.0901533309163
 20
164.8659795768935
 30
0.0
 10
130.0651698948622
 20
164.9559763839518
 30
0.0
 10
130.0401927036662
 20
165.0561297723644
 30
0.0
 10
130.0157680872738
 20
165.1639553574232
 30
0.0
 10
129.984172755818
 20
165.3164089422905
 30
0.0
 10
129.9432946444736
 20
165.5365852048299
 30
0.0
 10
129.8920063840603
 20
165.8496969145052
 30
0.0
 10
129.8344381056455
 20
166.242549880371
 30
0.0
 10
129.7728567004459
 20
166.7044200738133
 30
0.0
 10
129.7125610964943
 20
167.1909420474092
 30
0.0
 10
129.6588876774686
 20
167.6453366811936
 30
0.0
 10
129.6149275445719
 20
168.0280829319194
 30
0.0
 10
129.5807419183642
 20
168.3299540949894
 30
0.0
 10
129.5541613795366
 20
168.5660865090173
 30
0.0
 10
129.5290755584052
 20
168.7894322867016
 30
0.0
 10
129.4992796535658
 20
169.0547315419236
 30
0.0
 10
129.4607441619705
 20
169.3963285781257
 30
0.0
 10
129.4142980807744
 20
169.8027284746476
 30
0.0
 10
129.3581101433553
 20
170.2814261387658
 30
0.0
 10
129.2967012139964
 20
170.7803199607914
 30
0.0
 10
129.2337212421462
 20
171.2562698467949
 30
0.0
 10
129.1754192377857
 20
171.6590028369733
 30
0.0
 10
129.1205091578309
 20
171.9999509071135
 30
0.0
 10
129.0648260069698
 20
172.3035811017894
 30
0.0
 10
129.0088514039491
 20
172.5601536909411
 30
0.0
 10
128.9500432591122
 20
172.7758658194606
 30
0.0
 10
128.9008807094893
 20
172.9149281097152
 30
0.0
 10
128.851856482761
 20
173.0209987838663
 30
0.0
 10
128.7857548934498
 20
173.1195085945107
 30
0.0
 10
128.6809781179473
 20
173.2137672832142
 30
0.0
 10
128.5826662272499
 20
173.2285991456598
 30
0.0
 10
128.5301720482119
 20
173.2365187008344
 30
0.0
  0
SPLINE
  5
10B
330
1F
100
AcDbEntity
  8
0
  6
Continuous
 62
     7
370
    15
100
AcDbSpline
210
0.0
220
0.0
230
1.0
 70
     8
 71
     3
 72
    37
 73
    33
 74
     0
 42
0.00000001
 43
0.00000001
 12
1.0
 22
0.0
 32
0.0
 13
1.0
 23
0.0
 33
0.0
 40
0.0
 40
0.0
 40
0.0
 40
0.0
 40
0.0179613441965293
 40
0.0487833546283685
 40
0.0784820527358939
 40
0.1173394866671358
 40
0.1552619024322999
 40
0.1936386751341039
 40
0.2251088976215218
 40
0.2590072184744906
 40
0.2953394820557911
 40
0.3340944653284948
 40
0.373728151359024
 40
0.4072137144803056
 40
0.4336756868460901
 40
0.4530968235185477
 40
0.4665883108950953
 40
0.4842857095339522
 40
0.5086077449933628
 40
0.5395603707361162
 40
0.5771482960531977
 40
0.6213994188403134
 40
0.6702485681440145
 40
0.7165073035188255
 40
0.7595681508542743
 40
0.7994418306871189
 40
0.8361583756349861
 40
0.8697180597139385
 40
0.9002781996104211
 40
0.9312561741600964
 40
0.9644105603509356
 40
1.0
 40
1.0
 40
1.0
 40
1.0
 10
127.1295495197542
 20
164.7262006890374
 30
0.0
 10
127.1332098572898
 20
164.7259496616885
 30
0.0
 10
127.1431514040973
 20
164.7252678666041
 30
0.0
 10
127.1066724586598
 20
164.8051861556714
 30
0.0
 10
127.0696941207906
 20
164.935678791443
 30
0.0
 10
127.0224859494039
 20
165.1268339326517
 30
0.0
 10
126.9699015994297
 20
165.3881440256805
 30
0.0
 10
126.9190068145914
 20
165.6808458757697
 30
0.0
 10
126.8700594485744
 20
165.996919253029
 30
0.0
 10
126.8218924662897
 20
166.3356957432327
 30
0.0
 10
126.7702158333446
 20
166.7269133693485
 30
0.0
 10
126.715742099627
 20
167.1652059757052
 30
0.0
 10
126.6625493201093
 20
167.6138669447987
 30
0.0
 10
126.6151849578851
 20
168.0257084739736
 30
0.0
 10
126.5774461350642
 20
168.3590614605235
 30
0.0
 10
126.5492247131226
 20
168.6099216343125
 30
0.0
 10
126.5251756917088
 20
168.8240453096539
 30
0.0
 10
126.4987982670903
 20
169.0588182919515
 30
0.0
 10
126.4641129281937
 20
169.3663455671009
 30
0.0
 10
126.419940997835
 20
169.7535892919366
 30
0.0
 10
126.366220829031
 20
170.2133897237829
 30
0.0
 10
126.3038975133817
 20
170.7235205643513
 30
0.0
 10
126.2374401620857
 20
171.2303936116019
 30
0.0
 10
126.1711596847821
 20
171.6878972676808
 30
0.0
 10
126.1085391712007
 20
172.0692564502982
 30
0.0
 10
126.0494287050645
 20
172.376853346588
 30
0.0
 10
125.993891770289
 20
172.6177520161169
 30
0.0
 10
125.940120266093
 20
172.8040093817785
 30
0.0
 10
125.8898292025993
 20
172.9440262475358
 30
0.0
 10
125.8198643425741
 20
173.0770743805192
 30
0.0
 10
125.7077195787912
 20
173.2037862074516
 30
0.0
 10
125.5909939212046
 20
173.2256010988412
 30
0.0
 10
125.5305637560892
 20
173.23689490961
 30
0.0
  0
SPLINE
  5
10C
330
1F
100
AcDbEntity
  8
0
  6
Continuous
 62
     7
370
    15
100
AcDbSpline
210
0.0
220
0.0
230
1.0
 70
     8
 71
     3
 72
    18
 73
    14
 74
     0
 42
0.00000001
 43
0.00000001
 12
1.0
 22
0.0
 32
0.0
 13
1.0
 23
0.0
 33
0.0
 40
0.0
 40
0.0
 40
0.0
 40
0.0
 40
0.0901739725365657
 40
0.1700507882189073
 40
0.2715010503587934
 40
0.358338981499006
 40
0.4400809680980932
 40
0.5170785977757104
 40
0.6424831653618981
 40
0.7537996465958059
 40
0.8662719705572516
 40
0.9892225054461986
 40
1.0
 40
1.0
 40
1.0
 40
1.0
 10
133.0301964687987
 20
164.2384915266676
 30
0.0
 10
133.0820769355511
 20
164.2464260520721
 30
0.0
 10
133.1799135287081
 20
164.2613890426249
 30
0.0
 10
133.2973843299365
 20
164.3651054984446
 30
0.0
 10
133.3713202885034
 20
164.4871111685877
 30
0.0
 10
133.4178487601569
 20
164.6040604459986
 30
0.0
 10
133.4629636938131
 20
164.7429911924511
 30
0.0
 10
133.5117536916477
 20
164.9274758690597
 30
0.0
 10
133.5638241035234
 20
165.1663396475114
 30
0.0
 10
133.6193586099118
 20
165.468315713515
 30
0.0
 10
133.6739393742185
 20
165.8079375841794
 30
0.0
 10
133.7126906092875
 20
166.0660835943469
 30
0.0
 10
133.7336670623805
 20
166.2243333097563
 30
0.0
 10
133.7353576100533
 20
166.2370870716495
 30
0.0
  0
SPLINE
  5
10D
330
1F
100
AcDbEntity
  8
0
  6
Continuous
 62
     7
370
    15
100
AcDbSpline
210
0.0
220
0.0
230
1.0
 70
     8
 71
     3
 72
    12
 73
     8
 74
     0
 42
0.00000001
 43
0.00000001
 12
1.0
 22
0.0
 32
0.0
 13
1.0
 23
0.0
 33
0.0
 40
0.0
 40
0.0
 40
0.0
 40
0.0
 40
0.2755380924606811
 40
0.5302283287280433
 40
0.7547566790083229
 40
0.8877413874796328
 40
1.0
 40
1.0
 40
1.0
 40
1.0
 10
134.3362504840265
 20
171.2370870716495
 30
0.0
 10
134.354828243343
 20
171.3664944724003
 30
0.0
 10
134.3905781252776
 20
171.6155180074489
 30
0.0
 10
134.4412288037244
 20
171.9244304799028
 30
0.0
 10
134.4821098278122
 20
172.1470329801686
 30
0.0
 10
134.5132928111278
 20
172.2999797385995
 30
0.0
 10
134.5294210685817
 20
172.3705931399484
 30
0.0
 10
134.536803678623
 20
172.4029159874319
 30
0.0
  0
SPLINE
  5
10E
330
1F
100
AcDbEntity
  8
0
  6
Continuous
 62
     7
370
    15
100
AcDbSpline
210
0.0
220
0.0
230
1.0
 70
     8
 71
     3
 72
    17
 73
    13
 74
     0
 42
0.00000001
 43
0.00000001
 12
1.0
 22
0.0
 32
0.0
 13
1.0
 23
0.0
 33
0.0
 40
0.0
 40
0.0
 40
0.0
 40
0.0
 40
0.0815858829901035
 40
0.1561061500229602
 40
0.2235737823908053
 40
0.312808587440319
 40
0.3990831816918872
 40
0.5241135464173812
 40
0.6606905707618476
 40
0.8088520618576273
 40
0.927607790617315
 40
1.0
 40
1.0
 40
1.0
 40
1.0
 10
136.0297906935682
 20
164.2381439055605
 30
0.0
 10
136.0750686290213
 20
164.2441018628458
 30
0.0
 10
136.1617032761626
 20
164.2555017979782
 30
0.0
 10
136.260638282759
 20
164.3311109431698
 30
0.0
 10
136.3396892133217
 20
164.4298918838362
 30
0.0
 10
136.3942424815947
 20
164.5418819006531
 30
0.0
 10
136.4474047653801
 20
164.6890783360546
 30
0.0
 10
136.5081106693123
 20
164.9081669256837
 30
0.0
 10
136.5752582999793
 20
165.2216498307917
 30
0.0
 10
136.639915590993
 20
165.590319112889
 30
0.0
 10
136.6935060608845
 20
165.9357599847999
 30
0.0
 10
136.7235846789425
 20
166.1543151153888
 30
0.0
 10
136.7349761573835
 20
166.2370870716495
 30
0.0
  0
SPLINE
  5
10F
330
1F
100
AcDbEntity
  8
0
  6
Continuous
 62
     7
370
    15
100
AcDbSpline
210
0.0
220
0.0
230
1.0
 70
     8
 71
     3
 72
    12
 73
     8
 74
     0
 42
0.00000001
 43
0.00000001
 12
1.0
 22
0.0
 32
0.0
 13
1.0
 23
0.0
 33
0.0
 40
0.0
 40
0.0
 40
0.0
 40
0.0
 40
0.0863926055229055
 40
0.365514325909501
 40
0.6262241236851046
 40
0.8683386976247738
 40
1.0
 40
1.0
 40
1.0
 40
1.0
 10
137.3366673629306
 20
171.2370870716495
 30
0.0
 10
137.3425428915722
 20
171.2801094251775
 30
0.0
 10
137.3674013835437
 20
171.462130634674
 30
0.0
 10
137.4096985671453
 20
171.7351395139242
 30
0.0
 10
137.4618346623428
 20
172.0419229542651
 30
0.0
 10
137.5036078768187
 20
172.259778751755
 30
0.0
 10
137.5271601930525
 20
172.3606352548129
 30
0.0
 10
137.5354564176775
 20
172.3961616207104
 30
0.0
  0
SPLINE
  5
110
330
1F
100
AcDbEntity
  8
0
  6
Continuous
 62
     7
370
    15
100
AcDbSpline
210
0.0
220
0.0
230
1.0
 70
     8
 71
     3
 72
    15
 73
    11
 74
     0
 42
0.00000001
 43
0.00000001
 12
1.0
 22
0.0
 32
0.0
 13
1.0
 23
0.0
 33
0.0
 40
0.0
 40
0.0
 40
0.0
 40
0.0
 40
0.0654745858650225
 40
0.1400089852903127
 40
0.2693658198972376
 40
0.4122874693338605
 40
0.5489519781202096
 40
0.678714991288685
 40
0.8932632171779912
 40
0.9999999999999999
 40
0.9999999999999999
 40
0.9999999999999999
 40
0.9999999999999999
 10
139.0294308302563
 20
164.237744312218
 30
0.0
 10
139.0605939351708
 20
164.2405028869274
 30
0.0
 10
139.1272322290973
 20
164.246401744336
 30
0.0
 10
139.2168954655664
 20
164.2943114140159
 30
0.0
 10
139.2974301429512
 20
164.3728501464301
 30
0.0
 10
139.3659446213011
 20
164.4915915870003
 30
0.0
 10
139.4317987725945
 20
164.6519510857539
 30
0.0
 10
139.5005029025429
 20
164.8816474090738
 30
0.0
 10
139.5591692800643
 20
165.1362130594543
 30
0.0
 10
139.5972788855589
 20
165.357007614124
 30
0.0
 10
139.6099395966871
 20
165.4303596218153
 30
0.0
  0
SPLINE
  5
111
330
1F
100
AcDbEntity
  8
0
  6
Continuous
 62
     7
370
    15
100
AcDbSpline
210
0.0
220
0.0
230
1.0
 70
     8
 71
     3
 72
    22
 73
    18
 74
     0
 42
0.00000001
 43
0.00000001
 12
1.0
 22
0.0
 32
0.0
 13
1.0
 23
0.0
 33
0.0
 40
0.0
 40
0.0
 40
0.0
 40
0.0
 40
0.1092188001529308
 40
0.211281570699927
 40
0.3062633154241821
 40
0.3940794258047237
 40
0.4746429599945829
 40
0.547943578028003
 40
0.6139984787856124
 40
0.6727692082670794
 40
0.7396939163473013
 40
0.7934727379751787
 40
0.8350347569756117
 40
0.8679614677300115
 40
0.9062341005877226
 40
0.9502289913067096
 40
1.0
 40
1.0
 40
1.0
 40
1.0
 10
141.5349995446802
 20
168.73708733694
 30
0.0
 10
141.5069467875584
 20
168.9868230565949
 30
0.0
 10
141.4526792935111
 20
169.4699317799526
 30
0.0
 10
141.3737982922415
 20
170.1509322124876
 30
0.0
 10
141.300323695914
 20
170.7509161922997
 30
0.0
 10
141.2321319005828
 20
171.2661485025048
 30
0.0
 10
141.1691632626963
 20
171.6970777560055
 30
0.0
 10
141.1113860571816
 20
172.047299461197
 30
0.0
 10
141.0588382705749
 20
172.3251986445181
 30
0.0
 10
141.0071839249636
 20
172.5602457532638
 30
0.0
 10
140.9580737223584
 20
172.7466525637215
 30
0.0
 10
140.9108804120709
 20
172.8873572115602
 30
0.0
 10
140.8736779637455
 20
172.977409246145
 30
0.0
 10
140.8259054448295
 20
173.063936386242
 30
0.0
 10
140.7596855602216
 20
173.1449737191651
 30
0.0
 10
140.6616174142381
 20
173.2191959972746
 30
0.0
 10
140.5758567572625
 20
173.2300969553332
 30
0.0
 10
140.5303349371699
 20
173.2358831919256
 30
0.0
  0
SPLINE
  5
112
330
1F
100
AcDbEntity
  8
0
  6
Continuous
 62
     7
370
    15
100
AcDbSpline
210
0.0
220
0.0
230
1.0
 70
     8
 71
     3
 72
    36
 73
    32
 74
     0
 42
0.00000001
 43
0.00000001
 12
1.0
 22
0.0
 32
0.0
 13
1.0
 23
0.0
 33
0.0
 40
0.0
 40
0.0
 40
0.0
 40
0.0
 40
0.0084252613039087
 40
0.0302841394428179
 40
0.0729684917785208
 40
0.113332788796848
 40
0.1511968963595571
 40
0.1864067058908225
 40
0.2191975197369954
 40
0.2510808272481453
 40
0.3125985131795496
 40
0.3711225806620427
 40
0.4084974689130697
 40
0.4431100285705123
 40
0.4732125658744806
 40
0.4988074696843379
 40
0.528163712606259
 40
0.5678377656430069
 40
0.6044115020491717
 40
0.6468651733833518
 40
0.6937568904639803
 40
0.7372681781816777
 40
0.7882080182973547
 40
0.8311063360384165
 40
0.8659048515895627
 40
0.8872910827327517
 40
0.9146706703515877
 40
0.9320774633015712
 40
0.9520838921671689
 40
0.9747370486570562
 40
1.0
 40
1.0
 40
1.0
 40
1.0
 10
139.1213605703034
 20
164.723880819714
 30
0.0
 10
139.1227497933031
 20
164.7243393438671
 30
0.0
 10
139.1277432791456
 20
164.7259874837753
 30
0.0
 10
139.1084043805697
 20
164.770446517293
 30
0.0
 10
139.0839341897164
 20
164.8666715543638
 30
0.0
 10
139.0388695704488
 20
165.0490081187628
 30
0.0
 10
138.9909299862513
 20
165.2781379679526
 30
0.0
 10
138.9421555902782
 20
165.5431981387264
 30
0.0
 10
138.8942897983889
 20
165.8369572358335
 30
0.0
 10
138.8339797140177
 20
166.2440551518824
 30
0.0
 10
138.7609957971518
 20
166.7928284456119
 30
0.0
 10
138.6851834955212
 20
167.4188063529424
 30
0.0
 10
138.6223243252913
 20
167.9625768156926
 30
0.0
 10
138.5731695547346
 20
168.3968263616482
 30
0.0
 10
138.5297049357249
 20
168.7839615069255
 30
0.0
 10
138.4887722211686
 20
169.1482643962961
 30
0.0
 10
138.4432096968593
 20
169.5508375378182
 30
0.0
 10
138.3922674701977
 20
169.9924578932722
 30
0.0
 10
138.3349809601129
 20
170.4715146766584
 30
0.0
 10
138.2741597854101
 20
170.9548444711913
 30
0.0
 10
138.2099046330205
 20
171.4268471021588
 30
0.0
 10
138.1412577221562
 20
171.8794994461369
 30
0.0
 10
138.0738462124865
 20
172.2603081254126
 30
0.0
 10
138.0101833439647
 20
172.555325987223
 30
0.0
 10
137.9588655161225
 20
172.7448509988073
 30
0.0
 10
137.9161502096099
 20
172.8766779409351
 30
0.0
 10
137.8668289944181
 20
172.9930301426781
 30
0.0
 10
137.8030356001516
 20
173.0910978420469
 30
0.0
 10
137.7323778250204
 20
173.165205666931
 30
0.0
 10
137.6403628975508
 20
173.2247660188524
 30
0.0
 10
137.5683879513677
 20
173.2322936273416
 30
0.0
 10
137.5304403874779
 20
173.2362624306436
 30
0.0
  0
SPLINE
  5
113
330
1F
100
AcDbEntity
  8
0
  6
Continuous
 62
     7
370
    15
100
AcDbSpline
210
0.0
220
0.0
230
1.0
 70
     8
 71
     3
 72
    37
 73
    33
 74
     0
 42
0.00000001
 43
0.00000001
 12
1.0
 22
0.0
 32
0.0
 13
1.0
 23
0.0
 33
0.0
 40
0.0
 40
0.0
 40
0.0
 40
0.0
 40
0.0188754771123737
 40
0.0504358646580085
 40
0.0807713884944016
 40
0.1201983336465645
 40
0.1583644991341426
 40
0.1967521041771347
 40
0.2282303755453474
 40
0.2621391965045328
 40
0.2984775055853108
 40
0.3372309539510554
 40
0.3768610803210349
 40
0.4103519001543979
 40
0.4368220488206367
 40
0.4562487813830384
 40
0.4697427893966192
 40
0.4874411013883677
 40
0.5117618867364377
 40
0.5427099084367007
 40
0.5802940318846844
 40
0.6245548647626522
 40
0.673397261595659
 40
0.7195538912762509
 40
0.7624171850296234
 40
0.8020110324775457
 40
0.8383597799991037
 40
0.8714535804988016
 40
0.9014549074575624
 40
0.9319265804741759
 40
0.9646856906176198
 40
0.9999999999999999
 40
0.9999999999999999
 40
0.9999999999999999
 40
0.9999999999999999
 10
136.1287851668749
 20
164.7269105945604
 30
0.0
 10
136.1324981967571
 20
164.7268990509724
 30
0.0
 10
136.1424195286255
 20
164.7268682061446
 30
0.0
 10
136.1048505519325
 20
164.810505813172
 30
0.0
 10
136.0669537310126
 20
164.945802426288
 30
0.0
 10
136.0190298250296
 20
165.1423422631469
 30
0.0
 10
135.9659945913781
 20
165.4088738622081
 30
0.0
 10
135.9149321245421
 20
165.7057791791858
 30
0.0
 10
135.8659593168647
 20
166.0249212502344
 30
0.0
 10
135.817779978438
 20
166.3660447217801
 30
0.0
 10
135.7660928787811
 20
166.7593073376541
 30
0.0
 10
135.7116069251454
 20
167.1993189106962
 30
0.0
 10
135.6583979609768
 20
167.6493700800319
 30
0.0
 10
135.6110309884658
 20
168.0621543543214
 30
0.0
 10
135.5732914867333
 20
168.3959400011202
 30
0.0
 10
135.5450673428907
 20
168.6469849878912
 30
0.0
 10
135.5210169513765
 20
168.8611556220016
 30
0.0
 10
135.4946390367049
 20
169.095865546832
 30
0.0
 10
135.459951993801
 20
169.4031253990516
 30
0.0
 10
135.4157729694031
 20
169.7897578181666
 30
0.0
 10
135.3620349500725
 20
170.2483211866924
 30
0.0
 10
135.2997192025229
 20
170.7563728317436
 30
0.0
 10
135.2333100167141
 20
171.2604577768154
 30
0.0
 10
135.1671511302357
 20
171.7141220430563
 30
0.0
 10
135.1047684590123
 20
172.0906001957769
 30
0.0
 10
135.0460430445854
 20
172.3925930218204
 30
0.0
 10
134.9910381594305
 20
172.6286717266305
 30
0.0
 10
134.9379351416747
 20
172.8107529143332
 30
0.0
 10
134.8883770670899
 20
172.9475313188883
 30
0.0
 10
134.8190483355004
 20
173.0785331771586
 30
0.0
 10
134.7073384971175
 20
173.2039358673628
 30
0.0
 10
134.5911499164297
 20
173.2254998979107
 30
0.0
 10
134.5308750027601
 20
173.2366866261757
 30
0.0
  0
SPLINE
  5
114
330
1F
100
AcDbEntity
  8
0
  6
Continuous
 62
     7
370
    15
100
AcDbSpline
210
0.0
220
0.0
230
1.0
 70
     8
 71
     3
 72
    11
 73
     7
 74
     0
 42
0.00000001
 43
0.00000001
 12
1.0
 22
0.0
 32
0.0
 13
1.0
 23
0.0
 33
0.0
 40
0.0
 40
0.0
 40
0.0
 40
0.0
 40
0.2496136354151519
 40
0.5042164879685888
 40
0.7624857022804804
 40
1.0
 40
1.0
 40
1.0
 40
1.0
 10
132.5764922423207
 20
164.8671551787392
 30
0.0
 10
132.6036288955181
 20
164.7746084755263
 30
0.0
 10
132.6584446027918
 20
164.5876652679189
 30
0.0
 10
132.7733252825129
 20
164.3916537876036
 30
0.0
 10
132.8993262617385
 20
164.2637498201145
 30
0.0
 10
132.987496210139
 20
164.2490841529561
 30
0.0
 10
133.0297356611617
 20
164.2420582927749
 30
0.0
  0
SPLINE
  5
115
330
1F
100
AcDbEntity
  8
0
  6
Continuous
 62
     7
370
    15
100
AcDbSpline
210
0.0
220
0.0
230
1.0
 70
     8
 71
     3
 72
    35
 73
    31
 74
     0
 42
0.00000001
 43
0.00000001
 12
1.0
 22
0.0
 32
0.0
 13
1.0
 23
0.0
 33
0.0
 40
0.0
 40
0.0
 40
0.0
 40
0.0
 40
0.0085553973793367
 40
0.0304537521220605
 40
0.0732735609216373
 40
0.113847770571854
 40
0.1519991424572877
 40
0.1875834885020917
 40
0.2208169647051222
 40
0.2530926948679479
 40
0.3151856552823902
 40
0.3740208694796857
 40
0.4114709018860143
 40
0.4460936126351598
 40
0.4762002810557929
 40
0.5017949421160424
 40
0.5310551554814575
 40
0.5704726378614035
 40
0.606753622557132
 40
0.648819224584321
 40
0.6952569023645205
 40
0.738454517727535
 40
0.7892628882168308
 40
0.8323440340382998
 40
0.8676355184065795
 40
0.8895556495064066
 40
0.9169509330771466
 40
0.9535962144371494
 40
0.9755903076768984
 40
1.0
 40
1.0
 40
1.0
 40
1.0
 10
134.4506879522304
 20
172.7501834551368
 30
0.0
 10
134.4492838250682
 20
172.7496831820797
 30
0.0
 10
134.4442857006507
 20
172.7479024124672
 30
0.0
 10
134.4636825796319
 20
172.7031903735167
 30
0.0
 10
134.4883428523581
 20
172.6064801362293
 30
0.0
 10
134.533717613876
 20
172.4228525305537
 30
0.0
 10
134.582093903846
 20
172.1911201094943
 30
0.0
 10
134.6314119941385
 20
171.9217076757727
 30
0.0
 10
134.6798476914441
 20
171.6230552235115
 30
0.0
 10
134.7408230235371
 20
171.2096756205782
 30
0.0
 10
134.8144297174392
 20
170.6541543802534
 30
0.0
 10
134.8907262568423
 20
170.0219828388857
 30
0.0
 10
134.953756108216
 20
169.475406099348
 30
0.0
 10
135.0029420962381
 20
169.0403518776124
 30
0.0
 10
135.0464105258621
 20
168.6530791184056
 30
0.0
 10
135.0873020409427
 20
168.2893489298508
 30
0.0
 10
135.1327030868587
 20
167.8887423654689
 30
0.0
 10
135.183335622421
 20
167.4508457922559
 30
0.0
 10
135.2401531185048
 20
166.9769072827061
 30
0.0
 10
135.3004167019757
 20
166.4993261396767
 30
0.0
 10
135.3641173531779
 20
166.0328075922168
 30
0.0
 10
135.4323614067576
 20
165.5845956437722
 30
0.0
 10
135.4996828659556
 20
165.2061157336588
 30
0.0
 10
135.5637251418867
 20
164.9106576777404
 30
0.0
 10
135.6158768009636
 20
164.7196449649418
 30
0.0
 10
135.6593892482017
 20
164.5875846328143
 30
0.0
 10
135.7236430396502
 20
164.4390068547104
 30
0.0
 10
135.8192490959065
 20
164.3209528371747
 30
0.0
 10
135.9333189780408
 20
164.2493133553629
 30
0.0
 10
136.0041159541679
 20
164.242001291211
 30
0.0
 10
136.0413571486891
 20
164.2381549404439
 30
0.0
  0
SPLINE
  5
116
330
1F
100
AcDbEntity
  8
0
  6
Continuous
 62
     7
370
    15
100
AcDbSpline
210
0.0
220
0.0
230
1.0
 70
     8
 71
     3
 72
    37
 73
    33
 74
     0
 42
0.00000001
 43
0.00000001
 12
1.0
 22
0.0
 32
0.0
 13
1.0
 23
0.0
 33
0.0
 40
0.0
 40
0.0
 40
0.0
 40
0.0
 40
0.0197569108773061
 40
0.0520764762537155
 40
0.0830650858537157
 40
0.1230717003659247
 40
0.1614819317703475
 40
0.1998774368334761
 40
0.2313596857701574
 40
0.2652711504328562
 40
0.3016054719738051
 40
0.3403477227056431
 40
0.3799686575755853
 40
0.4134614337317756
 40
0.4399342708633606
 40
0.4593615633571699
 40
0.4728544704249141
 40
0.4905491217201451
 40
0.5148626819475114
 40
0.5458001279930975
 40
0.5833777780173452
 40
0.6276426262189345
 40
0.6764654044426673
 40
0.7225052692527278
 40
0.7651592791496352
 40
0.804461784267199
 40
0.8404246320411667
 40
0.8730310798021975
 40
0.902452479809644
 40
0.9324309136038459
 40
0.9648545715277931
 40
1.0
 40
1.0
 40
1.0
 40
1.0
 10
137.4437771530344
 20
172.746691492587
 30
0.0
 10
137.4400334597617
 20
172.746453723241
 30
0.0
 10
137.4301656036463
 20
172.7458269962301
 30
0.0
 10
137.468862304491
 20
172.6585415584477
 30
0.0
 10
137.5077061383977
 20
172.5183666517792
 30
0.0
 10
137.5563753601364
 20
172.3162879902683
 30
0.0
 10
137.6098771225884
 20
172.0443126278368
 30
0.0
 10
137.6611042254145
 20
171.7430089121524
 30
0.0
 10
137.7101005705812
 20
171.4210246370363
 30
0.0
 10
137.7582932327294
 20
171.0776267699086
 30
0.0
 10
137.8099921651283
 20
170.6823750694735
 30
0.0
 10
137.8644928239824
 20
170.2406432163568
 30
0.0
 10
137.9177158916517
 20
169.7891216791382
 30
0.0
 10
137.9650807362857
 20
169.3754758787834
 30
0.0
 10
138.0028225582639
 20
169.041282328018
 30
0.0
 10
138.031049813887
 20
168.7900830198216
 30
0.0
 10
138.0551018783317
 20
168.5758933939051
 30
0.0
 10
138.0814810038211
 20
168.3412751562056
 30
0.0
 10
138.1161712428281
 20
168.0343162803033
 30
0.0
 10
138.1603611112786
 20
167.6483241530706
 30
0.0
 10
138.2141126441574
 20
167.1910921032889
 30
0.0
 10
138.2764205845904
 20
166.6849862641491
 30
0.0
 10
138.3427858764683
 20
166.183716301161
 30
0.0
 10
138.4088240766604
 20
165.7339586813908
 30
0.0
 10
138.4709613665641
 20
165.3626859009643
 30
0.0
 10
138.5292852225724
 20
165.0660823837994
 30
0.0
 10
138.5837472642782
 20
164.8347302838086
 30
0.0
 10
138.6361635421024
 20
164.6567991797877
 30
0.0
 10
138.6849928810116
 20
164.5232227810116
 30
0.0
 10
138.7537435076206
 20
164.3941766769774
 30
0.0
 10
138.8651473497394
 20
164.2701591969296
 30
0.0
 10
138.9808149101694
 20
164.2488354349127
 30
0.0
 10
139.0409783101569
 20
164.2377440794913
 30
0.0
  0
SPLINE
  5
117
330
1F
100
AcDbEntity
  8
0
  6
Continuous
 62
     7
370
    15
100
AcDbSpline
210
0.0
220
0.0
230
1.0
 70
     8
 71
     3
 72
    20
 73
    16
 74
     0
 42
0.00000001
 43
0.00000001
 12
1.0
 22
0.0
 32
0.0
 13
1.0
 23
0.0
 33
0.0
 40
0.0
 40
0.0
 40
0.0
 40
0.0
 40
0.0050065843896127
 40
0.0608518859009076
 40
0.1123570625487746
 40
0.2239765390494332
 40
0.3481116001715104
 40
0.4148830186976543
 40
0.4847366051782568
 40
0.5585855351929389
 40
0.6372699800804423
 40
0.7207636381953608
 40
0.8090297255999536
 40
0.9020815491047636
 40
0.9999999999999999
 40
0.9999999999999999
 40
0.9999999999999999
 40
0.9999999999999999
 10
140.4361949945794
 20
172.754823217595
 30
0.0
 10
140.4354159412437
 20
172.7550062187391
 30
0.0
 10
140.4259470376956
 20
172.7572304826032
 30
0.0
 10
140.4417092613119
 20
172.7307805030965
 30
0.0
 10
140.4786421457829
 20
172.6245440428508
 30
0.0
 10
140.5349515941337
 20
172.4203238254489
 30
0.0
 10
140.5982059578755
 20
172.1099450249808
 30
0.0
 10
140.6541381431998
 20
171.7852172073649
 30
0.0
 10
140.6998170425132
 20
171.4915415026964
 30
0.0
 10
140.7482842595093
 20
171.1515254350821
 30
0.0
 10
140.7997880597111
 20
170.7624820474127
 30
0.0
 10
140.8545323115663
 20
170.3229427255667
 30
0.0
 10
140.9125130461455
 20
169.8344502601884
 30
0.0
 10
140.9737302142325
 20
169.300364790796
 30
0.0
 10
141.0155778853793
 20
168.9280094840357
 30
0.0
 10
141.0370349375051
 20
168.7370873369364
 30
0.0
  0
SPLINE
  5
118
330
1F
100
AcDbEntity
  8
0
  6
Continuous
 62
     7
370
    15
100
AcDbSpline
210
0.0
220
0.0
230
1.0
 70
     8
 71
     3
 72
    13
 73
     9
 74
     0
 42
0.00000001
 43
0.00000001
 12
1.0
 22
0.0
 32
0.0
 13
1.0
 23
0.0
 33
0.0
 40
0.0
 40
0.0
 40
0.0
 40
0.0
 40
0.123001874474147
 40
0.2384069041422379
 40
0.4461896349655187
 40
0.6283307411906224
 40
0.8001243898073228
 40
1.0
 40
1.0
 40
1.0
 40
1.0
 10
140.5418768890652
 20
173.2359019727916
 30
0.0
 10
140.5035444130031
 20
173.2317044464722
 30
0.0
 10
140.4292469522113
 20
173.2235686415575
 30
0.0
 10
140.3130548020806
 20
173.1499328338394
 30
0.0
 10
140.2176967649252
 20
173.0249908985147
 30
0.0
 10
140.1571414154804
 20
172.8797077496022
 30
0.0
 10
140.1010034427116
 20
172.7090378652962
 30
0.0
 10
140.0659540216607
 20
172.5607344637302
 30
0.0
 10
140.0471052084931
 20
172.4809801332897
 30
0.0
  0
SPLINE
  5
119
330
1F
100
AcDbEntity
  8
0
  6
Continuous
 62
     7
370
    15
100
AcDbSpline
210
0.0
220
0.0
230
1.0
 70
     8
 71
     3
 72
    11
 73
     7
 74
     0
 42
0.00000001
 43
0.00000001
 12
1.0
 22
0.0
 32
0.0
 13
1.0
 23
0.0
 33
0.0
 40
0.0
 40
0.0
 40
0.0
 40
0.0
 40
0.198178244431629
 40
0.5005447124113707
 40
0.7781121150560414
 40
1.0
 40
1.0
 40
1.0
 40
1.0
 10
139.2350236049739
 20
166.2370870716495
 30
0.0
 10
139.2214931220591
 20
166.1400199584148
 30
0.0
 10
139.1873187771464
 20
165.8948546506989
 30
0.0
 10
139.1349031329061
 20
165.5720887337534
 30
0.0
 10
139.0815016955637
 20
165.2764017952712
 30
0.0
 10
139.0495619276044
 20
165.134017556477
 30
0.0
 10
139.0353723740364
 20
165.0707619690792
 30
0.0
  0
SPLINE
  5
11A
330
1F
100
AcDbEntity
  8
0
  6
Continuous
 62
     7
370
    15
100
AcDbSpline
210
0.0
220
0.0
230
1.0
 70
     8
 71
     3
 72
    17
 73
    13
 74
     0
 42
0.00000001
 43
0.00000001
 12
1.0
 22
0.0
 32
0.0
 13
1.0
 23
0.0
 33
0.0
 40
0.0
 40
0.0
 40
0.0
 40
0.0
 40
0.0811639442496633
 40
0.1545739251618866
 40
0.2202476649913442
 40
0.3055160509539185
 40
0.3877758565492885
 40
0.5093625341671713
 40
0.6446336989717609
 40
0.7936328006459331
 40
0.9144077890274311
 40
1.0
 40
1.0
 40
1.0
 40
1.0
 10
137.5419965294707
 20
173.2362842315798
 30
0.0
 10
137.4968326473218
 20
173.2303117443449
 30
0.0
 10
137.4108195955432
 20
173.2189373489356
 30
0.0
 10
137.3124746861353
 20
173.1441284636397
 30
0.0
 10
137.2347640961593
 20
173.0478924297357
 30
0.0
 10
137.181715135533
 20
172.9410420431451
 30
0.0
 10
137.1306375448358
 20
172.803185187047
 30
0.0
 10
137.0712090585816
 20
172.5956657400459
 30
0.0
 10
137.0044610724011
 20
172.2920793337819
 30
0.0
 10
136.9393348199952
 20
171.927876984111
 30
0.0
 10
136.8830362680366
 20
171.5695746944906
 30
0.0
 10
136.8505565779022
 20
171.3345607263885
 30
0.0
 10
136.8370854037088
 20
171.2370870716495
 30
0.0
  0
SPLINE
  5
11B
330
1F
100
AcDbEntity
  8
0
  6
Continuous
 62
     7
370
    15
100
AcDbSpline
210
0.0
220
0.0
230
1.0
 70
     8
 71
     3
 72
    12
 73
     8
 74
     0
 42
0.00000001
 43
0.00000001
 12
1.0
 22
0.0
 32
0.0
 13
1.0
 23
0.0
 33
0.0
 40
0.0
 40
0.0
 40
0.0
 40
0.0
 40
0.0605213065058987
 40
0.3328158542174373
 40
0.5913063112870336
 40
0.834197811710379
 40
0.9999999999999999
 40
0.9999999999999999
 40
0.9999999999999999
 40
0.9999999999999999
 10
136.2354529031606
 20
166.2370870716495
 30
0.0
 10
136.2313379756691
 20
166.2068997347438
 30
0.0
 10
136.2087093645705
 20
166.0408949853611
 30
0.0
 10
136.1686218419257
 20
165.7795966880688
 30
0.0
 10
136.1168507188485
 20
165.4700781855544
 30
0.0
 10
136.0727932348229
 20
165.2368748347907
 30
0.0
 10
136.0469468390943
 20
165.1237683091491
 30
0.0
 10
136.0364612625132
 20
165.0778823315108
 30
0.0
  0
SPLINE
  5
11C
330
1F
100
AcDbEntity
  8
0
  6
Continuous
 62
     7
370
    15
100
AcDbSpline
210
0.0
220
0.0
230
1.0
 70
     8
 71
     3
 72
    17
 73
    13
 74
     0
 42
0.00000001
 43
0.00000001
 12
1.0
 22
0.0
 32
0.0
 13
1.0
 23
0.0
 33
0.0
 40
0.0
 40
0.0
 40
0.0
 40
0.0
 40
0.0482759141538039
 40
0.1032466860292524
 40
0.1986855007846735
 40
0.3041270299033877
 40
0.4048256863568971
 40
0.500288085192949
 40
0.6577185001548896
 40
0.8005862291717838
 40
0.9338413739987429
 40
1.0
 40
1.0
 40
1.0
 40
1.0
 10
134.5424253683259
 20
173.2366877908417
 30
0.0
 10
134.5112813427646
 20
173.2339246480294
 30
0.0
 10
134.4446742678872
 20
173.2280151723955
 30
0.0
 10
134.3550807541984
 20
173.1800785569295
 30
0.0
 10
134.2746474885885
 20
173.1015149285554
 30
0.0
 10
134.2062664547519
 20
172.9830412701442
 30
0.0
 10
134.1406080169168
 20
172.8230456377753
 30
0.0
 10
134.0721476524821
 20
172.5964012712249
 30
0.0
 10
134.0029684574282
 20
172.2886430920598
 30
0.0
 10
133.9333439757186
 20
171.8912986524494
 30
0.0
 10
133.8796264503127
 20
171.5502082612578
 30
0.0
 10
133.8482343673554
 20
171.315090915135
 30
0.0
 10
133.8378195546414
 20
171.2370870716495
 30
0.0
  0
SPLINE
  5
11D
330
1F
100
AcDbEntity
  8
0
  6
Continuous
 62
     7
370
    15
100
AcDbSpline
210
0.0
220
0.0
230
1.0
 70
     8
 71
     3
 72
    11
 73
     7
 74
     0
 42
0.00000001
 43
0.00000001
 12
1.0
 22
0.0
 32
0.0
 13
1.0
 23
0.0
 33
0.0
 40
0.0
 40
0.0
 40
0.0
 40
0.0
 40
0.3099593060231799
 40
0.5950163004892629
 40
0.8475420373404328
 40
1.0
 40
1.0
 40
1.0
 40
1.0
 10
133.2358333608802
 20
166.2370870716495
 30
0.0
 10
133.2149519839501
 20
166.091969417479
 30
0.0
 10
133.1748668521001
 20
165.8133929461737
 30
0.0
 10
133.1183280101809
 20
165.4783247944676
 30
0.0
 10
133.0726440186799
 20
165.236347691492
 30
0.0
 10
133.0465046014579
 20
165.1231149187981
 30
0.0
 10
133.0366642985035
 20
165.0804879245461
 30
0.0
  0
LINE
  5
11E
330
1F
100
AcDbEntity
  8
0
  6
Continuous
 62
     7
370
    15
100
AcDbLine
 10
148.1075092794
 20
161.4870870716
 30
0.0
 11
148.5883864945
 21
160.654183303
 31
0.0
  0
LINE
  5
11F
330
1F
100
AcDbEntity
  8
0
  6
Continuous
 62
     7
370
    15
100
AcDbLine
 10
150.6266320644
 20
160.654183303
 30
0.0
 11
151.1075092794
 21
161.4870870716
 31
0.0
  0
LINE
  5
120
330
1F
100
AcDbEntity
  8
0
  6
Continuous
 62
     7
370
    15
100
AcDbLine
 10
148.5883864945
 20
176.8199908403
 30
0.0
 11
148.1075092794
 21
175.9870870716
 31
0.0
  0
LINE
  5
121
330
1F
100
AcDbEntity
  8
0
  6
Continuous
 62
     7
370
    15
100
AcDbLine
 10
151.1075092794
 20
175.9870870716
 30
0.0
 11
150.6266320644
 21
176.8199908403
 31
0.0
  0
LINE
  5
122
330
1F
100
AcDbEntity
  8
0
  6
Continuous
 62
     7
370
    15
100
AcDbLine
 10
151.1075092794
 20
161.4870870716
 30
0.0
 11
151.5883864945
 21
160.654183303
 31
0.0
  0
LINE
  5
123
330
1F
100
AcDbEntity
  8
0
  6
Continuous
 62
     7
370
    15
100
AcDbLine
 10
153.6266320644
 20
160.654183303
 30
0.0
 11
154.1075092794
 21
161.4870870716
 31
0.0
  0
LINE
  5
124
330
1F
100
AcDbEntity
  8
0
  6
Continuous
 62
     7
370
    15
100
AcDbLine
 10
151.5883864945
 20
176.8199908403
 30
0.0
 11
151.1075092794
 21
175.9870870716
 31
0.0
  0
LINE
  5
125
330
1F
100
AcDbEntity
  8
0
  6
Continuous
 62
     7
370
    15
100
AcDbLine
 10
154.1075092794
 20
175.9870870716
 30
0.0
 11
153.6266320644
 21
176.8199908403
 31
0.0
  0
LINE
  5
126
330
1F
100
AcDbEntity
  8
0
  6
Continuous
 62
     7
370
    15
100
AcDbLine
 10
107.5532121469
 20
175.5370870716
 30
0.0
 11
107.5532121469
 21
174.7370870716
 31
0.0
  0
LINE
  5
127
330
1F
100
AcDbEntity
  8
0
  6
Continuous
 62
     7
370
    15
100
AcDbLine
 10
115.5532121469
 20
174.7370870716
 30
0.0
 11
115.5532121469
 21
175.5370870716
 31
0.0
  0
LINE
  5
128
330
1F
100
AcDbEntity
  8
0
  6
Continuous
 62
     7
370
    15
100
AcDbLine
 10
107.5532121469
 20
162.7370870716
 30
0.0
 11
107.5532121469
 21
161.9370870716
 31
0.0
  0
LINE
  5
129
330
1F
100
AcDbEntity
  8
0
  6
Continuous
 62
     7
370
    15
100
AcDbLine
 10
115.5532121469
 20
161.9370870716
 30
0.0
 11
115.5532121469
 21
162.7370870716
 31
0.0
  0
LINE
  5
12A
330
1F
100
AcDbEntity
  8
0
  6
Continuous
 62
     7
370
    15
100
AcDbLine
 10
144.5532121469
 20
172.4898638214
 30
0.0
 11
141.5532121469
 21
172.4898638214
 31
0.0
  0
LINE
  5
12B
330
1F
100
AcDbEntity
  8
0
  6
Continuous
 62
     7
370
    15
100
AcDbLine
 10
144.5532121469
 20
172.4898638214
 30
0.0
 11
144.5532121469
 21
164.9843103219
 31
0.0
  0
LINE
  5
12C
330
1F
100
AcDbEntity
  8
0
  6
Continuous
 62
     7
370
    15
100
AcDbLine
 10
144.5532121469
 20
164.9843103219
 30
0.0
 11
141.5532121469
 21
164.9843103219
 31
0.0
  0
LINE
  5
12D
330
1F
100
AcDbEntity
  8
0
  6
Continuous
 62
     7
370
    15
100
AcDbLine
 10
141.5532121469
 20
172.4898638214
 30
0.0
 11
141.5532121469
 21
164.9843103219
 31
0.0
  0
LINE
  5
12E
330
1F
100
AcDbEntity
  8
0
  6
Continuous
 62
     7
370
    15
100
AcDbLine
 10
144.5532121469
 20
176.2426405711
 30
0.0
 11
141.5532121469
 21
176.2426405711
 31
0.0
  0
LINE
  5
12F
330
1F
100
AcDbEntity
  8
0
  6
Continuous
 62
     7
370
    15
100
AcDbLine
 10
144.5532121469
 20
176.2426405711
 30
0.0
 11
144.5532121469
 21
172.4898638214
 31
0.0
  0
LINE
  5
130
330
1F
100
AcDbEntity
  8
0
  6
Continuous
 62
     7
370
    15
100
AcDbLine
 10
141.5532121469
 20
176.2426405711
 30
0.0
 11
141.5532121469
 21
172.4898638214
 31
0.0
  0
LINE
  5
131
330
1F
100
AcDbEntity
  8
0
  6
Continuous
 62
     7
370
    15
100
AcDbLine
 10
144.5532121469
 20
161.2315335722
 30
0.0
 11
141.5532121469
 21
161.2315335722
 31
0.0
  0
LINE
  5
132
330
1F
100
AcDbEntity
  8
0
  6
Continuous
 62
     7
370
    15
100
AcDbLine
 10
141.5532121469
 20
164.9843103219
 30
0.0
 11
141.5532121469
 21
161.2315335722
 31
0.0
  0
LINE
  5
133
330
1F
100
AcDbEntity
  8
0
  6
Continuous
 62
     7
370
    15
100
AcDbLine
 10
144.5532121469
 20
164.9843103219
 30
0.0
 11
144.5532121469
 21
161.2315335722
 31
0.0
  0
LINE
  5
134
330
1F
100
AcDbEntity
  8
0
  6
Continuous
 62
     7
370
    15
100
AcDbLine
 10
156.5532121469
 20
172.7370870716
 30
0.0
 11
156.5532121469
 21
164.7370870716
 31
0.0
  0
LINE
  5
135
330
1F
100
AcDbEntity
  8
0
  6
Continuous
 62
     7
370
    15
100
AcDbLine
 10
155.5532121469
 20
163.7370870716
 30
0.0
 11
155.5532121469
 21
173.7370870716
 31
0.0
  0
LINE
  5
136
330
1F
100
AcDbEntity
  8
0
  6
Continuous
 62
     7
370
    15
100
AcDbLine
 10
146.0532121469
 20
173.7370870716
 30
0.0
 11
146.0532121469
 21
163.7370870716
 31
0.0
  0
LINE
  5
137
330
1F
100
AcDbEntity
  8
0
  6
Continuous
 62
     7
370
    15
100
AcDbLine
 10
140.0532121469
 20
172.4870870716
 30
0.0
 11
140.0532121469
 21
164.9870870716
 31
0.0
  0
LINE
  5
138
330
1F
100
AcDbEntity
  8
0
  6
Continuous
 62
     7
370
    15
100
AcDbLine
 10
139.5532121469
 20
165.4870870716
 30
0.0
 11
139.5532121469
 21
171.9870870716
 31
0.0
  0
LINE
  5
139
330
1F
100
AcDbEntity
  8
0
  6
Continuous
 62
     7
370
    15
100
AcDbLine
 10
157.2532121469
 20
171.2644379708
 30
0.0
 11
156.6532121469
 21
171.2644379708
 31
0.0
  0
LINE
  5
13A
330
1F
100
AcDbEntity
  8
0
  6
Continuous
 62
     7
370
    15
100
AcDbLine
 10
156.6532121469
 20
165.2370870716
 30
0.0
 11
156.6532121469
 21
171.2644379708
 31
0.0
  0
LINE
  5
13B
330
1F
100
AcDbEntity
  8
0
  6
Continuous
 62
     7
370
    15
100
AcDbLine
 10
157.2532121469
 20
165.2370870716
 30
0.0
 11
157.2532121469
 21
171.2644379708
 31
0.0
  0
LINE
  5
13C
330
1F
100
AcDbEntity
  8
0
  6
Continuous
 62
     7
370
    15
100
AcDbLine
 10
156.6532121469
 20
171.2644379708
 30
0.0
 11
156.6532121469
 21
171.3200179194
 31
0.0
  0
LINE
  5
13D
330
1F
100
AcDbEntity
  8
0
  6
Continuous
 62
     7
370
    15
100
AcDbLine
 10
157.2532121469
 20
171.3200179194
 30
0.0
 11
157.2532121469
 21
171.2644379708
 31
0.0
  0
LINE
  5
13E
330
1F
100
AcDbEntity
  8
0
  6
Continuous
 62
     7
370
    15
100
AcDbLine
 10
115.0606150322
 20
159.4370870716
 30
0.0
 11
115.0606150322
 21
161.9370870716
 31
0.0
  0
LINE
  5
13F
330
1F
100
AcDbEntity
  8
0
  6
Continuous
 62
     7
370
    15
100
AcDbLine
 10
111.5532121469
 20
159.4370870716
 30
0.0
 11
115.0606150322
 21
159.4370870716
 31
0.0
  0
LINE
  5
140
330
1F
100
AcDbEntity
  8
0
  6
Continuous
 62
     7
370
    15
100
AcDbLine
 10
111.5532121469
 20
159.4370870716
 30
0.0
 11
111.5532121469
 21
161.9370870716
 31
0.0
  0
LINE
  5
141
330
1F
100
AcDbEntity
  8
0
  6
Continuous
 62
     7
370
    15
100
AcDbLine
 10
111.5532121469
 20
161.9370870716
 30
0.0
 11
111.6415026042
 21
161.9370870716
 31
0.0
  0
LINE
  5
142
330
1F
100
AcDbEntity
  8
0
  6
Continuous
 62
     7
370
    15
100
AcDbLine
 10
114.9723245748
 20
161.9370870716
 30
0.0
 11
115.0606150322
 21
161.9370870716
 31
0.0
  0
LINE
  5
143
330
1F
100
AcDbEntity
  8
0
  6
Continuous
 62
     7
370
    15
100
AcDbLine
 10
108.0458092615
 20
159.4370870716
 30
0.0
 11
108.0458092615
 21
161.9370870716
 31
0.0
  0
LINE
  5
144
330
1F
100
AcDbEntity
  8
0
  6
Continuous
 62
     7
370
    15
100
AcDbLine
 10
108.0458092615
 20
161.9370870716
 30
0.0
 11
108.1340997189
 21
161.9370870716
 31
0.0
  0
LINE
  5
145
330
1F
100
AcDbEntity
  8
0
  6
Continuous
 62
     7
370
    15
100
AcDbLine
 10
111.4649216895
 20
161.9370870716
 30
0.0
 11
111.5532121469
 21
161.9370870716
 31
0.0
  0
LINE
  5
146
330
1F
100
AcDbEntity
  8
0
  6
Continuous
 62
     7
370
    15
100
AcDbLine
 10
108.0458092615
 20
159.4370870716
 30
0.0
 11
111.5532121469
 21
159.4370870716
 31
0.0
  0
LINE
  5
147
330
1F
100
AcDbEntity
  8
0
  6
Continuous
 62
     7
370
    15
100
AcDbLine
 10
113.9032121469
 20
156.9370870716
 30
0.0
 11
109.2032121469
 21
156.9370870716
 31
0.0
  0
LINE
  5
148
330
1F
100
AcDbEntity
  8
0
  6
Continuous
 62
     7
370
    15
100
AcDbLine
 10
113.2852629544
 20
151.9370870716
 30
0.0
 11
109.5532121469
 21
151.9370870716
 31
0.0
  0
LINE
  5
149
330
1F
100
AcDbEntity
  8
0
  6
Continuous
 62
     7
370
    15
100
AcDbLine
 10
113.5532121469
 20
151.9370870716
 30
0.0
 11
113.2852629544
 21
151.9370870716
 31
0.0
  0
LINE
  5
14A
330
1F
100
AcDbEntity
  8
0
  6
Continuous
 62
     7
370
    15
100
AcDbLine
 10
113.5883718457
 20
154.4370870716
 30
0.0
 11
109.2032121469
 21
154.4370870716
 31
0.0
  0
LINE
  5
14B
330
1F
100
AcDbEntity
  8
0
  6
Continuous
 62
     7
370
    15
100
AcDbLine
 10
113.9032121469
 20
154.4370870716
 30
0.0
 11
113.5883718457
 21
154.4370870716
 31
0.0
  0
LINE
  5
14C
330
1F
100
AcDbEntity
  8
0
  6
Continuous
 62
     7
370
    15
100
AcDbLine
 10
115.5532121469
 20
168.7370870716
 30
0.0
 11
107.5532121469
 21
168.7370870716
 31
0.0
  0
LINE
  5
14D
330
1F
100
AcDbEntity
  8
0
  6
Continuous
 62
     7
370
    15
100
AcDbLine
 10
115.5532121469
 20
162.7370870716
 30
0.0
 11
113.5532121469
 21
162.7370870716
 31
0.0
  0
LINE
  5
14E
330
1F
100
AcDbEntity
  8
0
  6
Continuous
 62
     7
370
    15
100
AcDbLine
 10
109.5532121469
 20
162.7370870716
 30
0.0
 11
107.5532121469
 21
162.7370870716
 31
0.0
  0
LINE
  5
14F
330
1F
100
AcDbEntity
  8
0
  6
Continuous
 62
     7
370
    15
100
AcDbLine
 10
107.5532121469
 20
168.7370870716
 30
0.0
 11
107.5532121469
 21
162.7370870716
 31
0.0
  0
LINE
  5
150
330
1F
100
AcDbEntity
  8
0
  6
Continuous
 62
     7
370
    15
100
AcDbLine
 10
115.5532121469
 20
168.7370870716
 30
0.0
 11
115.5532121469
 21
162.7370870716
 31
0.0
  0
LINE
  5
151
330
1F
100
AcDbEntity
  8
0
  6
Continuous
 62
     7
370
    15
100
AcDbLine
 10
115.5532121469
 20
174.7370870716
 30
0.0
 11
113.5532121469
 21
174.7370870716
 31
0.0
  0
LINE
  5
152
330
1F
100
AcDbEntity
  8
0
  6
Continuous
 62
     7
370
    15
100
AcDbLine
 10
109.5532121469
 20
174.7370870716
 30
0.0
 11
107.5532121469
 21
174.7370870716
 31
0.0
  0
LINE
  5
153
330
1F
100
AcDbEntity
  8
0
  6
Continuous
 62
     7
370
    15
100
AcDbLine
 10
107.5532121469
 20
174.7370870716
 30
0.0
 11
107.5532121469
 21
168.7370870716
 31
0.0
  0
LINE
  5
154
330
1F
100
AcDbEntity
  8
0
  6
Continuous
 62
     7
370
    15
100
AcDbLine
 10
115.5532121469
 20
174.7370870716
 30
0.0
 11
115.5532121469
 21
168.7370870716
 31
0.0
  0
LINE
  5
155
330
1F
100
AcDbEntity
  8
0
  6
Continuous
 62
     7
370
    15
100
AcDbLine
 10
119.5532121469
 20
172.3380897419
 30
0.0
 11
119.5532121469
 21
164.9870870716
 31
0.0
  0
LINE
  5
156
330
1F
100
AcDbEntity
  8
0
  6
Continuous
 62
     7
370
    15
100
AcDbLine
 10
102.0532121469
 20
172.2370870716
 30
0.0
 11
102.0532121469
 21
165.2370870716
 31
0.0
  0
LINE
  5
157
330
1F
100
AcDbEntity
  8
0
  6
Continuous
 62
     7
370
    15
100
AcDbLine
 10
104.0532121469
 20
172.2370870716
 30
0.0
 11
104.0532121469
 21
165.2370870716
 31
0.0
  0
LINE
  5
158
330
1F
100
AcDbEntity
  8
0
  6
Continuous
 62
     7
370
    15
100
AcDbLine
 10
158.5532121469
 20
170.7370870716
 30
0.0
 11
158.5532121469
 21
166.7370870716
 31
0.0
  0
LINE
  5
159
330
1F
100
AcDbEntity
  8
0
  6
Continuous
 62
     7
370
    15
100
AcDbLine
 10
158.0532121469
 20
166.2370870716
 30
0.0
 11
158.0532121469
 21
171.2370870716
 31
0.0
  0
SPLINE
  5
15A
330
1F
100
AcDbEntity
  8
0
  6
Continuous
 62
     7
370
    15
100
AcDbSpline
210
0.0
220
0.0
230
1.0
 70
    24
 71
     3
 72
    12
 73
     8
 74
     0
 42
0.00000001
 43
0.00000001
 12
1.0
 22
0.0
 32
0.0
 13
1.0
 23
0.0
 33
0.0
 40
0.0
 40
0.0
 40
0.0
 40
0.0
 40
0.2131118302415333
 40
0.4255753395181769
 40
0.6526007289076498
 40
0.8644483335174681
 40
1.0
 40
1.0
 40
1.0
 40
1.0
 10
141.2859796221978
 20
168.7370870716495
 30
0.0
 10
141.3137764836609
 20
168.7370870716495
 30
0.0
 10
141.3692856439983
 20
168.7370870716495
 30
0.0
 10
141.4449260440277
 20
168.7370870716495
 30
0.0
 10
141.5027138173425
 20
168.7370870716495
 30
0.0
 10
141.5325042441525
 20
168.7370870716495
 30
0.0
 10
141.5323049879881
 20
168.7370870716495
 30
0.0
 10
141.5322272402569
 20
168.7370870716495
 30
0.0
  0
SPLINE
  5
15B
330
1F
100
AcDbEntity
  8
0
  6
Continuous
 62
     7
370
    15
100
AcDbSpline
210
0.0
220
0.0
230
1.0
 70
    24
 71
     3
 72
    12
 73
     8
 74
     0
 42
0.00000001
 43
0.00000001
 12
1.0
 22
0.0
 32
0.0
 13
1.0
 23
0.0
 33
0.0
 40
0.0
 40
0.0
 40
0.0
 40
0.0
 40
0.2123802620529528
 40
0.4241150500858361
 40
0.6503402993458243
 40
0.861405107856007
 40
1.0
 40
1.0
 40
1.0
 40
1.0
 10
141.2859796221978
 20
168.7370870716495
 30
0.0
 10
141.2581803686458
 20
168.7370870716495
 30
0.0
 10
141.2026663500706
 20
168.7370870716495
 30
0.0
 10
141.1270406752307
 20
168.7370870716495
 30
0.0
 10
141.0692509652012
 20
168.7370870716495
 30
0.0
 10
141.0393907684833
 20
168.7370870716495
 30
0.0
 10
141.0396427172171
 20
168.7370870716495
 30
0.0
 10
141.0397425823361
 20
168.7370870716495
 30
0.0
  0
SPLINE
  5
15C
330
1F
100
AcDbEntity
  8
0
  6
Continuous
 62
     7
370
    15
100
AcDbSpline
210
0.0
220
0.0
230
1.0
 70
     8
 71
     3
 72
     8
 73
     4
 74
     0
 42
0.00000001
 43
0.00000001
 12
1.0
 22
0.0
 32
0.0
 13
1.0
 23
0.0
 33
0.0
 40
0.0
 40
0.0
 40
0.0
 40
0.0
 40
1.0
 40
1.0
 40
1.0
 40
1.0
 10
148.5883864944552
 20
172.7785389559769
 30
0.0
 10
148.3840869738807
 20
173.1323961055739
 30
0.0
 10
148.2162303898437
 20
173.4938717603508
 30
0.0
 10
148.1075092794133
 20
173.8555355937318
 30
0.0
  0
LINE
  5
15D
330
1F
100
AcDbEntity
  8
0
  6
Continuous
 62
     7
370
    15
100
AcDbLine
 10
148.1075092794
 20
175.7429942025
 30
0.0
 11
148.1075092794
 21
173.8555355937
 31
0.0
  0
SPLINE
  5
15E
330
1F
100
AcDbEntity
  8
0
  6
Continuous
 62
     7
370
    15
100
AcDbSpline
210
0.0
220
0.0
230
1.0
 70
     8
 71
     3
 72
     8
 73
     4
 74
     0
 42
0.00000001
 43
0.00000001
 12
1.0
 22
0.0
 32
0.0
 13
1.0
 23
0.0
 33
0.0
 40
0.0
 40
0.0
 40
0.0
 40
0.0
 40
1.0
 40
1.0
 40
1.0
 40
1.0
 10
148.1075092794133
 20
175.7429942025494
 30
0.0
 10
148.2176726971136
 20
176.1094559116519
 30
0.0
 10
148.3848364576784
 20
176.4674318347246
 30
0.0
 10
148.5883864944551
 20
176.8199908403043
 30
0.0
  0
LINE
  5
15F
330
1F
100
AcDbEntity
  8
0
  6
Continuous
 62
     7
370
    15
100
AcDbLine
 10
148.5883864945
 20
176.8199908403
 30
0.0
 11
150.6266320644
 21
176.8199908403
 31
0.0
  0
SPLINE
  5
160
330
1F
100
AcDbEntity
  8
0
  6
Continuous
 62
     7
370
    15
100
AcDbSpline
210
0.0
220
0.0
230
1.0
 70
     8
 71
     3
 72
     8
 73
     4
 74
     0
 42
0.00000001
 43
0.00000001
 12
1.0
 22
0.0
 32
0.0
 13
1.0
 23
0.0
 33
0.0
 40
0.0
 40
0.0
 40
0.0
 40
0.0
 40
1.0
 40
1.0
 40
1.0
 40
1.0
 10
150.6266320643714
 20
176.8199908403043
 30
0.0
 10
150.8309315849459
 20
176.4661336907074
 30
0.0
 10
150.9987881689829
 20
176.1046580359304
 30
0.0
 10
151.1075092794133
 20
175.7429942025494
 30
0.0
  0
LINE
  5
161
330
1F
100
AcDbEntity
  8
0
  6
Continuous
 62
     7
370
    15
100
AcDbLine
 10
151.1075092794
 20
175.7429942025
 30
0.0
 11
151.1075092794
 21
173.8555355937
 31
0.0
  0
SPLINE
  5
162
330
1F
100
AcDbEntity
  8
0
  6
Continuous
 62
     7
370
    15
100
AcDbSpline
210
0.0
220
0.0
230
1.0
 70
     8
 71
     3
 72
     8
 73
     4
 74
     0
 42
0.00000001
 43
0.00000001
 12
1.0
 22
0.0
 32
0.0
 13
1.0
 23
0.0
 33
0.0
 40
0.0
 40
0.0
 40
0.0
 40
0.0
 40
1.0
 40
1.0
 40
1.0
 40
1.0
 10
151.1075092794133
 20
173.8555355937318
 30
0.0
 10
150.9973458617129
 20
173.4890738846292
 30
0.0
 10
150.8301821011481
 20
173.1310979615567
 30
0.0
 10
150.6266320643714
 20
172.7785389559769
 30
0.0
  0
LINE
  5
163
330
1F
100
AcDbEntity
  8
0
  6
Continuous
 62
     7
370
    15
100
AcDbLine
 10
148.5883864945
 20
172.778538956
 30
0.0
 11
150.6266320644
 21
172.778538956
 31
0.0
  0
SPLINE
  5
164
330
1F
100
AcDbEntity
  8
0
  6
Continuous
 62
     7
370
    15
100
AcDbSpline
210
0.0
220
0.0
230
1.0
 70
     8
 71
     3
 72
    10
 73
     6
 74
     0
 42
0.00000001
 43
0.00000001
 12
1.0
 22
0.0
 32
0.0
 13
1.0
 23
0.0
 33
0.0
 40
0.0
 40
0.0
 40
0.0
 40
0.0
 40
0.5
 40
0.5
 40
1.0
 40
1.0
 40
1.0
 40
1.0
 10
148.5883864944552
 20
164.6956351873221
 30
0.0
 10
148.4866515717988
 20
165.0480552972119
 30
0.0
 10
148.3939333525701
 20
165.4036683103018
 30
0.0
 10
148.231537088447
 20
166.1230530883975
 30
0.0
 10
148.162037643002
 20
166.4868481908976
 30
0.0
 10
148.1075092794133
 20
166.8496284628318
 30
0.0
  0
LINE
  5
165
330
1F
100
AcDbEntity
  8
0
  6
Continuous
 62
     7
370
    15
100
AcDbLine
 10
148.1075092794
 20
170.6245456805
 30
0.0
 11
148.1075092794
 21
166.8496284628
 31
0.0
  0
SPLINE
  5
166
330
1F
100
AcDbEntity
  8
0
  6
Continuous
 62
     7
370
    15
100
AcDbSpline
210
0.0
220
0.0
230
1.0
 70
     8
 71
     3
 72
    10
 73
     6
 74
     0
 42
0.00000001
 43
0.00000001
 12
1.0
 22
0.0
 32
0.0
 13
1.0
 23
0.0
 33
0.0
 40
0.0
 40
0.0
 40
0.0
 40
0.0
 40
0.5
 40
0.5
 40
1.0
 40
1.0
 40
1.0
 40
1.0
 10
148.1075092794133
 20
170.6245456804672
 30
0.0
 10
148.1624512976902
 20
170.9900780203237
 30
0.0
 10
148.2321922316266
 20
171.3542513751905
 30
0.0
 10
148.3942896876692
 20
172.0718547417462
 30
0.0
 10
148.4868295288773
 20
172.4267353074902
 30
0.0
 10
148.5883864944551
 20
172.7785389559769
 30
0.0
  0
SPLINE
  5
167
330
1F
100
AcDbEntity
  8
0
  6
Continuous
 62
     7
370
    15
100
AcDbSpline
210
0.0
220
0.0
230
1.0
 70
     8
 71
     3
 72
    10
 73
     6
 74
     0
 42
0.00000001
 43
0.00000001
 12
1.0
 22
0.0
 32
0.0
 13
1.0
 23
0.0
 33
0.0
 40
0.0
 40
0.0
 40
0.0
 40
0.0
 40
0.5
 40
0.5
 40
1.0
 40
1.0
 40
1.0
 40
1.0
 10
150.6266320643714
 20
172.7785389559769
 30
0.0
 10
150.7283669870278
 20
172.4261188460871
 30
0.0
 10
150.8210852062565
 20
172.0705058329972
 30
0.0
 10
150.9834814703796
 20
171.3511210549016
 30
0.0
 10
151.0529809158246
 20
170.9873259524014
 30
0.0
 10
151.1075092794133
 20
170.6245456804672
 30
0.0
  0
LINE
  5
168
330
1F
100
AcDbEntity
  8
0
  6
Continuous
 62
     7
370
    15
100
AcDbLine
 10
151.1075092794
 20
170.6245456805
 30
0.0
 11
151.1075092794
 21
166.8496284628
 31
0.0
  0
SPLINE
  5
169
330
1F
100
AcDbEntity
  8
0
  6
Continuous
 62
     7
370
    15
100
AcDbSpline
210
0.0
220
0.0
230
1.0
 70
     8
 71
     3
 72
    10
 73
     6
 74
     0
 42
0.00000001
 43
0.00000001
 12
1.0
 22
0.0
 32
0.0
 13
1.0
 23
0.0
 33
0.0
 40
0.0
 40
0.0
 40
0.0
 40
0.0
 40
0.5
 40
0.5
 40
1.0
 40
1.0
 40
1.0
 40
1.0
 10
151.1075092794133
 20
166.8496284628318
 30
0.0
 10
151.0525672611364
 20
166.4840961229753
 30
0.0
 10
150.9828263272
 20
166.1199227681085
 30
0.0
 10
150.8207288711573
 20
165.4023194015529
 30
0.0
 10
150.7281890299493
 20
165.0474388358088
 30
0.0
 10
150.6266320643714
 20
164.6956351873221
 30
0.0
  0
LINE
  5
16A
330
1F
100
AcDbEntity
  8
0
  6
Continuous
 62
     7
370
    15
100
AcDbLine
 10
148.5883864945
 20
164.6956351873
 30
0.0
 11
150.6266320644
 21
164.6956351873
 31
0.0
  0
LINE
  5
16B
330
1F
100
AcDbEntity
  8
0
  6
Continuous
 62
     7
370
    15
100
AcDbLine
 10
151.1075092794
 20
173.8555355937
 30
0.0
 11
151.1075092794
 21
170.6245456805
 31
0.0
  0
LINE
  5
16C
330
1F
100
AcDbEntity
  8
0
  6
Continuous
 62
     7
370
    15
100
AcDbLine
 10
151.1075092794
 20
166.8496284628
 30
0.0
 11
151.1075092794
 21
163.6186385496
 31
0.0
  0
SPLINE
  5
16D
330
1F
100
AcDbEntity
  8
0
  6
Continuous
 62
     7
370
    15
100
AcDbSpline
210
0.0
220
0.0
230
1.0
 70
     8
 71
     3
 72
     8
 73
     4
 74
     0
 42
0.00000001
 43
0.00000001
 12
1.0
 22
0.0
 32
0.0
 13
1.0
 23
0.0
 33
0.0
 40
0.0
 40
0.0
 40
0.0
 40
0.0
 40
1.0
 40
1.0
 40
1.0
 40
1.0
 10
150.6266320643714
 20
164.6956351873221
 30
0.0
 10
150.8309315849459
 20
164.3417780377252
 30
0.0
 10
150.9987881689829
 20
163.9803023829483
 30
0.0
 10
151.1075092794133
 20
163.6186385495673
 30
0.0
  0
SPLINE
  5
16E
330
1F
100
AcDbEntity
  8
0
  6
Continuous
 62
     7
370
    15
100
AcDbSpline
210
0.0
220
0.0
230
1.0
 70
     8
 71
     3
 72
     8
 73
     4
 74
     0
 42
0.00000001
 43
0.00000001
 12
1.0
 22
0.0
 32
0.0
 13
1.0
 23
0.0
 33
0.0
 40
0.0
 40
0.0
 40
0.0
 40
0.0
 40
1.0
 40
1.0
 40
1.0
 40
1.0
 10
148.5883864944552
 20
160.6541833029947
 30
0.0
 10
148.3840869738807
 20
161.0080404525917
 30
0.0
 10
148.2162303898437
 20
161.3695161073687
 30
0.0
 10
148.1075092794133
 20
161.7311799407496
 30
0.0
  0
LINE
  5
16F
330
1F
100
AcDbEntity
  8
0
  6
Continuous
 62
     7
370
    15
100
AcDbLine
 10
148.1075092794
 20
163.6186385496
 30
0.0
 11
148.1075092794
 21
161.7311799407
 31
0.0
  0
SPLINE
  5
170
330
1F
100
AcDbEntity
  8
0
  6
Continuous
 62
     7
370
    15
100
AcDbSpline
210
0.0
220
0.0
230
1.0
 70
     8
 71
     3
 72
     8
 73
     4
 74
     0
 42
0.00000001
 43
0.00000001
 12
1.0
 22
0.0
 32
0.0
 13
1.0
 23
0.0
 33
0.0
 40
0.0
 40
0.0
 40
0.0
 40
0.0
 40
1.0
 40
1.0
 40
1.0
 40
1.0
 10
148.1075092794133
 20
163.6186385495673
 30
0.0
 10
148.2176726971136
 20
163.9851002586698
 30
0.0
 10
148.3848364576784
 20
164.3430761817424
 30
0.0
 10
148.5883864944551
 20
164.6956351873221
 30
0.0
  0
SPLINE
  5
171
330
1F
100
AcDbEntity
  8
0
  6
Continuous
 62
     7
370
    15
100
AcDbSpline
210
0.0
220
0.0
230
1.0
 70
     8
 71
     3
 72
     8
 73
     4
 74
     0
 42
0.00000001
 43
0.00000001
 12
1.0
 22
0.0
 32
0.0
 13
1.0
 23
0.0
 33
0.0
 40
0.0
 40
0.0
 40
0.0
 40
0.0
 40
1.0
 40
1.0
 40
1.0
 40
1.0
 10
151.1075092794133
 20
161.7311799407496
 30
0.0
 10
150.9973458617129
 20
161.3647182316471
 30
0.0
 10
150.8301821011481
 20
161.0067423085745
 30
0.0
 10
150.6266320643714
 20
160.6541833029947
 30
0.0
  0
LINE
  5
172
330
1F
100
AcDbEntity
  8
0
  6
Continuous
 62
     7
370
    15
100
AcDbLine
 10
148.5883864945
 20
160.654183303
 30
0.0
 11
150.6266320644
 21
160.654183303
 31
0.0
  0
LINE
  5
173
330
1F
100
AcDbEntity
  8
0
  6
Continuous
 62
     7
370
    15
100
AcDbLine
 10
151.1075092794
 20
163.6186385496
 30
0.0
 11
151.1075092794
 21
161.7311799407
 31
0.0
  0
LINE
  5
174
330
1F
100
AcDbEntity
  8
0
  6
Continuous
 62
     7
370
    15
100
AcDbLine
 10
148.1075092794
 20
163.6186385496
 30
0.0
 11
148.1075092794
 21
166.8496284628
 31
0.0
  0
LINE
  5
175
330
1F
100
AcDbEntity
  8
0
  6
Continuous
 62
     7
370
    15
100
AcDbLine
 10
148.1075092794
 20
170.6245456805
 30
0.0
 11
148.1075092794
 21
173.8555355937
 31
0.0
  0
LINE
  5
176
330
1F
100
AcDbEntity
  8
0
  6
Continuous
 62
     7
370
    15
100
AcDbLine
 10
148.1075092794
 20
161.4870870716
 30
0.0
 11
148.1075092794
 21
161.7311799407
 31
0.0
  0
LINE
  5
177
330
1F
100
AcDbEntity
  8
0
  6
Continuous
 62
     7
370
    15
100
AcDbLine
 10
151.1075092794
 20
161.7311799407
 30
0.0
 11
151.1075092794
 21
161.4870870716
 31
0.0
  0
LINE
  5
178
330
1F
100
AcDbEntity
  8
0
  6
Continuous
 62
     7
370
    15
100
AcDbLine
 10
148.1075092794
 20
175.7429942025
 30
0.0
 11
148.1075092794
 21
175.9870870716
 31
0.0
  0
LINE
  5
179
330
1F
100
AcDbEntity
  8
0
  6
Continuous
 62
     7
370
    15
100
AcDbLine
 10
151.1075092794
 20
175.9870870716
 30
0.0
 11
151.1075092794
 21
175.7429942025
 31
0.0
  0
LINE
  5
17A
330
1F
100
AcDbEntity
  8
0
  6
Continuous
 62
     7
370
    15
100
AcDbLine
 10
154.1075092794
 20
166.8496284628
 30
0.0
 11
154.1075092794
 21
163.6186385496
 31
0.0
  0
SPLINE
  5
17B
330
1F
100
AcDbEntity
  8
0
  6
Continuous
 62
     7
370
    15
100
AcDbSpline
210
0.0
220
0.0
230
1.0
 70
     8
 71
     3
 72
     8
 73
     4
 74
     0
 42
0.00000001
 43
0.00000001
 12
1.0
 22
0.0
 32
0.0
 13
1.0
 23
0.0
 33
0.0
 40
0.0
 40
0.0
 40
0.0
 40
0.0
 40
1.0
 40
1.0
 40
1.0
 40
1.0
 10
153.6266320643714
 20
164.6956351873221
 30
0.0
 10
153.8309315849459
 20
164.3417780377252
 30
0.0
 10
153.9987881689829
 20
163.9803023829483
 30
0.0
 10
154.1075092794133
 20
163.6186385495673
 30
0.0
  0
SPLINE
  5
17C
330
1F
100
AcDbEntity
  8
0
  6
Continuous
 62
     7
370
    15
100
AcDbSpline
210
0.0
220
0.0
230
1.0
 70
     8
 71
     3
 72
    10
 73
     6
 74
     0
 42
0.00000001
 43
0.00000001
 12
1.0
 22
0.0
 32
0.0
 13
1.0
 23
0.0
 33
0.0
 40
0.0
 40
0.0
 40
0.0
 40
0.0
 40
0.5
 40
0.5
 40
1.0
 40
1.0
 40
1.0
 40
1.0
 10
154.1075092794133
 20
166.8496284628318
 30
0.0
 10
154.0525672611364
 20
166.4840961229753
 30
0.0
 10
153.9828263272
 20
166.1199227681085
 30
0.0
 10
153.8207288711573
 20
165.4023194015529
 30
0.0
 10
153.7281890299493
 20
165.0474388358088
 30
0.0
 10
153.6266320643714
 20
164.6956351873221
 30
0.0
  0
SPLINE
  5
17D
330
1F
100
AcDbEntity
  8
0
  6
Continuous
 62
     7
370
    15
100
AcDbSpline
210
0.0
220
0.0
230
1.0
 70
     8
 71
     3
 72
    10
 73
     6
 74
     0
 42
0.00000001
 43
0.00000001
 12
1.0
 22
0.0
 32
0.0
 13
1.0
 23
0.0
 33
0.0
 40
0.0
 40
0.0
 40
0.0
 40
0.0
 40
0.5
 40
0.5
 40
1.0
 40
1.0
 40
1.0
 40
1.0
 10
151.5883864944552
 20
164.6956351873221
 30
0.0
 10
151.4866515717988
 20
165.0480552972119
 30
0.0
 10
151.39393335257
 20
165.4036683103018
 30
0.0
 10
151.231537088447
 20
166.1230530883975
 30
0.0
 10
151.162037643002
 20
166.4868481908976
 30
0.0
 10
151.1075092794133
 20
166.8496284628318
 30
0.0
  0
SPLINE
  5
17E
330
1F
100
AcDbEntity
  8
0
  6
Continuous
 62
     7
370
    15
100
AcDbSpline
210
0.0
220
0.0
230
1.0
 70
     8
 71
     3
 72
    10
 73
     6
 74
     0
 42
0.00000001
 43
0.00000001
 12
1.0
 22
0.0
 32
0.0
 13
1.0
 23
0.0
 33
0.0
 40
0.0
 40
0.0
 40
0.0
 40
0.0
 40
0.5
 40
0.5
 40
1.0
 40
1.0
 40
1.0
 40
1.0
 10
151.1075092794133
 20
170.6245456804672
 30
0.0
 10
151.1624512976902
 20
170.9900780203237
 30
0.0
 10
151.2321922316265
 20
171.3542513751905
 30
0.0
 10
151.3942896876692
 20
172.0718547417462
 30
0.0
 10
151.4868295288773
 20
172.4267353074902
 30
0.0
 10
151.5883864944551
 20
172.7785389559769
 30
0.0
  0
LINE
  5
17F
330
1F
100
AcDbEntity
  8
0
  6
Continuous
 62
     7
370
    15
100
AcDbLine
 10
151.5883864945
 20
172.778538956
 30
0.0
 11
153.6266320644
 21
172.778538956
 31
0.0
  0
SPLINE
  5
180
330
1F
100
AcDbEntity
  8
0
  6
Continuous
 62
     7
370
    15
100
AcDbSpline
210
0.0
220
0.0
230
1.0
 70
     8
 71
     3
 72
    10
 73
     6
 74
     0
 42
0.00000001
 43
0.00000001
 12
1.0
 22
0.0
 32
0.0
 13
1.0
 23
0.0
 33
0.0
 40
0.0
 40
0.0
 40
0.0
 40
0.0
 40
0.5
 40
0.5
 40
1.0
 40
1.0
 40
1.0
 40
1.0
 10
153.6266320643714
 20
172.7785389559769
 30
0.0
 10
153.7283669870278
 20
172.4261188460871
 30
0.0
 10
153.8210852062565
 20
172.0705058329972
 30
0.0
 10
153.9834814703796
 20
171.3511210549016
 30
0.0
 10
154.0529809158246
 20
170.9873259524014
 30
0.0
 10
154.1075092794133
 20
170.6245456804672
 30
0.0
  0
LINE
  5
181
330
1F
100
AcDbEntity
  8
0
  6
Continuous
 62
     7
370
    15
100
AcDbLine
 10
154.1075092794
 20
170.6245456805
 30
0.0
 11
154.1075092794
 21
166.8496284628
 31
0.0
  0
LINE
  5
182
330
1F
100
AcDbEntity
  8
0
  6
Continuous
 62
     7
370
    15
100
AcDbLine
 10
151.5883864945
 20
164.6956351873
 30
0.0
 11
153.6266320644
 21
164.6956351873
 31
0.0
  0
SPLINE
  5
183
330
1F
100
AcDbEntity
  8
0
  6
Continuous
 62
     7
370
    15
100
AcDbSpline
210
0.0
220
0.0
230
1.0
 70
     8
 71
     3
 72
     8
 73
     4
 74
     0
 42
0.00000001
 43
0.00000001
 12
1.0
 22
0.0
 32
0.0
 13
1.0
 23
0.0
 33
0.0
 40
0.0
 40
0.0
 40
0.0
 40
0.0
 40
1.0
 40
1.0
 40
1.0
 40
1.0
 10
151.5883864944552
 20
172.7785389559769
 30
0.0
 10
151.3840869738807
 20
173.1323961055739
 30
0.0
 10
151.2162303898437
 20
173.4938717603508
 30
0.0
 10
151.1075092794133
 20
173.8555355937318
 30
0.0
  0
SPLINE
  5
184
330
1F
100
AcDbEntity
  8
0
  6
Continuous
 62
     7
370
    15
100
AcDbSpline
210
0.0
220
0.0
230
1.0
 70
     8
 71
     3
 72
     8
 73
     4
 74
     0
 42
0.00000001
 43
0.00000001
 12
1.0
 22
0.0
 32
0.0
 13
1.0
 23
0.0
 33
0.0
 40
0.0
 40
0.0
 40
0.0
 40
0.0
 40
1.0
 40
1.0
 40
1.0
 40
1.0
 10
151.1075092794133
 20
175.7429942025494
 30
0.0
 10
151.2176726971136
 20
176.1094559116519
 30
0.0
 10
151.3848364576784
 20
176.4674318347246
 30
0.0
 10
151.5883864944551
 20
176.8199908403043
 30
0.0
  0
LINE
  5
185
330
1F
100
AcDbEntity
  8
0
  6
Continuous
 62
     7
370
    15
100
AcDbLine
 10
151.5883864945
 20
176.8199908403
 30
0.0
 11
153.6266320644
 21
176.8199908403
 31
0.0
  0
SPLINE
  5
186
330
1F
100
AcDbEntity
  8
0
  6
Continuous
 62
     7
370
    15
100
AcDbSpline
210
0.0
220
0.0
230
1.0
 70
     8
 71
     3
 72
     8
 73
     4
 74
     0
 42
0.00000001
 43
0.00000001
 12
1.0
 22
0.0
 32
0.0
 13
1.0
 23
0.0
 33
0.0
 40
0.0
 40
0.0
 40
0.0
 40
0.0
 40
1.0
 40
1.0
 40
1.0
 40
1.0
 10
153.6266320643714
 20
176.8199908403043
 30
0.0
 10
153.8309315849459
 20
176.4661336907074
 30
0.0
 10
153.9987881689829
 20
176.1046580359304
 30
0.0
 10
154.1075092794133
 20
175.7429942025494
 30
0.0
  0
LINE
  5
187
330
1F
100
AcDbEntity
  8
0
  6
Continuous
 62
     7
370
    15
100
AcDbLine
 10
154.1075092794
 20
175.7429942025
 30
0.0
 11
154.1075092794
 21
173.8555355937
 31
0.0
  0
SPLINE
  5
188
330
1F
100
AcDbEntity
  8
0
  6
Continuous
 62
     7
370
    15
100
AcDbSpline
210
0.0
220
0.0
230
1.0
 70
     8
 71
     3
 72
     8
 73
     4
 74
     0
 42
0.00000001
 43
0.00000001
 12
1.0
 22
0.0
 32
0.0
 13
1.0
 23
0.0
 33
0.0
 40
0.0
 40
0.0
 40
0.0
 40
0.0
 40
1.0
 40
1.0
 40
1.0
 40
1.0
 10
154.1075092794133
 20
173.8555355937318
 30
0.0
 10
153.9973458617129
 20
173.4890738846292
 30
0.0
 10
153.8301821011481
 20
173.1310979615567
 30
0.0
 10
153.6266320643714
 20
172.7785389559769
 30
0.0
  0
LINE
  5
189
330
1F
100
AcDbEntity
  8
0
  6
Continuous
 62
     7
370
    15
100
AcDbLine
 10
154.1075092794
 20
173.8555355937
 30
0.0
 11
154.1075092794
 21
170.6245456805
 31
0.0
  0
SPLINE
  5
18A
330
1F
100
AcDbEntity
  8
0
  6
Continuous
 62
     7
370
    15
100
AcDbSpline
210
0.0
220
0.0
230
1.0
 70
     8
 71
     3
 72
     8
 73
     4
 74
     0
 42
0.00000001
 43
0.00000001
 12
1.0
 22
0.0
 32
0.0
 13
1.0
 23
0.0
 33
0.0
 40
0.0
 40
0.0
 40
0.0
 40
0.0
 40
1.0
 40
1.0
 40
1.0
 40
1.0
 10
151.5883864944552
 20
160.6541833029947
 30
0.0
 10
151.3840869738807
 20
161.0080404525917
 30
0.0
 10
151.2162303898437
 20
161.3695161073687
 30
0.0
 10
151.1075092794133
 20
161.7311799407496
 30
0.0
  0
SPLINE
  5
18B
330
1F
100
AcDbEntity
  8
0
  6
Continuous
 62
     7
370
    15
100
AcDbSpline
210
0.0
220
0.0
230
1.0
 70
     8
 71
     3
 72
     8
 73
     4
 74
     0
 42
0.00000001
 43
0.00000001
 12
1.0
 22
0.0
 32
0.0
 13
1.0
 23
0.0
 33
0.0
 40
0.0
 40
0.0
 40
0.0
 40
0.0
 40
1.0
 40
1.0
 40
1.0
 40
1.0
 10
151.1075092794133
 20
163.6186385495673
 30
0.0
 10
151.2176726971136
 20
163.9851002586698
 30
0.0
 10
151.3848364576784
 20
164.3430761817424
 30
0.0
 10
151.5883864944551
 20
164.6956351873221
 30
0.0
  0
SPLINE
  5
18C
330
1F
100
AcDbEntity
  8
0
  6
Continuous
 62
     7
370
    15
100
AcDbSpline
210
0.0
220
0.0
230
1.0
 70
     8
 71
     3
 72
     8
 73
     4
 74
     0
 42
0.00000001
 43
0.00000001
 12
1.0
 22
0.0
 32
0.0
 13
1.0
 23
0.0
 33
0.0
 40
0.0
 40
0.0
 40
0.0
 40
0.0
 40
1.0
 40
1.0
 40
1.0
 40
1.0
 10
154.1075092794133
 20
161.7311799407496
 30
0.0
 10
153.9973458617129
 20
161.3647182316471
 30
0.0
 10
153.8301821011481
 20
161.0067423085745
 30
0.0
 10
153.6266320643714
 20
160.6541833029947
 30
0.0
  0
LINE
  5
18D
330
1F
100
AcDbEntity
  8
0
  6
Continuous
 62
     7
370
    15
100
AcDbLine
 10
151.5883864945
 20
160.654183303
 30
0.0
 11
153.6266320644
 21
160.654183303
 31
0.0
  0
LINE
  5
18E
330
1F
100
AcDbEntity
  8
0
  6
Continuous
 62
     7
370
    15
100
AcDbLine
 10
154.1075092794
 20
163.6186385496
 30
0.0
 11
154.1075092794
 21
161.7311799407
 31
0.0
  0
LINE
  5
18F
330
1F
100
AcDbEntity
  8
0
  6
Continuous
 62
     7
370
    15
100
AcDbLine
 10
154.1075092794
 20
161.7311799407
 30
0.0
 11
154.1075092794
 21
161.4870870716
 31
0.0
  0
LINE
  5
190
330
1F
100
AcDbEntity
  8
0
  6
Continuous
 62
     7
370
    15
100
AcDbLine
 10
154.1075092794
 20
175.9870870716
 30
0.0
 11
154.1075092794
 21
175.7429942025
 31
0.0
  0
LINE
  5
191
330
1F
100
AcDbEntity
  8
0
  6
Continuous
 62
     7
370
    15
100
AcDbLine
 10
115.0606150322
 20
175.5370870716
 30
0.0
 11
115.0606150322
 21
178.0370870716
 31
0.0
  0
LINE
  5
192
330
1F
100
AcDbEntity
  8
0
  6
Continuous
 62
     7
370
    15
100
AcDbLine
 10
111.5532121469
 20
175.5370870716
 30
0.0
 11
111.553212147
 21
178.0370870716
 31
0.0
  0
LINE
  5
193
330
1F
100
AcDbEntity
  8
0
  6
Continuous
 62
     7
370
    15
100
AcDbLine
 10
111.553212147
 20
178.0370870716
 30
0.0
 11
115.0606150322
 21
178.0370870716
 31
0.0
  0
LINE
  5
194
330
1F
100
AcDbEntity
  8
0
  6
Continuous
 62
     7
370
    15
100
AcDbLine
 10
111.5532121469
 20
175.5370870716
 30
0.0
 11
111.6415026042
 21
175.5370870716
 31
0.0
  0
LINE
  5
195
330
1F
100
AcDbEntity
  8
0
  6
Continuous
 62
     7
370
    15
100
AcDbLine
 10
114.9723245748
 20
175.5370870716
 30
0.0
 11
115.0606150322
 21
175.5370870716
 31
0.0
  0
LINE
  5
196
330
1F
100
AcDbEntity
  8
0
  6
Continuous
 62
     7
370
    15
100
AcDbLine
 10
108.0458092615
 20
175.5370870716
 30
0.0
 11
108.0458092615
 21
178.0370870716
 31
0.0
  0
LINE
  5
197
330
1F
100
AcDbEntity
  8
0
  6
Continuous
 62
     7
370
    15
100
AcDbLine
 10
108.0458092615
 20
178.0370870716
 30
0.0
 11
111.553212147
 21
178.0370870716
 31
0.0
  0
LINE
  5
198
330
1F
100
AcDbEntity
  8
0
  6
Continuous
 62
     7
370
    15
100
AcDbLine
 10
108.0458092615
 20
175.5370870716
 30
0.0
 11
108.1340997189
 21
175.5370870716
 31
0.0
  0
LINE
  5
199
330
1F
100
AcDbEntity
  8
0
  6
Continuous
 62
     7
370
    15
100
AcDbLine
 10
111.4649216895
 20
175.5370870716
 30
0.0
 11
111.5532121469
 21
175.5370870716
 31
0.0
  0
LINE
  5
19A
330
1F
100
AcDbEntity
  8
0
  6
Continuous
 62
     7
370
    15
100
AcDbLine
 10
113.5532121469
 20
174.7370870716
 30
0.0
 11
109.5532121469
 21
174.7370870716
 31
0.0
  0
LINE
  5
19B
330
1F
100
AcDbEntity
  8
0
  6
Continuous
 62
     7
370
    15
100
AcDbLine
 10
115.5532121469
 20
175.5370870716
 30
0.0
 11
115.0606150322
 21
175.5370870716
 31
0.0
  0
LINE
  5
19C
330
1F
100
AcDbEntity
  8
0
  6
Continuous
 62
     7
370
    15
100
AcDbLine
 10
114.9723245748
 20
175.5370870716
 30
0.0
 11
111.6415026042
 21
175.5370870716
 31
0.0
  0
LINE
  5
19D
330
1F
100
AcDbEntity
  8
0
  6
Continuous
 62
     7
370
    15
100
AcDbLine
 10
111.4649216895
 20
175.5370870716
 30
0.0
 11
108.1340997189
 21
175.5370870716
 31
0.0
  0
LINE
  5
19E
330
1F
100
AcDbEntity
  8
0
  6
Continuous
 62
     7
370
    15
100
AcDbLine
 10
108.0458092615
 20
175.5370870716
 30
0.0
 11
107.5532121469
 21
175.5370870716
 31
0.0
  0
LINE
  5
19F
330
1F
100
AcDbEntity
  8
0
  6
Continuous
 62
     7
370
    15
100
AcDbLine
 10
113.5532121469
 20
162.7370870716
 30
0.0
 11
109.5532121469
 21
162.7370870716
 31
0.0
  0
LINE
  5
1A0
330
1F
100
AcDbEntity
  8
0
  6
Continuous
 62
     7
370
    15
100
AcDbLine
 10
115.5532121469
 20
161.9370870716
 30
0.0
 11
115.0606150322
 21
161.9370870716
 31
0.0
  0
LINE
  5
1A1
330
1F
100
AcDbEntity
  8
0
  6
Continuous
 62
     7
370
    15
100
AcDbLine
 10
114.9723245748
 20
161.9370870716
 30
0.0
 11
111.6415026042
 21
161.9370870716
 31
0.0
  0
LINE
  5
1A2
330
1F
100
AcDbEntity
  8
0
  6
Continuous
 62
     7
370
    15
100
AcDbLine
 10
111.4649216895
 20
161.9370870716
 30
0.0
 11
108.1340997189
 21
161.9370870716
 31
0.0
  0
LINE
  5
1A3
330
1F
100
AcDbEntity
  8
0
  6
Continuous
 62
     7
370
    15
100
AcDbLine
 10
108.0458092615
 20
161.9370870716
 30
0.0
 11
107.5532121469
 21
161.9370870716
 31
0.0
  0
SPLINE
  5
1A4
330
1F
100
AcDbEntity
  8
0
  6
Continuous
 62
     8
370
    15
100
AcDbSpline
210
0.0
220
0.0
230
1.0
 70
     8
 71
     3
 72
    31
 73
    27
 74
     0
 42
0.00000001
 43
0.00000001
 12
1.0
 22
0.0
 32
0.0
 13
1.0
 23
0.0
 33
0.0
 40
0.0
 40
0.0
 40
0.0
 40
0.0
 40
0.0084376138195773
 40
0.0525361175377039
 40
0.096644438963444
 40
0.1407753071081809
 40
0.1849009346877364
 40
0.2290012451844802
 40
0.2731051801126381
 40
0.3172338110246167
 40
0.3613623776560698
 40
0.4054661510309452
 40
0.4495663078989943
 40
0.4936919318163596
 40
0.5378228625374315
 40
0.5819309696227228
 40
0.6260284823313086
 40
0.6701505086048953
 40
0.7142828297463607
 40
0.7583952942696733
 40
0.8024912264060858
 40
0.846609162192075
 40
0.890742050507967
 40
0.9348589370613517
 40
0.9789547074880753
 40
1.0
 40
1.0
 40
1.0
 40
1.0
 10
124.0345660047201
 20
164.2444657586927
 30
0.0
 10
124.0303499301041
 20
164.2424354269571
 30
0.0
 10
124.0040988837403
 20
164.2297937312148
 30
0.0
 10
123.9557598653672
 20
164.2906270336642
 30
0.0
 10
123.8896069972933
 20
164.4327600199678
 30
0.0
 10
123.8234835889755
 20
164.664102719836
 30
0.0
 10
123.7573559426793
 20
164.9702111337677
 30
0.0
 10
123.691184591409
 20
165.3490082343758
 30
0.0
 10
123.6250208647401
 20
165.7943031638164
 30
0.0
 10
123.5588963001605
 20
166.2955504124507
 30
0.0
 10
123.492771717713
 20
166.8428177080432
 30
0.0
 10
123.4266078986623
 20
167.4262540149471
 30
0.0
 10
123.3604364799266
 20
168.0354988049239
 30
0.0
 10
123.29430868786
 20
168.6580376465806
 30
0.0
 10
123.2281863238064
 20
169.2820506180196
 30
0.0
 10
123.1620309181634
 20
169.8958381232078
 30
0.0
 10
123.095853633192
 20
170.486939444305
 30
0.0
 10
123.0297213057183
 20
171.0442292181826
 30
0.0
 10
122.9636001728772
 20
171.557981753611
 30
0.0
 10
122.8974529202498
 20
172.0184343228281
 30
0.0
 10
122.8312722520917
 20
172.414949068798
 30
0.0
 10
122.7651341715508
 20
172.7397743865006
 30
0.0
 10
122.6990130519743
 20
172.9902913254232
 30
0.0
 10
122.6328749384238
 20
173.1558178434619
 30
0.0
 10
122.5782258295422
 20
173.2362020682027
 30
0.0
 10
122.5456702728424
 20
173.228237989321
 30
0.0
 10
122.5351524645242
 20
173.2256650136572
 30
0.0
  0
SPLINE
  5
1A5
330
1F
100
AcDbEntity
  8
0
  6
Continuous
 62
     8
370
    15
100
AcDbSpline
210
0.0
220
0.0
230
1.0
 70
     8
 71
     3
 72
    30
 73
    26
 74
     0
 42
0.00000001
 43
0.00000001
 12
1.0
 22
0.0
 32
0.0
 13
1.0
 23
0.0
 33
0.0
 40
0.0
 40
0.0
 40
0.0
 40
0.0
 40
0.0370779924029444
 40
0.0811487537247781
 40
0.1252385091151797
 40
0.1693462879385521
 40
0.2134413946978847
 40
0.2575130281311151
 40
0.3015983439628493
 40
0.3457051217844619
 40
0.3898040935953698
 40
0.4338779022585861
 40
0.4779588908898115
 40
0.5220638158485239
 40
0.566166105010854
 40
0.6102431510461785
 40
0.6543201970815025
 40
0.6984224862438293
 40
0.7425274112025364
 40
0.7866083998337543
 40
0.830682208496962
 40
0.8747811803078605
 40
0.9188879581294647
 40
0.9629732739611901
 40
0.9999999999999999
 40
0.9999999999999999
 40
0.9999999999999999
 40
0.9999999999999999
 10
121.0348336476993
 20
164.2439251170753
 30
0.0
 10
121.0162944409949
 20
164.2476019932377
 30
0.0
 10
120.9757196034264
 20
164.2556491904789
 30
0.0
 10
120.913044963181
 20
164.3728822227334
 30
0.0
 10
120.8469023119476
 20
164.5728139865357
 30
0.0
 10
120.7807813027464
 20
164.8537577211822
 30
0.0
 10
120.7146462819473
 20
165.2073512961566
 30
0.0
 10
120.64846696235
 20
165.6293774339522
 30
0.0
 10
120.5823156628424
 20
166.1121593159569
 30
0.0
 10
120.5161940086924
 20
166.644570172031
 30
0.0
 10
120.4500641290172
 20
167.2164584952539
 30
0.0
 10
120.3838895228186
 20
167.8176544079564
 30
0.0
 10
120.3177298752418
 20
168.4368863940937
 30
0.0
 10
120.2516065237971
 20
169.0617035390313
 30
0.0
 10
120.1854804924723
 20
169.6804083830108
 30
0.0
 10
120.1193127581356
 20
170.2812423840432
 30
0.0
 10
120.0531450241475
 20
170.8516825794579
 30
0.0
 10
119.9870189917791
 20
171.3816660305981
 30
0.0
 10
119.9208956441667
 20
171.8617695357382
 30
0.0
 10
119.8547359823214
 20
172.282656058695
 30
0.0
 10
119.7885614293709
 20
172.6337038321842
 30
0.0
 10
119.7224313508611
 20
172.910551404674
 30
0.0
 10
119.6563104388711
 20
173.1062738575615
 30
0.0
 10
119.5936800074735
 20
173.221821615476
 30
0.0
 10
119.5530986544885
 20
173.2280641000576
 30
0.0
 10
119.534573727676
 20
173.2309137233819
 30
0.0
  0
SPLINE
  5
1A6
330
1F
100
AcDbEntity
  8
0
  6
Continuous
 62
     8
370
    15
100
AcDbSpline
210
0.0
220
0.0
230
1.0
 70
     8
 71
     3
 72
    31
 73
    27
 74
     0
 42
0.00000001
 43
0.00000001
 12
1.0
 22
0.0
 32
0.0
 13
1.0
 23
0.0
 33
0.0
 40
0.0
 40
0.0
 40
0.0
 40
0.0
 40
0.0227064792393539
 40
0.066757418475502
 40
0.1107962243835918
 40
0.1548590689098927
 40
0.1989333931321607
 40
0.242988764644934
 40
0.2870263590153379
 40
0.3310850416536626
 40
0.3751597049431883
 40
0.4192194354298542
 40
0.4632571912966075
 40
0.5073114577388872
 40
0.551385554602251
 40
0.5954493701798697
 40
0.6394887045335107
 40
0.6835386192865713
 40
0.7276113275639241
 40
0.7716787360388948
 40
0.8157207110635193
 40
0.8597662978236725
 40
0.9038366451303756
 40
0.9479070566327981
 40
0.9919528047330923
 40
1.0
 40
1.0
 40
1.0
 40
1.0
 10
118.0367243509898
 20
164.2490820158345
 30
0.0
 10
118.0253657389633
 20
164.2469300573268
 30
0.0
 10
117.9919712347621
 20
164.2406032642947
 30
0.0
 10
117.9365107294782
 20
164.3228137804743
 30
0.0
 10
117.8703330226298
 20
164.4912216450552
 30
0.0
 10
117.8041992044701
 20
164.7458112326021
 30
0.0
 10
117.7380783141403
 20
165.0745026783152
 30
0.0
 10
117.6719329559647
 20
165.4727786750682
 30
0.0
 10
117.6057519506929
 20
165.9346983976297
 30
0.0
 10
117.5396120963915
 20
166.4509590775884
 30
0.0
 10
117.4734914434535
 20
167.0103188767382
 30
0.0
 10
117.4073532379156
 20
167.6023241369726
 30
0.0
 10
117.3411726032322
 20
168.2164327451048
 30
0.0
 10
117.2750253416357
 20
168.8406270774627
 30
0.0
 10
117.2089042111932
 20
169.4627773952334
 30
0.0
 10
117.1427718831069
 20
170.0712768679673
 30
0.0
 10
117.0765945981964
 20
170.6542108678971
 30
0.0
 10
117.01043919293
 20
171.1994757991195
 30
0.0
 10
116.9443168273139
 20
171.6979751484464
 30
0.0
 10
116.8781890411238
 20
172.1406191028135
 30
0.0
 10
116.8120176004615
 20
172.5183802588102
 30
0.0
 10
116.7458538632627
 20
172.8211667183267
 30
0.0
 10
116.6797289751739
 20
173.0482808627394
 30
0.0
 10
116.6136055511953
 20
173.1862328104944
 30
0.0
 10
116.5654592326292
 20
173.246405446885
 30
0.0
 10
116.5393803094304
 20
173.2326461825758
 30
0.0
 10
116.5353516987632
 20
173.2305206838139
 30
0.0
  0
SPLINE
  5
1A7
330
1F
100
AcDbEntity
  8
0
  6
Continuous
 62
     8
370
    15
100
AcDbSpline
210
0.0
220
0.0
230
1.0
 70
     8
 71
     3
 72
    12
 73
     8
 74
     0
 42
0.00000001
 43
0.00000001
 12
1.0
 22
0.0
 32
0.0
 13
1.0
 23
0.0
 33
0.0
 40
0.0
 40
0.0
 40
0.0
 40
0.0
 40
0.1684304022788163
 40
0.3067922520927425
 40
0.4455266238051884
 40
0.723565958043526
 40
1.0
 40
1.0
 40
1.0
 40
1.0
 10
124.1108019209642
 20
165.4185650027686
 30
0.0
 10
124.1130947097611
 20
165.434183108949
 30
0.0
 10
124.1172709738385
 20
165.462631143886
 30
0.0
 10
124.1436542487013
 20
165.4990349281503
 30
0.0
 10
124.1853165334169
 20
165.53832402763
 30
0.0
 10
124.2549363368528
 20
165.5762143021713
 30
0.0
 10
124.3201392156174
 20
165.582659114475
 30
0.0
 10
124.3526462684318
 20
165.5858721912271
 30
0.0
  0
SPLINE
  5
1A8
330
1F
100
AcDbEntity
  8
0
  6
Continuous
 62
     8
370
    15
100
AcDbSpline
210
0.0
220
0.0
230
1.0
 70
     8
 71
     3
 72
     9
 73
     5
 74
     0
 42
0.00000001
 43
0.00000001
 12
1.0
 22
0.0
 32
0.0
 13
1.0
 23
0.0
 33
0.0
 40
0.0
 40
0.0
 40
0.0
 40
0.0
 40
0.4759442393282761
 40
1.0
 40
1.0
 40
1.0
 40
1.0
 10
116.3693136227392
 20
172.4870870716495
 30
0.0
 10
116.3845907334216
 20
172.5315667742716
 30
0.0
 10
116.4166892639217
 20
172.6250224754791
 30
0.0
 10
116.4487934959561
 20
172.6651377262217
 30
0.0
 10
116.4656179036957
 20
172.6861603544642
 30
0.0
  0
SPLINE
  5
1A9
330
1F
100
AcDbEntity
  8
0
  6
Continuous
 62
     8
370
    15
100
AcDbSpline
210
0.0
220
0.0
230
1.0
 70
     8
 71
     3
 72
    10
 73
     6
 74
     0
 42
0.00000001
 43
0.00000001
 12
1.0
 22
0.0
 32
0.0
 13
1.0
 23
0.0
 33
0.0
 40
0.0
 40
0.0
 40
0.0
 40
0.0
 40
0.2437065819513073
 40
0.9576513987711215
 40
1.0
 40
1.0
 40
1.0
 40
1.0
 10
118.1123717506552
 20
164.7974862588616
 30
0.0
 10
118.1198930481532
 20
164.8053597940926
 30
0.0
 10
118.1494481837258
 20
164.8362990570656
 30
0.0
 10
118.1803457260986
 20
164.9030586590647
 30
0.0
 10
118.20369905247
 20
164.9826314010855
 30
0.0
 10
118.2050067204759
 20
164.9870870716495
 30
0.0
  0
SPLINE
  5
1AA
330
1F
100
AcDbEntity
  8
0
  6
Continuous
 62
     8
370
    15
100
AcDbSpline
210
0.0
220
0.0
230
1.0
 70
     8
 71
     3
 72
     9
 73
     5
 74
     0
 42
0.00000001
 43
0.00000001
 12
1.0
 22
0.0
 32
0.0
 13
1.0
 23
0.0
 33
0.0
 40
0.0
 40
0.0
 40
0.0
 40
0.0
 40
0.2542538871673816
 40
1.0
 40
1.0
 40
1.0
 40
1.0
 10
119.3693311234171
 20
172.4870870716495
 30
0.0
 10
119.3767906759244
 20
172.5106997769531
 30
0.0
 10
119.4061296669244
 20
172.6035703543378
 30
0.0
 10
119.4354507290827
 20
172.6482062298585
 30
0.0
 10
119.4573167972113
 20
172.6814932605209
 30
0.0
  0
SPLINE
  5
1AB
330
1F
100
AcDbEntity
  8
0
  6
Continuous
 62
     8
370
    15
100
AcDbSpline
210
0.0
220
0.0
230
1.0
 70
     8
 71
     3
 72
    13
 73
     9
 74
     0
 42
0.00000001
 43
0.00000001
 12
1.0
 22
0.0
 32
0.0
 13
1.0
 23
0.0
 33
0.0
 40
0.0
 40
0.0
 40
0.0
 40
0.0
 40
0.1851818476631028
 40
0.3741154912777261
 40
0.5631138749088883
 40
0.75220065233388
 40
0.9412486779273103
 40
0.9999999999999999
 40
0.9999999999999999
 40
0.9999999999999999
 40
0.9999999999999999
 10
121.1128471220644
 20
164.7906997066812
 30
0.0
 10
121.1344434737986
 20
164.8261216438451
 30
0.0
 10
121.1780737207195
 20
164.8976831688612
 30
0.0
 10
121.2438060481117
 20
165.099381982221
 30
0.0
 10
121.3099544975021
 20
165.3670250334876
 30
0.0
 10
121.3760774100201
 20
165.7033504944344
 30
0.0
 10
121.4270220645191
 20
165.9963038504233
 30
0.0
 10
121.4559409456488
 20
166.1909402712135
 30
0.0
 10
121.4627973902489
 20
166.2370870716495
 30
0.0
  0
SPLINE
  5
1AC
330
1F
100
AcDbEntity
  8
0
  6
Continuous
 62
     8
370
    15
100
AcDbSpline
210
0.0
220
0.0
230
1.0
 70
     8
 71
     3
 72
    13
 73
     9
 74
     0
 42
0.00000001
 43
0.00000001
 12
1.0
 22
0.0
 32
0.0
 13
1.0
 23
0.0
 33
0.0
 40
0.0
 40
0.0
 40
0.0
 40
0.0
 40
0.1743254666224229
 40
0.3628581834512518
 40
0.5512963595812348
 40
0.7396827859610271
 40
0.928171739307415
 40
1.0
 40
1.0
 40
1.0
 40
1.0
 10
122.1086631982121
 20
171.2370870716495
 30
0.0
 10
122.1290546343822
 20
171.3669575928745
 30
0.0
 10
122.1714993765647
 20
171.6372828776914
 30
0.0
 10
122.2359600297904
 20
171.9818983635204
 30
0.0
 10
122.3021142500688
 20
172.2794054706834
 30
0.0
 10
122.3682925146098
 20
172.5015854283494
 30
0.0
 10
122.4207745365561
 20
172.6347129597076
 30
0.0
 10
122.4512169074253
 20
172.6670807562494
 30
0.0
 10
122.459616745903
 20
172.6760118695322
 30
0.0
  0
SPLINE
  5
1AD
330
1F
100
AcDbEntity
  8
0
  6
Continuous
 62
     8
370
    15
100
AcDbSpline
210
0.0
220
0.0
230
1.0
 70
     8
 71
     3
 72
    11
 73
     7
 74
     0
 42
0.00000001
 43
0.00000001
 12
1.0
 22
0.0
 32
0.0
 13
1.0
 23
0.0
 33
0.0
 40
0.0
 40
0.0
 40
0.0
 40
0.0
 40
0.1744446697875114
 40
0.4496761395287649
 40
0.7247765100658204
 40
1.0
 40
1.0
 40
1.0
 40
1.0
 10
124.112305803091
 20
164.7980724065836
 30
0.0
 10
124.1262723052981
 20
164.8161601493311
 30
0.0
 10
124.1622745678085
 20
164.8627859725298
 30
0.0
 10
124.2203354372772
 20
165.0224565299254
 30
0.0
 10
124.286519426357
 20
165.2611399584507
 30
0.0
 10
124.3306004646033
 20
165.4776111832726
 30
0.0
 10
124.3526459146691
 20
165.5858710103403
 30
0.0
  0
SPLINE
  5
1AE
330
1F
100
AcDbEntity
  8
0
  6
Continuous
 62
     8
370
    15
100
AcDbSpline
210
0.0
220
0.0
230
1.0
 70
     8
 71
     3
 72
    13
 73
     9
 74
     0
 42
0.00000001
 43
0.00000001
 12
1.0
 22
0.0
 32
0.0
 13
1.0
 23
0.0
 33
0.0
 40
0.0
 40
0.0
 40
0.0
 40
0.0
 40
0.0846553156580576
 40
0.3135973231478359
 40
0.4278053754211813
 40
0.5423209185270028
 40
0.7718229876410372
 40
1.0
 40
1.0
 40
1.0
 40
1.0
 10
124.5949100345853
 20
165.3610104198966
 30
0.0
 10
124.5977004072202
 20
165.3702754273572
 30
0.0
 10
124.6080370692727
 20
165.4045967397992
 30
0.0
 10
124.591904627921
 20
165.4535649254105
 30
0.0
 10
124.5621120338956
 20
165.4990640621903
 30
0.0
 10
124.5197017455677
 20
165.5383052961116
 30
0.0
 10
124.4504418194536
 20
165.576218620874
 30
0.0
 10
124.385181569853
 20
165.5826597632429
 30
0.0
 10
124.3526459146691
 20
165.5858710103403
 30
0.0
  0
SPLINE
  5
1AF
330
1F
100
AcDbEntity
  8
0
  6
Continuous
 62
     8
370
    15
100
AcDbSpline
210
0.0
220
0.0
230
1.0
 70
     8
 71
     3
 72
    31
 73
    27
 74
     0
 42
0.00000001
 43
0.00000001
 12
1.0
 22
0.0
 32
0.0
 13
1.0
 23
0.0
 33
0.0
 40
0.0
 40
0.0
 40
0.0
 40
0.0
 40
0.004797400132952
 40
0.0488579650325497
 40
0.0929430229580688
 40
0.1370383671257493
 40
0.1811138713124635
 40
0.2251728569642045
 40
0.2692538278294114
 40
0.3133497386963053
 40
0.357429661208028
 40
0.4014884852855776
 40
0.4455650950755382
 40
0.489660666711747
 40
0.5337447531178408
 40
0.5778047893171475
 40
0.6218769646937594
 40
0.6659713168880037
 40
0.7100591441736235
 40
0.7541216504784092
 40
0.7981895695655711
 40
0.8422818648402368
 40
0.886372848673581
 40
0.9304388037813142
 40
0.9745029251294691
 40
1.0
 40
1.0
 40
1.0
 40
1.0
 10
125.536070592312
 20
173.2327407801417
 30
0.0
 10
125.5384706624457
 20
173.2341340357332
 30
0.0
 10
125.5629135980807
 20
173.2483233113996
 30
0.0
 10
125.6094407034639
 20
173.1922765011854
 30
0.0
 10
125.6755703005012
 20
173.0600377898032
 30
0.0
 10
125.7416921629626
 20
172.8373643444067
 30
0.0
 10
125.8078392284983
 20
172.5395080427783
 30
0.0
 10
125.8740199157108
 20
172.1667043559932
 30
0.0
 10
125.9401581071055
 20
171.7276718424187
 30
0.0
 10
126.0062787640607
 20
171.2321931139629
 30
0.0
 10
126.0724186164364
 20
170.6895689044749
 30
0.0
 10
126.1385996253884
 20
170.1089398054665
 30
0.0
 10
126.2047449707616
 20
169.5016417911686
 30
0.0
 10
126.2708659086432
 20
168.8799723502032
 30
0.0
 10
126.3369995494721
 20
168.2555665852784
 30
0.0
 10
126.4031779177891
 20
167.6403228818394
 30
0.0
 10
126.4693312989846
 20
167.046637458828
 30
0.0
 10
126.5354532949633
 20
166.4850750503432
 30
0.0
 10
126.6015820863062
 20
165.9659515718523
 30
0.0
 10
126.6677551306434
 20
165.4998426553433
 30
0.0
 10
126.733916890558
 20
165.0973432470256
 30
0.0
 10
126.8000407400583
 20
164.764395865765
 30
0.0
 10
126.8661662830204
 20
164.5053014730049
 30
0.0
 10
126.9323309865087
 20
164.3307004621729
 30
0.0
 10
126.9891994223878
 20
164.2426695715986
 30
0.0
 10
127.0239823071892
 20
164.2471008177463
 30
0.0
 10
127.0367316827923
 20
164.248725053972
 30
0.0
  0
SPLINE
  5
1B0
330
1F
100
AcDbEntity
  8
0
  6
Continuous
 62
     8
370
    15
100
AcDbSpline
210
0.0
220
0.0
230
1.0
 70
     8
 71
     3
 72
    30
 73
    26
 74
     0
 42
0.00000001
 43
0.00000001
 12
1.0
 22
0.0
 32
0.0
 13
1.0
 23
0.0
 33
0.0
 40
0.0
 40
0.0
 40
0.0
 40
0.0
 40
0.0342520501507324
 40
0.0783386296286672
 40
0.1224504576934549
 40
0.1665649221247222
 40
0.2106554450512998
 40
0.254738786456905
 40
0.2988472964527458
 40
0.3429636141476536
 40
0.3870584652106571
 40
0.4311396309157808
 40
0.4752442750240563
 40
0.5193615939372156
 40
0.5634608855191087
 40
0.607541178924206
 40
0.6516415757242384
 40
0.6957590073056131
 40
0.7398626120788515
 40
0.7839434295831519
 40
0.8280393966042048
 40
0.8721560482314699
 40
0.9162636317326585
 40
0.9603463140753076
 40
0.9999999999999999
 40
0.9999999999999999
 40
0.9999999999999999
 40
0.9999999999999999
 10
128.5345889443054
 20
173.2290184271442
 30
0.0
 10
128.5517185369564
 20
173.2277339188399
 30
0.0
 10
128.5908960112528
 20
173.224796091181
 30
0.0
 10
128.6521479154216
 20
173.1161238708993
 30
0.0
 10
128.7182729877708
 20
172.9254033239336
 30
0.0
 10
128.7843965962018
 20
172.6529853014125
 30
0.0
 10
128.8505561749764
 20
172.306866028624
 30
0.0
 10
128.9167307995331
 20
171.8903655352875
 30
0.0
 10
128.9828606745602
 20
171.413495674938
 30
0.0
 10
129.0489823289335
 20
170.8861648975341
 30
0.0
 10
129.1151336321921
 20
170.3180652833642
 30
0.0
 10
129.1813129365606
 20
169.7189437527124
 30
0.0
 10
129.2474480145479
 20
169.1009739703424
 30
0.0
 10
129.3135688101681
 20
168.4761856877365
 30
0.0
 10
129.3797122581263
 20
167.8562518298401
 30
0.0
 10
129.445893461356
 20
167.2533766715928
 30
0.0
 10
129.5120350770621
 20
166.6794489075861
 30
0.0
 10
129.5781557799006
 20
166.1444386773259
 30
0.0
 10
129.6442923767376
 20
165.658317772193
 30
0.0
 10
129.7104724544712
 20
165.2316451521403
 30
0.0
 10
129.7766216510826
 20
164.8737247836671
 30
0.0
 10
129.8427432429301
 20
164.5883871510496
 30
0.0
 10
129.9088734438277
 20
164.3833684613328
 30
0.0
 10
129.9728324237996
 20
164.2585240471426
 30
0.0
 10
130.0147024221349
 20
164.2472161999181
 30
0.0
 10
130.0345301242196
 20
164.2418613244726
 30
0.0
  0
SPLINE
  5
1B1
330
1F
100
AcDbEntity
  8
0
  6
Continuous
 62
     8
370
    15
100
AcDbSpline
210
0.0
220
0.0
230
1.0
 70
     8
 71
     3
 72
    27
 73
    23
 74
     0
 42
0.00000001
 43
0.00000001
 12
1.0
 22
0.0
 32
0.0
 13
1.0
 23
0.0
 33
0.0
 40
0.0
 40
0.0
 40
0.0
 40
0.0
 40
0.0214076061522964
 40
0.072893834602786
 40
0.1243924325604348
 40
0.1759176783458966
 40
0.2274367281513281
 40
0.2789260438008255
 40
0.330419581917422
 40
0.381942067500525
 40
0.4334646281346153
 40
0.4849583548733996
 40
0.5364478498927027
 40
0.5879669039739461
 40
0.6394920766981647
 40
0.690990924909873
 40
0.7424783104175419
 40
0.7939948216100717
 40
0.8455223526018035
 40
0.8970236022625534
 40
0.9485002479532219
 40
0.9999999999999999
 40
0.9999999999999999
 40
0.9999999999999999
 40
0.9999999999999999
 10
131.5350543771833
 20
173.2257500990503
 30
0.0
 10
131.5442160718
 20
173.2285655960571
 30
0.0
 10
131.5754120423966
 20
173.2381524864209
 30
0.0
 10
131.6286990718961
 20
173.1636578844801
 30
0.0
 10
131.6948525917418
 20
173.0036859767235
 30
0.0
 10
131.7609754613814
 20
172.7576550836614
 30
0.0
 10
131.8271031179653
 20
172.4372037651021
 30
0.0
 10
131.8932745730545
 20
172.0455084169527
 30
0.0
 10
131.9594383820887
 20
171.5888308576041
 30
0.0
 10
132.0255629682423
 20
171.0779467388338
 30
0.0
 10
132.0916875280099
 20
170.5229362179171
 30
0.0
 10
132.1578512702013
 20
169.9338197822976
 30
0.0
 10
132.2240225641828
 20
169.3211410720886
 30
0.0
 10
132.2901504242307
 20
168.6974179853182
 30
0.0
 10
132.356273034809
 20
168.0744555131506
 30
0.0
 10
132.4224288784426
 20
167.4639549125433
 30
0.0
 10
132.48860591425
 20
166.8783612700524
 30
0.0
 10
132.5547371977233
 20
166.3287813820224
 30
0.0
 10
132.620857179378
 20
165.8242617946608
 30
0.0
 10
132.6870022084596
 20
165.3762327376504
 30
0.0
 10
132.7531865688966
 20
164.9882925336234
 30
0.0
 10
132.7972675294075
 20
164.7918296936692
 30
0.0
 10
132.8193129552156
 20
164.6935762320377
 30
0.0
  0
SPLINE
  5
1B2
330
1F
100
AcDbEntity
  8
0
  6
Continuous
 62
     8
370
    15
100
AcDbSpline
210
0.0
220
0.0
230
1.0
 70
     8
 71
     3
 72
    12
 73
     8
 74
     0
 42
0.00000001
 43
0.00000001
 12
1.0
 22
0.0
 32
0.0
 13
1.0
 23
0.0
 33
0.0
 40
0.0
 40
0.0
 40
0.0
 40
0.0
 40
0.1267094876834681
 40
0.2720128458302505
 40
0.4177067623783417
 40
0.7096949674923231
 40
1.0
 40
1.0
 40
1.0
 40
1.0
 10
132.5806872213436
 20
164.8695846149364
 30
0.0
 10
132.5824715698567
 20
164.856865330789
 30
0.0
 10
132.5863021095099
 20
164.829560282516
 30
0.0
 10
132.6105288665905
 20
164.7926840127644
 30
0.0
 10
132.6519425691675
 20
164.7478104766192
 30
0.0
 10
132.7216523527253
 20
164.7046227430921
 30
0.0
 10
132.7868222142284
 20
164.6972512997757
 30
0.0
 10
132.8193129552156
 20
164.6935762320377
 30
0.0
  0
SPLINE
  5
1B3
330
1F
100
AcDbEntity
  8
0
  6
Continuous
 62
     8
370
    15
100
AcDbSpline
210
0.0
220
0.0
230
1.0
 70
     8
 71
     3
 72
    13
 73
     9
 74
     0
 42
0.00000001
 43
0.00000001
 12
1.0
 22
0.0
 32
0.0
 13
1.0
 23
0.0
 33
0.0
 40
0.0
 40
0.0
 40
0.0
 40
0.0
 40
0.0825247211913127
 40
0.2713219005571557
 40
0.4600485319349205
 40
0.6488690585905219
 40
0.8377533916533589
 40
1.0
 40
1.0
 40
1.0
 40
1.0
 10
131.4591500278987
 20
172.675040942689
 30
0.0
 10
131.4495172507162
 20
172.6642797578326
 30
0.0
 10
131.4178469418068
 20
172.6288995095222
 30
0.0
 10
131.3641187991839
 20
172.4900749520614
 30
0.0
 10
131.2979390860185
 20
172.2624624586421
 30
0.0
 10
131.2317997445121
 20
171.9609009021585
 30
0.0
 10
131.168783532333
 20
171.6212803578124
 30
0.0
 10
131.1277767249354
 20
171.358506595466
 30
0.0
 10
131.1088287638339
 20
171.2370870716495
 30
0.0
  0
SPLINE
  5
1B4
330
1F
100
AcDbEntity
  8
0
  6
Continuous
 62
     8
370
    15
100
AcDbSpline
210
0.0
220
0.0
230
1.0
 70
     8
 71
     3
 72
    13
 73
     9
 74
     0
 42
0.00000001
 43
0.00000001
 12
1.0
 22
0.0
 32
0.0
 13
1.0
 23
0.0
 33
0.0
 40
0.0
 40
0.0
 40
0.0
 40
0.0
 40
0.0702603893851919
 40
0.2590201668773145
 40
0.4477743466440572
 40
0.6364216944669594
 40
0.8250612151179268
 40
1.0
 40
1.0
 40
1.0
 40
1.0
 10
130.4626971395359
 20
166.2370870716495
 30
0.0
 10
130.4544850088411
 20
166.1821066932544
 30
0.0
 10
130.4242103764118
 20
165.9794174267772
 30
0.0
 10
130.3719193206516
 20
165.6804234663112
 30
0.0
 10
130.3057921467075
 20
165.3478907998624
 30
0.0
 10
130.2396271587866
 20
165.0847080911813
 30
0.0
 10
130.1750708883619
 20
164.8910429689338
 30
0.0
 10
130.1326054341539
 20
164.8239496006667
 30
0.0
 10
130.1121728207511
 20
164.7916670575675
 30
0.0
  0
SPLINE
  5
1B5
330
1F
100
AcDbEntity
  8
0
  6
Continuous
 62
     8
370
    15
100
AcDbSpline
210
0.0
220
0.0
230
1.0
 70
     8
 71
     3
 72
    14
 73
    10
 74
     0
 42
0.00000001
 43
0.00000001
 12
1.0
 22
0.0
 32
0.0
 13
1.0
 23
0.0
 33
0.0
 40
0.0
 40
0.0
 40
0.0
 40
0.0
 40
0.0121368627005931
 40
0.2017723310064249
 40
0.3913051855244287
 40
0.5808072599273661
 40
0.7704172073859592
 40
0.9600606188276337
 40
1.0
 40
1.0
 40
1.0
 40
1.0
 10
128.4579214163823
 20
172.680284842304
 30
0.0
 10
128.4565101898963
 20
172.6791004695906
 30
0.0
 10
128.4330488997188
 20
172.6594105670956
 30
0.0
 10
128.3875638487859
 20
172.5515046191268
 30
0.0
 10
128.3214020991356
 20
172.352887715796
 30
0.0
 10
128.2552288260839
 20
172.0759572012516
 30
0.0
 10
128.1890960825645
 20
171.7332463326293
 30
0.0
 10
128.1403736835684
 20
171.4495937092514
 30
0.0
 10
128.1136673404894
 20
171.2685775552769
 30
0.0
 10
128.1090213702762
 20
171.2370870716495
 30
0.0
  0
SPLINE
  5
1B6
330
1F
100
AcDbEntity
  8
0
  6
Continuous
 62
     8
370
    15
100
AcDbSpline
210
0.0
220
0.0
230
1.0
 70
     8
 71
     3
 72
    14
 73
    10
 74
     0
 42
0.00000001
 43
0.00000001
 12
1.0
 22
0.0
 32
0.0
 13
1.0
 23
0.0
 33
0.0
 40
0.0
 40
0.0
 40
0.0
 40
0.0
 40
0.0057270133964258
 40
0.194233468213442
 40
0.3828280867511422
 40
0.5713840543213322
 40
0.7598338861000363
 40
0.9483216688605703
 40
1.0
 40
1.0
 40
1.0
 40
1.0
 10
127.4635105698521
 20
166.2370870716495
 30
0.0
 10
127.4628404792094
 20
166.232485704776
 30
0.0
 10
127.4401141434143
 20
166.0764288939214
 30
0.0
 10
127.3953377327461
 20
165.8123918141421
 30
0.0
 10
127.3292158463291
 20
165.4579616576614
 30
0.0
 10
127.2630844804245
 20
165.1692169601546
 30
0.0
 10
127.1969100950504
 20
164.9533214586601
 30
0.0
 10
127.1467643410583
 20
164.8300044232095
 30
0.0
 10
127.118686948397
 20
164.802881525747
 30
0.0
 10
127.112645326738
 20
164.7970452899276
 30
0.0
  0
SPLINE
  5
1B7
330
1F
100
AcDbEntity
  8
0
  6
Continuous
 62
     8
370
    15
100
AcDbSpline
210
0.0
220
0.0
230
1.0
 70
     8
 71
     3
 72
    13
 73
     9
 74
     0
 42
0.00000001
 43
0.00000001
 12
1.0
 22
0.0
 32
0.0
 13
1.0
 23
0.0
 33
0.0
 40
0.0
 40
0.0
 40
0.0
 40
0.0
 40
0.1528196165008945
 40
0.3386624176424665
 40
0.5243982766272621
 40
0.7101493221856607
 40
0.896004480520179
 40
1.0
 40
1.0
 40
1.0
 40
1.0
 10
125.4653651374019
 20
172.6869634690063
 30
0.0
 10
125.4472364810732
 20
172.661698117573
 30
0.0
 10
125.4070617003647
 20
172.6057077598238
 30
0.0
 10
125.344856440708
 20
172.4304865856863
 30
0.0
 10
125.2786846542051
 20
172.1821439810541
 30
0.0
 10
125.212520037559
 20
171.8616174891191
 30
0.0
 10
125.1561087143986
 20
171.5451718226792
 30
0.0
 10
125.1217219290748
 20
171.318437187373
 30
0.0
 10
125.109384294987
 20
171.2370870716495
 30
0.0
  0
SPLINE
  5
1B8
330
1F
100
AcDbEntity
  8
0
  6
Continuous
 62
     8
370
    15
100
AcDbSpline
210
0.0
220
0.0
230
1.0
 70
     8
 71
     3
 72
     9
 73
     5
 74
     0
 42
0.00000001
 43
0.00000001
 12
1.0
 22
0.0
 32
0.0
 13
1.0
 23
0.0
 33
0.0
 40
0.0
 40
0.0
 40
0.0
 40
0.0
 40
0.3994890964817689
 40
1.0
 40
1.0
 40
1.0
 40
1.0
 10
124.4628152200926
 20
166.2370870716495
 30
0.0
 10
124.4481395351759
 20
166.1408259421082
 30
0.0
 10
124.4114034013341
 20
165.8998653492182
 30
0.0
 10
124.3746919157871
 20
165.7036822696148
 30
0.0
 10
124.3526462684318
 20
165.5858721912271
 30
0.0
  0
SPLINE
  5
1B9
330
1F
100
AcDbEntity
  8
0
  6
Continuous
 62
     8
370
    15
100
AcDbSpline
210
0.0
220
0.0
230
1.0
 70
     8
 71
     3
 72
    13
 73
     9
 74
     0
 42
0.00000001
 43
0.00000001
 12
1.0
 22
0.0
 32
0.0
 13
1.0
 23
0.0
 33
0.0
 40
0.0
 40
0.0
 40
0.0
 40
0.0
 40
0.1309191984518267
 40
0.3482899219879663
 40
0.456725387089726
 40
0.5654523140159824
 40
0.7833542071981661
 40
1.0
 40
1.0
 40
1.0
 40
1.0
 10
133.0572571253324
 20
164.9700561580465
 30
0.0
 10
133.0621190801892
 20
164.9528724544606
 30
0.0
 10
133.0750535458582
 20
164.9071579156292
 30
0.0
 10
133.0587369362187
 20
164.8445153406261
 30
0.0
 10
133.0286749043498
 20
164.7926040870364
 30
0.0
 10
132.9863488682884
 20
164.7478551256217
 30
0.0
 10
132.9170780258335
 20
164.7046074410252
 30
0.0
 10
132.8518381888152
 20
164.6972455515708
 30
0.0
 10
132.8193125612052
 20
164.6935752469556
 30
0.0
  0
SPLINE
  5
1BA
330
1F
100
AcDbEntity
  8
0
  6
Continuous
 62
     8
370
    15
100
AcDbSpline
210
0.0
220
0.0
230
1.0
 70
     8
 71
     3
 72
    14
 73
    10
 74
     0
 42
0.00000001
 43
0.00000001
 12
1.0
 22
0.0
 32
0.0
 13
1.0
 23
0.0
 33
0.0
 40
0.0
 40
0.0
 40
0.0
 40
0.0
 40
0.014072196781767
 40
0.1861762774081006
 40
0.3581833436243724
 40
0.5302285907896165
 40
0.7023615220105001
 40
0.8744740726928875
 40
1.0
 40
1.0
 40
1.0
 40
1.0
 10
133.0784889558024
 20
164.756996520624
 30
0.0
 10
133.0802913853279
 20
164.7573995896126
 30
0.0
 10
133.1041376706353
 20
164.7627322242396
 30
0.0
 10
133.1500197603237
 20
164.8435838387203
 30
0.0
 10
133.2161970376956
 20
165.0050819538575
 30
0.0
 10
133.2823526595137
 20
165.2474298420432
 30
0.0
 10
133.3484757391911
 20
165.5554499711017
 30
0.0
 10
133.40864764867
 20
165.8850524429068
 30
0.0
 10
133.4468031310981
 20
166.1326608187227
 30
0.0
 10
133.4628948083101
 20
166.2370870716495
 30
0.0
  0
SPLINE
  5
1BB
330
1F
100
AcDbEntity
  8
0
  6
Continuous
 62
     8
370
    15
100
AcDbSpline
210
0.0
220
0.0
230
1.0
 70
     8
 71
     3
 72
    13
 73
     9
 74
     0
 42
0.00000001
 43
0.00000001
 12
1.0
 22
0.0
 32
0.0
 13
1.0
 23
0.0
 33
0.0
 40
0.0
 40
0.0
 40
0.0
 40
0.0
 40
0.0923738005932923
 40
0.2783989207744691
 40
0.4643405890920825
 40
0.6502127764426525
 40
0.8361774389280142
 40
0.9999999999999999
 40
0.9999999999999999
 40
0.9999999999999999
 40
0.9999999999999999
 10
134.1093761167411
 20
171.2370870716495
 30
0.0
 10
134.1203278948453
 20
171.309666020979
 30
0.0
 10
134.1533346909843
 20
171.5284066274551
 30
0.0
 10
134.2083577572886
 20
171.839157386187
 30
0.0
 10
134.2745064776142
 20
172.1638735941206
 30
0.0
 10
134.3406869639156
 20
172.417284393429
 30
0.0
 10
134.4041913968508
 20
172.5995165597594
 30
0.0
 10
134.445647399208
 20
172.6597654045564
 30
0.0
 10
134.4650632841248
 20
172.6879829019135
 30
0.0
  0
SPLINE
  5
1BC
330
1F
100
AcDbEntity
  8
0
  6
Continuous
 62
     8
370
    15
100
AcDbSpline
210
0.0
220
0.0
230
1.0
 70
     8
 71
     3
 72
    14
 73
    10
 74
     0
 42
0.00000001
 43
0.00000001
 12
1.0
 22
0.0
 32
0.0
 13
1.0
 23
0.0
 33
0.0
 40
0.0
 40
0.0
 40
0.0
 40
0.0
 40
0.0388292502940362
 40
0.2276617842527317
 40
0.4164084922447215
 40
0.6052363077663616
 40
0.7941410861559842
 40
0.9829917528472261
 40
1.0
 40
1.0
 40
1.0
 40
1.0
 10
136.1130082671499
 20
164.7963169380272
 30
0.0
 10
136.1175402280703
 20
164.8004879251573
 30
0.0
 10
136.1441118023731
 20
164.8249430553735
 30
0.0
 10
136.1927326945954
 20
164.9426574858045
 30
0.0
 10
136.2589132448441
 20
165.1528152826047
 30
0.0
 10
136.3250563472211
 20
165.4378928708147
 30
0.0
 10
136.3911791418972
 20
165.7884202919379
 30
0.0
 10
136.4372595583856
 20
166.0590716901594
 30
0.0
 10
136.461307163587
 20
166.2235017161766
 30
0.0
 10
136.4632939981868
 20
166.2370870716495
 30
0.0
  0
SPLINE
  5
1BD
330
1F
100
AcDbEntity
  8
0
  6
Continuous
 62
     8
370
    15
100
AcDbSpline
210
0.0
220
0.0
230
1.0
 70
     8
 71
     3
 72
    14
 73
    10
 74
     0
 42
0.00000001
 43
0.00000001
 12
1.0
 22
0.0
 32
0.0
 13
1.0
 23
0.0
 33
0.0
 40
0.0
 40
0.0
 40
0.0
 40
0.0
 40
0.0284057968089587
 40
0.2176354521178363
 40
0.406876383447729
 40
0.5960149144779967
 40
0.7851227294312877
 40
0.9743381930101311
 40
1.0
 40
1.0
 40
1.0
 40
1.0
 10
137.1088569153097
 20
171.2370870716495
 30
0.0
 10
137.11216871185
 20
171.2596327514098
 30
0.0
 10
137.1375425586825
 20
171.4323700008143
 30
0.0
 10
137.1849377584089
 20
171.70957846329
 30
0.0
 10
137.2510638370608
 20
172.0562023064637
 30
0.0
 10
137.3172225889937
 20
172.3373809759796
 30
0.0
 10
137.3833978351772
 20
172.5416948914161
 30
0.0
 10
137.430466148631
 20
172.6542976964531
 30
0.0
 10
137.4555005836342
 20
172.6762762815828
 30
0.0
 10
137.4584903313979
 20
172.6789010832103
 30
0.0
  0
SPLINE
  5
1BE
330
1F
100
AcDbEntity
  8
0
  6
Continuous
 62
     8
370
    15
100
AcDbSpline
210
0.0
220
0.0
230
1.0
 70
     8
 71
     3
 72
    13
 73
     9
 74
     0
 42
0.00000001
 43
0.00000001
 12
1.0
 22
0.0
 32
0.0
 13
1.0
 23
0.0
 33
0.0
 40
0.0
 40
0.0
 40
0.0
 40
0.0
 40
0.1747191598299122
 40
0.3608074796239168
 40
0.5468446949959885
 40
0.7329831588058291
 40
0.9191699740881409
 40
1.0
 40
1.0
 40
1.0
 40
1.0
 10
139.1072391948351
 20
164.7849388859572
 30
0.0
 10
139.1279282167935
 20
164.8162343106775
 30
0.0
 10
139.1706525171849
 20
164.8808615864045
 30
0.0
 10
139.2354474686588
 20
165.0704622638538
 30
0.0
 10
139.3016253334813
 20
165.3289790133786
 30
0.0
 10
139.3677608330881
 20
165.6576375827852
 30
0.0
 10
139.4214109408708
 20
165.9625749807085
 30
0.0
 10
139.4530475762104
 20
166.1732980267503
 30
0.0
 10
139.4626244629821
 20
166.2370870716495
 30
0.0
  0
SPLINE
  5
1BF
330
1F
100
AcDbEntity
  8
0
  6
Continuous
 62
     8
370
    15
100
AcDbSpline
210
0.0
220
0.0
230
1.0
 70
     8
 71
     3
 72
     9
 73
     5
 74
     0
 42
0.00000001
 43
0.00000001
 12
1.0
 22
0.0
 32
0.0
 13
1.0
 23
0.0
 33
0.0
 40
0.0
 40
0.0
 40
0.0
 40
0.0
 40
0.6345228746239661
 40
1.0
 40
1.0
 40
1.0
 40
1.0
 10
140.3675644159476
 20
172.4870870716495
 30
0.0
 10
140.3870742275816
 20
172.5419844952164
 30
0.0
 10
140.4178214431892
 20
172.6285021382556
 30
0.0
 10
140.4485428273171
 20
172.663146616969
 30
0.0
 10
140.4597707904758
 20
172.6758083814594
 30
0.0
  0
SPLINE
  5
1C0
330
1F
100
AcDbEntity
  8
0
  6
Continuous
 62
     8
370
    15
100
AcDbSpline
210
0.0
220
0.0
230
1.0
 70
     8
 71
     3
 72
    19
 73
    15
 74
     0
 42
0.00000001
 43
0.00000001
 12
1.0
 22
0.0
 32
0.0
 13
1.0
 23
0.0
 33
0.0
 40
0.0
 40
0.0
 40
0.0
 40
0.0
 40
0.0880757175913438
 40
0.1761118399603596
 40
0.2641900404036464
 40
0.3523131875686742
 40
0.4404174885097774
 40
0.5284719782729581
 40
0.6165460717224516
 40
0.7046651857433713
 40
0.7927738355703908
 40
0.8808319330516055
 40
0.9688972676822026
 40
0.9999999999999999
 40
0.9999999999999999
 40
0.9999999999999999
 40
0.9999999999999999
 10
141.2859796808318
 20
168.7370876396727
 30
0.0
 10
141.26393423537
 20
168.9448430990622
 30
0.0
 10
141.2198532551724
 20
169.3602606195263
 30
0.0
 10
141.1536688751702
 20
169.9716020211374
 30
0.0
 10
141.087523845922
 20
170.5587921154014
 30
0.0
 10
141.021403864862
 20
171.1115044606124
 30
0.0
 10
140.9552725791783
 20
171.6194995929617
 30
0.0
 10
140.889095551616
 20
172.0720691499378
 30
0.0
 10
140.8229396772076
 20
172.4592525744859
 30
0.0
 10
140.7568171815464
 20
172.7753754909495
 30
0.0
 10
140.690688892714
 20
173.0168975386786
 30
0.0
 10
140.6245191980901
 20
173.1708320043165
 30
0.0
 10
140.5726262397912
 20
173.2399583353544
 30
0.0
 10
140.5428094060719
 20
173.2290349423907
 30
0.0
 10
140.5350272457879
 20
173.2261839490328
 30
0.0
  0
SPLINE
  5
1C1
330
1F
100
AcDbEntity
  8
0
  6
Continuous
 62
     8
370
    15
100
AcDbSpline
210
0.0
220
0.0
230
1.0
 70
     8
 71
     3
 72
    30
 73
    26
 74
     0
 42
0.00000001
 43
0.00000001
 12
1.0
 22
0.0
 32
0.0
 13
1.0
 23
0.0
 33
0.0
 40
0.0
 40
0.0
 40
0.0
 40
0.0
 40
0.043008413782206
 40
0.0870762982644995
 40
0.1311685589151527
 40
0.1752595081255117
 40
0.2193254286299113
 40
0.2633895153761713
 40
0.3074789588146215
 40
0.3515723544938978
 40
0.3956423405254978
 40
0.4397034270073706
 40
0.4837894024488394
 40
0.527884441573955
 40
0.5719588062261257
 40
0.6160180287831999
 40
0.6601000274458491
 40
0.704195846142957
 40
0.7482746384039707
 40
0.7923333371185991
 40
0.8364110247029308
 40
0.880506730787042
 40
0.9245897682755859
 40
0.9686493388629133
 40
1.0
 40
1.0
 40
1.0
 40
1.0
 10
139.0354388499862
 20
164.2387007250013
 30
0.0
 10
139.0139177816596
 20
164.2461253764766
 30
0.0
 10
138.9703454942911
 20
164.2611575785393
 30
0.0
 10
138.9047079530677
 20
164.3941397359095
 30
0.0
 10
138.8385849003596
 20
164.6041535800051
 30
0.0
 10
138.7724594103289
 20
164.8938530363867
 30
0.0
 10
138.7062936988618
 20
165.2563808822404
 30
0.0
 10
138.6401240639549
 20
165.6875436335015
 30
0.0
 10
138.5739971884229
 20
166.1768386563002
 30
0.0
 10
138.5078743487942
 20
166.7144042433001
 30
0.0
 10
138.441716808445
 20
167.2904497765371
 30
0.0
 10
138.3755407852131
 20
167.8949498330861
 30
0.0
 10
138.309409728722
 20
168.5155099871755
 30
0.0
 10
138.2432883661894
 20
169.1402177412899
 30
0.0
 10
138.1771391081899
 20
169.7573894429092
 30
0.0
 10
138.1109590467964
 20
170.3546822477994
 30
0.0
 10
138.0448224459685
 20
170.9205632874735
 30
0.0
 10
137.9787017427545
 20
171.445202522964
 30
0.0
 10
137.9125601325476
 20
171.9187377184905
 30
0.0
 10
137.8463789077093
 20
172.3305403403031
 30
0.0
 10
137.7802355407254
 20
172.6720824857888
 30
0.0
 10
137.714114442702
 20
172.940074269195
 30
0.0
 10
137.6479804928914
 20
173.125702359278
 30
0.0
 10
137.588165547301
 20
173.2272885352074
 30
0.0
 10
137.5504435560967
 20
173.227392528422
 30
0.0
 10
137.5347612098603
 20
173.2274357620252
 30
0.0
  0
SPLINE
  5
1C2
330
1F
100
AcDbEntity
  8
0
  6
Continuous
 62
     8
370
    15
100
AcDbSpline
210
0.0
220
0.0
230
1.0
 70
     8
 71
     3
 72
    31
 73
    27
 74
     0
 42
0.00000001
 43
0.00000001
 12
1.0
 22
0.0
 32
0.0
 13
1.0
 23
0.0
 33
0.0
 40
0.0
 40
0.0
 40
0.0
 40
0.0
 40
0.0285216697902821
 40
0.0726015494391206
 40
0.116696578282399
 40
0.160812291291811
 40
0.2049189363680808
 40
0.2490006808156044
 40
0.2930913289853921
 40
0.3372053977784298
 40
0.38131551247764
 40
0.4254002585962191
 40
0.469486839332693
 40
0.5135984605097929
 40
0.5577113937420533
 40
0.6017999393772282
 40
0.6458830696965064
 40
0.6899915328484238
 40
0.7341065239630317
 40
0.7781993278798669
 40
0.8222799869374998
 40
0.8663847074589247
 40
0.9105009185862746
 40
0.9545981589920464
 40
0.9986776053605839
 40
1.0
 40
1.0
 40
1.0
 40
1.0
 10
136.0370899343887
 20
164.2479202473152
 30
0.0
 10
136.0228326105465
 20
164.2470015278693
 30
0.0
 10
135.9865407731676
 20
164.2446629391483
 30
0.0
 10
135.928152130757
 20
164.3392902748318
 30
0.0
 10
135.8620040700484
 20
164.5196094748297
 30
0.0
 10
135.7958823865386
 20
164.7831588632262
 30
0.0
 10
135.7297514160178
 20
165.1203572479993
 30
0.0
 10
135.663575369844
 20
165.5274045096207
 30
0.0
 10
135.5974178353428
 20
165.9973919728053
 30
0.0
 10
135.5312949952667
 20
166.5192955525592
 30
0.0
 10
135.4651681156742
 20
167.0830200292148
 30
0.0
 10
135.3989984974467
 20
167.6784697715633
 30
0.0
 10
135.332832723313
 20
168.2947446580865
 30
0.0
 10
135.2667074674013
 20
168.9193216114901
 30
0.0
 10
135.2005835409511
 20
169.5404587964645
 30
0.0
 10
135.134421801744
 20
170.1464407991318
 30
0.0
 10
135.0682487514844
 20
170.7247320393213
 30
0.0
 10
135.0021199631287
 20
171.264814938297
 30
0.0
 10
134.9359979611257
 20
171.7572326907348
 30
0.0
 10
134.8698446010272
 20
172.1924562414048
 30
0.0
 10
134.8036661543576
 20
172.5601791110381
 30
0.0
 10
134.73753280601
 20
172.8533755551313
 30
0.0
 10
134.6714107763536
 20
173.0716370977393
 30
0.0
 10
134.6052695034916
 20
173.1978292893306
 30
0.0
 10
134.5604810025856
 20
173.2500137352488
 30
0.0
 10
134.5377820069936
 20
173.2359025725344
 30
0.0
 10
134.5371208657398
 20
173.235491564401
 30
0.0
  0
SPLINE
  5
1C3
330
1F
100
AcDbEntity
  8
0
  6
Continuous
 62
     8
370
    15
100
AcDbSpline
210
0.0
220
0.0
230
1.0
 70
     8
 71
     3
 72
    11
 73
     7
 74
     0
 42
0.00000001
 43
0.00000001
 12
1.0
 22
0.0
 32
0.0
 13
1.0
 23
0.0
 33
0.0
 40
0.0
 40
0.0
 40
0.0
 40
0.0
 40
0.0886710762455029
 40
0.3924987122551887
 40
0.6961811990478938
 40
1.0
 40
1.0
 40
1.0
 40
1.0
 10
133.037044664759
 20
164.2472513050348
 30
0.0
 10
133.030613419142
 20
164.2445195399357
 30
0.0
 10
133.0021457865191
 20
164.2324274990022
 30
0.0
 10
132.9516224945855
 20
164.2978522889631
 30
0.0
 10
132.8854391509358
 20
164.4409366916838
 30
0.0
 10
132.8413580548273
 20
164.6093497987416
 30
0.0
 10
132.8193125612052
 20
164.6935752469556
 30
0.0
  0
DIMENSION
  5
1C4
330
1F
100
AcDbEntity
  8
0
  6
Continuous
 62
     7
370
     0
100
AcDbDimension
  2
_D
 10
92.0532121469
 20
165.2370870716
 30
0.0
 11
92.0532121469
 21
168.7370870716
 31
0.0
 70
   160
  1
%%c<>
 71
     2
 42
-1.0
  3
SLDDIMSTYLE1
100
AcDbAlignedDimension
 13
102.0532121469
 23
172.2370870716
 33
0.0
 14
102.0532121469
 24
165.2370870716
 34
0.0
 50
90.0
100
AcDbRotatedDimension
  0
DIMENSION
  5
1D2
330
1F
100
AcDbEntity
  8
0
  6
Continuous
 62
     7
370
     0
100
AcDbDimension
  2
_D_1
 10
107.5532121469
 20
188.7154144298
 30
0.0
 11
116.8572545907
 21
188.7154144298
 31
0.0
 70
   160
  1
<>
 71
     2
 42
-1.0
  3
SLDDIMSTYLE1
100
AcDbAlignedDimension
 13
102.0532121469
 23
172.2370870716
 33
0.0
 14
107.5532121469
 24
174.7370870716
 34
0.0
100
AcDbRotatedDimension
  0
DIMENSION
  5
1DE
330
1F
100
AcDbEntity
  8
0
  6
Continuous
 62
     7
370
     0
100
AcDbDimension
  2
_D_2
 10
139.5532121469
 20
143.1555003628
 30
0.0
 11
129.5532121469
 21
143.1555003628
 31
0.0
 70
   160
  1
<>st
 71
     2
 42
-1.0
  3
SLDDIMSTYLE2
100
AcDbAlignedDimension
 13
119.5532121469
 23
164.9870870716
 33
0.0
 14
139.5532121469
 24
165.4870870716
 34
0.0
100
AcDbRotatedDimension
  0
DIMENSION
  5
1EA
330
1F
100
AcDbEntity
  8
0
  6
Continuous
 62
     7
370
     0
100
AcDbDimension
  2
_D_3
 10
158.5532121469
 20
129.9370870716
 30
0.0
 11
130.3032121469
 21
129.9370870716
 31
0.0
 70
   160
  1
<>
 71
     2
 42
-1.0
  3
SLDDIMSTYLE2
100
AcDbAlignedDimension
 13
102.0532121469
 23
165.2370870716
 33
0.0
 14
158.5532121469
 24
166.7370870716
 34
0.0
100
AcDbRotatedDimension
  0
DIMENSION
  5
1F4
330
1F
100
AcDbEntity
  8
0
  6
Continuous
 62
     7
370
     0
100
AcDbDimension
  2
_D_4
 10
144.5532121469
 20
150.9767413144
 30
0.0
 11
149.0374635208
 21
150.9767413144
 31
0.0
 70
   160
  1
<>
 71
     2
 42
-1.0
  3
SLDDIMSTYLE1
100
AcDbAlignedDimension
 13
141.5532121469
 23
161.2315335722
 33
0.0
 14
144.5532121469
 24
161.2315335722
 34
0.0
 50
0.0
100
AcDbRotatedDimension
  0
DIMENSION
  5
200
330
1F
100
AcDbEntity
  8
0
  6
Continuous
 62
     7
370
     0
100
AcDbDimension
  2
_D_5
 10
144.5532121469
 20
188.0370870716
 30
0.0
 11
142.0532121469
 21
188.0370870716
 31
0.0
 70
   160
  1
<>
 71
     2
 42
-1.0
  3
SLDDIMSTYLE1
100
AcDbAlignedDimension
 13
139.5532121469
 23
171.9870870716
 33
0.0
 14
144.5532121469
 24
176.2426405711
 34
0.0
100
AcDbRotatedDimension
  0
DIMENSION
  5
20C
330
1F
100
AcDbEntity
  8
0
  6
Continuous
 62
     7
370
     0
100
AcDbDimension
  2
_D_6
 10
156.5532121469
 20
188.0370870716
 30
0.0
 11
150.5532121469
 21
188.0370870716
 31
0.0
 70
   160
  1
<>
 71
     2
 42
-1.0
  3
SLDDIMSTYLE2
100
AcDbAlignedDimension
 13
144.5532121469
 23
176.2426405711
 33
0.0
 14
156.5532121469
 24
172.7370870716
 34
0.0
100
AcDbRotatedDimension
  0
DIMENSION
  5
216
330
1F
100
AcDbEntity
  8
0
  6
Continuous
 62
     7
370
     0
100
AcDbDimension
  2
_D_7
 10
158.5532121469
 20
200.0370870716
 30
0.0
 11
151.5532121469
 21
200.0370870716
 31
0.0
 70
   160
  1
<>
 71
     2
 42
-1.0
  3
SLDDIMSTYLE2
100
AcDbAlignedDimension
 13
144.5532121469
 23
176.2426405711
 33
0.0
 14
158.5532121469
 24
170.7370870716
 34
0.0
100
AcDbRotatedDimension
  0
DIMENSION
  5
220
330
1F
100
AcDbEntity
  8
0
  6
Continuous
 62
     7
370
     0
100
AcDbDimension
  2
_D_8
 10
180.3832116788
 20
160.654183303
 30
0.0
 11
180.3832116788
 21
168.7370870716
 31
0.0
 70
   160
  1
<>
 71
     2
 42
-1.0
  3
SLDDIMSTYLE2
100
AcDbAlignedDimension
 13
153.6266320644
 23
176.8199908403
 33
0.0
 14
153.6266320644
 24
160.654183303
 34
0.0
 50
90.0
100
AcDbRotatedDimension
  0
DIMENSION
  5
22A
330
1F
100
AcDbEntity
  8
0
  6
Continuous
 62
     7
370
     0
100
AcDbDimension
  2
_D_9
 10
168.5532121469
 20
166.2370870716
 30
0.0
 11
168.5532121469
 21
155.1220379217
 31
0.0
 70
   160
  1
%%c<>
 71
     2
 42
-1.0
  3
SLDDIMSTYLE1
100
AcDbAlignedDimension
 13
158.0532121469
 23
171.2370870716
 33
0.0
 14
158.0532121469
 24
166.2370870716
 34
0.0
 50
90.0
100
AcDbRotatedDimension
  0
MTEXT
  5
237
330
1F
100
AcDbEntity
  8
0
  6
Continuous
 62
     7
370
     0
100
AcDbMText
 10
86.013945107
 20
192.2014570966
 30
0.0
 40
3.5
 41
0.0
 71
     1
 72
     1
  1
PF
  7
SLDTEXTSTYLE1
 73
     1
 44
1.0
  0
LEADER
  5
238
330
1F
100
AcDbEntity
  8
0
  6
Continuous
 62
     7
370
     0
100
AcDbLeader
  3
SLDDIMSTYLE0
 76
     3
 10
108.931940279
 20
177.0621032133
 30
0.0
 10
91.3759124088
 20
187.6824817518
 30
0.0
 10
85.9489051095
 20
187.6824817518
 30
0.0
  0
MTEXT
  5
239
330
1F
100
AcDbEntity
  8
0
  6
Continuous
 62
     7
370
     0
100
AcDbMText
 10
85.488281367
 20
146.6415430296
 30
0.0
 40
3.5
 41
0.0
 71
     1
 72
     1
  1
BF-6
  7
SLDTEXTSTYLE1
 73
     1
 44
1.0
  0
LEADER
  5
23A
330
1F
100
AcDbEntity
  8
0
  6
Continuous
 62
     7
370
     0
100
AcDbLeader
  3
SLDDIMSTYLE0
 76
     3
 10
110.7852907995
 20
155.2852345974
 30
0.0
 10
95.0255474453
 20
142.0620437956
 30
0.0
 10
85.401459854
 20
142.0620437956
 30
0.0
  0
MTEXT
  5
23B
330
1F
100
AcDbEntity
  8
0
  6
Continuous
 62
     7
370
     0
100
AcDbMText
 10
168.8307809895
 20
192.2014570966
 30
0.0
 40
3.5
 41
0.0
 71
     1
 72
     1
  1
Ｍ10 P=1.0
  7
SLDTEXTSTYLE1
 73
     1
 44
1.0
  0
LEADER
  5
23C
330
1F
100
AcDbEntity
  8
0
  6
Continuous
 62
     7
370
     0
100
AcDbLeader
  3
SLDDIMSTYLE0
 76
     3
 10
155.1887055521
 20
173.7370870716
 30
0.0
 10
168.295620438
 20
187.6824817518
 30
0.0
 10
191.7883211679
 20
187.6824817518
 30
0.0
  0
LINE
  5
23D
330
1F
100
AcDbEntity
  8
0
  6
CENTERX2
 62
     7
370
     0
100
AcDbLine
 10
98.3662954308
 20
168.7370870716
 30
0.0
 11
137.5532121469
 21
168.7370870716
 31
0.0
  0
LINE
  5
23E
330
1F
100
AcDbEntity
  8
0
  6
CENTERX2
 62
     7
370
     0
100
AcDbLine
 10
158.5532121469
 20
168.7370870716
 30
0.0
 11
138.0532121469
 21
168.7370870716
 31
0.0
  0
ENDSEC
  0
SECTION
  2
OBJECTS
  0
DICTIONARY
  5
C
330
0
100
AcDbDictionary
281
     1
  3
ACAD_GROUP
350
D
  3
ACAD_LAYOUT
350
1A
  3
ACAD_MLINESTYLE
350
17
  3
ACAD_PLOTSETTINGS
350
19
  3
ACAD_PLOTSTYLENAME
350
E
  0
DICTIONARY
  5
D
102
{ACAD_REACTORS
330
C
102
}
330
C
100
AcDbDictionary
281
     1
  0
DICTIONARY
  5
1A
102
{ACAD_REACTORS
330
C
102
}
330
C
100
AcDbDictionary
281
     1
  3
Layout1
350
1E
  3
Layout2
350
26
  3
Model
350
22
  0
DICTIONARY
  5
17
102
{ACAD_REACTORS
330
C
102
}
330
C
100
AcDbDictionary
281
     1
  3
Standard
350
18
  0
DICTIONARY
  5
19
102
{ACAD_REACTORS
330
C
102
}
330
C
100
AcDbDictionary
281
     1
  0
ACDBDICTIONARYWDFLT
  5
E
102
{ACAD_REACTORS
330
C
102
}
330
C
100
AcDbDictionary
281
     1
  3
Normal
350
F
100
AcDbDictionaryWithDefault
340
F
  0
LAYOUT
  5
1E
102
{ACAD_REACTORS
330
1A
102
}
330
1A
100
AcDbPlotSettings
  1

  2
none_device
  4

  6

 40
0.0
 41
0.0
 42
0.0
 43
0.0
 44
0.0
 45
0.0
 46
0.0
 47
0.0
 48
0.0
 49
0.0
140
0.0
141
0.0
142
1.0
143
1.0
 70
   688
 72
     0
 73
     0
 74
     5
  7

 75
    16
147
1.0
148
0.0
149
0.0
100
AcDbLayout
  1
Layout1
 70
     1
 71
     1
 10
0.0
 20
0.0
 11
420.0
 21
297.0
 12
0.0
 22
0.0
 32
0.0
 14
1.0000000000E+20
 24
1.0000000000E+20
 34
1.0000000000E+20
 15
-1.0000000000E+20
 25
-1.0000000000E+20
 35
-1.0000000000E+20
146
0.0
 13
0.0
 23
0.0
 33
0.0
 16
1.0
 26
0.0
 36
0.0
 17
0.0
 27
1.0
 37
0.0
 76
     0
330
1B
  0
LAYOUT
  5
26
102
{ACAD_REACTORS
330
1A
102
}
330
1A
100
AcDbPlotSettings
  1

  2
none_device
  4

  6

 40
0.0
 41
0.0
 42
0.0
 43
0.0
 44
0.0
 45
0.0
 46
0.0
 47
0.0
 48
0.0
 49
0.0
140
0.0
141
0.0
142
1.0
143
1.0
 70
   688
 72
     0
 73
     0
 74
     5
  7

 75
    16
147
1.0
148
0.0
149
0.0
100
AcDbLayout
  1
Layout2
 70
     1
 71
     2
 10
0.0
 20
0.0
 11
0.0
 21
0.0
 12
0.0
 22
0.0
 32
0.0
 14
0.0
 24
0.0
 34
0.0
 15
0.0
 25
0.0
 35
0.0
146
0.0
 13
0.0
 23
0.0
 33
0.0
 16
1.0
 26
0.0
 36
0.0
 17
0.0
 27
1.0
 37
0.0
 76
     0
330
23
  0
LAYOUT
  5
22
102
{ACAD_REACTORS
330
1A
102
}
330
1A
100
AcDbPlotSettings
  1

  2
none_device
  4

  6

 40
0.0
 41
0.0
 42
0.0
 43
0.0
 44
0.0
 45
0.0
 46
0.0
 47
0.0
 48
0.0
 49
0.0
140
0.0
141
0.0
142
1.0
143
1.0
 70
  1712
 72
     0
 73
     0
 74
     0
  7

 75
     0
147
1.0
148
0.0
149
0.0
100
AcDbLayout
  1
Model
 70
     1
 71
     0
 10
0.0
 20
0.0
 11
210.0
 21
297.0
 12
0.0
 22
0.0
 32
0.0
 14
0.0
 24
0.0
 34
0.0
 15
210.0
 25
297.0
 35
0.0
146
0.0
 13
0.0
 23
0.0
 33
0.0
 16
1.0
 26
0.0
 36
0.0
 17
0.0
 27
1.0
 37
0.0
 76
     0
330
1F
331
29
  0
MLINESTYLE
  5
18
102
{ACAD_REACTORS
330
17
102
}
330
17
100
AcDbMlineStyle
  2
Standard
 70
     0
  3

 62
   256
 51
90.0
 52
90.0
 71
     2
 49
0.5
 62
   256
  6
BYLAYER
 49
-0.5
 62
   256
  6
BYLAYER
  0
ACDBPLACEHOLDER
  5
F
102
{ACAD_REACTORS
330
E
102
}
330
E
  0
ENDSEC
  0
EOF
