  0
SECTION
  2
HEADER
  9
$ACADVER
  1
AC1015
  9
$ACADMAINTVER
 70
     6
  9
$DWGCODEPAGE
  3
DOS932
  9
$INSBASE
 10
0.0
 20
0.0
 30
0.0
  9
$EXTMIN
 10
0.0
 20
0.0
 30
0.0
  9
$EXTMAX
 10
210.0
 20
297.0
 30
0.0
  9
$LIMMIN
 10
0.0
 20
0.0
  9
$LIMMAX
 10
210.0
 20
297.0
  9
$ORTHOMODE
 70
     0
  9
$REGENMODE
 70
     1
  9
$FILLMODE
 70
     1
  9
$QTEXTMODE
 70
     0
  9
$MIRRTEXT
 70
     1
  9
$LTSCALE
 40
1.0
  9
$ATTMODE
 70
     1
  9
$TEXTSIZE
 40
3.5
  9
$TRACEWID
 40
1.0
  9
$TEXTSTYLE
  7
Standard
  9
$CLAYER
  8
0
  9
$CELTYPE
  6
ByLayer
  9
$CECOLOR
 62
   256
  9
$CELTSCALE
 40
1.0
  9
$DISPSILH
 70
     0
  9
$DIMSCALE
 40
1.0
  9
$DIMASZ
 40
2.0
  9
$DIMEXO
 40
1.0
  9
$DIMDLI
 40
3.75
  9
$DIMRND
 40
0.0
  9
$DIMDLE
 40
0.0
  9
$DIMEXE
 40
1.0
  9
$DIMTP
 40
0.0
  9
$DIMTM
 40
0.0
  9
$DIMTXT
 40
3.5
  9
$DIMCEN
 40
2.5
  9
$DIMTSZ
 40
0.0
  9
$DIMTOL
 70
     0
  9
$DIMLIM
 70
     0
  9
$DIMTIH
 70
     1
  9
$DIMTOH
 70
     1
  9
$DIMSE1
 70
     0
  9
$DIMSE2
 70
     0
  9
$DIMTAD
 70
     1
  9
$DIMZIN
 70
     0
  9
$DIMBLK
  1

  9
$DIMASO
 70
     1
  9
$DIMSHO
 70
     1
  9
$DIMPOST
  1

  9
$DIMAPOST
  1

  9
$DIMALT
 70
     0
  9
$DIMALTD
 70
     3
  9
$DIMALTF
 40
0.0393700787
  9
$DIMLFAC
 40
1.0
  9
$DIMTOFL
 70
     1
  9
$DIMTVP
 40
0.0
  9
$DIMTIX
 70
     0
  9
$DIMSOXD
 70
     0
  9
$DIMSAH
 70
     0
  9
$DIMBLK1
  1

  9
$DIMBLK2
  1

  9
$DIMSTYLE
  2
ISO-25
  9
$DIMCLRD
 70
     0
  9
$DIMCLRE
 70
     0
  9
$DIMCLRT
 70
     0
  9
$DIMTFAC
 40
1.0
  9
$DIMGAP
 40
1.524
  9
$DIMJUST
 70
     0
  9
$DIMSD1
 70
     0
  9
$DIMSD2
 70
     0
  9
$DIMTOLJ
 70
     0
  9
$DIMTZIN
 70
     0
  9
$DIMALTZ
 70
     0
  9
$DIMALTTZ
 70
     0
  9
$DIMUPT
 70
     0
  9
$DIMDEC
 70
     2
  9
$DIMTDEC
 70
     2
  9
$DIMALTU
 70
     2
  9
$DIMALTTD
 70
     3
  9
$DIMTXSTY
  7
Standard
  9
$DIMAUNIT
 70
     0
  9
$DIMADEC
 70
     2
  9
$DIMALTRND
 40
0.0
  9
$DIMAZIN
 70
     0
  9
$DIMDSEP
 70
    44
  9
$DIMATFIT
 70
     3
  9
$DIMFRAC
 70
     0
  9
$DIMLDRBLK
  1

  9
$DIMLUNIT
 70
     2
  9
$DIMLWD
 70
    -2
  9
$DIMLWE
 70
    -2
  9
$DIMTMOVE
 70
     0
  9
$LUNITS
 70
     2
  9
$LUPREC
 70
     2
  9
$SKETCHINC
 40
1.0
  9
$FILLETRAD
 40
10.0
  9
$AUNITS
 70
     0
  9
$AUPREC
 70
     2
  9
$MENU
  1
.
  9
$ELEVATION
 40
0.0
  9
$PELEVATION
 40
0.0
  9
$THICKNESS
 40
0.0
  9
$LIMCHECK
 70
     0
  9
$CHAMFERA
 40
10.0
  9
$CHAMFERB
 40
10.0
  9
$CHAMFERC
 40
20.0
  9
$CHAMFERD
 40
0.0
  9
$SKPOLY
 70
     0
  9
$TDCREATE
 40
2456909.846119016
  9
$TDUCREATE
 40
2456909.471119016
  9
$TDUPDATE
 40
2456909.846120452
  9
$TDUUPDATE
 40
2456909.471120452
  9
$TDINDWG
 40
0.0000000116
  9
$TDUSRTIMER
 40
0.0000000116
  9
$USRTIMER
 70
     1
  9
$ANGBASE
 50
0.0
  9
$ANGDIR
 70
     0
  9
$PDMODE
 70
     0
  9
$PDSIZE
 40
-1.0
  9
$PLINEWID
 40
0.0
  9
$SPLFRAME
 70
     0
  9
$SPLINETYPE
 70
     6
  9
$SPLINESEGS
 70
     8
  9
$HANDSEED
  5
1CE
  9
$SURFTAB1
 70
     6
  9
$SURFTAB2
 70
     6
  9
$SURFTYPE
 70
     6
  9
$SURFU
 70
     6
  9
$SURFV
 70
     6
  9
$UCSBASE
  2

  9
$UCSNAME
  2

  9
$UCSORG
 10
0.0
 20
0.0
 30
0.0
  9
$UCSXDIR
 10
1.0
 20
0.0
 30
0.0
  9
$UCSYDIR
 10
0.0
 20
1.0
 30
0.0
  9
$UCSORTHOREF
  2

  9
$UCSORTHOVIEW
 70
     0
  9
$UCSORGTOP
 10
0.0
 20
0.0
 30
0.0
  9
$UCSORGBOTTOM
 10
0.0
 20
0.0
 30
0.0
  9
$UCSORGLEFT
 10
0.0
 20
0.0
 30
0.0
  9
$UCSORGRIGHT
 10
0.0
 20
0.0
 30
0.0
  9
$UCSORGFRONT
 10
0.0
 20
0.0
 30
0.0
  9
$UCSORGBACK
 10
0.0
 20
0.0
 30
0.0
  9
$PUCSBASE
  2

  9
$PUCSNAME
  2

  9
$PUCSORG
 10
0.0
 20
0.0
 30
0.0
  9
$PUCSXDIR
 10
1.0
 20
0.0
 30
0.0
  9
$PUCSYDIR
 10
0.0
 20
1.0
 30
0.0
  9
$PUCSORTHOREF
  2

  9
$PUCSORTHOVIEW
 70
     0
  9
$PUCSORGTOP
 10
0.0
 20
0.0
 30
0.0
  9
$PUCSORGBOTTOM
 10
0.0
 20
0.0
 30
0.0
  9
$PUCSORGLEFT
 10
0.0
 20
0.0
 30
0.0
  9
$PUCSORGRIGHT
 10
0.0
 20
0.0
 30
0.0
  9
$PUCSORGFRONT
 10
0.0
 20
0.0
 30
0.0
  9
$PUCSORGBACK
 10
0.0
 20
0.0
 30
0.0
  9
$USERI1
 70
     0
  9
$USERI2
 70
     0
  9
$USERI3
 70
     0
  9
$USERI4
 70
     0
  9
$USERI5
 70
     0
  9
$USERR1
 40
0.0
  9
$USERR2
 40
0.0
  9
$USERR3
 40
0.0
  9
$USERR4
 40
0.0
  9
$USERR5
 40
0.0
  9
$WORLDVIEW
 70
     1
  9
$SHADEDGE
 70
     3
  9
$SHADEDIF
 70
    70
  9
$TILEMODE
 70
     1
  9
$MAXACTVP
 70
    64
  9
$PINSBASE
 10
0.0
 20
0.0
 30
0.0
  9
$PLIMCHECK
 70
     0
  9
$PEXTMIN
 10
1.0000000000E+20
 20
1.0000000000E+20
 30
1.0000000000E+20
  9
$PEXTMAX
 10
-1.0000000000E+20
 20
-1.0000000000E+20
 30
-1.0000000000E+20
  9
$PLIMMIN
 10
0.0
 20
0.0
  9
$PLIMMAX
 10
420.0
 20
297.0
  9
$UNITMODE
 70
     0
  9
$VISRETAIN
 70
     1
  9
$PLINEGEN
 70
     0
  9
$PSLTSCALE
 70
     1
  9
$TREEDEPTH
 70
  3020
  9
$CMLSTYLE
  2
Standard
  9
$CMLJUST
 70
     0
  9
$CMLSCALE
 40
20.0
  9
$PROXYGRAPHICS
 70
     1
  9
$MEASUREMENT
 70
     1
  9
$CELWEIGHT
370
    -1
  9
$ENDCAPS
280
     0
  9
$JOINSTYLE
280
     0
  9
$LWDISPLAY
290
     1
  9
$INSUNITS
 70
     4
  9
$HYPERLINKBASE
  1

  9
$STYLESHEET
  1

  9
$XEDIT
290
     1
  9
$CEPSNTYPE
380
     0
  9
$PSTYLEMODE
290
     1
  9
$FINGERPRINTGUID
  2
{06B8645A-46E2-444F-B9A5-E2B946AB124F}
  9
$VERSIONGUID
  2
{FAEB1C32-E019-11D5-929B-00C0DF256EC4}
  9
$EXTNAMES
290
     1
  9
$PSVPSCALE
 40
0.0
  9
$OLESTARTUP
290
     0
  0
ENDSEC
  0
SECTION
  2
CLASSES
  0
CLASS
  1
ACDBDICTIONARYWDFLT
  2
AcDbDictionaryWithDefault
  3
ObjectDBX Classes
 90
        0
280
     0
281
     0
  0
CLASS
  1
VISUALSTYLE
  2
AcDbVisualStyle
  3
ObjectDBX Classes
 90
     4095
280
     0
281
     0
  0
CLASS
  1
MATERIAL
  2
AcDbMaterial
  3
ObjectDBX Classes
 90
     1153
280
     0
281
     0
  0
CLASS
  1
ACDBPLACEHOLDER
  2
AcDbPlaceHolder
  3
ObjectDBX Classes
 90
        0
280
     0
281
     0
  0
CLASS
  1
LAYOUT
  2
AcDbLayout
  3
ObjectDBX Classes
 90
        0
280
     0
281
     0
  0
ENDSEC
  0
SECTION
  2
TABLES
  0
TABLE
  2
VPORT
  5
8
330
0
100
AcDbSymbolTable
 70
     1
  0
VPORT
  5
29
330
8
100
AcDbSymbolTableRecord
100
AcDbViewportTableRecord
  2
*Active
 70
     0
 10
0.0
 20
0.0
 11
1.0
 21
1.0
 12
105.0
 22
148.5
 13
0.0
 23
0.0
 14
10.0
 24
10.0
 15
10.0
 25
10.0
 16
0.0
 26
0.0
 36
1.0
 17
0.0
 27
0.0
 37
0.0
 40
297.0
 41
0.7070707071
 42
50.0
 43
0.0
 44
0.0
 50
0.0
 51
0.0
 71
     0
 72
  2000
 73
     1
 74
     3
 75
     0
 76
     0
 77
     0
 78
     0
281
     0
 65
     1
110
0.0
120
0.0
130
0.0
111
1.0
121
0.0
131
0.0
112
0.0
122
1.0
132
0.0
 79
     0
146
0.0
  0
ENDTAB
  0
TABLE
  2
LTYPE
  5
5
330
0
100
AcDbSymbolTable
 70
     6
  0
LTYPE
  5
14
330
5
100
AcDbSymbolTableRecord
100
AcDbLinetypeTableRecord
  2
ByBlock
 70
     0
  3

 72
    65
 73
     0
 40
0.0
  0
LTYPE
  5
15
330
5
100
AcDbSymbolTableRecord
100
AcDbLinetypeTableRecord
  2
ByLayer
 70
     0
  3

 72
    65
 73
     0
 40
0.0
  0
LTYPE
  5
16
330
5
100
AcDbSymbolTableRecord
100
AcDbLinetypeTableRecord
  2
Continuous
 70
     0
  3
Solid line
 72
    65
 73
     0
 40
0.0
  0
LTYPE
  5
3F
330
5
100
AcDbSymbolTableRecord
100
AcDbLinetypeTableRecord
  2
HIDDEN
 70
     0
  3
Hidden __ __ __ __ __ __ __ __ __ __ __ __ __ __
 72
    65
 73
     2
 40
1.905
 49
1.27
 74
     0
 49
-0.635
 74
     0
  0
LTYPE
  5
40
330
5
100
AcDbSymbolTableRecord
100
AcDbLinetypeTableRecord
  2
PHANTOM
 70
     0
  3
Phantom ______  __  __  ______  __  __  ______
 72
    65
 73
     6
 40
12.7
 49
6.35
 74
     0
 49
-1.27
 74
     0
 49
1.27
 74
     0
 49
-1.27
 74
     0
 49
1.27
 74
     0
 49
-1.27
 74
     0
  0
LTYPE
  5
41
330
5
100
AcDbSymbolTableRecord
100
AcDbLinetypeTableRecord
  2
CENTER
 70
     0
  3
Center ____ _ ____ _ ____ _ ____ _ ____ _ ____
 72
    65
 73
     4
 40
10.16
 49
6.35
 74
     0
 49
-1.27
 74
     0
 49
1.27
 74
     0
 49
-1.27
 74
     0
  0
LTYPE
  5
42
330
5
100
AcDbSymbolTableRecord
100
AcDbLinetypeTableRecord
  2
CENTERX2
 70
     0
  3
Center (2x) ________  __  ________  __  _____
 72
    65
 73
     4
 40
20.32
 49
12.7
 74
     0
 49
-2.54
 74
     0
 49
2.54
 74
     0
 49
-2.54
 74
     0
  0
LTYPE
  5
43
330
5
100
AcDbSymbolTableRecord
100
AcDbLinetypeTableRecord
  2
DOT2
 70
     0
  3
Dot (.5x) ........................................
 72
    65
 73
     2
 40
0.635
 49
0.0
 74
     0
 49
-0.635
 74
     0
  0
ENDTAB
  0
TABLE
  2
LAYER
  5
2
330
0
100
AcDbSymbolTable
 70
     1
  0
LAYER
  5
10
330
2
100
AcDbSymbolTableRecord
100
AcDbLayerTableRecord
  2
0
 70
     0
 62
     7
  6
Continuous
370
    -3
390
F
  0
ENDTAB
  0
TABLE
  2
STYLE
  5
3
330
0
100
AcDbSymbolTable
 70
     3
  0
STYLE
  5
11
330
3
100
AcDbSymbolTableRecord
100
AcDbTextStyleTableRecord
  2
Standard
 70
     0
 40
0.0
 41
1.0
 50
0.0
 71
     0
 42
3.5
  3
txt
  4
bigfont
  0
STYLE
  5
4C
330
3
100
AcDbSymbolTableRecord
100
AcDbTextStyleTableRecord
  2
SLDTEXTSTYLE0
 70
     0
 40
0.0
 41
0.7
 50
0.0
 71
     0
 42
0.2
  3
TXT
  4
bigfont
  0
STYLE
  5
8B
330
3
100
AcDbSymbolTableRecord
100
AcDbTextStyleTableRecord
  2
SLDTEXTSTYLE1
 70
     0
 40
0.0
 41
0.75
 50
0.0
 71
     0
 42
0.2
  3
TXT
  4
bigfont
  0
ENDTAB
  0
TABLE
  2
VIEW
  5
6
330
0
100
AcDbSymbolTable
 70
     0
  0
ENDTAB
  0
TABLE
  2
UCS
  5
7
330
0
100
AcDbSymbolTable
 70
     0
  0
ENDTAB
  0
TABLE
  2
APPID
  5
9
330
0
100
AcDbSymbolTable
 70
     1
  0
APPID
  5
12
330
9
100
AcDbSymbolTableRecord
100
AcDbRegAppTableRecord
  2
ACAD
 70
     0
  0
ENDTAB
  0
TABLE
  2
DIMSTYLE
  5
A
330
0
100
AcDbSymbolTable
 70
     7
100
AcDbDimStyleTable
  0
DIMSTYLE
105
27
330
A
100
AcDbSymbolTableRecord
100
AcDbDimStyleTableRecord
  2
ISO-25
 70
     0
 41
2.5
 42
0.625
 43
3.75
 44
1.25
 73
     0
 74
     0
 77
     1
 78
     8
140
2.5
141
2.5
143
0.0393700787
147
0.625
171
     3
172
     1
178
     0
271
     2
272
     2
274
     3
278
    44
283
     0
284
     8
340
11
  0
DIMSTYLE
105
8C
102
{ACAD_REACTORS
330
8A
102
}
330
A
100
AcDbSymbolTableRecord
100
AcDbDimStyleTableRecord
  2
SLDDIMSTYLE0
 70
     0
 41
2.0
 44
0.0
 45
0.000000001
 73
     0
 74
     0
 77
     3
 78
    12
 79
     3
140
3.5
147
0.875
173
     1
178
     0
271
     1
272
     2
276
     2
284
    12
340
8B
  0
DIMSTYLE
105
97
102
{ACAD_REACTORS
330
96
330
1B3
330
1BE
102
}
330
A
100
AcDbSymbolTableRecord
100
AcDbDimStyleTableRecord
  2
SLDDIMSTYLE1
 70
     0
 41
2.0
 44
0.0
 45
0.000000001
 73
     0
 74
     0
 77
     3
 78
    12
 79
     3
140
3.5
147
0.875
173
     1
178
     0
271
     2
272
     2
276
     2
284
    12
340
8B
  0
DIMSTYLE
105
A2
330
A
100
AcDbSymbolTableRecord
100
AcDbDimStyleTableRecord
  2
SLDDIMSTYLE2
 70
     0
 41
2.0
 44
0.0
 45
0.000000001
140
0.0
146
2.0
147
0.0
173
     1
178
     0
271
     0
272
     0
276
     2
340
11
  0
DIMSTYLE
105
174
102
{ACAD_REACTORS
330
173
330
199
330
1A6
102
}
330
A
100
AcDbSymbolTableRecord
100
AcDbDimStyleTableRecord
  2
SLDDIMSTYLE3
 70
     0
 41
2.0
 44
0.0
 45
0.000000001
 73
     0
 74
     0
 77
     3
 78
    12
 79
     3
140
3.5
147
0.875
172
     1
173
     1
178
     0
271
     2
272
     2
276
     2
284
    12
289
     0
340
8B
  0
DIMSTYLE
105
182
102
{ACAD_REACTORS
330
181
102
}
330
A
100
AcDbSymbolTableRecord
100
AcDbDimStyleTableRecord
  2
SLDDIMSTYLE4
 70
     0
 41
2.0
 44
0.0
 45
0.000000001
 73
     0
 74
     0
 77
     3
 78
    12
 79
     3
140
3.5
147
0.875
172
     1
173
     1
178
     0
271
     1
272
     1
276
     2
284
    12
289
     0
340
8B
  0
DIMSTYLE
105
18F
102
{ACAD_REACTORS
330
18E
102
}
330
A
100
AcDbSymbolTableRecord
100
AcDbDimStyleTableRecord
  2
SLDDIMSTYLE5
 70
     0
 41
2.0
 44
0.0
 45
0.000000001
 73
     0
 74
     0
 77
     3
 78
    12
 79
     3
140
3.5
147
0.875
173
     1
178
     0
271
     1
272
     1
276
     2
284
    12
340
8B
  0
ENDTAB
  0
TABLE
  2
BLOCK_RECORD
  5
1
330
0
100
AcDbSymbolTable
 70
    11
  0
BLOCK_RECORD
  5
1F
330
1
100
AcDbSymbolTableRecord
100
AcDbBlockTableRecord
  2
*Model_Space
340
22
  0
BLOCK_RECORD
  5
1B
330
1
100
AcDbSymbolTableRecord
100
AcDbBlockTableRecord
  2
*Paper_Space
340
1E
  0
BLOCK_RECORD
  5
23
330
1
100
AcDbSymbolTableRecord
100
AcDbBlockTableRecord
  2
*Paper_Space0
340
26
  0
BLOCK_RECORD
  5
8D
330
1
100
AcDbSymbolTableRecord
100
AcDbBlockTableRecord
  2
_D
340
0
  0
BLOCK_RECORD
  5
98
330
1
100
AcDbSymbolTableRecord
100
AcDbBlockTableRecord
  2
_D_1
340
0
  0
BLOCK_RECORD
  5
A4
330
1
100
AcDbSymbolTableRecord
100
AcDbBlockTableRecord
  2
SW_CENTERMARKSYMBOL_0
340
0
102
{BLKREFS
331
AF
102
}
  0
BLOCK_RECORD
  5
175
330
1
100
AcDbSymbolTableRecord
100
AcDbBlockTableRecord
  2
_D_2
340
0
  0
BLOCK_RECORD
  5
183
330
1
100
AcDbSymbolTableRecord
100
AcDbBlockTableRecord
  2
_D_3
340
0
  0
BLOCK_RECORD
  5
190
330
1
100
AcDbSymbolTableRecord
100
AcDbBlockTableRecord
  2
_D_4
340
0
  0
BLOCK_RECORD
  5
19A
330
1
100
AcDbSymbolTableRecord
100
AcDbBlockTableRecord
  2
_D_5
340
0
  0
BLOCK_RECORD
  5
1A7
330
1
100
AcDbSymbolTableRecord
100
AcDbBlockTableRecord
  2
_D_6
340
0
  0
BLOCK_RECORD
  5
1B4
330
1
100
AcDbSymbolTableRecord
100
AcDbBlockTableRecord
  2
_D_7
340
0
  0
BLOCK_RECORD
  5
1BF
330
1
100
AcDbSymbolTableRecord
100
AcDbBlockTableRecord
  2
_D_8
340
0
  0
ENDTAB
  0
ENDSEC
  0
SECTION
  2
BLOCKS
  0
BLOCK
  5
20
330
1F
100
AcDbEntity
  8
0
100
AcDbBlockBegin
  2
*Model_Space
 70
     0
 10
0.0
 20
0.0
 30
0.0
  3
*Model_Space
  1

  0
ENDBLK
  5
21
330
1F
100
AcDbEntity
  8
0
100
AcDbBlockEnd
  0
BLOCK
  5
1C
330
1B
100
AcDbEntity
 67
     1
  8
0
100
AcDbBlockBegin
  2
*Paper_Space
 70
     0
 10
0.0
 20
0.0
 30
0.0
  3
*Paper_Space
  1

  0
ENDBLK
  5
1D
330
1B
100
AcDbEntity
 67
     1
  8
0
100
AcDbBlockEnd
  0
BLOCK
  5
24
330
23
100
AcDbEntity
  8
0
100
AcDbBlockBegin
  2
*Paper_Space0
 70
     0
 10
0.0
 20
0.0
 30
0.0
  3
*Paper_Space0
  1

  0
ENDBLK
  5
25
330
23
100
AcDbEntity
  8
0
100
AcDbBlockEnd
  0
BLOCK
  5
8E
330
8D
100
AcDbEntity
  8
0
100
AcDbBlockBegin
  2
_D
 70
     0
 10
0.0
 20
0.0
 30
0.0
  3
_D
  1

  0
SOLID
  5
90
330
8D
100
AcDbEntity
  8
0
  6
Continuous
 62
     7
370
     0
100
AcDbTrace
 10
46.7829658796
 20
158.5585096416
 30
0.0
 11
46.0329658796
 21
156.5585096416
 31
0.0
 12
47.5329658796
 22
156.5585096416
 32
0.0
 13
47.5329658796
 23
156.5585096416
 33
0.0
  0
SOLID
  5
91
330
8D
100
AcDbEntity
  8
0
  6
Continuous
 62
     7
370
     0
100
AcDbTrace
 10
46.7829658796
 20
139.9585096416
 30
0.0
 11
47.5329658796
 21
141.9585096416
 31
0.0
 12
46.0329658796
 22
141.9585096416
 32
0.0
 13
46.0329658796
 23
141.9585096416
 33
0.0
  0
LINE
  5
92
330
8D
100
AcDbEntity
  8
0
  6
Continuous
 62
     7
370
     0
100
AcDbLine
 10
62.5540903164
 20
158.5585096416
 30
0.0
 11
45.7829658796
 21
158.5585096416
 31
0.0
  0
LINE
  5
93
330
8D
100
AcDbEntity
  8
0
  6
Continuous
 62
     7
370
     0
100
AcDbLine
 10
62.5540903163
 20
139.9585096416
 30
0.0
 11
45.7829658796
 21
139.9585096416
 31
0.0
  0
LINE
  5
94
330
8D
100
AcDbEntity
  8
0
  6
Continuous
 62
     7
370
     0
100
AcDbLine
 10
46.7829658796
 20
158.5585096416
 30
0.0
 11
46.7829658796
 21
139.9585096416
 31
0.0
  0
MTEXT
  5
95
330
8D
100
AcDbEntity
  8
0
  6
Continuous
 62
     7
370
     0
100
AcDbMText
 10
42.271228965
 20
145.0993099682
 30
30.85
 40
3.5
 41
0.0
 71
     1
 72
     1
  1
18.6
  7
SLDTEXTSTYLE1
 11
-7.044195017643634E-15
 21
1.0
 31
0.0
 73
     1
 44
1.0
  0
ENDBLK
  5
8F
330
8D
100
AcDbEntity
  8
0
100
AcDbBlockEnd
  0
BLOCK
  5
99
330
98
100
AcDbEntity
  8
0
100
AcDbBlockBegin
  2
_D_1
 70
     0
 10
0.0
 20
0.0
 30
0.0
  3
_D_1
  1

  0
SOLID
  5
9B
330
98
100
AcDbEntity
  8
0
  6
Continuous
 62
     7
370
     0
100
AcDbTrace
 10
55.2147691774
 20
155.2585096416
 30
0.0
 11
54.4647691774
 21
153.2585096416
 31
0.0
 12
55.9647691774
 22
153.2585096416
 32
0.0
 13
55.9647691774
 23
153.2585096416
 33
0.0
  0
SOLID
  5
9C
330
98
100
AcDbEntity
  8
0
  6
Continuous
 62
     7
370
     0
100
AcDbTrace
 10
55.2147691774
 20
143.2585096416
 30
0.0
 11
55.9647691774
 21
145.2585096416
 31
0.0
 12
54.4647691774
 22
145.2585096416
 32
0.0
 13
54.4647691774
 23
145.2585096416
 33
0.0
  0
LINE
  5
9D
330
98
100
AcDbEntity
  8
0
  6
Continuous
 62
     7
370
     0
100
AcDbLine
 10
63.1399887011
 20
155.2585096416
 30
0.0
 11
54.2147691774
 21
155.2585096416
 31
0.0
  0
LINE
  5
9E
330
98
100
AcDbEntity
  8
0
  6
Continuous
 62
     7
370
     0
100
AcDbLine
 10
63.1399887011
 20
143.2585096416
 30
0.0
 11
54.2147691774
 21
143.2585096416
 31
0.0
  0
LINE
  5
9F
330
98
100
AcDbEntity
  8
0
  6
Continuous
 62
     7
370
     0
100
AcDbLine
 10
55.2147691774
 20
155.2585096416
 30
0.0
 11
55.2147691774
 21
143.2585096416
 31
0.0
  0
MTEXT
  5
A0
330
98
100
AcDbEntity
  8
0
  6
Continuous
 62
     7
370
     0
100
AcDbMText
 10
50.7030322629
 20
147.0388933052
 30
30.85
 40
3.5
 41
0.0
 71
     1
 72
     1
  1
12
  7
SLDTEXTSTYLE1
 11
-7.044195017643634E-15
 21
1.0
 31
0.0
 73
     1
 44
1.0
  0
ENDBLK
  5
9A
330
98
100
AcDbEntity
  8
0
100
AcDbBlockEnd
  0
BLOCK
  5
A5
330
A4
100
AcDbEntity
  8
0
100
AcDbBlockBegin
  2
SW_CENTERMARKSYMBOL_0
 70
     0
 10
0.0
 20
0.0
 30
0.0
  3
SW_CENTERMARKSYMBOL_0
  1

  0
LINE
  5
A7
330
A4
100
AcDbEntity
  8
0
  6
Continuous
 62
     0
370
     0
100
AcDbLine
 10
0.0
 20
0.0
 30
0.0
 11
0.0
 21
2.5
 31
0.0
  0
LINE
  5
A8
330
A4
100
AcDbEntity
  8
0
  6
Continuous
 62
     0
370
     0
100
AcDbLine
 10
0.0
 20
0.0
 30
0.0
 11
-2.5
 21
0.0
 31
0.0
  0
LINE
  5
A9
330
A4
100
AcDbEntity
  8
0
  6
Continuous
 62
     0
370
     0
100
AcDbLine
 10
0.0
 20
0.0
 30
0.0
 11
0.0
 21
-2.5
 31
0.0
  0
LINE
  5
AA
330
A4
100
AcDbEntity
  8
0
  6
Continuous
 62
     0
370
     0
100
AcDbLine
 10
0.0
 20
0.0
 30
0.0
 11
2.5
 21
0.0
 31
0.0
  0
LINE
  5
AB
330
A4
100
AcDbEntity
  8
0
  6
Continuous
 62
     0
370
     0
100
AcDbLine
 10
0.0
 20
5.0
 30
0.0
 11
0.0
 21
6.0
 31
0.0
  0
LINE
  5
AC
330
A4
100
AcDbEntity
  8
0
  6
Continuous
 62
     0
370
     0
100
AcDbLine
 10
-5.0
 20
0.0
 30
0.0
 11
-6.0
 21
0.0
 31
0.0
  0
LINE
  5
AD
330
A4
100
AcDbEntity
  8
0
  6
Continuous
 62
     0
370
     0
100
AcDbLine
 10
0.0
 20
-5.0
 30
0.0
 11
0.0
 21
-6.0
 31
0.0
  0
LINE
  5
AE
330
A4
100
AcDbEntity
  8
0
  6
Continuous
 62
     0
370
     0
100
AcDbLine
 10
5.0
 20
0.0
 30
0.0
 11
6.0
 21
0.0
 31
0.0
  0
ENDBLK
  5
A6
330
A4
100
AcDbEntity
  8
0
100
AcDbBlockEnd
  0
BLOCK
  5
176
330
175
100
AcDbEntity
  8
0
100
AcDbBlockBegin
  2
_D_2
 70
     0
 10
0.0
 20
0.0
 30
0.0
  3
_D_2
  1

  0
SOLID
  5
178
330
175
100
AcDbEntity
  8
0
  6
Continuous
 62
     7
370
     0
100
AcDbTrace
 10
96.110600654
 20
152.7585096416
 30
0.0
 11
96.860600654
 21
154.7585096416
 31
0.0
 12
95.360600654
 22
154.7585096416
 32
0.0
 13
95.360600654
 23
154.7585096416
 33
0.0
  0
SOLID
  5
179
330
175
100
AcDbEntity
  8
0
  6
Continuous
 62
     7
370
     0
100
AcDbTrace
 10
96.110600654
 20
145.7585096416
 30
0.0
 11
95.360600654
 21
143.7585096416
 31
0.0
 12
96.860600654
 22
143.7585096416
 32
0.0
 13
96.860600654
 23
143.7585096416
 33
0.0
  0
LINE
  5
17A
330
175
100
AcDbEntity
  8
0
  6
Continuous
 62
     7
370
     0
100
AcDbLine
 10
109.601459854
 20
152.7585096416
 30
0.0
 11
95.110600654
 21
152.7585096416
 31
0.0
  0
LINE
  5
17B
330
175
100
AcDbEntity
  8
0
  6
Continuous
 62
     7
370
     0
100
AcDbLine
 10
109.601459854
 20
145.7585096416
 30
0.0
 11
95.110600654
 21
145.7585096416
 31
0.0
  0
LINE
  5
17C
330
175
100
AcDbEntity
  8
0
  6
Continuous
 62
     7
370
     0
100
AcDbLine
 10
96.110600654
 20
152.7585096416
 30
0.0
 11
96.110600654
 21
157.7585096416
 31
0.0
  0
LINE
  5
17D
330
175
100
AcDbEntity
  8
0
  6
Continuous
 62
     7
370
     0
100
AcDbLine
 10
96.110600654
 20
152.7585096416
 30
0.0
 11
96.110600654
 21
145.7585096416
 31
0.0
  0
LINE
  5
17E
330
175
100
AcDbEntity
  8
0
  6
Continuous
 62
     7
370
     0
100
AcDbLine
 10
96.110600654
 20
145.7585096416
 30
0.0
 11
96.110600654
 21
140.7585096416
 31
0.0
  0
MTEXT
  5
17F
330
175
100
AcDbEntity
  8
0
  6
Continuous
 62
     7
370
     0
100
AcDbMText
 10
91.5988635648
 20
145.7693390933
 30
0.1
 40
3.5
 41
0.0
 71
     1
 72
     1
  1
%%c
  7
SLDTEXTSTYLE1
 11
-7.044195017643634E-15
 21
1.0
 31
0.0
 73
     1
 44
1.0
  0
MTEXT
  5
180
330
175
100
AcDbEntity
  8
0
  6
Continuous
 62
     7
370
     0
100
AcDbMText
 10
91.5453913881
 20
151.0477764916
 30
0.1
 40
3.5
 41
0.0
 71
     1
 72
     1
  1
7
  7
SLDTEXTSTYLE1
 11
-7.044195017643634E-15
 21
1.0
 31
0.0
 73
     1
 44
1.0
  0
ENDBLK
  5
177
330
175
100
AcDbEntity
  8
0
100
AcDbBlockEnd
  0
BLOCK
  5
184
330
183
100
AcDbEntity
  8
0
100
AcDbBlockBegin
  2
_D_3
 70
     0
 10
0.0
 20
0.0
 30
0.0
  3
_D_3
  1

  0
SOLID
  5
186
330
183
100
AcDbEntity
  8
0
  6
Continuous
 62
     7
370
     0
100
AcDbTrace
 10
116.101459854
 20
168.5585096416
 30
0.0
 11
118.101459854
 21
167.8085096416
 31
0.0
 12
118.101459854
 22
169.3085096416
 32
0.0
 13
118.101459854
 23
169.3085096416
 33
0.0
  0
SOLID
  5
187
330
183
100
AcDbEntity
  8
0
  6
Continuous
 62
     7
370
     0
100
AcDbTrace
 10
110.601459854
 20
168.5585096416
 30
0.0
 11
108.601459854
 21
169.3085096416
 31
0.0
 12
108.601459854
 22
167.8085096416
 32
0.0
 13
108.601459854
 23
167.8085096416
 33
0.0
  0
LINE
  5
188
330
183
100
AcDbEntity
  8
0
  6
Continuous
 62
     7
370
     0
100
AcDbLine
 10
116.101459854
 20
156.2585096416
 30
0.0
 11
116.101459854
 21
169.5585096416
 31
0.0
  0
LINE
  5
189
330
183
100
AcDbEntity
  8
0
  6
Continuous
 62
     7
370
     0
100
AcDbLine
 10
110.601459854
 20
153.7585096416
 30
0.0
 11
110.601459854
 21
169.5585096416
 31
0.0
  0
LINE
  5
18A
330
183
100
AcDbEntity
  8
0
  6
Continuous
 62
     7
370
     0
100
AcDbLine
 10
116.101459854
 20
168.5585096416
 30
0.0
 11
129.277286614
 21
168.5585096416
 31
0.0
  0
LINE
  5
18B
330
183
100
AcDbEntity
  8
0
  6
Continuous
 62
     7
370
     0
100
AcDbLine
 10
116.101459854
 20
168.5585096416
 30
0.0
 11
110.601459854
 21
168.5585096416
 31
0.0
  0
LINE
  5
18C
330
183
100
AcDbEntity
  8
0
  6
Continuous
 62
     7
370
     0
100
AcDbLine
 10
110.601459854
 20
168.5585096416
 30
0.0
 11
105.601459854
 21
168.5585096416
 31
0.0
  0
MTEXT
  5
18D
330
183
100
AcDbEntity
  8
0
  6
Continuous
 62
     7
370
     0
100
AcDbMText
 10
122.8120089794
 20
173.0702465562
 30
0.1
 40
3.5
 41
0.0
 71
     1
 72
     1
  1
5.5
  7
SLDTEXTSTYLE1
 73
     1
 44
1.0
  0
ENDBLK
  5
185
330
183
100
AcDbEntity
  8
0
100
AcDbBlockEnd
  0
BLOCK
  5
191
330
190
100
AcDbEntity
  8
0
100
AcDbBlockBegin
  2
_D_4
 70
     0
 10
0.0
 20
0.0
 30
0.0
  3
_D_4
  1

  0
SOLID
  5
193
330
190
100
AcDbEntity
  8
0
  6
Continuous
 62
     7
370
     0
100
AcDbTrace
 10
110.601459854
 20
180.5585096416
 30
0.0
 11
112.601459854
 21
179.8085096416
 31
0.0
 12
112.601459854
 22
181.3085096416
 32
0.0
 13
112.601459854
 23
181.3085096416
 33
0.0
  0
SOLID
  5
194
330
190
100
AcDbEntity
  8
0
  6
Continuous
 62
     7
370
     0
100
AcDbTrace
 10
172.101459854
 20
180.5585096416
 30
0.0
 11
170.101459854
 21
181.3085096416
 31
0.0
 12
170.101459854
 22
179.8085096416
 32
0.0
 13
170.101459854
 23
179.8085096416
 33
0.0
  0
LINE
  5
195
330
190
100
AcDbEntity
  8
0
  6
Continuous
 62
     7
370
     0
100
AcDbLine
 10
110.601459854
 20
153.7585096416
 30
0.0
 11
110.601459854
 21
181.5585096416
 31
0.0
  0
LINE
  5
196
330
190
100
AcDbEntity
  8
0
  6
Continuous
 62
     7
370
     0
100
AcDbLine
 10
172.101459854
 20
152.2585096416
 30
0.0
 11
172.101459854
 21
181.5585096416
 31
0.0
  0
LINE
  5
197
330
190
100
AcDbEntity
  8
0
  6
Continuous
 62
     7
370
     0
100
AcDbLine
 10
110.601459854
 20
180.5585096416
 30
0.0
 11
172.101459854
 21
180.5585096416
 31
0.0
  0
MTEXT
  5
198
330
190
100
AcDbEntity
  8
0
  6
Continuous
 62
     7
370
     0
100
AcDbMText
 10
137.8014287156
 20
185.0702465562
 30
0.1
 40
3.5
 41
0.0
 71
     1
 72
     1
  1
61.5
  7
SLDTEXTSTYLE1
 73
     1
 44
1.0
  0
ENDBLK
  5
192
330
190
100
AcDbEntity
  8
0
100
AcDbBlockEnd
  0
BLOCK
  5
19B
330
19A
100
AcDbEntity
  8
0
100
AcDbBlockBegin
  2
_D_5
 70
     0
 10
0.0
 20
0.0
 30
0.0
  3
_D_5
  1

  0
SOLID
  5
19D
330
19A
100
AcDbEntity
  8
0
  6
Continuous
 62
     7
370
     0
100
AcDbTrace
 10
179.7819000834
 20
151.7585096416
 30
0.0
 11
180.5319000834
 21
153.7585096416
 31
0.0
 12
179.0319000834
 22
153.7585096416
 32
0.0
 13
179.0319000834
 23
153.7585096416
 33
0.0
  0
SOLID
  5
19E
330
19A
100
AcDbEntity
  8
0
  6
Continuous
 62
     7
370
     0
100
AcDbTrace
 10
179.7819000834
 20
146.7585096416
 30
0.0
 11
179.0319000834
 21
144.7585096416
 31
0.0
 12
180.5319000834
 22
144.7585096416
 32
0.0
 13
180.5319000834
 23
144.7585096416
 33
0.0
  0
LINE
  5
19F
330
19A
100
AcDbEntity
  8
0
  6
Continuous
 62
     7
370
     0
100
AcDbLine
 10
172.601459854
 20
151.7585096416
 30
0.0
 11
180.7819000834
 21
151.7585096416
 31
0.0
  0
LINE
  5
1A0
330
19A
100
AcDbEntity
  8
0
  6
Continuous
 62
     7
370
     0
100
AcDbLine
 10
172.601459854
 20
146.7585096416
 30
0.0
 11
180.7819000834
 21
146.7585096416
 31
0.0
  0
LINE
  5
1A1
330
19A
100
AcDbEntity
  8
0
  6
Continuous
 62
     7
370
     0
100
AcDbLine
 10
179.7819000834
 20
151.7585096416
 30
0.0
 11
179.7819000834
 21
163.8375863286
 31
0.0
  0
LINE
  5
1A2
330
19A
100
AcDbEntity
  8
0
  6
Continuous
 62
     7
370
     0
100
AcDbLine
 10
179.7819000834
 20
151.7585096416
 30
0.0
 11
179.7819000834
 21
146.7585096416
 31
0.0
  0
LINE
  5
1A3
330
19A
100
AcDbEntity
  8
0
  6
Continuous
 62
     7
370
     0
100
AcDbLine
 10
179.7819000834
 20
146.7585096416
 30
0.0
 11
179.7819000834
 21
141.7585096416
 31
0.0
  0
MTEXT
  5
1A4
330
19A
100
AcDbEntity
  8
0
  6
Continuous
 62
     7
370
     0
100
AcDbMText
 10
175.2701629942
 20
155.9730375039
 30
0.1
 40
3.5
 41
0.0
 71
     1
 72
     1
  1
%%c
  7
SLDTEXTSTYLE1
 11
-7.044195017643634E-15
 21
1.0
 31
0.0
 73
     1
 44
1.0
  0
MTEXT
  5
1A5
330
19A
100
AcDbEntity
  8
0
  6
Continuous
 62
     7
370
     0
100
AcDbMText
 10
175.2166908176
 20
161.2514749022
 30
0.1
 40
3.5
 41
0.0
 71
     1
 72
     1
  1
5
  7
SLDTEXTSTYLE1
 11
-7.044195017643634E-15
 21
1.0
 31
0.0
 73
     1
 44
1.0
  0
ENDBLK
  5
19C
330
19A
100
AcDbEntity
  8
0
100
AcDbBlockEnd
  0
BLOCK
  5
1A8
330
1A7
100
AcDbEntity
  8
0
100
AcDbBlockBegin
  2
_D_6
 70
     0
 10
0.0
 20
0.0
 30
0.0
  3
_D_6
  1

  0
SOLID
  5
1AA
330
1A7
100
AcDbEntity
  8
0
  6
Continuous
 62
     7
370
     0
100
AcDbTrace
 10
191.5049921309
 20
153.2585096416
 30
0.0
 11
192.2549921309
 21
155.2585096416
 31
0.0
 12
190.7549921309
 22
155.2585096416
 32
0.0
 13
190.7549921309
 23
155.2585096416
 33
0.0
  0
SOLID
  5
1AB
330
1A7
100
AcDbEntity
  8
0
  6
Continuous
 62
     7
370
     0
100
AcDbTrace
 10
191.5049921309
 20
145.2585096416
 30
0.0
 11
190.7549921309
 21
143.2585096416
 31
0.0
 12
192.2549921309
 22
143.2585096416
 32
0.0
 13
192.2549921309
 23
143.2585096416
 33
0.0
  0
LINE
  5
1AC
330
1A7
100
AcDbEntity
  8
0
  6
Continuous
 62
     7
370
     0
100
AcDbLine
 10
170.801459854
 20
153.2585096416
 30
0.0
 11
192.5049921309
 21
153.2585096416
 31
0.0
  0
LINE
  5
1AD
330
1A7
100
AcDbEntity
  8
0
  6
Continuous
 62
     7
370
     0
100
AcDbLine
 10
170.801459854
 20
145.2585096416
 30
0.0
 11
192.5049921309
 21
145.2585096416
 31
0.0
  0
LINE
  5
1AE
330
1A7
100
AcDbEntity
  8
0
  6
Continuous
 62
     7
370
     0
100
AcDbLine
 10
191.5049921309
 20
153.2585096416
 30
0.0
 11
191.5049921309
 21
163.8375863286
 31
0.0
  0
LINE
  5
1AF
330
1A7
100
AcDbEntity
  8
0
  6
Continuous
 62
     7
370
     0
100
AcDbLine
 10
191.5049921309
 20
153.2585096416
 30
0.0
 11
191.5049921309
 21
145.2585096416
 31
0.0
  0
LINE
  5
1B0
330
1A7
100
AcDbEntity
  8
0
  6
Continuous
 62
     7
370
     0
100
AcDbLine
 10
191.5049921309
 20
145.2585096416
 30
0.0
 11
191.5049921309
 21
140.2585096416
 31
0.0
  0
MTEXT
  5
1B1
330
1A7
100
AcDbEntity
  8
0
  6
Continuous
 62
     7
370
     0
100
AcDbMText
 10
186.9932550417
 20
155.9730375039
 30
0.1
 40
3.5
 41
0.0
 71
     1
 72
     1
  1
%%c
  7
SLDTEXTSTYLE1
 11
-7.044195017643634E-15
 21
1.0
 31
0.0
 73
     1
 44
1.0
  0
MTEXT
  5
1B2
330
1A7
100
AcDbEntity
  8
0
  6
Continuous
 62
     7
370
     0
100
AcDbMText
 10
186.939782865
 20
161.2514749022
 30
0.1
 40
3.5
 41
0.0
 71
     1
 72
     1
  1
8
  7
SLDTEXTSTYLE1
 11
-7.044195017643634E-15
 21
1.0
 31
0.0
 73
     1
 44
1.0
  0
ENDBLK
  5
1A9
330
1A7
100
AcDbEntity
  8
0
100
AcDbBlockEnd
  0
BLOCK
  5
1B5
330
1B4
100
AcDbEntity
  8
0
100
AcDbBlockBegin
  2
_D_7
 70
     0
 10
0.0
 20
0.0
 30
0.0
  3
_D_7
  1

  0
SOLID
  5
1B7
330
1B4
100
AcDbEntity
  8
0
  6
Continuous
 62
     7
370
     0
100
AcDbTrace
 10
128.101459854
 20
123.0086253635
 30
0.0
 11
130.101459854
 21
122.2586253635
 31
0.0
 12
130.101459854
 22
123.7586253635
 32
0.0
 13
130.101459854
 23
123.7586253635
 33
0.0
  0
SOLID
  5
1B8
330
1B4
100
AcDbEntity
  8
0
  6
Continuous
 62
     7
370
     0
100
AcDbTrace
 10
148.101459854
 20
123.0086253635
 30
0.0
 11
146.101459854
 21
123.7586253635
 31
0.0
 12
146.101459854
 22
122.2586253635
 32
0.0
 13
146.101459854
 23
122.2586253635
 33
0.0
  0
LINE
  5
1B9
330
1B4
100
AcDbEntity
  8
0
  6
Continuous
 62
     7
370
     0
100
AcDbLine
 10
128.101459854
 20
144.5085096416
 30
0.0
 11
128.101459854
 21
122.0086253635
 31
0.0
  0
LINE
  5
1BA
330
1B4
100
AcDbEntity
  8
0
  6
Continuous
 62
     7
370
     0
100
AcDbLine
 10
148.101459854
 20
144.8085096416
 30
0.0
 11
148.101459854
 21
122.0086253635
 31
0.0
  0
LINE
  5
1BB
330
1B4
100
AcDbEntity
  8
0
  6
Continuous
 62
     7
370
     0
100
AcDbLine
 10
128.101459854
 20
123.0086253635
 30
0.0
 11
148.101459854
 21
123.0086253635
 31
0.0
  0
MTEXT
  5
1BC
330
1B4
100
AcDbEntity
  8
0
  6
Continuous
 62
     7
370
     0
100
AcDbMText
 10
134.2871068076
 20
127.5203622781
 30
0.1
 40
3.5
 41
0.0
 71
     1
 72
     1
  1
20
  7
SLDTEXTSTYLE1
 73
     1
 44
1.0
  0
MTEXT
  5
1BD
330
1B4
100
AcDbEntity
  8
0
  6
Continuous
 62
     7
370
     0
100
AcDbMText
 10
139.4593291947
 20
127.5203622781
 30
0.1
 40
3.5
 41
0.0
 71
     1
 72
     1
  1
st
  7
SLDTEXTSTYLE1
 73
     1
 44
1.0
  0
ENDBLK
  5
1B6
330
1B4
100
AcDbEntity
  8
0
100
AcDbBlockEnd
  0
BLOCK
  5
1C0
330
1BF
100
AcDbEntity
  8
0
100
AcDbBlockBegin
  2
_D_8
 70
     0
 10
0.0
 20
0.0
 30
0.0
  3
_D_8
  1

  0
SOLID
  5
1C2
330
1BF
100
AcDbEntity
  8
0
  6
Continuous
 62
     7
370
     0
100
AcDbTrace
 10
152.101459854
 20
123.0086253635
 30
0.0
 11
154.101459854
 21
122.2586253635
 31
0.0
 12
154.101459854
 22
123.7586253635
 32
0.0
 13
154.101459854
 23
123.7586253635
 33
0.0
  0
SOLID
  5
1C3
330
1BF
100
AcDbEntity
  8
0
  6
Continuous
 62
     7
370
     0
100
AcDbTrace
 10
170.101459854
 20
123.0086253635
 30
0.0
 11
168.101459854
 21
123.7586253635
 31
0.0
 12
168.101459854
 22
122.2586253635
 32
0.0
 13
168.101459854
 23
122.2586253635
 33
0.0
  0
LINE
  5
1C4
330
1BF
100
AcDbEntity
  8
0
  6
Continuous
 62
     7
370
     0
100
AcDbLine
 10
152.101459854
 20
142.5585096416
 30
0.0
 11
152.101459854
 21
122.0086253635
 31
0.0
  0
LINE
  5
1C5
330
1BF
100
AcDbEntity
  8
0
  6
Continuous
 62
     7
370
     0
100
AcDbLine
 10
170.101459854
 20
144.5585096416
 30
0.0
 11
170.101459854
 21
122.0086253635
 31
0.0
  0
LINE
  5
1C6
330
1BF
100
AcDbEntity
  8
0
  6
Continuous
 62
     7
370
     0
100
AcDbLine
 10
152.101459854
 20
123.0086253635
 30
0.0
 11
170.101459854
 21
123.0086253635
 31
0.0
  0
MTEXT
  5
1C7
330
1BF
100
AcDbEntity
  8
0
  6
Continuous
 62
     7
370
     0
100
AcDbMText
 10
159.2251138465
 20
127.5203622781
 30
0.1
 40
3.5
 41
0.0
 71
     1
 72
     1
  1
18
  7
SLDTEXTSTYLE1
 73
     1
 44
1.0
  0
ENDBLK
  5
1C1
330
1BF
100
AcDbEntity
  8
0
100
AcDbBlockEnd
  0
ENDSEC
  0
SECTION
  2
ENTITIES
  0
LINE
  5
44
330
1F
100
AcDbEntity
  8
0
  6
Continuous
 62
     7
370
     0
100
AcDbLine
 10
20.2604743903
 20
285.0
 30
0.0
 11
196.7604743903
 21
285.0
 31
0.0
  0
LINE
  5
45
330
1F
100
AcDbEntity
  8
0
  6
Continuous
 62
     7
370
     0
100
AcDbLine
 10
20.2604743903
 20
285.0
 30
0.0
 11
20.2604743903
 21
10.0
 31
0.0
  0
LINE
  5
46
330
1F
100
AcDbEntity
  8
0
  6
Continuous
 62
     7
370
     0
100
AcDbLine
 10
20.2604743903
 20
10.0
 30
0.0
 11
196.7604743903
 21
10.0
 31
0.0
  0
LINE
  5
47
330
1F
100
AcDbEntity
  8
0
  6
Continuous
 62
     7
370
     0
100
AcDbLine
 10
196.7604743903
 20
285.0
 30
0.0
 11
196.7604743903
 21
10.0
 31
0.0
  0
LINE
  5
48
330
1F
100
AcDbEntity
  8
0
  6
Continuous
 62
     7
370
     0
100
AcDbLine
 10
127.0104743903
 20
50.75
 30
0.0
 11
196.7604743903
 21
50.75
 31
0.0
  0
LINE
  5
49
330
1F
100
AcDbEntity
  8
0
  6
Continuous
 62
     7
370
     0
100
AcDbLine
 10
127.0104743903
 20
50.75
 30
0.0
 11
127.0104743903
 21
10.0
 31
0.0
  0
LINE
  5
4A
330
1F
100
AcDbEntity
  8
0
  6
Continuous
 62
     7
370
     0
100
AcDbLine
 10
127.0104743903
 20
22.75
 30
0.0
 11
196.7604743903
 21
22.75
 31
0.0
  0
LINE
  5
4B
330
1F
100
AcDbEntity
  8
0
  6
Continuous
 62
     7
370
     0
100
AcDbLine
 10
127.0104743903
 20
36.75
 30
0.0
 11
196.7604743903
 21
36.75
 31
0.0
  0
MTEXT
  5
4D
330
1F
100
AcDbEntity
  8
0
  6
Continuous
 62
     7
370
     0
100
AcDbMText
 10
161.0740818817
 20
30.4171582345
 30
0.0
 40
4.2333333333
 41
0.0
 71
     2
 72
     1
  1
VFIL2-SS-20-P8
  7
SLDTEXTSTYLE0
 73
     1
 44
1.0
  0
MTEXT
  5
4E
330
1F
100
AcDbEntity
  8
0
  6
Continuous
 62
     7
370
     0
100
AcDbMText
 10
161.3686533351
 20
43.9409718514
 30
0.0
 40
4.2333333333
 41
0.0
 71
     2
 72
     1
  1
吸着金具・ミニ用
  7
SLDTEXTSTYLE0
 73
     1
 44
1.0
  0
MTEXT
  5
4F
330
1F
100
AcDbEntity
  8
0
  6
Continuous
 62
     7
370
     0
100
AcDbMText
 10
162.6525210016
 20
16.8228189052
 30
0.0
 40
4.2333333333
 41
0.0
 71
     2
 72
     1
  1
211036
  7
SLDTEXTSTYLE0
 73
     1
 44
1.0
  0
LINE
  5
50
330
1F
100
AcDbEntity
  8
0
  6
Continuous
 62
     7
370
    15
100
AcDbLine
 10
65.2540903163
 20
137.4585096416
 30
0.0
 11
65.6040903163
 21
134.9585096416
 31
0.0
  0
LINE
  5
51
330
1F
100
AcDbEntity
  8
0
  6
Continuous
 62
     7
370
    15
100
AcDbLine
 10
69.6040903163
 20
134.9585096416
 30
0.0
 11
69.9540903163
 21
137.4585096416
 31
0.0
  0
LINE
  5
52
330
1F
100
AcDbEntity
  8
0
  6
Continuous
 62
     7
370
    15
100
AcDbLine
 10
65.2540903163
 20
134.9585096416
 30
0.0
 11
65.6040903163
 21
132.4585096416
 31
0.0
  0
LINE
  5
53
330
1F
100
AcDbEntity
  8
0
  6
Continuous
 62
     7
370
    15
100
AcDbLine
 10
69.6040903163
 20
132.4585096416
 30
0.0
 11
69.9540903163
 21
134.9585096416
 31
0.0
  0
LINE
  5
54
330
1F
100
AcDbEntity
  8
0
  6
Continuous
 62
     7
370
    15
100
AcDbLine
 10
69.7040903163
 20
137.4585096416
 30
0.0
 11
69.7040903163
 21
139.9585096416
 31
0.0
  0
LINE
  5
55
330
1F
100
AcDbEntity
  8
0
  6
Continuous
 62
     7
370
    15
100
AcDbLine
 10
65.5040903163
 20
139.9585096416
 30
0.0
 11
65.5040903163
 21
137.4585096416
 31
0.0
  0
LINE
  5
56
330
1F
100
AcDbEntity
  8
0
  6
Continuous
 62
     7
370
    15
100
AcDbLine
 10
63.6040903163
 20
156.0585096416
 30
0.0
 11
63.6040903163
 21
155.2585096416
 31
0.0
  0
LINE
  5
57
330
1F
100
AcDbEntity
  8
0
  6
Continuous
 62
     7
370
    15
100
AcDbLine
 10
71.6040903163
 20
155.2585096416
 30
0.0
 11
71.6040903163
 21
156.0585096416
 31
0.0
  0
LINE
  5
58
330
1F
100
AcDbEntity
  8
0
  6
Continuous
 62
     7
370
    15
100
AcDbLine
 10
63.6040903163
 20
143.2585096416
 30
0.0
 11
63.6040903163
 21
142.4585096416
 31
0.0
  0
LINE
  5
59
330
1F
100
AcDbEntity
  8
0
  6
Continuous
 62
     7
370
    15
100
AcDbLine
 10
71.6040903163
 20
142.4585096416
 30
0.0
 11
71.6040903163
 21
143.2585096416
 31
0.0
  0
LINE
  5
5A
330
1F
100
AcDbEntity
  8
0
  6
Continuous
 62
     7
370
    15
100
AcDbLine
 10
69.6290903163
 20
139.9585096416
 30
0.0
 11
69.6290903163
 21
142.4585096416
 31
0.0
  0
LINE
  5
5B
330
1F
100
AcDbEntity
  8
0
  6
Continuous
 62
     7
370
    15
100
AcDbLine
 10
65.5790903163
 20
139.9585096416
 30
0.0
 11
65.5790903162
 21
142.4585096416
 31
0.0
  0
LINE
  5
5C
330
1F
100
AcDbEntity
  8
0
  6
Continuous
 62
     7
370
    15
100
AcDbLine
 10
65.5790903162
 20
142.4585096416
 30
0.0
 11
65.6810393549
 21
142.4585096416
 31
0.0
  0
LINE
  5
5D
330
1F
100
AcDbEntity
  8
0
  6
Continuous
 62
     7
370
    15
100
AcDbLine
 10
69.5271412776
 20
142.4585096416
 30
0.0
 11
69.6290903163
 21
142.4585096416
 31
0.0
  0
LINE
  5
5E
330
1F
100
AcDbEntity
  8
0
  6
Continuous
 62
     7
370
    15
100
AcDbLine
 10
65.5790903163
 20
139.9585096416
 30
0.0
 11
69.6290903163
 21
139.9585096416
 31
0.0
  0
LINE
  5
5F
330
1F
100
AcDbEntity
  8
0
  6
Continuous
 62
     7
370
    15
100
AcDbLine
 10
63.5540903163
 20
142.4585096416
 30
0.0
 11
63.5540903163
 21
139.9585096416
 31
0.0
  0
LINE
  5
60
330
1F
100
AcDbEntity
  8
0
  6
Continuous
 62
     7
370
    15
100
AcDbLine
 10
63.5540903163
 20
142.4585096416
 30
0.0
 11
63.6050648356
 21
142.4585096416
 31
0.0
  0
LINE
  5
61
330
1F
100
AcDbEntity
  8
0
  6
Continuous
 62
     7
370
    15
100
AcDbLine
 10
65.528115797
 20
142.4585096416
 30
0.0
 11
65.5790903162
 21
142.4585096416
 31
0.0
  0
LINE
  5
62
330
1F
100
AcDbEntity
  8
0
  6
Continuous
 62
     7
370
    15
100
AcDbLine
 10
63.5540903163
 20
139.9585096416
 30
0.0
 11
65.5790903163
 21
139.9585096416
 31
0.0
  0
LINE
  5
63
330
1F
100
AcDbEntity
  8
0
  6
Continuous
 62
     7
370
    15
100
AcDbLine
 10
71.6540903163
 20
139.9585096416
 30
0.0
 11
71.6540903163
 21
142.4585096416
 31
0.0
  0
LINE
  5
64
330
1F
100
AcDbEntity
  8
0
  6
Continuous
 62
     7
370
    15
100
AcDbLine
 10
69.6290903163
 20
142.4585096416
 30
0.0
 11
69.6800648356
 21
142.4585096416
 31
0.0
  0
LINE
  5
65
330
1F
100
AcDbEntity
  8
0
  6
Continuous
 62
     7
370
    15
100
AcDbLine
 10
71.603115797
 20
142.4585096416
 30
0.0
 11
71.6540903163
 21
142.4585096416
 31
0.0
  0
LINE
  5
66
330
1F
100
AcDbEntity
  8
0
  6
Continuous
 62
     7
370
    15
100
AcDbLine
 10
69.6290903163
 20
139.9585096416
 30
0.0
 11
71.6540903163
 21
139.9585096416
 31
0.0
  0
LINE
  5
67
330
1F
100
AcDbEntity
  8
0
  6
Continuous
 62
     7
370
    15
100
AcDbLine
 10
69.9540903163
 20
137.4585096416
 30
0.0
 11
65.2540903163
 21
137.4585096416
 31
0.0
  0
LINE
  5
68
330
1F
100
AcDbEntity
  8
0
  6
Continuous
 62
     7
370
    15
100
AcDbLine
 10
69.6040903163
 20
132.4585096416
 30
0.0
 11
65.6040903163
 21
132.4585096416
 31
0.0
  0
LINE
  5
69
330
1F
100
AcDbEntity
  8
0
  6
Continuous
 62
     7
370
    15
100
AcDbLine
 10
69.9540903163
 20
134.9585096416
 30
0.0
 11
65.2540903163
 21
134.9585096416
 31
0.0
  0
CIRCLE
  5
6A
330
1F
100
AcDbEntity
  8
0
  6
Continuous
 62
     7
370
    15
100
AcDbCircle
 10
67.6040903163
 20
149.2585096416
 30
0.0
 40
3.5
  0
CIRCLE
  5
6B
330
1F
100
AcDbEntity
  8
0
  6
Continuous
 62
     7
370
    15
100
AcDbCircle
 10
67.6040903163
 20
149.2585096416
 30
0.0
 40
1.25
  0
LINE
  5
6C
330
1F
100
AcDbEntity
  8
0
  6
Continuous
 62
     7
370
    15
100
AcDbLine
 10
64.1399887011
 20
143.2585096416
 30
0.0
 11
60.675887086
 21
149.2585096416
 31
0.0
  0
LINE
  5
6D
330
1F
100
AcDbEntity
  8
0
  6
Continuous
 62
     7
370
    15
100
AcDbLine
 10
60.675887086
 20
149.2585096416
 30
0.0
 11
64.1399887011
 21
155.2585096416
 31
0.0
  0
LINE
  5
6E
330
1F
100
AcDbEntity
  8
0
  6
Continuous
 62
     7
370
    15
100
AcDbLine
 10
64.1399887011
 20
155.2585096416
 30
0.0
 11
71.0681919314
 21
155.2585096416
 31
0.0
  0
LINE
  5
6F
330
1F
100
AcDbEntity
  8
0
  6
Continuous
 62
     7
370
    15
100
AcDbLine
 10
71.0681919314
 20
155.2585096416
 30
0.0
 11
74.5322935466
 21
149.2585096416
 31
0.0
  0
LINE
  5
70
330
1F
100
AcDbEntity
  8
0
  6
Continuous
 62
     7
370
    15
100
AcDbLine
 10
74.5322935466
 20
149.2585096416
 30
0.0
 11
71.0681919314
 21
143.2585096416
 31
0.0
  0
LINE
  5
71
330
1F
100
AcDbEntity
  8
0
  6
Continuous
 62
     7
370
    15
100
AcDbLine
 10
71.0681919314
 20
143.2585096416
 30
0.0
 11
64.1399887011
 21
143.2585096416
 31
0.0
  0
LINE
  5
72
330
1F
100
AcDbEntity
  8
0
  6
Continuous
 62
     7
370
    15
100
AcDbLine
 10
65.5790903163
 20
156.0585096416
 30
0.0
 11
65.5790903163
 21
158.5585096416
 31
0.0
  0
LINE
  5
73
330
1F
100
AcDbEntity
  8
0
  6
Continuous
 62
     7
370
    15
100
AcDbLine
 10
63.5540903163
 20
156.0585096416
 30
0.0
 11
63.6050648356
 21
156.0585096416
 31
0.0
  0
LINE
  5
74
330
1F
100
AcDbEntity
  8
0
  6
Continuous
 62
     7
370
    15
100
AcDbLine
 10
65.528115797
 20
156.0585096416
 30
0.0
 11
65.5790903163
 21
156.0585096416
 31
0.0
  0
LINE
  5
75
330
1F
100
AcDbEntity
  8
0
  6
Continuous
 62
     7
370
    15
100
AcDbLine
 10
63.5540903163
 20
156.0585096416
 30
0.0
 11
63.5540903164
 21
158.5585096416
 31
0.0
  0
LINE
  5
76
330
1F
100
AcDbEntity
  8
0
  6
Continuous
 62
     7
370
    15
100
AcDbLine
 10
63.5540903164
 20
158.5585096416
 30
0.0
 11
65.5790903163
 21
158.5585096416
 31
0.0
  0
LINE
  5
77
330
1F
100
AcDbEntity
  8
0
  6
Continuous
 62
     7
370
    15
100
AcDbLine
 10
69.6290903163
 20
156.0585096416
 30
0.0
 11
69.6290903163
 21
158.5585096416
 31
0.0
  0
LINE
  5
78
330
1F
100
AcDbEntity
  8
0
  6
Continuous
 62
     7
370
    15
100
AcDbLine
 10
65.5790903163
 20
156.0585096416
 30
0.0
 11
65.6810393549
 21
156.0585096416
 31
0.0
  0
LINE
  5
79
330
1F
100
AcDbEntity
  8
0
  6
Continuous
 62
     7
370
    15
100
AcDbLine
 10
69.5271412776
 20
156.0585096416
 30
0.0
 11
69.6290903163
 21
156.0585096416
 31
0.0
  0
LINE
  5
7A
330
1F
100
AcDbEntity
  8
0
  6
Continuous
 62
     7
370
    15
100
AcDbLine
 10
65.5790903163
 20
158.5585096416
 30
0.0
 11
69.6290903163
 21
158.5585096416
 31
0.0
  0
LINE
  5
7B
330
1F
100
AcDbEntity
  8
0
  6
Continuous
 62
     7
370
    15
100
AcDbLine
 10
71.6540903163
 20
156.0585096416
 30
0.0
 11
71.6540903162
 21
158.5585096416
 31
0.0
  0
LINE
  5
7C
330
1F
100
AcDbEntity
  8
0
  6
Continuous
 62
     7
370
    15
100
AcDbLine
 10
69.6290903163
 20
156.0585096416
 30
0.0
 11
69.6800648356
 21
156.0585096416
 31
0.0
  0
LINE
  5
7D
330
1F
100
AcDbEntity
  8
0
  6
Continuous
 62
     7
370
    15
100
AcDbLine
 10
71.603115797
 20
156.0585096416
 30
0.0
 11
71.6540903163
 21
156.0585096416
 31
0.0
  0
LINE
  5
7E
330
1F
100
AcDbEntity
  8
0
  6
Continuous
 62
     7
370
    15
100
AcDbLine
 10
69.6290903163
 20
158.5585096416
 30
0.0
 11
71.6540903162
 21
158.5585096416
 31
0.0
  0
LINE
  5
7F
330
1F
100
AcDbEntity
  8
0
  6
Continuous
 62
     7
370
    15
100
AcDbLine
 10
71.603115797
 20
156.0585096416
 30
0.0
 11
69.6800648356
 21
156.0585096416
 31
0.0
  0
LINE
  5
80
330
1F
100
AcDbEntity
  8
0
  6
Continuous
 62
     7
370
    15
100
AcDbLine
 10
69.5271412776
 20
156.0585096416
 30
0.0
 11
65.6810393549
 21
156.0585096416
 31
0.0
  0
LINE
  5
81
330
1F
100
AcDbEntity
  8
0
  6
Continuous
 62
     7
370
    15
100
AcDbLine
 10
65.528115797
 20
156.0585096416
 30
0.0
 11
63.6050648356
 21
156.0585096416
 31
0.0
  0
LINE
  5
82
330
1F
100
AcDbEntity
  8
0
  6
Continuous
 62
     7
370
    15
100
AcDbLine
 10
71.6040903163
 20
155.2585096416
 30
0.0
 11
71.0681919314
 21
155.2585096416
 31
0.0
  0
LINE
  5
83
330
1F
100
AcDbEntity
  8
0
  6
Continuous
 62
     7
370
    15
100
AcDbLine
 10
64.1399887011
 20
155.2585096416
 30
0.0
 11
63.6040903163
 21
155.2585096416
 31
0.0
  0
LINE
  5
84
330
1F
100
AcDbEntity
  8
0
  6
Continuous
 62
     7
370
    15
100
AcDbLine
 10
64.6390567016
 20
142.4585096416
 30
0.0
 11
63.6050648356
 21
142.4585096416
 31
0.0
  0
LINE
  5
85
330
1F
100
AcDbEntity
  8
0
  6
Continuous
 62
     7
370
    15
100
AcDbLine
 10
71.603115797
 20
142.4585096416
 30
0.0
 11
69.6800648356
 21
142.4585096416
 31
0.0
  0
LINE
  5
86
330
1F
100
AcDbEntity
  8
0
  6
Continuous
 62
     7
370
    15
100
AcDbLine
 10
69.5271412776
 20
142.4585096416
 30
0.0
 11
65.6810393549
 21
142.4585096416
 31
0.0
  0
LINE
  5
87
330
1F
100
AcDbEntity
  8
0
  6
Continuous
 62
     7
370
    15
100
AcDbLine
 10
65.528115797
 20
142.4585096416
 30
0.0
 11
64.6390567016
 21
142.4585096416
 31
0.0
  0
LINE
  5
88
330
1F
100
AcDbEntity
  8
0
  6
Continuous
 62
     7
370
    15
100
AcDbLine
 10
64.1399887011
 20
143.2585096416
 30
0.0
 11
63.6040903163
 21
143.2585096416
 31
0.0
  0
LINE
  5
89
330
1F
100
AcDbEntity
  8
0
  6
Continuous
 62
     7
370
    15
100
AcDbLine
 10
71.6040903163
 20
143.2585096416
 30
0.0
 11
71.0681919314
 21
143.2585096416
 31
0.0
  0
DIMENSION
  5
8A
330
1F
100
AcDbEntity
  8
0
  6
Continuous
 62
     7
370
     0
100
AcDbDimension
  2
_D
 10
46.7829658796
 20
139.9585096416
 30
0.0
 11
46.7829658796
 21
149.6250044987
 31
0.0
 70
   160
  1
<>
 71
     2
 42
-1.0
  3
SLDDIMSTYLE0
100
AcDbAlignedDimension
 13
63.5540903164
 23
158.5585096416
 33
0.0
 14
63.5540903163
 24
139.9585096416
 34
0.0
 50
90.0
100
AcDbRotatedDimension
  0
DIMENSION
  5
96
330
1F
100
AcDbEntity
  8
0
  6
Continuous
 62
     7
370
     0
100
AcDbDimension
  2
_D_1
 10
55.2147691774
 20
143.2585096416
 30
0.0
 11
55.2147691774
 21
149.6250044987
 31
0.0
 70
   160
  1
<>
 71
     2
 42
-1.0
  3
SLDDIMSTYLE1
100
AcDbAlignedDimension
 13
64.1399887011
 23
155.2585096416
 33
0.0
 14
64.1399887011
 24
143.2585096416
 34
0.0
 50
90.0
100
AcDbRotatedDimension
  0
MTEXT
  5
A1
330
1F
100
AcDbEntity
  8
0
  6
Continuous
 62
     7
370
     0
100
AcDbMText
 10
36.2566836927
 20
172.4039208815
 30
0.0
 40
3.5
 41
0.0
 71
     1
 72
     1
  1
M3
  7
SLDTEXTSTYLE1
 73
     1
 44
1.0
  0
LEADER
  5
A3
330
1F
100
AcDbEntity
  8
0
  6
Continuous
 62
     7
370
     0
100
AcDbLeader
  3
SLDDIMSTYLE2
 76
     3
 10
67.0676821992
 20
150.387565146
 30
0.0
 10
43.5656934307
 20
167.7919708029
 30
0.0
 10
36.1313868613
 20
167.7919708029
 30
0.0
  0
INSERT
  5
AF
330
1F
100
AcDbEntity
  8
0
  6
Continuous
 62
     7
370
     0
100
AcDbBlockReference
  2
SW_CENTERMARKSYMBOL_0
 10
67.6040903163
 20
149.2585096416
 30
0.0
  0
LINE
  5
B0
330
1F
100
AcDbEntity
  8
0
  6
Continuous
 62
     7
370
    15
100
AcDbLine
 10
170.201459854
 20
145.7585096416
 30
0.0
 11
170.801459854
 21
145.7585096416
 31
0.0
  0
LINE
  5
B1
330
1F
100
AcDbEntity
  8
0
  6
Continuous
 62
     7
370
    15
100
AcDbLine
 10
170.801459854
 20
151.8414404894
 30
0.0
 11
170.201459854
 21
151.8414404894
 31
0.0
  0
LINE
  5
B2
330
1F
100
AcDbEntity
  8
0
  6
Continuous
 62
     7
370
    15
100
AcDbLine
 10
117.751459854
 20
137.4585096416
 30
0.0
 11
118.101459854
 21
134.9585096416
 31
0.0
  0
LINE
  5
B3
330
1F
100
AcDbEntity
  8
0
  6
Continuous
 62
     7
370
    15
100
AcDbLine
 10
122.101459854
 20
134.9585096416
 30
0.0
 11
122.451459854
 21
137.4585096416
 31
0.0
  0
LINE
  5
B4
330
1F
100
AcDbEntity
  8
0
  6
Continuous
 62
     7
370
    15
100
AcDbLine
 10
117.751459854
 20
134.9585096416
 30
0.0
 11
118.101459854
 21
132.4585096416
 31
0.0
  0
LINE
  5
B5
330
1F
100
AcDbEntity
  8
0
  6
Continuous
 62
     7
370
    15
100
AcDbLine
 10
122.101459854
 20
132.4585096416
 30
0.0
 11
122.451459854
 21
134.9585096416
 31
0.0
  0
LINE
  5
B6
330
1F
100
AcDbEntity
  8
0
  6
Continuous
 62
     7
370
    15
100
AcDbLine
 10
122.201459854
 20
137.4585096416
 30
0.0
 11
122.201459854
 21
139.9585096416
 31
0.0
  0
LINE
  5
B7
330
1F
100
AcDbEntity
  8
0
  6
Continuous
 62
     7
370
    15
100
AcDbLine
 10
118.001459854
 20
139.9585096416
 30
0.0
 11
118.001459854
 21
137.4585096416
 31
0.0
  0
LWPOLYLINE
  5
B8
330
1F
100
AcDbEntity
  8
0
  6
Continuous
 62
     7
370
    15
100
AcDbPolyline
 90
       31
 70
   128
 43
0.0
 10
124.7491919957
 20
153.2719169715
 10
124.7422045571
 20
153.2709771476
 10
124.7629365909
 20
153.2047723098
 10
124.7953148523
 20
153.1011389597
 10
124.8297288817
 20
152.9714513372
 10
124.870906838
 20
152.7884702634
 10
124.9191339529
 20
152.538892585
 10
124.974353327
 20
152.2110055101
 10
125.03651176
 20
151.7942449927
 10
125.1045943912
 20
151.2877418461
 10
125.1660711459
 20
150.7932525608
 10
125.2170424592
 20
150.3630756761
 10
125.2574434787
 20
150.012772507
 10
125.2872255526
 20
149.7508870378
 10
125.3084675304
 20
149.5628339596
 10
125.336290253
 20
149.315618303
 10
125.3736883903
 20
148.9830609735
 10
125.4206808401
 20
148.567590493
 10
125.4759313985
 20
148.0874368835
 10
125.5307462121
 20
147.6258398112
 10
125.5835936082
 20
147.2004680343
 10
125.6344925253
 20
146.8141685346
 10
125.683463425
 20
146.46858047
 10
125.7305282923
 20
146.1635223037
 10
125.8224937979
 20
145.6532621694
 10
125.9210471222
 20
145.2478736964
 10
125.9751916061
 20
145.0897019716
 10
126.0484425457
 20
144.9444138344
 10
126.1674003758
 20
144.8177583084
 10
126.3477575944
 20
144.7597751982
 10
126.3477575944
 20
144.7597751982
  0
SPLINE
  5
B9
330
1F
100
AcDbEntity
  8
0
  6
Continuous
 62
     7
370
    15
100
AcDbSpline
210
0.0
220
0.0
230
1.0
 70
     8
 71
     3
 72
    38
 73
    34
 74
     0
 42
0.00000001
 43
0.00000001
 12
1.0
 22
0.0
 32
0.0
 13
1.0
 23
0.0
 33
0.0
 40
0.0
 40
0.0
 40
0.0
 40
0.0
 40
0.0116029926432391
 40
0.0301243639732665
 40
0.065365040735795
 40
0.1003244253532798
 40
0.134929268365473
 40
0.1705416722091498
 40
0.2091297807560246
 40
0.2506957847414089
 40
0.2952174408438056
 40
0.3426408377490796
 40
0.3857048139158219
 40
0.4193735483563852
 40
0.4365781906397447
 40
0.4495782264592647
 40
0.4596891573235397
 40
0.4812695997719729
 40
0.5119598990610368
 40
0.5517942892679897
 40
0.6008151374254821
 40
0.6567062583310809
 40
0.7094186325292848
 40
0.7578576320863252
 40
0.8020355595370366
 40
0.8419248747689811
 40
0.8774405861114735
 40
0.907166316540745
 40
0.9304904509867318
 40
0.9473581590406945
 40
0.9578108924983146
 40
0.9764905101994308
 40
0.9999999999999999
 40
0.9999999999999999
 40
0.9999999999999999
 40
0.9999999999999999
 10
127.737969683461
 20
153.2795513171874
 30
0.0
 10
127.7363537990774
 20
153.2793365716929
 30
0.0
 10
127.7321585461106
 20
153.278779036957
 30
0.0
 10
127.753638908922
 20
153.2339550087051
 30
0.0
 10
127.7864031450102
 20
153.1369947599344
 30
0.0
 10
127.8311271860379
 20
152.9722102758917
 30
0.0
 10
127.8791069377734
 20
152.7551459710918
 30
0.0
 10
127.930190689354
 20
152.4834187582515
 30
0.0
 10
127.9846471296301
 20
152.151959525801
 30
0.0
 10
128.0436559857389
 20
151.749862259871
 30
0.0
 10
128.1070629578726
 20
151.2748163291202
 30
0.0
 10
128.171349476251
 20
150.7541767351642
 30
0.0
 10
128.2304301815645
 20
150.2500392752817
 30
0.0
 10
128.2751201896383
 20
149.8582508271071
 30
0.0
 10
128.3055041980568
 20
149.5892286731628
 30
0.0
 10
128.3246871401172
 20
149.4187847911842
 30
0.0
 10
128.3459546076308
 20
149.2295661514407
 30
0.0
 10
128.3756525946892
 20
148.9652316638652
 30
0.0
 10
128.4195326120717
 20
148.5764077345257
 30
0.0
 10
128.4765017338457
 20
148.0794024692046
 30
0.0
 10
128.5454996395389
 20
147.4984341405242
 30
0.0
 10
128.6206930455293
 20
146.9063007038481
 30
0.0
 10
128.6961104275789
 20
146.372939884704
 30
0.0
 10
128.7666382292806
 20
145.93965554882
 30
0.0
 10
128.83221037092
 20
145.599300217715
 30
0.0
 10
128.8933078131875
 20
145.3403201295914
 30
0.0
 10
128.9500001331235
 20
145.1522419429443
 30
0.0
 10
129.0008499954172
 20
145.0250136168246
 30
0.0
 10
129.0451669904612
 20
144.9433653669088
 30
0.0
 10
129.081136657459
 20
144.8933274274803
 30
0.0
 10
129.1240286237074
 20
144.8470797020249
 30
0.0
 10
129.2056935231936
 20
144.7803078496704
 30
0.0
 10
129.2966607923129
 20
144.7672375600349
 30
0.0
 10
129.3473514613549
 20
144.7599542620683
 30
0.0
  0
SPLINE
  5
BA
330
1F
100
AcDbEntity
  8
0
  6
Continuous
 62
     7
370
    15
100
AcDbSpline
210
0.0
220
0.0
230
1.0
 70
     8
 71
     3
 72
    35
 73
    31
 74
     0
 42
0.00000001
 43
0.00000001
 12
1.0
 22
0.0
 32
0.0
 13
1.0
 23
0.0
 33
0.0
 40
0.0
 40
0.0
 40
0.0
 40
0.0
 40
0.0085121100829564
 40
0.0279630385308779
 40
0.054536996970078
 40
0.0881428452223306
 40
0.1264792800612851
 40
0.168819071273664
 40
0.2151982336598242
 40
0.2656078194585536
 40
0.3199756519331809
 40
0.3714519785972451
 40
0.4141349278433311
 40
0.4479613469677007
 40
0.4728841150345563
 40
0.4892418721464344
 40
0.5089219141318514
 40
0.537697900790689
 40
0.5755987225635435
 40
0.6215027006050214
 40
0.6664347853108727
 40
0.7084820724520798
 40
0.7600649451619139
 40
0.8066383113724258
 40
0.8515302484488976
 40
0.8854873595857642
 40
0.9198232676716326
 40
0.9571776837178108
 40
0.9778834133540123
 40
1.0
 40
1.0
 40
1.0
 40
1.0
 10
130.7233651594855
 20
153.3006150618322
 30
0.0
 10
130.7234443890456
 20
153.3000548570078
 30
0.0
 10
130.723704665196
 20
153.2982145343456
 30
0.0
 10
130.740662692768
 20
153.2675461872323
 30
0.0
 10
130.7673883053861
 20
153.1992101479646
 30
0.0
 10
130.8072206791988
 20
153.0705049946481
 30
0.0
 10
130.8566803669613
 20
152.8672158388169
 30
0.0
 10
130.9146982347107
 20
152.5757603120477
 30
0.0
 10
130.9799512944837
 20
152.1865564003448
 30
0.0
 10
131.0519438039278
 20
151.6935321697015
 30
0.0
 10
131.127051893571
 20
151.1187332406064
 30
0.0
 10
131.1986029465205
 20
150.5251207227272
 30
0.0
 10
131.2601966857292
 20
149.9905547879534
 30
0.0
 10
131.3090131536106
 20
149.5584388032195
 30
0.0
 10
131.3451707608741
 20
149.2364945850355
 30
0.0
 10
131.3745235410684
 20
148.975304069945
 30
0.0
 10
131.405742203492
 20
148.6984062825958
 30
0.0
 10
131.4473629103475
 20
148.3325130874119
 30
0.0
 10
131.5016300432869
 20
147.8653669368955
 30
0.0
 10
131.5636725295649
 20
147.3527571595838
 30
0.0
 10
131.6278054995843
 20
146.8568730416755
 30
0.0
 10
131.6948654443101
 20
146.3819931520598
 30
0.0
 10
131.7631732132721
 20
145.9563938150032
 30
0.0
 10
131.8331182804903
 20
145.5911264560586
 30
0.0
 10
131.8964026815212
 20
145.3230077598789
 30
0.0
 10
131.9608998512921
 20
145.1190897146897
 30
0.0
 10
132.0217161938451
 20
144.9738591703915
 30
0.0
 10
132.1086877943285
 20
144.8532382775764
 30
0.0
 10
132.2268989635293
 20
144.7736984370328
 30
0.0
 10
132.3062993291678
 20
144.7646072789085
 30
0.0
 10
132.3473075047833
 20
144.759911937698
 30
0.0
  0
SPLINE
  5
BB
330
1F
100
AcDbEntity
  8
0
  6
Continuous
 62
     7
370
    15
100
AcDbSpline
210
0.0
220
0.0
230
1.0
 70
     8
 71
     3
 72
    12
 73
     8
 74
     0
 42
0.00000001
 43
0.00000001
 12
1.0
 22
0.0
 32
0.0
 13
1.0
 23
0.0
 33
0.0
 40
0.0
 40
0.0
 40
0.0
 40
0.0
 40
0.1025291646924126
 40
0.3410469958129632
 40
0.5609686983907088
 40
0.8252093415656679
 40
1.0
 40
1.0
 40
1.0
 40
1.0
 10
132.5411334028538
 20
146.7585096416119
 30
0.0
 10
132.5341752404447
 20
146.7078559993288
 30
0.0
 10
132.5110300173943
 20
146.5393646965913
 30
0.0
 10
132.473265862596
 20
146.2935914312761
 30
0.0
 10
132.4250679846313
 20
146.0039658470936
 30
0.0
 10
132.3815510400738
 20
145.7704611469768
 30
0.0
 10
132.3534990517155
 20
145.6474534331952
 30
0.0
 10
132.342330769414
 20
145.5984806168935
 30
0.0
  0
SPLINE
  5
BC
330
1F
100
AcDbEntity
  8
0
  6
Continuous
 62
     7
370
    15
100
AcDbSpline
210
0.0
220
0.0
230
1.0
 70
     8
 71
     3
 72
    18
 73
    14
 74
     0
 42
0.00000001
 43
0.00000001
 12
1.0
 22
0.0
 32
0.0
 13
1.0
 23
0.0
 33
0.0
 40
0.0
 40
0.0
 40
0.0
 40
0.0
 40
0.0784375959930453
 40
0.1741025988418148
 40
0.2804901234970456
 40
0.3716690897739341
 40
0.4475150798486311
 40
0.5301131441142846
 40
0.6264241657176864
 40
0.7364421210753869
 40
0.8601703567969379
 40
0.9975426067554505
 40
1.0
 40
1.0
 40
1.0
 40
1.0
 10
130.8470873370584
 20
153.7584530033161
 30
0.0
 10
130.7968781718346
 20
153.7502756393089
 30
0.0
 10
130.685432301516
 20
153.7321249004021
 30
0.0
 10
130.5832838306961
 20
153.6312089613709
 30
0.0
 10
130.5053872604939
 20
153.5073371181169
 30
0.0
 10
130.4476841935181
 20
153.3589956724505
 30
0.0
 10
130.4054324907506
 20
153.2198358062231
 30
0.0
 10
130.3638895573767
 20
153.0584454937336
 30
0.0
 10
130.317339939329
 20
152.845367801764
 30
0.0
 10
130.2647883568463
 20
152.5657261666471
 30
0.0
 10
130.2061442666975
 20
152.2032623273339
 30
0.0
 10
130.1646721773576
 20
151.9278018079873
 30
0.0
 10
130.1427224930538
 20
151.7614334316942
 30
0.0
 10
130.1423367450487
 20
151.7585096416119
 30
0.0
  0
SPLINE
  5
BD
330
1F
100
AcDbEntity
  8
0
  6
Continuous
 62
     7
370
    15
100
AcDbSpline
210
0.0
220
0.0
230
1.0
 70
     8
 71
     3
 72
    12
 73
     8
 74
     0
 42
0.00000001
 43
0.00000001
 12
1.0
 22
0.0
 32
0.0
 13
1.0
 23
0.0
 33
0.0
 40
0.0
 40
0.0
 40
0.0
 40
0.0
 40
0.21445188266853
 40
0.4609572101963503
 40
0.7050438718890794
 40
0.9439497451795933
 40
1.0
 40
1.0
 40
1.0
 40
1.0
 10
129.5413441707921
 20
146.7585096416119
 30
0.0
 10
129.5267352897604
 20
146.6555944897088
 30
0.0
 10
129.495333984439
 20
146.4343817835398
 30
0.0
 10
129.4473137062739
 20
146.1342125748432
 30
0.0
 10
129.3984781339391
 20
145.8629783858722
 30
0.0
 10
129.3628111831006
 20
145.6842555693862
 30
0.0
 10
129.3445967299266
 20
145.6102987092553
 30
0.0
 10
129.3411354533348
 20
145.5962447518665
 30
0.0
  0
SPLINE
  5
BE
330
1F
100
AcDbEntity
  8
0
  6
Continuous
 62
     7
370
    15
100
AcDbSpline
210
0.0
220
0.0
230
1.0
 70
     8
 71
     3
 72
    13
 73
     9
 74
     0
 42
0.00000001
 43
0.00000001
 12
1.0
 22
0.0
 32
0.0
 13
1.0
 23
0.0
 33
0.0
 40
0.0
 40
0.0
 40
0.0
 40
0.0
 40
0.1188520983452837
 40
0.2310812535659859
 40
0.4366026556648173
 40
0.6281548252302098
 40
0.8175000869726863
 40
1.0
 40
1.0
 40
1.0
 40
1.0
 10
127.8468408374204
 20
153.7583260685252
 30
0.0
 10
127.8067233767454
 20
153.7537747966651
 30
0.0
 10
127.7287239704941
 20
153.7449258691208
 30
0.0
 10
127.611919142586
 20
153.6671223000914
 30
0.0
 10
127.5250249523638
 20
153.5483893878035
 30
0.0
 10
127.4637370560318
 20
153.4033538255628
 30
0.0
 10
127.4054319689292
 20
153.2268757390186
 30
0.0
 10
127.3717792316288
 20
153.0803995070804
 30
0.0
 10
127.3552626219021
 20
153.0085096416119
 30
0.0
  0
SPLINE
  5
BF
330
1F
100
AcDbEntity
  8
0
  6
Continuous
 62
     7
370
    15
100
AcDbSpline
210
0.0
220
0.0
230
1.0
 70
     8
 71
     3
 72
    16
 73
    12
 74
     0
 42
0.00000001
 43
0.00000001
 12
1.0
 22
0.0
 32
0.0
 13
1.0
 23
0.0
 33
0.0
 40
0.0
 40
0.0
 40
0.0
 40
0.0
 40
0.1501243271048535
 40
0.1935270491105532
 40
0.2337920194006955
 40
0.2890526295290867
 40
0.3951068016574666
 40
0.5526031854080078
 40
0.760959148102664
 40
0.9501444796937772
 40
1.0
 40
1.0
 40
1.0
 40
1.0
 10
124.8472564467778
 20
153.75796865834
 30
0.0
 10
124.787508121603
 20
153.7478224073283
 30
0.0
 10
124.7104858475761
 20
153.7347427549117
 30
0.0
 10
124.6477241553042
 20
153.6892691403704
 30
0.0
 10
124.6161762620575
 20
153.6620746875346
 30
0.0
 10
124.5861513579118
 20
153.6291039323737
 30
0.0
 10
124.5466611396021
 20
153.5727996688239
 30
0.0
 10
124.4925550005169
 20
153.4662391089113
 30
0.0
 10
124.4332312059052
 20
153.2981897053156
 30
0.0
 10
124.3869841474278
 20
153.1395390500695
 30
0.0
 10
124.3633505019687
 20
153.0311216920307
 30
0.0
 10
124.3584213541609
 20
153.0085096416119
 30
0.0
  0
SPLINE
  5
C0
330
1F
100
AcDbEntity
  8
0
  6
Continuous
 62
     7
370
    15
100
AcDbSpline
210
0.0
220
0.0
230
1.0
 70
     8
 71
     3
 72
    15
 73
    11
 74
     0
 42
0.00000001
 43
0.00000001
 12
1.0
 22
0.0
 32
0.0
 13
1.0
 23
0.0
 33
0.0
 40
0.0
 40
0.0
 40
0.0
 40
0.0
 40
0.1286168853791826
 40
0.2302206043005876
 40
0.2881319736050428
 40
0.3843349916286635
 40
0.519085356358159
 40
0.6920907682443662
 40
0.898236321624562
 40
1.0
 40
1.0
 40
1.0
 40
1.0
 10
126.3361870334132
 20
144.7597850326054
 30
0.0
 10
126.3869156380465
 20
144.7669518553681
 30
0.0
 10
126.4777184123446
 20
144.7797802663693
 30
0.0
 10
126.5602656326553
 20
144.8472003049937
 30
0.0
 10
126.6036109120478
 20
144.894234598641
 30
0.0
 10
126.6407279927398
 20
144.9467285696908
 30
0.0
 10
126.6873131149026
 20
145.0350137083631
 30
0.0
 10
126.7409812509268
 20
145.1769021956732
 30
0.0
 10
126.7887133115438
 20
145.3348314584635
 30
0.0
 10
126.8175156675781
 20
145.4653675877107
 30
0.0
 10
126.8270348160597
 20
145.5085096416119
 30
0.0
  0
SPLINE
  5
C1
330
1F
100
AcDbEntity
  8
0
  6
Continuous
 62
     7
370
    15
100
AcDbSpline
210
0.0
220
0.0
230
1.0
 70
     8
 71
     3
 72
    17
 73
    13
 74
     0
 42
0.00000001
 43
0.00000001
 12
1.0
 22
0.0
 32
0.0
 13
1.0
 23
0.0
 33
0.0
 40
0.0
 40
0.0
 40
0.0
 40
0.0
 40
0.0834080930995695
 40
0.1888898246018738
 40
0.3078815486909156
 40
0.4074801020637722
 40
0.4873530364594042
 40
0.5733904034359616
 40
0.6736739728809572
 40
0.7881152692043601
 40
0.9166386364882396
 40
1.0
 40
1.0
 40
1.0
 40
1.0
 10
129.3357915863974
 20
144.7599657226893
 30
0.0
 10
129.3870682993294
 20
144.768348778206
 30
0.0
 10
129.50319191458
 20
144.7873334333796
 30
0.0
 10
129.6089603088264
 20
144.8961559761457
 30
0.0
 10
129.6920825963763
 20
145.0374329696951
 30
0.0
 10
129.7530791310474
 20
145.2095756834869
 30
0.0
 10
129.7973009117914
 20
145.3691741657129
 30
0.0
 10
129.8401985130018
 20
145.5503390355295
 30
0.0
 10
129.8882503663819
 20
145.7858570207539
 30
0.0
 10
129.9425956692225
 20
146.0940012132623
 30
0.0
 10
129.9940635798758
 20
146.4197555123272
 30
0.0
 10
130.0273266557586
 20
146.6628639864893
 30
0.0
 10
130.0404132776675
 20
146.7585096416119
 30
0.0
  0
SPLINE
  5
C2
330
1F
100
AcDbEntity
  8
0
  6
Continuous
 62
     7
370
    15
100
AcDbSpline
210
0.0
220
0.0
230
1.0
 70
     8
 71
     3
 72
    11
 73
     7
 74
     0
 42
0.00000001
 43
0.00000001
 12
1.0
 22
0.0
 32
0.0
 13
1.0
 23
0.0
 33
0.0
 40
0.0
 40
0.0
 40
0.0
 40
0.0
 40
0.0712293573333077
 40
0.298814007449429
 40
0.7308934045929395
 40
1.0
 40
1.0
 40
1.0
 40
1.0
 10
130.6423350934844
 20
151.7585096416119
 30
0.0
 10
130.6472285792105
 20
151.7942025958315
 30
0.0
 10
130.6677572226652
 20
151.9439379730323
 30
0.0
 10
130.7176189972914
 20
152.2712557242331
 30
0.0
 10
130.7821685778663
 20
152.6588996485359
 30
0.0
 10
130.8263639250438
 20
152.843676035103
 30
0.0
 10
130.8433255579601
 20
152.9145909490189
 30
0.0
  0
SPLINE
  5
C3
330
1F
100
AcDbEntity
  8
0
  6
Continuous
 62
     7
370
    15
100
AcDbSpline
210
0.0
220
0.0
230
1.0
 70
     8
 71
     3
 72
    19
 73
    15
 74
     0
 42
0.00000001
 43
0.00000001
 12
1.0
 22
0.0
 32
0.0
 13
1.0
 23
0.0
 33
0.0
 40
0.0
 40
0.0
 40
0.0
 40
0.0
 40
0.0690443254876616
 40
0.130515817243165
 40
0.2085023614798866
 40
0.2706034792450482
 40
0.3346871270686395
 40
0.417923418436529
 40
0.5079269883851493
 40
0.6129297601111249
 40
0.7328244498211918
 40
0.8324550764667449
 40
0.9403265959116416
 40
1.0
 40
1.0
 40
1.0
 40
1.0
 10
132.33575930246
 20
144.7599088890629
 30
0.0
 10
132.3751318904201
 20
144.7641845862097
 30
0.0
 10
132.4495586511752
 20
144.772267018813
 30
0.0
 10
132.550840664344
 20
144.8365044343275
 30
0.0
 10
132.6274732588297
 20
144.9231485820785
 30
0.0
 10
132.6780672391835
 20
145.0154813144017
 30
0.0
 10
132.7156230188708
 20
145.1044631812014
 30
0.0
 10
132.7581400667588
 20
145.2291721086638
 30
0.0
 10
132.805081337902
 20
145.4009586316644
 30
0.0
 10
132.8571210393607
 20
145.630119410197
 30
0.0
 10
132.9096959291412
 20
145.9044557043577
 30
0.0
 10
132.9621610157723
 20
146.2181805961362
 30
0.0
 10
133.00472190971
 20
146.4954193054572
 30
0.0
 10
133.0312276388914
 20
146.6894153211606
 30
0.0
 10
133.0406680149693
 20
146.7585096416119
 30
0.0
  0
SPLINE
  5
C4
330
1F
100
AcDbEntity
  8
0
  6
Continuous
 62
     7
370
    15
100
AcDbSpline
210
0.0
220
0.0
230
1.0
 70
     8
 71
     3
 72
    37
 73
    33
 74
     0
 42
0.00000001
 43
0.00000001
 12
1.0
 22
0.0
 32
0.0
 13
1.0
 23
0.0
 33
0.0
 40
0.0
 40
0.0
 40
0.0
 40
0.0
 40
0.0230608209887279
 40
0.0580182188805382
 40
0.0927703260242722
 40
0.1272209196522464
 40
0.1626739147953969
 40
0.2010620502902656
 40
0.2424046985862672
 40
0.2867345676368221
 40
0.3339873060588346
 40
0.3768706687157271
 40
0.4103772548667028
 40
0.427502583156326
 40
0.4404489209144432
 40
0.45051573728619
 40
0.4720035577027957
 40
0.5025806526804877
 40
0.5422591116847402
 40
0.5910382496430793
 40
0.6467237534291231
 40
0.6996747348782071
 40
0.748747753507961
 40
0.7939309636571936
 40
0.8352540070595303
 40
0.8726416225241984
 40
0.9040374677301058
 40
0.9285446950462266
 40
0.9461002341135205
 40
0.9567522701715203
 40
0.9757311144062883
 40
0.9999999999999999
 40
0.9999999999999999
 40
0.9999999999999999
 40
0.9999999999999999
 10
132.4406573847756
 20
145.241259107216
 30
0.0
 10
132.4424714614378
 20
145.2428666751038
 30
0.0
 10
132.4470354575291
 20
145.2469111202526
 30
0.0
 10
132.4065631114468
 20
145.3439928535363
 30
0.0
 10
132.3671093230138
 20
145.4885060704839
 30
0.0
 10
132.3190640201527
 20
145.6915968050135
 30
0.0
 10
132.2684380435781
 20
145.948849973958
 30
0.0
 10
132.2141165568864
 20
146.2662644916426
 30
0.0
 10
132.1552046857061
 20
146.6566973266835
 30
0.0
 10
132.0918867806492
 20
147.1222457559668
 30
0.0
 10
132.0276998143317
 20
147.634121964683
 30
0.0
 10
131.9686344535395
 20
148.1321744057492
 30
0.0
 10
131.9239312124569
 20
148.5210659994841
 30
0.0
 10
131.8935468978422
 20
148.7888717111314
 30
0.0
 10
131.8743654752989
 20
148.9588361944895
 30
0.0
 10
131.8531027747458
 20
149.1477528032104
 30
0.0
 10
131.8234187574751
 20
149.4120847591996
 30
0.0
 10
131.7795852477254
 20
149.8018714639037
 30
0.0
 10
131.7226847617144
 20
150.3019566222262
 30
0.0
 10
131.6536737580372
 20
150.8897690632787
 30
0.0
 10
131.5782404219707
 20
151.4924325410407
 30
0.0
 10
131.5023500358387
 20
152.0418083980412
 30
0.0
 10
131.4307576278252
 20
152.497201268199
 30
0.0
 10
131.3634761361074
 20
152.8601008799185
 30
0.0
 10
131.3000685663231
 20
153.1381682870907
 30
0.0
 10
131.2408247219562
 20
153.3413017738292
 30
0.0
 10
131.1875857526122
 20
153.4796126370982
 30
0.0
 10
131.1413732075259
 20
153.5680801442166
 30
0.0
 10
131.1044088236981
 20
153.621287829105
 30
0.0
 10
131.0607525218462
 20
153.6696191892367
 30
0.0
 10
130.9774883812533
 20
153.7383235620681
 30
0.0
 10
130.8865918946231
 20
153.7512046528573
 30
0.0
 10
130.8355844442056
 20
153.7584330026441
 30
0.0
  0
SPLINE
  5
C5
330
1F
100
AcDbEntity
  8
0
  6
Continuous
 62
     7
370
    15
100
AcDbSpline
210
0.0
220
0.0
230
1.0
 70
     8
 71
     3
 72
    36
 73
    32
 74
     0
 42
0.00000001
 43
0.00000001
 12
1.0
 22
0.0
 32
0.0
 13
1.0
 23
0.0
 33
0.0
 40
0.0
 40
0.0
 40
0.0
 40
0.0
 40
0.0074922817493976
 40
0.0260058519850031
 40
0.0510713480919005
 40
0.0826476197847432
 40
0.119147481513763
 40
0.1600700801395696
 40
0.205398472840577
 40
0.2551039720972227
 40
0.3092051461241326
 40
0.3606670704489155
 40
0.4033046878492894
 40
0.4370750537671549
 40
0.4619654219677145
 40
0.4783104927088507
 40
0.4979682817239789
 40
0.5267293007107108
 40
0.56460297750202
 40
0.6104346676949165
 40
0.6552871102549783
 40
0.6972992658201237
 40
0.7488518068691563
 40
0.7953378524531658
 40
0.8400823436986163
 40
0.8738944329143165
 40
0.9080910861744098
 40
0.9270579200143485
 40
0.9485950866673885
 40
0.9729045834805125
 40
1.0
 40
1.0
 40
1.0
 40
1.0
 10
129.4614655638137
 20
145.2151977073658
 30
0.0
 10
129.461483384165
 20
145.2154093836745
 30
0.0
 10
129.4615452389419
 20
145.2161441161547
 30
0.0
 10
129.4460692560141
 20
145.2424668166651
 30
0.0
 10
129.421377078087
 20
145.3026530244038
 30
0.0
 10
129.384073197418
 20
145.4188746957144
 30
0.0
 10
129.3371197342533
 20
145.6054462785251
 30
0.0
 10
129.2812550146241
 20
145.8756276073323
 30
0.0
 10
129.2175744576132
 20
146.241270810016
 30
0.0
 10
129.1464746639178
 20
146.7142598217341
 30
0.0
 10
129.0718131430173
 20
147.2759404150594
 30
0.0
 10
129.0004728652493
 20
147.8600834829742
 30
0.0
 10
128.9388868132512
 20
148.3895428231272
 30
0.0
 10
128.8900508817649
 20
148.8194633327492
 30
0.0
 10
128.853888898837
 20
149.1407878484714
 30
0.0
 10
128.8245407553916
 20
149.4020323188173
 30
0.0
 10
128.7933332019815
 20
149.6795218941168
 30
0.0
 10
128.7517502193183
 20
150.0471050111788
 30
0.0
 10
128.6975337224692
 20
150.5182451179708
 30
0.0
 10
128.6354942629383
 20
151.0377992716005
 30
0.0
 10
128.5713579697089
 20
151.5418302345956
 30
0.0
 10
128.5043992044268
 20
152.0264971914374
 30
0.0
 10
128.4363319113678
 20
152.4659072812356
 30
0.0
 10
128.3666062961336
 20
152.8481756684583
 30
0.0
 10
128.304096097603
 20
153.1279132096411
 30
0.0
 10
128.2424406079581
 20
153.3398133569104
 30
0.0
 10
128.1952901918048
 20
153.465823167903
 30
0.0
 10
128.1388777184008
 20
153.5736576618955
 30
0.0
 10
128.0707504559743
 20
153.6611219968451
 30
0.0
 10
127.970528791934
 20
153.7401532672602
 30
0.0
 10
127.8819740717799
 20
153.7520495587319
 30
0.0
 10
127.8352970739642
 20
153.7583200677468
 30
0.0
  0
LWPOLYLINE
  5
C6
330
1F
100
AcDbEntity
  8
0
  6
Continuous
 62
     7
370
    15
100
AcDbPolyline
 90
       31
 70
   128
 43
0.0
 10
126.4421516937
 20
145.2372830336
 10
126.4463605663
 20
145.2362423699
 10
126.4332956345
 20
145.2778193802
 10
126.4061789467
 20
145.3561129408
 10
126.3741804079
 20
145.4655527784
 10
126.3353212892
 20
145.6238790171
 10
126.289488948
 20
145.8434255342
 10
126.2367699208
 20
146.1359922773
 10
126.1772438708
 20
146.5128189288
 10
126.1109836402
 20
146.9837045672
 10
126.0453387569
 20
147.4950225663
 10
125.9875837706
 20
147.9732927466
 10
125.9377817263
 20
148.4011866358
 10
125.8959844234
 20
148.7677887824
 10
125.8622324157
 20
149.0668258087
 10
125.8351977838
 20
149.3072345397
 10
125.7923121411
 20
149.6882365256
 10
125.7380422522
 20
150.165539154
 10
125.6741615516
 20
150.7126606272
 10
125.6248020913
 20
151.1185305182
 10
125.5747051716
 20
151.5102367201
 10
125.5238344298
 20
151.8827899215
 10
125.472148448
 20
152.2316723011
 10
125.4024571303
 20
152.6484420627
 10
125.3331241278
 20
152.9939078622
 10
125.2626997787
 20
153.267645552
 10
125.2076573517
 20
153.4280802775
 10
125.1342782765
 20
153.573438184
 10
125.0155064625
 20
153.6999628622
 10
124.8357031677
 20
153.7579903643
 10
124.8357031677
 20
153.7579903643
  0
LWPOLYLINE
  5
C7
330
1F
100
AcDbEntity
  8
0
  6
Continuous
 62
     7
370
    15
100
AcDbPolyline
 90
       31
 70
   128
 43
0.0
 10
133.7475275659
 20
153.2737370139
 10
133.7408691593
 20
153.2734843709
 10
133.7601594876
 20
153.2121995423
 10
133.7916839566
 20
153.1133099124
 10
133.8259092553
 20
152.9868551894
 10
133.8669712022
 20
152.807391472
 10
133.915116253
 20
152.5612719782
 10
133.9702800903
 20
152.2366893574
 10
134.0324028547
 20
151.8230932679
 10
134.1004637246
 20
151.3197172381
 10
134.1619268051
 20
150.8275868509
 10
134.2128897187
 20
150.3987675671
 10
134.2532859888
 20
150.049181427
 10
134.2830657915
 20
149.7876319064
 10
134.3043063453
 20
149.5997269081
 10
134.3321266574
 20
149.3526020902
 10
134.3695218337
 20
149.0199819565
 10
134.4165105688
 20
148.6041765303
 10
134.4717731098
 20
148.1231316294
 10
134.5267204778
 20
147.6592041453
 10
134.5798398545
 20
147.2300561029
 10
134.6311509518
 20
146.838755779
 10
134.680675125
 20
146.487341512
 10
134.7284353723
 20
146.176335632
 10
134.8218131823
 20
145.6567492302
 10
134.9210043957
 20
145.2481283493
 10
134.9751620743
 20
145.089590506
 10
135.0483753519
 20
144.9442897476
 10
135.1673458104
 20
144.817718963
 10
135.3477664248
 20
144.7599165999
 10
135.3477664248
 20
144.7599165999
  0
SPLINE
  5
C8
330
1F
100
AcDbEntity
  8
0
  6
Continuous
 62
     7
370
    15
100
AcDbSpline
210
0.0
220
0.0
230
1.0
 70
     8
 71
     3
 72
    38
 73
    34
 74
     0
 42
0.00000001
 43
0.00000001
 12
1.0
 22
0.0
 32
0.0
 13
1.0
 23
0.0
 33
0.0
 40
0.0
 40
0.0
 40
0.0
 40
0.0
 40
0.0098090761178851
 40
0.0281534862068633
 40
0.0633393190318843
 40
0.0982597451744014
 40
0.1328276265775182
 40
0.1683957461137312
 40
0.2069395724317342
 40
0.2484684274956377
 40
0.2929581649082882
 40
0.3403375338176206
 40
0.3833576010420492
 40
0.4169977769574919
 40
0.4341905421298304
 40
0.4471827710735494
 40
0.4572868486169194
 40
0.4788513201004211
 40
0.5095159824888038
 40
0.5493068770766466
 40
0.598275778027716
 40
0.654144022946234
 40
0.7069458965001026
 40
0.7555824904329008
 40
0.8000884453665849
 40
0.8404414347626175
 40
0.8765426954640705
 40
0.9067737094738555
 40
0.9304418422934847
 40
0.9474945215311148
 40
0.9579743942902118
 40
0.976580721292332
 40
1.0
 40
1.0
 40
1.0
 40
1.0
 10
136.7371982492551
 20
153.281167227919
 30
0.0
 10
136.7356402267381
 20
153.281192473299
 30
0.0
 10
136.7311684737499
 20
153.2812649312399
 30
0.0
 10
136.7514961583164
 20
153.2398959829483
 30
0.0
 10
136.7830114253975
 20
153.1477007213465
 30
0.0
 10
136.8273286944822
 20
152.987404283739
 30
0.0
 10
136.8751073711639
 20
152.7748541688056
 30
0.0
 10
136.9261519461802
 20
152.5066664773834
 30
0.0
 10
136.9805571506881
 20
152.1784264210394
 30
0.0
 10
137.0395351515908
 20
151.7792369074019
 30
0.0
 10
137.1029063803277
 20
151.3070137941639
 30
0.0
 10
137.1671866914515
 20
150.7889137604043
 30
0.0
 10
137.2262719200574
 20
150.2861329538962
 30
0.0
 10
137.2709575840438
 20
149.8949968341379
 30
0.0
 10
137.3013391796799
 20
149.6262146104569
 30
0.0
 10
137.3205213072634
 20
149.4558451409838
 30
0.0
 10
137.3417868503388
 20
149.2666586296837
 30
0.0
 10
137.3714782159448
 20
149.0022959159334
 30
0.0
 10
137.4153455913181
 20
148.6131755654228
 30
0.0
 10
137.4723134365443
 20
148.1153502813087
 30
0.0
 10
137.541315256541
 20
147.5327732187449
 30
0.0
 10
137.6165519559971
 20
146.9377251020479
 30
0.0
 10
137.692120441113
 20
146.3992362577873
 30
0.0
 10
137.7629972047472
 20
145.9601784648453
 30
0.0
 10
137.8290771755931
 20
145.6142198271686
 30
0.0
 10
137.8908614158718
 20
145.3498432552872
 30
0.0
 10
137.9483191032014
 20
145.1573110103863
 30
0.0
 10
137.9998849604484
 20
145.0268595437729
 30
0.0
 10
138.0447513212107
 20
144.9437225627081
 30
0.0
 10
138.0809861417937
 20
144.8932409794746
 30
0.0
 10
138.123920859629
 20
144.8469787662823
 30
0.0
 10
138.205674438457
 20
144.780210943291
 30
0.0
 10
138.296564313826
 20
144.7672075624506
 30
0.0
 10
138.3472137997055
 20
144.7599612706982
 30
0.0
  0
SPLINE
  5
C9
330
1F
100
AcDbEntity
  8
0
  6
Continuous
 62
     7
370
    15
100
AcDbSpline
210
0.0
220
0.0
230
1.0
 70
     8
 71
     3
 72
    37
 73
    33
 74
     0
 42
0.00000001
 43
0.00000001
 12
1.0
 22
0.0
 32
0.0
 13
1.0
 23
0.0
 33
0.0
 40
0.0
 40
0.0
 40
0.0
 40
0.0
 40
0.0025502391996287
 40
0.0178569956249472
 40
0.0392385854569877
 40
0.0667722286845932
 40
0.1000233680254477
 40
0.1370698597647383
 40
0.1777159324465105
 40
0.2219896400288767
 40
0.2698993311678973
 40
0.3214017644712463
 40
0.3725486083512855
 40
0.4161388683690585
 40
0.4519877281731638
 40
0.4800492926945097
 40
0.5002942910337154
 40
0.5150536887372973
 40
0.5361466418261016
 40
0.5652157005423845
 40
0.6022833655053585
 40
0.6464364584153445
 40
0.6901504017062267
 40
0.7317855006417228
 40
0.7713403407890946
 40
0.8088397070474502
 40
0.8443130857914176
 40
0.8845573460884576
 40
0.9088194185189115
 40
0.9360999016120937
 40
0.9665136443116767
 40
1.0
 40
1.0
 40
1.0
 40
1.0
 10
139.7226299354813
 20
153.3019408360744
 30
0.0
 10
139.7223026525048
 20
153.3021623934819
 30
0.0
 10
139.7200109887738
 20
153.3037137576274
 30
0.0
 10
139.7309320877078
 20
153.2874659843017
 30
0.0
 10
139.7477542370052
 20
153.2494530340746
 30
0.0
 10
139.7773820144598
 20
153.169620228669
 30
0.0
 10
139.8153010733832
 20
153.0382726647347
 30
0.0
 10
139.86179915216
 20
152.8420090761188
 30
0.0
 10
139.9150237625285
 20
152.5723467858492
 30
0.0
 10
139.9745068321544
 20
152.2197965527253
 30
0.0
 10
140.0397539217363
 20
151.7796220244449
 30
0.0
 10
140.1087087491282
 20
151.2625665394242
 30
0.0
 10
140.1759515604599
 20
150.7160412788502
 30
0.0
 10
140.2359612186983
 20
150.2023748328407
 30
0.0
 10
140.2853514295125
 20
149.7684218024001
 30
0.0
 10
140.3240162148205
 20
149.4249493302158
 30
0.0
 10
140.3529983849593
 20
149.1668403357092
 30
0.0
 10
140.3787807634093
 20
148.9374872072966
 30
0.0
 10
140.4086311890823
 20
148.6728424326056
 30
0.0
 10
140.4487637414321
 20
148.3203321800058
 30
0.0
 10
140.4995214462284
 20
147.8835928749909
 30
0.0
 10
140.5570067175285
 20
147.4073141139707
 30
0.0
 10
140.6166369325649
 20
146.9414873943543
 30
0.0
 10
140.6743399227346
 20
146.5244800402275
 30
0.0
 10
140.7292439811145
 20
146.1641633467038
 30
0.0
 10
140.782036177693
 20
145.8566307670108
 30
0.0
 10
140.833656032175
 20
145.5926033795016
 30
0.0
 10
140.8862320286818
 20
145.3642237112947
 30
0.0
 10
140.954531725804
 20
145.1655539091847
 30
0.0
 10
141.0338548233663
 20
145.0107561448888
 30
0.0
 10
141.1436476757339
 20
144.8701588737985
 30
0.0
 10
141.2345025153499
 20
144.823885208844
 30
0.0
 10
141.2821142961162
 20
144.7996358501926
 30
0.0
  0
SPLINE
  5
CA
330
1F
100
AcDbEntity
  8
0
  6
Continuous
 62
     7
370
    15
100
AcDbSpline
210
0.0
220
0.0
230
1.0
 70
     8
 71
     3
 72
    17
 73
    13
 74
     0
 42
0.00000001
 43
0.00000001
 12
1.0
 22
0.0
 32
0.0
 13
1.0
 23
0.0
 33
0.0
 40
0.0
 40
0.0
 40
0.0
 40
0.0
 40
0.0794286299781396
 40
0.1776074009578826
 40
0.2873797932076486
 40
0.3804696858684108
 40
0.4566571428859758
 40
0.5392230213329751
 40
0.6355218149472527
 40
0.7455555410498304
 40
0.869300441682835
 40
1.0
 40
1.0
 40
1.0
 40
1.0
 10
139.8471033105847
 20
153.7583533873762
 30
0.0
 10
139.7966530025726
 20
153.7500070859118
 30
0.0
 10
139.683842947986
 20
153.7313442320878
 30
0.0
 10
139.5809794320159
 20
153.6281573187864
 30
0.0
 10
139.501806272587
 20
153.500046601954
 30
0.0
 10
139.4433645451064
 20
153.3464643303799
 30
0.0
 10
139.4008968686759
 20
153.2037004876356
 30
0.0
 10
139.3594321789727
 20
153.0395968850029
 30
0.0
 10
139.312973496265
 20
152.8236430263622
 30
0.0
 10
139.2605012674048
 20
152.5396066979609
 30
0.0
 10
139.2029438259516
 20
152.1867468318758
 30
0.0
 10
139.1629577496996
 20
151.9038329729195
 30
0.0
 10
139.1424182475758
 20
151.7585096416119
 30
0.0
  0
SPLINE
  5
CB
330
1F
100
AcDbEntity
  8
0
  6
Continuous
 62
     7
370
    15
100
AcDbSpline
210
0.0
220
0.0
230
1.0
 70
     8
 71
     3
 72
    12
 73
     8
 74
     0
 42
0.00000001
 43
0.00000001
 12
1.0
 22
0.0
 32
0.0
 13
1.0
 23
0.0
 33
0.0
 40
0.0
 40
0.0
 40
0.0
 40
0.0
 40
0.2276602986276071
 40
0.4703650347537137
 40
0.7109368198165076
 40
0.9471890216807979
 40
0.9999999999999999
 40
0.9999999999999999
 40
0.9999999999999999
 40
0.9999999999999999
 10
138.5414673045505
 20
146.7585096416119
 30
0.0
 10
138.525961448097
 20
146.6498353758405
 30
0.0
 10
138.4939250642674
 20
146.4253053409398
 30
0.0
 10
138.4455302047415
 20
146.1239832933365
 30
0.0
 10
138.397399272288
 20
145.8576040969293
 30
0.0
 10
138.3623749285679
 20
145.6822552493445
 30
0.0
 10
138.3445372504077
 20
145.6098188706547
 30
0.0
 10
138.3412783599673
 20
145.5965849609535
 30
0.0
  0
SPLINE
  5
CC
330
1F
100
AcDbEntity
  8
0
  6
Continuous
 62
     7
370
    15
100
AcDbSpline
210
0.0
220
0.0
230
1.0
 70
     8
 71
     3
 72
    16
 73
    12
 74
     0
 42
0.00000001
 43
0.00000001
 12
1.0
 22
0.0
 32
0.0
 13
1.0
 23
0.0
 33
0.0
 40
0.0
 40
0.0
 40
0.0
 40
0.0
 40
0.0700915632561525
 40
0.1353333800616928
 40
0.2517991709492039
 40
0.3577212589137485
 40
0.4624352015695783
 40
0.6007963999300542
 40
0.7443573663033849
 40
0.9035590618486248
 40
1.0
 40
1.0
 40
1.0
 40
1.0
 10
136.8471998862583
 20
153.7584421572649
 30
0.0
 10
136.8053892885214
 20
153.7534494514318
 30
0.0
 10
136.7246610346308
 20
153.7438094930024
 30
0.0
 10
136.6052192274348
 20
153.6606202083485
 30
0.0
 10
136.5183617466327
 20
153.5357142072675
 30
0.0
 10
136.4581760384537
 20
153.3890673863057
 30
0.0
 10
136.3940984983744
 20
153.185173817298
 30
0.0
 10
136.3309277918657
 20
152.9172399444103
 30
0.0
 10
136.2609583243985
 20
152.5473687640072
 30
0.0
 10
136.1979621267433
 20
152.1559189740874
 30
0.0
 10
136.1578928804537
 20
151.8673659811818
 30
0.0
 10
136.1427767957565
 20
151.7585096416119
 30
0.0
  0
SPLINE
  5
CD
330
1F
100
AcDbEntity
  8
0
  6
Continuous
 62
     7
370
    15
100
AcDbSpline
210
0.0
220
0.0
230
1.0
 70
     8
 71
     3
 72
    11
 73
     7
 74
     0
 42
0.00000001
 43
0.00000001
 12
1.0
 22
0.0
 32
0.0
 13
1.0
 23
0.0
 33
0.0
 40
0.0
 40
0.0
 40
0.0
 40
0.0
 40
0.3185393925172459
 40
0.642232933247655
 40
0.9378285244908615
 40
1.0
 40
1.0
 40
1.0
 40
1.0
 10
135.5412452527906
 20
146.7585096416119
 30
0.0
 10
135.5194681176558
 20
146.606140139284
 30
0.0
 10
135.4755614809764
 20
146.2989357095769
 30
0.0
 10
135.4128969732826
 20
145.9357601880885
 30
0.0
 10
135.3678237874362
 20
145.7016077080648
 30
0.0
 10
135.3458483621751
 20
145.6129350784607
 30
0.0
 10
135.3420295517244
 20
145.5975258674625
 30
0.0
  0
SPLINE
  5
CE
330
1F
100
AcDbEntity
  8
0
  6
Continuous
 62
     7
370
    15
100
AcDbSpline
210
0.0
220
0.0
230
1.0
 70
     8
 71
     3
 72
    18
 73
    14
 74
     0
 42
0.00000001
 43
0.00000001
 12
1.0
 22
0.0
 32
0.0
 13
1.0
 23
0.0
 33
0.0
 40
0.0
 40
0.0
 40
0.0
 40
0.0
 40
0.0472975821781253
 40
0.0885242989450709
 40
0.1237547943652116
 40
0.1620891665464213
 40
0.22985082357635
 40
0.328601138805699
 40
0.4565731624001496
 40
0.6006003533285806
 40
0.7575713119911074
 40
0.927717585039903
 40
1.0
 40
1.0
 40
1.0
 40
1.0
 10
133.847642981802
 20
153.7581878424671
 30
0.0
 10
133.8141082373851
 20
153.7553187054652
 30
0.0
 10
133.7513430895044
 20
153.7499486985859
 30
0.0
 10
133.6776135109508
 20
153.712293621777
 30
0.0
 10
133.6213594660365
 20
153.6685678088198
 30
0.0
 10
133.5767516702393
 20
153.6198011334361
 30
0.0
 10
133.5313674681422
 20
153.5522986872608
 30
0.0
 10
133.4724803127241
 20
153.4279045263104
 30
0.0
 10
133.4058360045515
 20
153.2254351937587
 30
0.0
 10
133.3331199597273
 20
152.9278294894925
 30
0.0
 10
133.2565543881519
 20
152.5219287142183
 30
0.0
 10
133.193002259516
 20
152.1266106002385
 30
0.0
 10
133.1549187877222
 20
151.8430545654727
 30
0.0
 10
133.1435638390405
 20
151.7585096416119
 30
0.0
  0
SPLINE
  5
CF
330
1F
100
AcDbEntity
  8
0
  6
Continuous
 62
     7
370
    15
100
AcDbSpline
210
0.0
220
0.0
230
1.0
 70
     8
 71
     3
 72
    12
 73
     8
 74
     0
 42
0.00000001
 43
0.00000001
 12
1.0
 22
0.0
 32
0.0
 13
1.0
 23
0.0
 33
0.0
 40
0.0
 40
0.0
 40
0.0
 40
0.0
 40
0.0877557688528678
 40
0.3684758642915745
 40
0.6548172729051678
 40
0.9450695296840043
 40
1.0
 40
1.0
 40
1.0
 40
1.0
 10
133.6424387850871
 20
151.7585096416119
 30
0.0
 10
133.648540116808
 20
151.8030714085635
 30
0.0
 10
133.6741588710915
 20
151.9901808807556
 30
0.0
 10
133.7197943463321
 20
152.2850946096905
 30
0.0
 10
133.7770912397097
 20
152.6181243103748
 30
0.0
 10
133.8186535522419
 20
152.8308470467934
 30
0.0
 10
133.8375837744737
 20
152.9100594728974
 30
0.0
 10
133.8405962253548
 20
152.9226649003399
 30
0.0
  0
SPLINE
  5
D0
330
1F
100
AcDbEntity
  8
0
  6
Continuous
 62
     7
370
    15
100
AcDbSpline
210
0.0
220
0.0
230
1.0
 70
     8
 71
     3
 72
    18
 73
    14
 74
     0
 42
0.00000001
 43
0.00000001
 12
1.0
 22
0.0
 32
0.0
 13
1.0
 23
0.0
 33
0.0
 40
0.0
 40
0.0
 40
0.0
 40
0.0
 40
0.0716126649295103
 40
0.1283087872692081
 40
0.1605311003411758
 40
0.2137505405223618
 40
0.2881014163604656
 40
0.3834203310409131
 40
0.4970790099656332
 40
0.622899638553857
 40
0.7605208094100789
 40
0.9099100544941716
 40
1.0
 40
1.0
 40
1.0
 40
1.0
 10
135.3361929834699
 20
144.7599169791322
 30
0.0
 10
135.3868802187003
 20
144.7671218698251
 30
0.0
 10
135.4776968038509
 20
144.7800309102599
 30
0.0
 10
135.5599588048127
 20
144.8472044846928
 30
0.0
 10
135.6031560446785
 20
144.8939305003688
 30
0.0
 10
135.6400008866642
 20
144.9456743181191
 30
0.0
 10
135.686055197861
 20
145.0323416779427
 30
0.0
 10
135.7391510564565
 20
145.1695188857549
 30
0.0
 10
135.7982414507579
 20
145.3719983283107
 30
0.0
 10
135.8614872416808
 20
145.6484812433493
 30
0.0
 10
135.9286308829828
 20
146.0081191736173
 30
0.0
 10
135.9888932642237
 20
146.3854327052495
 30
0.0
 10
136.0267274062494
 20
146.6565265455473
 30
0.0
 10
136.0409602746041
 20
146.7585096416119
 30
0.0
  0
SPLINE
  5
D1
330
1F
100
AcDbEntity
  8
0
  6
Continuous
 62
     7
370
    15
100
AcDbSpline
210
0.0
220
0.0
230
1.0
 70
     8
 71
     3
 72
    12
 73
     8
 74
     0
 42
0.00000001
 43
0.00000001
 12
1.0
 22
0.0
 32
0.0
 13
1.0
 23
0.0
 33
0.0
 40
0.0
 40
0.0
 40
0.0
 40
0.0
 40
0.0595835602933103
 40
0.351393088569756
 40
0.6221540731444375
 40
0.8719987688068008
 40
0.9999999999999999
 40
0.9999999999999999
 40
0.9999999999999999
 40
0.9999999999999999
 10
136.6424144405541
 20
151.7585096416119
 30
0.0
 10
136.6464390975827
 20
151.7882502650175
 30
0.0
 10
136.6701744476815
 20
151.9636451132448
 30
0.0
 10
136.7120434130202
 20
152.2352719646381
 30
0.0
 10
136.7661989666736
 20
152.5562361853163
 30
0.0
 10
136.8098543466307
 20
152.7830609235365
 30
0.0
 10
136.8337152239791
 20
152.8830062292429
 30
0.0
 10
136.8417984702467
 20
152.9168642683883
 30
0.0
  0
SPLINE
  5
D2
330
1F
100
AcDbEntity
  8
0
  6
Continuous
 62
     7
370
    15
100
AcDbSpline
210
0.0
220
0.0
230
1.0
 70
     8
 71
     3
 72
    17
 73
    13
 74
     0
 42
0.00000001
 43
0.00000001
 12
1.0
 22
0.0
 32
0.0
 13
1.0
 23
0.0
 33
0.0
 40
0.0
 40
0.0
 40
0.0
 40
0.0
 40
0.0830701621976737
 40
0.1861809946136126
 40
0.3015121364461737
 40
0.3989815840539522
 40
0.4784295402957086
 40
0.5644524485087311
 40
0.6647246559034549
 40
0.7791626393290233
 40
0.9076725023764357
 40
1.0
 40
1.0
 40
1.0
 40
1.0
 10
138.335645767648
 20
144.7599681953642
 30
0.0
 10
138.3867741992252
 20
144.7682793159159
 30
0.0
 10
138.5013657925511
 20
144.7869066142111
 30
0.0
 10
138.6068522715163
 20
144.8937761232864
 30
0.0
 10
138.688695818834
 20
145.0303593453106
 30
0.0
 10
138.748900079796
 20
145.1961696560197
 30
0.0
 10
138.7928519459824
 20
145.3516987903031
 30
0.0
 10
138.8358116414761
 20
145.5302574224332
 30
0.0
 10
138.8839446800828
 20
145.7632882400379
 30
0.0
 10
138.9383460096972
 20
146.0685571262889
 30
0.0
 10
138.9912575743693
 20
146.4009097844965
 30
0.0
 10
139.0259556331935
 20
146.6530817844193
 30
0.0
 10
139.0404621683825
 20
146.7585096416119
 30
0.0
  0
SPLINE
  5
D3
330
1F
100
AcDbEntity
  8
0
  6
Continuous
 62
     7
370
    15
100
AcDbSpline
210
0.0
220
0.0
230
1.0
 70
     8
 71
     3
 72
    11
 73
     7
 74
     0
 42
0.00000001
 43
0.00000001
 12
1.0
 22
0.0
 32
0.0
 13
1.0
 23
0.0
 33
0.0
 40
0.0
 40
0.0
 40
0.0
 40
0.0
 40
0.0569325459264116
 40
0.2875419241750591
 40
0.7266372139686881
 40
1.0
 40
1.0
 40
1.0
 40
1.0
 10
139.6422757134119
 20
151.7585096416119
 30
0.0
 10
139.6461874043406
 20
151.7871328548842
 30
0.0
 10
139.6659436811436
 20
151.9316964553076
 30
0.0
 10
139.7155125899911
 20
152.2578922247127
 30
0.0
 10
139.7810481850443
 20
152.6534403864969
 30
0.0
 10
139.8259929695787
 20
152.8418439299886
 30
0.0
 10
139.8432378179913
 20
152.9141324186656
 30
0.0
  0
SPLINE
  5
D4
330
1F
100
AcDbEntity
  8
0
  6
Continuous
 62
     7
370
    15
100
AcDbSpline
210
0.0
220
0.0
230
1.0
 70
     8
 71
     3
 72
     9
 73
     5
 74
     0
 42
0.00000001
 43
0.00000001
 12
1.0
 22
0.0
 32
0.0
 13
1.0
 23
0.0
 33
0.0
 40
0.0
 40
0.0
 40
0.0
 40
0.0
 40
0.4576131563324184
 40
1.0
 40
1.0
 40
1.0
 40
1.0
 10
141.281631215158
 20
144.7959237217245
 30
0.0
 10
141.2992219472477
 20
144.7856764137249
 30
0.0
 10
141.3376621272257
 20
144.7632834648819
 30
0.0
 10
141.3758558463636
 20
144.7648474939593
 30
0.0
 10
141.3965716171348
 20
144.765695802754
 30
0.0
  0
SPLINE
  5
D5
330
1F
100
AcDbEntity
  8
0
  6
Continuous
 62
     7
370
    15
100
AcDbSpline
210
0.0
220
0.0
230
1.0
 70
     8
 71
     3
 72
    33
 73
    29
 74
     0
 42
0.00000001
 43
0.00000001
 12
1.0
 22
0.0
 32
0.0
 13
1.0
 23
0.0
 33
0.0
 40
0.0
 40
0.0
 40
0.0
 40
0.0
 40
0.0042489903814387
 40
0.0183592807914457
 40
0.0484008267434884
 40
0.0813253523262599
 40
0.1171248100363061
 40
0.1557732704904506
 40
0.1972467845728121
 40
0.2400831248695228
 40
0.291796237546996
 40
0.3367319360781014
 40
0.3748337500470361
 40
0.4063247673973496
 40
0.4365789502872744
 40
0.4678243558694986
 40
0.5171818932577519
 40
0.5730282090702894
 40
0.6142268586463042
 40
0.6586307412053943
 40
0.7061796134237466
 40
0.7786292120120383
 40
0.8508541275332987
 40
0.8870590071258957
 40
0.9233358042650175
 40
0.9604618215874516
 40
0.9798919735228871
 40
1.0
 40
1.0
 40
1.0
 40
1.0
 10
141.4242152391617
 20
145.2807229297522
 30
0.0
 10
141.4258462212838
 20
145.2804728545886
 30
0.0
 10
141.4328934621713
 20
145.2793923155109
 30
0.0
 10
141.4120208726118
 20
145.3248093824019
 30
0.0
 10
141.3869320349934
 20
145.4140559991619
 30
0.0
 10
141.3453878915379
 20
145.5719152876969
 30
0.0
 10
141.2991791361762
 20
145.7872095444298
 30
0.0
 10
141.2469682067302
 20
146.0681022996414
 30
0.0
 10
141.1905676063307
 20
146.4167285195443
 30
0.0
 10
141.1275416612011
 20
146.8540004970738
 30
0.0
 10
141.0628954738382
 20
147.3488583656306
 30
0.0
 10
141.0003200757071
 20
147.8626393585965
 30
0.0
 10
140.9470485333788
 20
148.3187391543973
 30
0.0
 10
140.9005700852365
 20
148.7262137411402
 30
0.0
 10
140.8573001260585
 20
149.1102605106216
 30
0.0
 10
140.8057415157381
 20
149.5697372159681
 30
0.0
 10
140.7422567848726
 20
150.1323867324302
 30
0.0
 10
140.6740027946941
 20
150.7192980105622
 30
0.0
 10
140.6080290018486
 20
151.2566974269088
 30
0.0
 10
140.545795902731
 20
151.7317720059238
 30
0.0
 10
140.4691034333033
 20
152.2665476099191
 30
0.0
 10
140.3773233564349
 20
152.8092428366751
 30
0.0
 10
140.285534474221
 20
153.2032004411583
 30
0.0
 10
140.2013505416688
 20
153.4443113629891
 30
0.0
 10
140.1377519914108
 20
153.5787999958096
 30
0.0
 10
140.056973940585
 20
153.6790055515016
 30
0.0
 10
139.9467611104011
 20
153.7470390982799
 30
0.0
 10
139.8730658919381
 20
153.7545161308842
 30
0.0
 10
139.8355865374613
 20
153.7583187433366
 30
0.0
  0
SPLINE
  5
D6
330
1F
100
AcDbEntity
  8
0
  6
Continuous
 62
     7
370
    15
100
AcDbSpline
210
0.0
220
0.0
230
1.0
 70
     8
 71
     3
 72
    35
 73
    31
 74
     0
 42
0.00000001
 43
0.00000001
 12
1.0
 22
0.0
 32
0.0
 13
1.0
 23
0.0
 33
0.0
 40
0.0
 40
0.0
 40
0.0
 40
0.0
 40
0.0075956789081358
 40
0.0263653332283681
 40
0.0518643299165202
 40
0.0840446058768828
 40
0.1211042700428768
 40
0.1624647552511632
 40
0.2081033419553952
 40
0.2580041624132294
 40
0.3121927427761029
 40
0.3636677737352747
 40
0.4063074950493803
 40
0.4400837080531388
 40
0.4649831019094709
 40
0.4813346138941924
 40
0.5010030752511853
 40
0.5297755932785115
 40
0.5676574042084506
 40
0.6134952713183855
 40
0.658366891142449
 40
0.700399454971512
 40
0.751967114679754
 40
0.7984628857852915
 40
0.8432374103759257
 40
0.8770889433134933
 40
0.9113235598396298
 40
0.9509472393563644
 40
0.9742693097885246
 40
0.9999999999999999
 40
0.9999999999999999
 40
0.9999999999999999
 40
0.9999999999999999
 10
138.4614914615538
 20
145.2149494503564
 30
0.0
 10
138.4614892294871
 20
145.2151765146482
 30
0.0
 10
138.4614814817683
 20
145.2159646766799
 30
0.0
 10
138.4455932086547
 20
145.2430555784146
 30
0.0
 10
138.4203202177761
 20
145.3053168484207
 30
0.0
 10
138.3822429130934
 20
145.4252812037047
 30
0.0
 10
138.3345409967555
 20
145.6167085802321
 30
0.0
 10
138.278041857559
 20
145.892443735805
 30
0.0
 10
138.2138811964123
 20
146.263879650207
 30
0.0
 10
138.142482326393
 20
146.7429147435234
 30
0.0
 10
138.0677060856599
 20
147.3085674447998
 30
0.0
 10
137.9963209539873
 20
147.8950564194008
 30
0.0
 10
137.9347166139253
 20
148.4257838147417
 30
0.0
 10
137.8858771568587
 20
148.8563546985831
 30
0.0
 10
137.8497196321112
 20
149.1778699896081
 30
0.0
 10
137.8203712840705
 20
149.4391598074624
 30
0.0
 10
137.7891617950733
 20
149.7165774314467
 30
0.0
 10
137.7475745132682
 20
150.0838226433056
 30
0.0
 10
137.6933478777012
 20
150.5540980829788
 30
0.0
 10
137.6312844647281
 20
151.0719395100625
 30
0.0
 10
137.5671465636667
 20
151.5734149073213
 30
0.0
 10
137.5001732718934
 20
152.0553784047905
 30
0.0
 10
137.4320648641068
 20
152.49167989322
 30
0.0
 10
137.3622362204356
 20
152.8698678824191
 30
0.0
 10
137.2996185186296
 20
153.1456542913829
 30
0.0
 10
137.2371153577534
 20
153.3550391506414
 30
0.0
 10
137.1788032044302
 20
153.5086352811363
 30
0.0
 10
137.0918311536409
 20
153.6466573640493
 30
0.0
 10
136.9671172944611
 20
153.7413824231772
 30
0.0
 10
136.8808850872975
 20
153.7525688637104
 30
0.0
 10
136.8356518694385
 20
153.7584367258277
 30
0.0
  0
LWPOLYLINE
  5
D7
330
1F
100
AcDbEntity
  8
0
  6
Continuous
 62
     7
370
    15
100
AcDbPolyline
 90
       29
 70
   128
 43
0.0
 10
135.4402526716
 20
145.2390252559
 10
135.4451898495
 20
145.2380810077
 10
135.4306897953
 20
145.2841792368
 10
135.402680927
 20
145.3671714011
 10
135.3704529216
 20
145.4798146564
 10
135.3314484187
 20
145.6413460756
 10
135.2855134207
 20
145.8641395933
 10
135.232725069
 20
146.159987704
 10
135.1731546924
 20
146.5402267523
 10
135.1068678575
 20
147.0146535276
 10
135.0412057856
 20
147.5285799049
 10
134.9834392334
 20
148.0084524133
 10
134.9336296667
 20
148.4372853945
 10
134.89182763
 20
148.8044071441
 10
134.858072746
 20
149.103705856
 10
134.8310364241
 20
149.3442069114
 10
134.7881480335
 20
149.7251284422
 10
134.7338739335
 20
150.2019024538
 10
134.6700437635
 20
150.747255919
 10
134.5712246717
 20
151.5364211224
 10
134.5209451262
 20
151.9029962269
 10
134.4700336752
 20
152.2452969029
 10
134.3672752715
 20
152.8330619905
 10
134.2627713751
 20
153.2671495788
 10
134.2076481564
 20
153.4279220456
 10
134.1342074071
 20
153.5735760193
 10
134.0155723089
 20
153.7001005861
 10
133.8361051457
 20
153.7582212784
 10
133.8361051457
 20
153.7582212784
  0
SPLINE
  5
D8
330
1F
100
AcDbEntity
  8
0
  6
Continuous
 62
     7
370
    15
100
AcDbSpline
210
0.0
220
0.0
230
1.0
 70
     8
 71
     3
 72
    16
 73
    12
 74
     0
 42
0.00000001
 43
0.00000001
 12
1.0
 22
0.0
 32
0.0
 13
1.0
 23
0.0
 33
0.0
 40
0.0
 40
0.0
 40
0.0
 40
0.0
 40
0.1340517323829046
 40
0.2453836004109421
 40
0.3349015412165806
 40
0.4139633862489817
 40
0.5376354987358426
 40
0.6831853160901666
 40
0.850509818478024
 40
0.9881540517923564
 40
1.0
 40
1.0
 40
1.0
 40
1.0
 10
141.3947509515557
 20
144.7653071160729
 30
0.0
 10
141.4476839184376
 20
144.7842366716677
 30
0.0
 10
141.5445784662589
 20
144.8188874920894
 30
0.0
 10
141.6466964554994
 20
144.9552157092449
 30
0.0
 10
141.7122655075641
 20
145.0953982135738
 30
0.0
 10
141.7654800527987
 20
145.2536936200703
 30
0.0
 10
141.8253555649287
 20
145.4796052625193
 30
0.0
 10
141.895733480192
 20
145.8186767718663
 30
0.0
 10
141.9666890309762
 20
146.2416910050846
 30
0.0
 10
142.0159680919988
 20
146.5700886647666
 30
0.0
 10
142.0391679973676
 20
146.7446750148814
 30
0.0
 10
142.0410064116007
 20
146.7585096416119
 30
0.0
  0
SPLINE
  5
D9
330
1F
100
AcDbEntity
  8
0
  6
Continuous
 62
     7
370
    15
100
AcDbSpline
210
0.0
220
0.0
230
1.0
 70
     8
 71
     3
 72
    12
 73
     8
 74
     0
 42
0.00000001
 43
0.00000001
 12
1.0
 22
0.0
 32
0.0
 13
1.0
 23
0.0
 33
0.0
 40
0.0
 40
0.0
 40
0.0
 40
0.0
 40
0.1166000058990636
 40
0.3614529328607162
 40
0.6087755567843081
 40
0.8576743380554614
 40
1.0
 40
1.0
 40
1.0
 40
1.0
 10
142.6426775548896
 20
151.7585096416119
 30
0.0
 10
142.65076469442
 20
151.8176354187833
 30
0.0
 10
142.6758343355335
 20
152.0009217351217
 30
0.0
 10
142.7179701969723
 20
152.2717356026626
 30
0.0
 10
142.7678073928846
 20
152.5660111092238
 30
0.0
 10
142.8096217842
 20
152.7852822219652
 30
0.0
 10
142.8324529936572
 20
152.8852762496081
 30
0.0
 10
142.8407588831673
 20
152.9216536192269
 30
0.0
  0
SPLINE
  5
DA
330
1F
100
AcDbEntity
  8
0
  6
Continuous
 62
     7
370
    15
100
AcDbSpline
210
0.0
220
0.0
230
1.0
 70
     8
 71
     3
 72
    18
 73
    14
 74
     0
 42
0.00000001
 43
0.00000001
 12
1.0
 22
0.0
 32
0.0
 13
1.0
 23
0.0
 33
0.0
 40
0.0
 40
0.0
 40
0.0
 40
0.0
 40
0.071481227652641
 40
0.1281388203370154
 40
0.1601949531530843
 40
0.2127849391836458
 40
0.2860372045401084
 40
0.3797813374322709
 40
0.491630342172254
 40
0.6159852123080694
 40
0.7525184178870482
 40
0.9011655933417865
 40
1.0
 40
1.0
 40
1.0
 40
1.0
 10
144.3361343442718
 20
144.7599688375292
 30
0.0
 10
144.3868159102184
 20
144.7672128771227
 30
0.0
 10
144.4776687996624
 20
144.7801987017715
 30
0.0
 10
144.5597354638868
 20
144.8472491776971
 30
0.0
 10
144.6028308426605
 20
144.8938037989351
 30
0.0
 10
144.6394033706233
 20
144.9449759986888
 30
0.0
 10
144.6849264955268
 20
145.0299271315339
 30
0.0
 10
144.7373420312996
 20
145.1638529139381
 30
0.0
 10
144.795706367666
 20
145.3619168543146
 30
0.0
 10
144.8583014937293
 20
145.6330745343969
 30
0.0
 10
144.9249618720809
 20
145.9869751298225
 30
0.0
 10
144.9863531692048
 20
146.368529007635
 30
0.0
 10
145.0254814555083
 20
146.6472138718034
 30
0.0
 10
145.0411077535437
 20
146.7585096416119
 30
0.0
  0
SPLINE
  5
DB
330
1F
100
AcDbEntity
  8
0
  6
Continuous
 62
     7
370
    15
100
AcDbSpline
210
0.0
220
0.0
230
1.0
 70
     8
 71
     3
 72
    12
 73
     8
 74
     0
 42
0.00000001
 43
0.00000001
 12
1.0
 22
0.0
 32
0.0
 13
1.0
 23
0.0
 33
0.0
 40
0.0
 40
0.0
 40
0.0
 40
0.0
 40
0.0399144058703639
 40
0.3318077941760756
 40
0.6027060570013715
 40
0.8526736687483225
 40
1.0
 40
1.0
 40
1.0
 40
1.0
 10
145.6422780354942
 20
151.7585096416119
 30
0.0
 10
145.6449748350003
 20
151.7785081147083
 30
0.0
 10
145.667393284579
 20
151.944755089962
 30
0.0
 10
145.7079548096958
 20
152.2089716749691
 30
0.0
 10
145.7621928852037
 20
152.5338771033555
 30
0.0
 10
145.8071155784722
 20
152.7698823625306
 30
0.0
 10
145.8323383650618
 20
152.8769863962335
 30
0.0
 10
145.8416915925089
 20
152.9167031969192
 30
0.0
  0
SPLINE
  5
DC
330
1F
100
AcDbEntity
  8
0
  6
Continuous
 62
     7
370
    15
100
AcDbSpline
210
0.0
220
0.0
230
1.0
 70
     8
 71
     3
 72
    17
 73
    13
 74
     0
 42
0.00000001
 43
0.00000001
 12
1.0
 22
0.0
 32
0.0
 13
1.0
 23
0.0
 33
0.0
 40
0.0
 40
0.0
 40
0.0
 40
0.0
 40
0.0822658995932559
 40
0.1827465729459047
 40
0.2941313895573148
 40
0.3880063689692839
 40
0.4642388943141077
 40
0.5466929262813647
 40
0.6429118784596431
 40
0.7528306894548741
 40
0.8763554626820232
 40
0.9999999999999999
 40
0.9999999999999999
 40
0.9999999999999999
 40
0.9999999999999999
 10
147.3355742404542
 20
144.7598830635358
 30
0.0
 10
147.3864721908645
 20
144.7681163365785
 30
0.0
 10
147.4995375806972
 20
144.7864058397642
 30
0.0
 10
147.6044104752943
 20
144.8910399798206
 30
0.0
 10
147.6845841889496
 20
145.0221917669187
 30
0.0
 10
147.7434089903832
 20
145.1793953697164
 30
0.0
 10
147.7859386455364
 20
145.3255842832177
 30
0.0
 10
147.8273295833457
 20
145.4927055648019
 30
0.0
 10
147.8736986695502
 20
145.7109864181862
 30
0.0
 10
147.9261026618877
 20
145.9965041845326
 30
0.0
 10
147.9825671154789
 20
146.343521367464
 30
0.0
 10
148.0214852095422
 20
146.6201355397678
 30
0.0
 10
148.0409536853135
 20
146.7585096416119
 30
0.0
  0
SPLINE
  5
DD
330
1F
100
AcDbEntity
  8
0
  6
Continuous
 62
     7
370
    15
100
AcDbSpline
210
0.0
220
0.0
230
1.0
 70
     8
 71
     3
 72
    25
 73
    21
 74
     0
 42
0.00000001
 43
0.00000001
 12
1.0
 22
0.0
 32
0.0
 13
1.0
 23
0.0
 33
0.0
 40
0.0
 40
0.0
 40
0.0
 40
0.0
 40
0.0711321469137448
 40
0.1337647888744996
 40
0.1879215388137542
 40
0.233573323724206
 40
0.2706781003299644
 40
0.299537485432829
 40
0.3569626683082371
 40
0.4218682667747628
 40
0.494350909273041
 40
0.5537442533922674
 40
0.6164293649093098
 40
0.6794216296111264
 40
0.7426928303737663
 40
0.8064114135452716
 40
0.8706790889878123
 40
0.9351770778713591
 40
0.9674293535546424
 40
1.0
 40
1.0
 40
1.0
 40
1.0
 10
150.0595945444311
 20
147.3816002829518
 30
0.0
 10
150.0361522996555
 20
147.571797136345
 30
0.0
 10
149.9920688991227
 20
147.9294644224116
 30
0.0
 10
149.9300975655745
 20
148.466046467734
 30
0.0
 10
149.8765704857784
 20
148.9386428958251
 30
0.0
 10
149.8314851689445
 20
149.3403959902486
 30
0.0
 10
149.7947365148513
 20
149.6673085120954
 30
0.0
 10
149.7541176700588
 20
150.0263340491721
 30
0.0
 10
149.704279697134
 20
150.4607405101148
 30
0.0
 10
149.6399672862988
 20
151.0011213513384
 30
0.0
 10
149.5749210890373
 20
151.5147386582091
 30
0.0
 10
149.5105481037207
 20
151.9823349879938
 30
0.0
 10
149.4491589994639
 20
152.3858089925414
 30
0.0
 10
149.3847927815015
 20
152.7531300813241
 30
0.0
 10
149.3170419543497
 20
153.0700194957787
 30
0.0
 10
149.2439221753858
 20
153.3334657597252
 30
0.0
 10
149.161147812044
 20
153.5368621870402
 30
0.0
 10
149.0854035509862
 20
153.6529248088627
 30
0.0
 10
148.9657940894118
 20
153.742008772881
 30
0.0
 10
148.8792658313783
 20
153.7527305616667
 30
0.0
 10
148.8357892152772
 20
153.7581177855117
 30
0.0
  0
SPLINE
  5
DE
330
1F
100
AcDbEntity
  8
0
  6
Continuous
 62
     7
370
    15
100
AcDbSpline
210
0.0
220
0.0
230
1.0
 70
     8
 71
     3
 72
    35
 73
    31
 74
     0
 42
0.00000001
 43
0.00000001
 12
1.0
 22
0.0
 32
0.0
 13
1.0
 23
0.0
 33
0.0
 40
0.0
 40
0.0
 40
0.0
 40
0.0
 40
0.007753087140862
 40
0.0267782559349994
 40
0.0527019250858856
 40
0.0854676567856831
 40
0.1230676813747694
 40
0.1648507338652623
 40
0.2107923996797487
 40
0.2608947419732435
 40
0.3151757331312605
 40
0.3666687695342578
 40
0.409318552197301
 40
0.4431108695158101
 40
0.4680243542050449
 40
0.4843846296145694
 40
0.5040659338469854
 40
0.532852494297912
 40
0.5707467786049453
 40
0.6166018085893616
 40
0.6615029335958634
 40
0.7035607170363245
 40
0.7551489563265269
 40
0.8016648246169303
 40
0.8464828493217768
 40
0.8803820999881006
 40
0.914663451966389
 40
0.9533975900591994
 40
0.9756907354827066
 40
1.0
 40
1.0
 40
1.0
 40
1.0
 10
147.4613567613075
 20
145.2148632513453
 30
0.0
 10
147.4613322654571
 20
145.2151269326205
 30
0.0
 10
147.4612476596556
 20
145.2160376568961
 30
0.0
 10
147.4449551962055
 20
145.2440511092382
 30
0.0
 10
147.4191168212125
 20
145.3085616052772
 30
0.0
 10
147.3803050297831
 20
145.4321104063656
 30
0.0
 10
147.3318868415342
 20
145.6283339798844
 30
0.0
 10
147.2747808176406
 20
145.9095554589773
 30
0.0
 10
147.2101567042776
 20
146.2869382097535
 30
0.0
 10
147.1384862752646
 20
146.7718856598585
 30
0.0
 10
147.0635961576282
 20
147.3412993340949
 30
0.0
 10
146.9921643055011
 20
147.9300980273188
 30
0.0
 10
146.9305411014292
 20
148.462132474319
 30
0.0
 10
146.8817053511153
 20
148.8933140746442
 30
0.0
 10
146.8455507745624
 20
149.2150046138801
 30
0.0
 10
146.8162019453116
 20
149.4763166165812
 30
0.0
 10
146.784990496941
 20
149.7536281015949
 30
0.0
 10
146.7433983734358
 20
150.1204839659535
 30
0.0
 10
146.6891581054384
 20
150.5898502386065
 30
0.0
 10
146.6270764592008
 20
151.1057879850156
 30
0.0
 10
146.5629401451052
 20
151.6048715739345
 30
0.0
 10
146.4959500996503
 20
152.084127840647
 30
0.0
 10
146.4277841489053
 20
152.5173025413018
 30
0.0
 10
146.3578835077882
 20
152.8910016419586
 30
0.0
 10
146.295043930143
 20
153.1632269063647
 30
0.0
 10
146.2318795044843
 20
153.3702415877988
 30
0.0
 10
146.1728824649061
 20
153.5207141398582
 30
0.0
 10
146.0860715512342
 20
153.652885837795
 30
0.0
 10
145.9637063767331
 20
153.7424654812901
 30
0.0
 10
145.8799117528256
 20
153.7529485678791
 30
0.0
 10
145.8362018742962
 20
153.7584168714534
 30
0.0
  0
LWPOLYLINE
  5
DF
330
1F
100
AcDbEntity
  8
0
  6
Continuous
 62
     7
370
    15
100
AcDbPolyline
 90
       28
 70
   128
 43
0.0
 10
144.4384802954
 20
145.2405879641
 10
144.4440575334
 20
145.2398697448
 10
144.4280554132
 20
145.2908820872
 10
144.3991406188
 20
145.3787548596
 10
144.3666976249
 20
145.494465382
 10
144.3275591143
 20
145.6590780453
 10
144.2815292307
 20
145.8850397702
 10
144.2286766457
 20
146.1841662518
 10
144.1690651358
 20
146.567927326
 10
144.1027536297
 20
147.0458138009
 10
144.037075142
 20
147.562219829
 10
143.9792974214
 20
148.0436273807
 10
143.9294804282
 20
148.4733838506
 10
143.8876735098
 20
148.8410465304
 10
143.8539154011
 20
149.1406165225
 10
143.8268774908
 20
149.3811999291
 10
143.783987451
 20
149.7620004198
 10
143.7297101289
 20
150.2381745666
 10
143.6659279448
 20
150.7816867986
 10
143.5677141387
 20
151.5627051359
 10
143.4678216329
 20
152.2595553471
 10
143.3665849518
 20
152.8366356174
 10
143.2627345009
 20
153.2670384437
 10
143.2075956418
 20
153.4279582352
 10
143.13412914
 20
153.5738235439
 10
143.015599148
 20
153.70032808
 10
142.8363677055
 20
153.7583971468
 10
142.8363677055
 20
153.7583971468
  0
LWPOLYLINE
  5
E0
330
1F
100
AcDbEntity
  8
0
  6
Continuous
 62
     7
370
    15
100
AcDbPolyline
 90
       31
 70
   128
 43
0.0
 10
142.7457872458
 20
153.2757011781
 10
142.7395564391
 20
153.2760029973
 10
142.7574112157
 20
153.2194742549
 10
142.7880770001
 20
153.1251541515
 10
142.8221053721
 20
153.001805607
 10
142.8630458526
 20
152.8258890795
 10
142.9111055375
 20
152.583376366
 10
142.9662120866
 20
152.2621972492
 10
143.0282984813
 20
151.8517806083
 10
143.0963373592
 20
151.3514252987
 10
143.157786285
 20
150.8617172138
 10
143.2087402342
 20
150.4343419935
 10
143.249131087
 20
150.0855339609
 10
143.2789078346
 20
149.8243606245
 10
143.3001468602
 20
149.6366237367
 10
143.3279654542
 20
149.3896018326
 10
143.3653581935
 20
149.0569248986
 10
143.4123435757
 20
148.640759666
 10
143.4676177267
 20
148.1588276812
 10
143.5226943365
 20
147.6926395733
 10
143.5760792983
 20
147.2598290707
 10
143.6277930938
 20
146.8636630929
 10
143.677857971
 20
146.5064631059
 10
143.7262979438
 20
146.189445276
 10
143.8210726218
 20
145.6604761268
 10
143.920956566
 20
145.2484787565
 10
143.9751815082
 20
145.0894511484
 10
144.0483801122
 20
144.944023274
 10
144.1673231668
 20
144.8175743857
 10
144.3477038529
 20
144.7599762138
 10
144.3477038529
 20
144.7599762138
  0
SPLINE
  5
E1
330
1F
100
AcDbEntity
  8
0
  6
Continuous
 62
     7
370
    15
100
AcDbSpline
210
0.0
220
0.0
230
1.0
 70
     8
 71
     3
 72
    38
 73
    34
 74
     0
 42
0.00000001
 43
0.00000001
 12
1.0
 22
0.0
 32
0.0
 13
1.0
 23
0.0
 33
0.0
 40
0.0
 40
0.0
 40
0.0
 40
0.0
 40
0.0080333861579636
 40
0.0261919233083817
 40
0.0613164156336886
 40
0.0961942743815677
 40
0.1307266788181443
 40
0.1662512512388693
 40
0.204747215727904
 40
0.246233515920658
 40
0.2906881549967154
 40
0.3380268192125489
 40
0.3810004175413868
 40
0.4146076736830378
 40
0.4317862947026775
 40
0.4447692221357676
 40
0.4548655078463503
 40
0.4764128436941891
 40
0.5070531214716235
 40
0.5468021118589693
 40
0.5957145711792219
 40
0.6515525779905756
 40
0.7044385807658279
 40
0.7532611392646879
 40
0.7980724712291085
 40
0.8388607072796306
 40
0.8755162224610018
 40
0.9062305157494374
 40
0.9302313452580013
 40
0.947467921099243
 40
0.9579850419314585
 40
0.9765722887430704
 40
1.0
 40
1.0
 40
1.0
 40
1.0
 10
145.7366732065765
 20
153.2825220426941
 30
0.0
 10
145.7352282713267
 20
153.2827020167528
 30
0.0
 10
145.7305172276268
 20
153.2832888012855
 30
0.0
 10
145.7496411095132
 20
153.2452870184698
 30
0.0
 10
145.7797035561922
 20
153.1580085749509
 30
0.0
 10
145.8235648363125
 20
153.0022002770695
 30
0.0
 10
145.8711154802405
 20
152.7940127612515
 30
0.0
 10
145.9221183571943
 20
152.5296583856795
 30
0.0
 10
145.9764709416532
 20
152.2047189078902
 30
0.0
 10
146.0354193355565
 20
151.8084901656748
 30
0.0
 10
146.0987582682828
 20
151.3389768048873
 30
0.0
 10
146.1630204096296
 20
150.8234568828165
 30
0.0
 10
146.2221130351851
 20
150.322141099604
 30
0.0
 10
146.2667956308985
 20
149.9317019580414
 30
0.0
 10
146.297174787331
 20
149.6631977699258
 30
0.0
 10
146.3163559972115
 20
149.4929241585895
 30
0.0
 10
146.3376198208364
 20
149.303788377414
 30
0.0
 10
146.3673061215339
 20
149.039405529454
 30
0.0
 10
146.411158832732
 20
148.6500312438771
 30
0.0
 10
146.4681210223058
 20
148.1513519550262
 30
0.0
 10
146.5371309932652
 20
147.5671770641919
 30
0.0
 10
146.6124156403326
 20
146.969272031936
 30
0.0
 10
146.6881211402606
 20
146.426028545847
 30
0.0
 10
146.7593271726601
 20
145.9809617440532
 30
0.0
 10
146.8258956823965
 20
145.6294324975944
 30
0.0
 10
146.8883352865719
 20
145.359746342759
 30
0.0
 10
146.9465247436991
 20
145.1628685905929
 30
0.0
 10
146.9987741690583
 20
145.0292547892771
 30
0.0
 10
147.0441725605319
 20
144.9443955970634
 30
0.0
 10
147.0806745283967
 20
144.8933487469712
 30
0.0
 10
147.1237061731722
 20
144.846914646105
 30
0.0
 10
147.2056593712788
 20
144.7800184363157
 30
0.0
 10
147.2964955937168
 20
144.7670914248465
 30
0.0
 10
147.3471462402669
 20
144.7598832707501
 30
0.0
  0
SPLINE
  5
E2
330
1F
100
AcDbEntity
  8
0
  6
Continuous
 62
     7
370
    15
100
AcDbSpline
210
0.0
220
0.0
230
1.0
 70
     8
 71
     3
 72
    20
 73
    16
 74
     0
 42
0.00000001
 43
0.00000001
 12
1.0
 22
0.0
 32
0.0
 13
1.0
 23
0.0
 33
0.0
 40
0.0
 40
0.0
 40
0.0
 40
0.0
 40
0.0089931444486506
 40
0.0457859287357243
 40
0.0988931210076369
 40
0.1661519458551455
 40
0.2404129655002931
 40
0.3211613585630756
 40
0.4084347825222113
 40
0.5018718721387923
 40
0.5980038096191787
 40
0.6959076172964915
 40
0.7955858303584594
 40
0.8969215571276704
 40
1.0
 40
1.0
 40
1.0
 40
1.0
 10
148.7234242894091
 20
153.3010506076461
 30
0.0
 10
148.7229572020885
 20
153.3012868553433
 30
0.0
 10
148.7205791654744
 20
153.3024896404524
 30
0.0
 10
148.7424301314423
 20
153.2660938176822
 30
0.0
 10
148.7747786785227
 20
153.1781218874683
 30
0.0
 10
148.8257458389632
 20
153.0014613671237
 30
0.0
 10
148.8869145762316
 20
152.7235246947132
 30
0.0
 10
148.957038273273
 20
152.3325165088668
 30
0.0
 10
149.0341343030008
 20
151.8229785315842
 30
0.0
 10
149.1166609908053
 20
151.2030765951194
 30
0.0
 10
149.2025025072738
 20
150.4949624376692
 30
0.0
 10
149.2902356608836
 20
149.7272639377013
 30
0.0
 10
149.379496471759
 20
148.9301873955685
 30
0.0
 10
149.4704640420429
 20
148.124193515961
 30
0.0
 10
149.5315821294421
 20
147.6221100826704
 30
0.0
 10
149.5624017017422
 20
147.368928130625
 30
0.0
  0
SPLINE
  5
E3
330
1F
100
AcDbEntity
  8
0
  6
Continuous
 62
     7
370
    15
100
AcDbSpline
210
0.0
220
0.0
230
1.0
 70
     8
 71
     3
 72
    14
 73
    10
 74
     0
 42
0.00000001
 43
0.00000001
 12
1.0
 22
0.0
 32
0.0
 13
1.0
 23
0.0
 33
0.0
 40
0.0
 40
0.0
 40
0.0
 40
0.0
 40
0.1386597872688341
 40
0.3117734804183991
 40
0.5063405136585208
 40
0.6717623555853323
 40
0.8077150523829616
 40
0.9552388506237861
 40
1.0
 40
1.0
 40
1.0
 40
1.0
 10
148.8473245121728
 20
153.7581525744838
 30
0.0
 10
148.7965557032065
 20
153.749685922983
 30
0.0
 10
148.6824031534307
 20
153.730648843395
 30
0.0
 10
148.5784862926905
 20
153.6250127163097
 30
0.0
 10
148.4976072789276
 20
153.4913779925994
 30
0.0
 10
148.4378113711971
 20
153.3306146764494
 30
0.0
 10
148.3939708201024
 20
153.1772890013741
 30
0.0
 10
148.3628769403977
 20
153.055476677948
 30
0.0
 10
148.3449166605106
 20
152.9681207494761
 30
0.0
 10
148.3407357676179
 20
152.9477855552153
 30
0.0
  0
SPLINE
  5
E4
330
1F
100
AcDbEntity
  8
0
  6
Continuous
 62
     7
370
    15
100
AcDbSpline
210
0.0
220
0.0
230
1.0
 70
     8
 71
     3
 72
    11
 73
     7
 74
     0
 42
0.00000001
 43
0.00000001
 12
1.0
 22
0.0
 32
0.0
 13
1.0
 23
0.0
 33
0.0
 40
0.0
 40
0.0
 40
0.0
 40
0.0
 40
0.0478386245149867
 40
0.2809587203024771
 40
0.7259417271944018
 40
1.0
 40
1.0
 40
1.0
 40
1.0
 10
147.5412728260169
 20
146.7585096416119
 30
0.0
 10
147.5379802220633
 20
146.7343214938076
 30
0.0
 10
147.5186425884537
 20
146.5922632485613
 30
0.0
 10
147.4690003017861
 20
146.2656125698411
 30
0.0
 10
147.4027268254178
 20
145.8664553936572
 30
0.0
 10
147.3573254704312
 20
145.6752978003364
 30
0.0
 10
147.340021016178
 20
145.6024392297113
 30
0.0
  0
SPLINE
  5
E5
330
1F
100
AcDbEntity
  8
0
  6
Continuous
 62
     7
370
    15
100
AcDbSpline
210
0.0
220
0.0
230
1.0
 70
     8
 71
     3
 72
    16
 73
    12
 74
     0
 42
0.00000001
 43
0.00000001
 12
1.0
 22
0.0
 32
0.0
 13
1.0
 23
0.0
 33
0.0
 40
0.0
 40
0.0
 40
0.0
 40
0.0
 40
0.0744617363446709
 40
0.142854634887588
 40
0.2619916524710247
 40
0.3676862800696954
 40
0.4721800121148702
 40
0.6103202884914454
 40
0.7537333485968769
 40
0.9127768817369615
 40
1.0
 40
1.0
 40
1.0
 40
1.0
 10
145.8477511564249
 20
153.7584171205593
 30
0.0
 10
145.8043066873868
 20
153.7530250056595
 30
0.0
 10
145.7209585938962
 20
153.7426802481627
 30
0.0
 10
145.5989852894384
 20
153.6542645156797
 30
0.0
 10
145.5120387834737
 20
153.5234954318944
 30
0.0
 10
145.452796041622
 20
153.3739811630067
 30
0.0
 10
145.3894795333841
 20
153.1678369470932
 30
0.0
 10
145.3265665409411
 20
152.8964498583381
 30
0.0
 10
145.256669962564
 20
152.5218791795517
 30
0.0
 10
145.1951662747605
 20
152.1371204686804
 30
0.0
 10
145.1565299382217
 20
151.8575340194155
 30
0.0
 10
145.1428456584706
 20
151.7585096416119
 30
0.0
  0
SPLINE
  5
E6
330
1F
100
AcDbEntity
  8
0
  6
Continuous
 62
     7
370
    15
100
AcDbSpline
210
0.0
220
0.0
230
1.0
 70
     8
 71
     3
 72
    11
 73
     7
 74
     0
 42
0.00000001
 43
0.00000001
 12
1.0
 22
0.0
 32
0.0
 13
1.0
 23
0.0
 33
0.0
 40
0.0
 40
0.0
 40
0.0
 40
0.0
 40
0.3384413656572903
 40
0.6603464452045817
 40
0.9532929736365169
 40
0.9999999999999999
 40
0.9999999999999999
 40
0.9999999999999999
 40
0.9999999999999999
 10
144.5414808672913
 20
146.7585096416119
 30
0.0
 10
144.5183556259946
 20
146.5977778614616
 30
0.0
 10
144.4732350454913
 20
146.2841676754033
 30
0.0
 10
144.4096427935648
 20
145.9185593688779
 30
0.0
 10
144.3658904683586
 20
145.6925918663667
 30
0.0
 10
144.3450551972152
 20
145.609032327898
 30
0.0
 10
144.3421900614177
 20
145.5975417442987
 30
0.0
  0
SPLINE
  5
E7
330
1F
100
AcDbEntity
  8
0
  6
Continuous
 62
     7
370
    15
100
AcDbSpline
210
0.0
220
0.0
230
1.0
 70
     8
 71
     3
 72
    19
 73
    15
 74
     0
 42
0.00000001
 43
0.00000001
 12
1.0
 22
0.0
 32
0.0
 13
1.0
 23
0.0
 33
0.0
 40
0.0
 40
0.0
 40
0.0
 40
0.0
 40
0.070656273645015
 40
0.1267797918639053
 40
0.1548645973006559
 40
0.2005682765605665
 40
0.2649155653061465
 40
0.3477712794100671
 40
0.448415669778441
 40
0.5617874271297625
 40
0.6866529593789443
 40
0.8230924512312591
 40
0.9711637429294848
 40
1.0
 40
1.0
 40
1.0
 40
1.0
 10
142.8478889542806
 20
153.7583638162942
 30
0.0
 10
142.7987095993513
 20
153.7517173404225
 30
0.0
 10
142.7104662196725
 20
153.739791452116
 30
0.0
 10
142.6304653877988
 20
153.6767046160948
 30
0.0
 10
142.5868544931017
 20
153.6309811426101
 30
0.0
 10
142.5538669184732
 20
153.5865557339065
 30
0.0
 10
142.5122831349703
 20
153.5142241460642
 30
0.0
 10
142.4645607737859
 20
153.4028207452243
 30
0.0
 10
142.4108162339313
 20
153.2385112395591
 30
0.0
 10
142.3528486010407
 20
153.0111965793631
 30
0.0
 10
142.2910124798123
 20
152.7123946070175
 30
0.0
 10
142.225104683748
 20
152.3264714177641
 30
0.0
 10
142.1753020480927
 20
152.0028065665842
 30
0.0
 10
142.1474269234701
 20
151.7927493549355
 30
0.0
 10
142.1428832266913
 20
151.7585096416119
 30
0.0
  0
SPLINE
  5
E8
330
1F
100
AcDbEntity
  8
0
  6
Continuous
 62
     7
370
    15
100
AcDbSpline
210
0.0
220
0.0
230
1.0
 70
     8
 71
     3
 72
    12
 73
     8
 74
     0
 42
0.00000001
 43
0.00000001
 12
1.0
 22
0.0
 32
0.0
 13
1.0
 23
0.0
 33
0.0
 40
0.0
 40
0.0
 40
0.0
 40
0.0
 40
0.017312505227716
 40
0.2861306119074266
 40
0.5326731695771096
 40
0.7570826733736356
 40
0.9999999999999999
 40
0.9999999999999999
 40
0.9999999999999999
 40
0.9999999999999999
 10
141.541398233775
 20
146.7585096416119
 30
0.0
 10
141.5402135572056
 20
146.7496917888413
 30
0.0
 10
141.5206339396254
 20
146.6039556532696
 30
0.0
 10
141.4842184811781
 20
146.3643406822925
 30
0.0
 10
141.4342480924909
 20
146.0572783500168
 30
0.0
 10
141.3850813936068
 20
145.7928359954151
 30
0.0
 10
141.356626236222
 20
145.66272591791
 30
0.0
 10
141.3418351942559
 20
145.5950944657075
 30
0.0
  0
LINE
  5
E9
330
1F
100
AcDbEntity
  8
0
  6
Continuous
 62
     7
370
    15
100
AcDbLine
 10
124.101459854
 20
145.5085096416
 30
0.0
 11
125.8576843466
 21
145.5085096416
 31
0.0
  0
LINE
  5
EA
330
1F
100
AcDbEntity
  8
0
  6
Continuous
 62
     7
370
    15
100
AcDbLine
 10
126.3636372038
 20
145.5085096416
 30
0.0
 11
128.101459854
 21
145.5085096416
 31
0.0
  0
LINE
  5
EB
330
1F
100
AcDbEntity
  8
0
  6
Continuous
 62
     7
370
    15
100
AcDbLine
 10
127.8196033547
 20
153.0085096416
 30
0.0
 11
125.3293675358
 21
153.0085096416
 31
0.0
  0
LINE
  5
EC
330
1F
100
AcDbEntity
  8
0
  6
Continuous
 62
     7
370
    15
100
AcDbLine
 10
124.8198950552
 20
153.0085096416
 30
0.0
 11
124.101459854
 21
153.0085096416
 31
0.0
  0
LINE
  5
ED
330
1F
100
AcDbEntity
  8
0
  6
Continuous
 62
     7
370
    15
100
AcDbLine
 10
110.601459854
 20
145.7585096416
 30
0.0
 11
112.601459854
 21
145.7585096416
 31
0.0
  0
LINE
  5
EE
330
1F
100
AcDbEntity
  8
0
  6
Continuous
 62
     7
370
    15
100
AcDbLine
 10
112.601459854
 20
152.7585096416
 30
0.0
 11
110.601459854
 21
152.7585096416
 31
0.0
  0
LINE
  5
EF
330
1F
100
AcDbEntity
  8
0
  6
Continuous
 62
     7
370
    15
100
AcDbLine
 10
171.601459854
 20
146.7585096416
 30
0.0
 11
172.101459854
 21
147.2585096416
 31
0.0
  0
LINE
  5
F0
330
1F
100
AcDbEntity
  8
0
  6
Continuous
 62
     7
370
    15
100
AcDbLine
 10
172.101459854
 20
151.2585096416
 30
0.0
 11
171.601459854
 21
151.7585096416
 31
0.0
  0
LINE
  5
F1
330
1F
100
AcDbEntity
  8
0
  6
Continuous
 62
     7
370
    15
100
AcDbLine
 10
170.801459854
 20
146.7585096416
 30
0.0
 11
171.601459854
 21
146.7585096416
 31
0.0
  0
LINE
  5
F2
330
1F
100
AcDbEntity
  8
0
  6
Continuous
 62
     7
370
    15
100
AcDbLine
 10
171.601459854
 20
151.7585096416
 30
0.0
 11
170.801459854
 21
151.7585096416
 31
0.0
  0
LINE
  5
F3
330
1F
100
AcDbEntity
  8
0
  6
Continuous
 62
     7
370
    15
100
AcDbLine
 10
128.101459854
 20
146.7585096416
 30
0.0
 11
128.643075858
 21
146.7585096416
 31
0.0
  0
LINE
  5
F4
330
1F
100
AcDbEntity
  8
0
  6
Continuous
 62
     7
370
    15
100
AcDbLine
 10
129.1421176719
 20
146.7585096416
 30
0.0
 11
131.6426420399
 21
146.7585096416
 31
0.0
  0
LINE
  5
F5
330
1F
100
AcDbEntity
  8
0
  6
Continuous
 62
     7
370
    15
100
AcDbLine
 10
132.1423852042
 20
146.7585096416
 30
0.0
 11
134.6424598939
 21
146.7585096416
 31
0.0
  0
LINE
  5
F6
330
1F
100
AcDbEntity
  8
0
  6
Continuous
 62
     7
370
    15
100
AcDbLine
 10
135.1426562412
 20
146.7585096416
 30
0.0
 11
137.6431790136
 21
146.7585096416
 31
0.0
  0
LINE
  5
F7
330
1F
100
AcDbEntity
  8
0
  6
Continuous
 62
     7
370
    15
100
AcDbLine
 10
138.1419299481
 20
146.7585096416
 30
0.0
 11
140.6427791068
 21
146.7585096416
 31
0.0
  0
LINE
  5
F8
330
1F
100
AcDbEntity
  8
0
  6
Continuous
 62
     7
370
    15
100
AcDbLine
 10
141.1422630491
 20
146.7585096416
 30
0.0
 11
143.6425313212
 21
146.7585096416
 31
0.0
  0
LINE
  5
F9
330
1F
100
AcDbEntity
  8
0
  6
Continuous
 62
     7
370
    15
100
AcDbLine
 10
144.1426199421
 20
146.7585096416
 30
0.0
 11
146.6432572071
 21
146.7585096416
 31
0.0
  0
LINE
  5
FA
330
1F
100
AcDbEntity
  8
0
  6
Continuous
 62
     7
370
    15
100
AcDbLine
 10
147.1418975379
 20
146.7585096416
 30
0.0
 11
148.101459854
 21
146.7585096416
 31
0.0
  0
LINE
  5
FB
330
1F
100
AcDbEntity
  8
0
  6
Continuous
 62
     7
370
    15
100
AcDbLine
 10
148.101459854
 20
151.7585096416
 30
0.0
 11
146.5405464402
 21
151.7585096416
 31
0.0
  0
LINE
  5
FC
330
1F
100
AcDbEntity
  8
0
  6
Continuous
 62
     7
370
    15
100
AcDbLine
 10
146.0411655743
 20
151.7585096416
 30
0.0
 11
143.5396458359
 21
151.7585096416
 31
0.0
  0
LINE
  5
FD
330
1F
100
AcDbEntity
  8
0
  6
Continuous
 62
     7
370
    15
100
AcDbLine
 10
143.0409815723
 20
151.7585096416
 30
0.0
 11
140.5408455428
 21
151.7585096416
 31
0.0
  0
LINE
  5
FE
330
1F
100
AcDbEntity
  8
0
  6
Continuous
 62
     7
370
    15
100
AcDbLine
 10
140.0413638103
 20
151.7585096416
 30
0.0
 11
137.5405109215
 21
151.7585096416
 31
0.0
  0
LINE
  5
FF
330
1F
100
AcDbEntity
  8
0
  6
Continuous
 62
     7
370
    15
100
AcDbLine
 10
137.0413257469
 20
151.7585096416
 30
0.0
 11
134.5407629473
 21
151.7585096416
 31
0.0
  0
LINE
  5
100
330
1F
100
AcDbEntity
  8
0
  6
Continuous
 62
     7
370
    15
100
AcDbLine
 10
134.0411351295
 20
151.7585096416
 30
0.0
 11
131.5400394896
 21
151.7585096416
 31
0.0
  0
LINE
  5
101
330
1F
100
AcDbEntity
  8
0
  6
Continuous
 62
     7
370
    15
100
AcDbLine
 10
131.0410580884
 20
151.7585096416
 30
0.0
 11
128.5405086815
 21
151.7585096416
 31
0.0
  0
LINE
  5
102
330
1F
100
AcDbEntity
  8
0
  6
Continuous
 62
     7
370
    15
100
AcDbLine
 10
112.601459854
 20
146.7585096416
 30
0.0
 11
116.101459854
 21
146.7585096416
 31
0.0
  0
LINE
  5
103
330
1F
100
AcDbEntity
  8
0
  6
Continuous
 62
     7
370
    15
100
AcDbLine
 10
116.101459854
 20
151.7585096416
 30
0.0
 11
112.601459854
 21
151.7585096416
 31
0.0
  0
LINE
  5
104
330
1F
100
AcDbEntity
  8
0
  6
Continuous
 62
     7
370
    15
100
AcDbLine
 10
170.101459854
 20
147.7585096416
 30
0.0
 11
170.201459854
 21
147.7585096416
 31
0.0
  0
LINE
  5
105
330
1F
100
AcDbEntity
  8
0
  6
Continuous
 62
     7
370
    15
100
AcDbLine
 10
170.201459854
 20
150.7585096416
 30
0.0
 11
170.101459854
 21
150.7585096416
 31
0.0
  0
LINE
  5
106
330
1F
100
AcDbEntity
  8
0
  6
Continuous
 62
     7
370
    15
100
AcDbLine
 10
151.801459854
 20
143.2585096416
 30
0.0
 11
152.101459854
 21
143.5585096416
 31
0.0
  0
LINE
  5
107
330
1F
100
AcDbEntity
  8
0
  6
Continuous
 62
     7
370
    15
100
AcDbLine
 10
152.101459854
 20
154.9585096416
 30
0.0
 11
151.801459854
 21
155.2585096416
 31
0.0
  0
LINE
  5
108
330
1F
100
AcDbEntity
  8
0
  6
Continuous
 62
     7
370
    15
100
AcDbLine
 10
151.801459854
 20
155.2585096416
 30
0.0
 11
150.401459854
 21
155.2585096416
 31
0.0
  0
LINE
  5
109
330
1F
100
AcDbEntity
  8
0
  6
Continuous
 62
     7
370
    15
100
AcDbLine
 10
150.401459854
 20
143.2585096416
 30
0.0
 11
151.801459854
 21
143.2585096416
 31
0.0
  0
LINE
  5
10A
330
1F
100
AcDbEntity
  8
0
  6
Continuous
 62
     7
370
    15
100
AcDbLine
 10
150.401459854
 20
155.2585096416
 30
0.0
 11
150.101459854
 21
154.9585096416
 31
0.0
  0
LINE
  5
10B
330
1F
100
AcDbEntity
  8
0
  6
Continuous
 62
     7
370
    15
100
AcDbLine
 10
150.101459854
 20
143.5585096416
 30
0.0
 11
150.401459854
 21
143.2585096416
 31
0.0
  0
LINE
  5
10C
330
1F
100
AcDbEntity
  8
0
  6
Continuous
 62
     7
370
    15
100
AcDbLine
 10
169.801459854
 20
145.2585096416
 30
0.0
 11
170.101459854
 21
145.5585096416
 31
0.0
  0
LINE
  5
10D
330
1F
100
AcDbEntity
  8
0
  6
Continuous
 62
     7
370
    15
100
AcDbLine
 10
170.101459854
 20
152.9585096416
 30
0.0
 11
169.801459854
 21
153.2585096416
 31
0.0
  0
LINE
  5
10E
330
1F
100
AcDbEntity
  8
0
  6
Continuous
 62
     7
370
    15
100
AcDbLine
 10
169.801459854
 20
153.2585096416
 30
0.0
 11
152.101459854
 21
153.2585096416
 31
0.0
  0
LINE
  5
10F
330
1F
100
AcDbEntity
  8
0
  6
Continuous
 62
     7
370
    15
100
AcDbLine
 10
152.101459854
 20
145.2585096416
 30
0.0
 11
169.801459854
 21
145.2585096416
 31
0.0
  0
LINE
  5
110
330
1F
100
AcDbEntity
  8
0
  6
Continuous
 62
     7
370
    15
100
AcDbLine
 10
150.101459854
 20
153.0085096416
 30
0.0
 11
149.3274882975
 21
153.0085096416
 31
0.0
  0
LINE
  5
111
330
1F
100
AcDbEntity
  8
0
  6
Continuous
 62
     7
370
    15
100
AcDbLine
 10
148.8210462265
 20
153.0085096416
 30
0.0
 11
148.401459854
 21
153.0085096416
 31
0.0
  0
LINE
  5
112
330
1F
100
AcDbEntity
  8
0
  6
Continuous
 62
     7
370
    15
100
AcDbLine
 10
148.401459854
 20
145.5085096416
 30
0.0
 11
150.101459854
 21
145.5085096416
 31
0.0
  0
LINE
  5
113
330
1F
100
AcDbEntity
  8
0
  6
Continuous
 62
     7
370
    15
100
AcDbLine
 10
148.401459854
 20
153.0085096416
 30
0.0
 11
148.101459854
 21
152.7085096416
 31
0.0
  0
LINE
  5
114
330
1F
100
AcDbEntity
  8
0
  6
Continuous
 62
     7
370
    15
100
AcDbLine
 10
148.101459854
 20
145.8085096416
 30
0.0
 11
148.401459854
 21
145.5085096416
 31
0.0
  0
LINE
  5
115
330
1F
100
AcDbEntity
  8
0
  6
Continuous
 62
     7
370
    15
100
AcDbLine
 10
116.101459854
 20
156.0585096416
 30
0.0
 11
116.101459854
 21
155.2585096416
 31
0.0
  0
LINE
  5
116
330
1F
100
AcDbEntity
  8
0
  6
Continuous
 62
     7
370
    15
100
AcDbLine
 10
124.101459854
 20
155.2585096416
 30
0.0
 11
124.101459854
 21
156.0585096416
 31
0.0
  0
LINE
  5
117
330
1F
100
AcDbEntity
  8
0
  6
Continuous
 62
     7
370
    15
100
AcDbLine
 10
116.101459854
 20
143.2585096416
 30
0.0
 11
116.101459854
 21
142.4585096416
 31
0.0
  0
LINE
  5
118
330
1F
100
AcDbEntity
  8
0
  6
Continuous
 62
     7
370
    15
100
AcDbLine
 10
124.101459854
 20
142.4585096416
 30
0.0
 11
124.101459854
 21
143.2585096416
 31
0.0
  0
LINE
  5
119
330
1F
100
AcDbEntity
  8
0
  6
Continuous
 62
     7
370
    15
100
AcDbLine
 10
170.801459854
 20
151.7858605408
 30
0.0
 11
170.201459854
 21
151.7858605408
 31
0.0
  0
LINE
  5
11A
330
1F
100
AcDbEntity
  8
0
  6
Continuous
 62
     7
370
    15
100
AcDbLine
 10
170.201459854
 20
145.7585096416
 30
0.0
 11
170.201459854
 21
151.7858605408
 31
0.0
  0
LINE
  5
11B
330
1F
100
AcDbEntity
  8
0
  6
Continuous
 62
     7
370
    15
100
AcDbLine
 10
170.801459854
 20
145.7585096416
 30
0.0
 11
170.801459854
 21
151.7858605408
 31
0.0
  0
LINE
  5
11C
330
1F
100
AcDbEntity
  8
0
  6
Continuous
 62
     7
370
    15
100
AcDbLine
 10
170.201459854
 20
151.7858605408
 30
0.0
 11
170.201459854
 21
151.8414404894
 31
0.0
  0
LINE
  5
11D
330
1F
100
AcDbEntity
  8
0
  6
Continuous
 62
     7
370
    15
100
AcDbLine
 10
170.801459854
 20
151.8414404894
 30
0.0
 11
170.801459854
 21
151.7858605408
 31
0.0
  0
LINE
  5
11E
330
1F
100
AcDbEntity
  8
0
  6
Continuous
 62
     7
370
    15
100
AcDbLine
 10
123.6088627393
 20
139.9585096416
 30
0.0
 11
123.6088627393
 21
142.4585096416
 31
0.0
  0
LINE
  5
11F
330
1F
100
AcDbEntity
  8
0
  6
Continuous
 62
     7
370
    15
100
AcDbLine
 10
120.101459854
 20
139.9585096416
 30
0.0
 11
120.101459854
 21
142.4585096416
 31
0.0
  0
LINE
  5
120
330
1F
100
AcDbEntity
  8
0
  6
Continuous
 62
     7
370
    15
100
AcDbLine
 10
120.101459854
 20
142.4585096416
 30
0.0
 11
120.1897503114
 21
142.4585096416
 31
0.0
  0
LINE
  5
121
330
1F
100
AcDbEntity
  8
0
  6
Continuous
 62
     7
370
    15
100
AcDbLine
 10
123.520572282
 20
142.4585096416
 30
0.0
 11
123.6088627393
 21
142.4585096416
 31
0.0
  0
LINE
  5
122
330
1F
100
AcDbEntity
  8
0
  6
Continuous
 62
     7
370
    15
100
AcDbLine
 10
120.101459854
 20
139.9585096416
 30
0.0
 11
123.6088627393
 21
139.9585096416
 31
0.0
  0
LINE
  5
123
330
1F
100
AcDbEntity
  8
0
  6
Continuous
 62
     7
370
    15
100
AcDbLine
 10
116.5940569687
 20
139.9585096416
 30
0.0
 11
116.5940569687
 21
142.4585096416
 31
0.0
  0
LINE
  5
124
330
1F
100
AcDbEntity
  8
0
  6
Continuous
 62
     7
370
    15
100
AcDbLine
 10
116.5940569687
 20
142.4585096416
 30
0.0
 11
116.682347426
 21
142.4585096416
 31
0.0
  0
LINE
  5
125
330
1F
100
AcDbEntity
  8
0
  6
Continuous
 62
     7
370
    15
100
AcDbLine
 10
120.0131693967
 20
142.4585096416
 30
0.0
 11
120.101459854
 21
142.4585096416
 31
0.0
  0
LINE
  5
126
330
1F
100
AcDbEntity
  8
0
  6
Continuous
 62
     7
370
    15
100
AcDbLine
 10
116.5940569687
 20
139.9585096416
 30
0.0
 11
120.101459854
 21
139.9585096416
 31
0.0
  0
LINE
  5
127
330
1F
100
AcDbEntity
  8
0
  6
Continuous
 62
     7
370
    15
100
AcDbLine
 10
122.451459854
 20
137.4585096416
 30
0.0
 11
117.751459854
 21
137.4585096416
 31
0.0
  0
LINE
  5
128
330
1F
100
AcDbEntity
  8
0
  6
Continuous
 62
     7
370
    15
100
AcDbLine
 10
122.1366195529
 20
134.9585096416
 30
0.0
 11
117.751459854
 21
134.9585096416
 31
0.0
  0
LINE
  5
129
330
1F
100
AcDbEntity
  8
0
  6
Continuous
 62
     7
370
    15
100
AcDbLine
 10
122.451459854
 20
134.9585096416
 30
0.0
 11
122.1366195529
 21
134.9585096416
 31
0.0
  0
LINE
  5
12A
330
1F
100
AcDbEntity
  8
0
  6
Continuous
 62
     7
370
    15
100
AcDbLine
 10
121.8335106616
 20
132.4585096416
 30
0.0
 11
118.101459854
 21
132.4585096416
 31
0.0
  0
LINE
  5
12B
330
1F
100
AcDbEntity
  8
0
  6
Continuous
 62
     7
370
    15
100
AcDbLine
 10
122.101459854
 20
132.4585096416
 30
0.0
 11
121.8335106616
 21
132.4585096416
 31
0.0
  0
SPLINE
  5
12C
330
1F
100
AcDbEntity
  8
0
  6
Continuous
 62
     7
370
    15
100
AcDbSpline
210
0.0
220
0.0
230
1.0
 70
     8
 71
     3
 72
    10
 73
     6
 74
     0
 42
0.00000001
 43
0.00000001
 12
1.0
 22
0.0
 32
0.0
 13
1.0
 23
0.0
 33
0.0
 40
0.5000240753719273
 40
0.5000240753719273
 40
0.5000240753719273
 40
0.5000240753719273
 40
0.6666666666666999
 40
0.8333333333333001
 40
0.9999756847801039
 40
0.9999756847801039
 40
0.9999756847801039
 40
0.9999756847801039
 10
141.3442958547142
 20
144.7597572134951
 30
0.0
 10
141.4308858842611
 20
144.7597716521063
 30
0.0
 10
141.6040659460613
 20
144.8597439278346
 30
0.0
 10
141.6040659460613
 20
145.1596317302789
 30
0.0
 10
141.4308861335005
 20
145.2596040059962
 30
0.0
 10
141.3442962286007
 20
145.2596185884243
 30
0.0
  0
SPLINE
  5
12D
330
1F
100
AcDbEntity
  8
0
  6
Continuous
 62
     7
370
    15
100
AcDbSpline
210
0.0
220
0.0
230
1.0
 70
     8
 71
     3
 72
    12
 73
     8
 74
     0
 42
0.00000001
 43
0.00000001
 12
1.0
 22
0.0
 32
0.0
 13
1.0
 23
0.0
 33
0.0
 40
0.0
 40
0.0
 40
0.0
 40
0.0
 40
0.205578401031399
 40
0.4105313990189315
 40
0.629531519712948
 40
0.8338903850497953
 40
1.0
 40
1.0
 40
1.0
 40
1.0
 10
149.8109629157068
 20
147.264463874019
 30
0.0
 10
149.8387639641282
 20
147.2657913234702
 30
0.0
 10
149.8942814856449
 20
147.2684421840547
 30
0.0
 10
149.9698578952192
 20
147.2876372409998
 30
0.0
 10
150.0278989633528
 20
147.3157036063911
 30
0.0
 10
150.0587464706533
 20
147.3493830323949
 30
0.0
 10
150.0581601245687
 20
147.371655084603
 30
0.0
 10
150.0578972203609
 20
147.3816413647141
 30
0.0
  0
SPLINE
  5
12E
330
1F
100
AcDbEntity
  8
0
  6
Continuous
 62
     7
370
    15
100
AcDbSpline
210
0.0
220
0.0
230
1.0
 70
     8
 71
     3
 72
    12
 73
     8
 74
     0
 42
0.00000001
 43
0.00000001
 12
1.0
 22
0.0
 32
0.0
 13
1.0
 23
0.0
 33
0.0
 40
0.0
 40
0.0
 40
0.0
 40
0.0
 40
0.2202820578324561
 40
0.4398946262121545
 40
0.6745367862647935
 40
0.8934544479401717
 40
1.0
 40
1.0
 40
1.0
 40
1.0
 10
149.8109629157068
 20
147.264463874019
 30
0.0
 10
149.7831687094671
 20
147.2657960056821
 30
0.0
 10
149.7276647701768
 20
147.268456220344
 30
0.0
 10
149.6519619581092
 20
147.2876562119537
 30
0.0
 10
149.5944775370427
 20
147.315761883991
 30
0.0
 10
149.5655758841137
 20
147.3455482931889
 30
0.0
 10
149.5654402237571
 20
147.3637757566907
 30
0.0
 10
149.5653958131847
 20
147.3697428063587
 30
0.0
  0
LINE
  5
12F
330
1F
100
AcDbEntity
  8
0
  6
Continuous
 62
     7
370
    15
100
AcDbLine
 10
124.101459854
 20
155.2585096416
 30
0.0
 11
122.101459854
 21
155.2585096416
 31
0.0
  0
LINE
  5
130
330
1F
100
AcDbEntity
  8
0
  6
Continuous
 62
     7
370
    15
100
AcDbLine
 10
118.101459854
 20
155.2585096416
 30
0.0
 11
116.101459854
 21
155.2585096416
 31
0.0
  0
LINE
  5
131
330
1F
100
AcDbEntity
  8
0
  6
Continuous
 62
     7
370
    15
100
AcDbLine
 10
124.101459854
 20
155.2585096416
 30
0.0
 11
124.101459854
 21
149.2585096416
 31
0.0
  0
LINE
  5
132
330
1F
100
AcDbEntity
  8
0
  6
Continuous
 62
     7
370
    15
100
AcDbLine
 10
124.101459854
 20
149.2585096416
 30
0.0
 11
116.101459854
 21
149.2585096416
 31
0.0
  0
LINE
  5
133
330
1F
100
AcDbEntity
  8
0
  6
Continuous
 62
     7
370
    15
100
AcDbLine
 10
116.101459854
 20
155.2585096416
 30
0.0
 11
116.101459854
 21
149.2585096416
 31
0.0
  0
LINE
  5
134
330
1F
100
AcDbEntity
  8
0
  6
Continuous
 62
     7
370
    15
100
AcDbLine
 10
124.101459854
 20
149.2585096416
 30
0.0
 11
124.101459854
 21
143.2585096416
 31
0.0
  0
LINE
  5
135
330
1F
100
AcDbEntity
  8
0
  6
Continuous
 62
     7
370
    15
100
AcDbLine
 10
124.101459854
 20
143.2585096416
 30
0.0
 11
122.101459854
 21
143.2585096416
 31
0.0
  0
LINE
  5
136
330
1F
100
AcDbEntity
  8
0
  6
Continuous
 62
     7
370
    15
100
AcDbLine
 10
118.101459854
 20
143.2585096416
 30
0.0
 11
116.101459854
 21
143.2585096416
 31
0.0
  0
LINE
  5
137
330
1F
100
AcDbEntity
  8
0
  6
Continuous
 62
     7
370
    15
100
AcDbLine
 10
116.101459854
 20
149.2585096416
 30
0.0
 11
116.101459854
 21
143.2585096416
 31
0.0
  0
LINE
  5
138
330
1F
100
AcDbEntity
  8
0
  6
Continuous
 62
     7
370
    15
100
AcDbLine
 10
128.101459854
 20
151.3231981639
 30
0.0
 11
128.101459854
 21
145.5085096416
 31
0.0
  0
LINE
  5
139
330
1F
100
AcDbEntity
  8
0
  6
Continuous
 62
     7
370
    15
100
AcDbLine
 10
110.601459854
 20
152.7585096416
 30
0.0
 11
110.601459854
 21
145.7585096416
 31
0.0
  0
LINE
  5
13A
330
1F
100
AcDbEntity
  8
0
  6
Continuous
 62
     7
370
    15
100
AcDbLine
 10
112.601459854
 20
152.7585096416
 30
0.0
 11
112.601459854
 21
145.7585096416
 31
0.0
  0
LINE
  5
13B
330
1F
100
AcDbEntity
  8
0
  6
Continuous
 62
     7
370
    15
100
AcDbLine
 10
172.101459854
 20
151.2585096416
 30
0.0
 11
172.101459854
 21
147.2585096416
 31
0.0
  0
LINE
  5
13C
330
1F
100
AcDbEntity
  8
0
  6
Continuous
 62
     7
370
    15
100
AcDbLine
 10
171.601459854
 20
146.7585096416
 30
0.0
 11
171.601459854
 21
151.7585096416
 31
0.0
  0
LINE
  5
13D
330
1F
100
AcDbEntity
  8
0
  6
Continuous
 62
     7
370
    15
100
AcDbLine
 10
123.6088627393
 20
156.0585096416
 30
0.0
 11
123.6088627393
 21
158.5585096416
 31
0.0
  0
LINE
  5
13E
330
1F
100
AcDbEntity
  8
0
  6
Continuous
 62
     7
370
    15
100
AcDbLine
 10
120.101459854
 20
156.0585096416
 30
0.0
 11
120.1014598541
 21
158.5585096416
 31
0.0
  0
LINE
  5
13F
330
1F
100
AcDbEntity
  8
0
  6
Continuous
 62
     7
370
    15
100
AcDbLine
 10
120.1014598541
 20
158.5585096416
 30
0.0
 11
123.6088627393
 21
158.5585096416
 31
0.0
  0
LINE
  5
140
330
1F
100
AcDbEntity
  8
0
  6
Continuous
 62
     7
370
    15
100
AcDbLine
 10
120.101459854
 20
156.0585096416
 30
0.0
 11
120.1897503114
 21
156.0585096416
 31
0.0
  0
LINE
  5
141
330
1F
100
AcDbEntity
  8
0
  6
Continuous
 62
     7
370
    15
100
AcDbLine
 10
123.520572282
 20
156.0585096416
 30
0.0
 11
123.6088627393
 21
156.0585096416
 31
0.0
  0
LINE
  5
142
330
1F
100
AcDbEntity
  8
0
  6
Continuous
 62
     7
370
    15
100
AcDbLine
 10
116.5940569687
 20
156.0585096416
 30
0.0
 11
116.5940569687
 21
158.5585096416
 31
0.0
  0
LINE
  5
143
330
1F
100
AcDbEntity
  8
0
  6
Continuous
 62
     7
370
    15
100
AcDbLine
 10
116.5940569687
 20
158.5585096416
 30
0.0
 11
120.1014598541
 21
158.5585096416
 31
0.0
  0
LINE
  5
144
330
1F
100
AcDbEntity
  8
0
  6
Continuous
 62
     7
370
    15
100
AcDbLine
 10
116.5940569687
 20
156.0585096416
 30
0.0
 11
116.682347426
 21
156.0585096416
 31
0.0
  0
LINE
  5
145
330
1F
100
AcDbEntity
  8
0
  6
Continuous
 62
     7
370
    15
100
AcDbLine
 10
120.0131693967
 20
156.0585096416
 30
0.0
 11
120.101459854
 21
156.0585096416
 31
0.0
  0
LINE
  5
146
330
1F
100
AcDbEntity
  8
0
  6
Continuous
 62
     7
370
    15
100
AcDbLine
 10
152.101459854
 20
154.9585096416
 30
0.0
 11
152.101459854
 21
143.5585096416
 31
0.0
  0
LINE
  5
147
330
1F
100
AcDbEntity
  8
0
  6
Continuous
 62
     7
370
    15
100
AcDbLine
 10
151.801459854
 20
155.2585096416
 30
0.0
 11
151.801459854
 21
143.2585096416
 31
0.0
  0
LINE
  5
148
330
1F
100
AcDbEntity
  8
0
  6
Continuous
 62
     7
370
    15
100
AcDbLine
 10
150.401459854
 20
155.2585096416
 30
0.0
 11
150.401459854
 21
143.2585096416
 31
0.0
  0
LINE
  5
149
330
1F
100
AcDbEntity
  8
0
  6
Continuous
 62
     7
370
    15
100
AcDbLine
 10
150.101459854
 20
154.9585096416
 30
0.0
 11
150.101459854
 21
143.5585096416
 31
0.0
  0
LINE
  5
14A
330
1F
100
AcDbEntity
  8
0
  6
Continuous
 62
     7
370
    15
100
AcDbLine
 10
170.101459854
 20
152.9585096416
 30
0.0
 11
170.101459854
 21
145.5585096416
 31
0.0
  0
LINE
  5
14B
330
1F
100
AcDbEntity
  8
0
  6
Continuous
 62
     7
370
    15
100
AcDbLine
 10
169.801459854
 20
153.2585096416
 30
0.0
 11
169.801459854
 21
145.2585096416
 31
0.0
  0
LINE
  5
14C
330
1F
100
AcDbEntity
  8
0
  6
Continuous
 62
     7
370
    15
100
AcDbLine
 10
148.401459854
 20
153.0085096416
 30
0.0
 11
148.401459854
 21
145.5085096416
 31
0.0
  0
LINE
  5
14D
330
1F
100
AcDbEntity
  8
0
  6
Continuous
 62
     7
370
    15
100
AcDbLine
 10
148.101459854
 20
152.7085096416
 30
0.0
 11
148.101459854
 21
145.8085096416
 31
0.0
  0
LINE
  5
14E
330
1F
100
AcDbEntity
  8
0
  6
Continuous
 62
     7
370
    15
100
AcDbLine
 10
124.101459854
 20
156.0585096416
 30
0.0
 11
123.6088627393
 21
156.0585096416
 31
0.0
  0
LINE
  5
14F
330
1F
100
AcDbEntity
  8
0
  6
Continuous
 62
     7
370
    15
100
AcDbLine
 10
123.520572282
 20
156.0585096416
 30
0.0
 11
120.1897503114
 21
156.0585096416
 31
0.0
  0
LINE
  5
150
330
1F
100
AcDbEntity
  8
0
  6
Continuous
 62
     7
370
    15
100
AcDbLine
 10
120.0131693967
 20
156.0585096416
 30
0.0
 11
116.682347426
 21
156.0585096416
 31
0.0
  0
LINE
  5
151
330
1F
100
AcDbEntity
  8
0
  6
Continuous
 62
     7
370
    15
100
AcDbLine
 10
116.5940569687
 20
156.0585096416
 30
0.0
 11
116.101459854
 21
156.0585096416
 31
0.0
  0
LINE
  5
152
330
1F
100
AcDbEntity
  8
0
  6
Continuous
 62
     7
370
    15
100
AcDbLine
 10
122.101459854
 20
155.2585096416
 30
0.0
 11
118.101459854
 21
155.2585096416
 31
0.0
  0
LINE
  5
153
330
1F
100
AcDbEntity
  8
0
  6
Continuous
 62
     7
370
    15
100
AcDbLine
 10
122.101459854
 20
143.2585096416
 30
0.0
 11
118.101459854
 21
143.2585096416
 31
0.0
  0
LINE
  5
154
330
1F
100
AcDbEntity
  8
0
  6
Continuous
 62
     7
370
    15
100
AcDbLine
 10
124.101459854
 20
142.4585096416
 30
0.0
 11
123.6088627393
 21
142.4585096416
 31
0.0
  0
LINE
  5
155
330
1F
100
AcDbEntity
  8
0
  6
Continuous
 62
     7
370
    15
100
AcDbLine
 10
123.520572282
 20
142.4585096416
 30
0.0
 11
120.1897503114
 21
142.4585096416
 31
0.0
  0
LINE
  5
156
330
1F
100
AcDbEntity
  8
0
  6
Continuous
 62
     7
370
    15
100
AcDbLine
 10
120.0131693967
 20
142.4585096416
 30
0.0
 11
116.682347426
 21
142.4585096416
 31
0.0
  0
LINE
  5
157
330
1F
100
AcDbEntity
  8
0
  6
Continuous
 62
     7
370
    15
100
AcDbLine
 10
116.5940569687
 20
142.4585096416
 30
0.0
 11
116.101459854
 21
142.4585096416
 31
0.0
  0
SPLINE
  5
158
330
1F
100
AcDbEntity
  8
0
  6
Continuous
 62
     8
370
    15
100
AcDbSpline
210
0.0
220
0.0
230
1.0
 70
     8
 71
     3
 72
    30
 73
    26
 74
     0
 42
0.00000001
 43
0.00000001
 12
1.0
 22
0.0
 32
0.0
 13
1.0
 23
0.0
 33
0.0
 40
0.0
 40
0.0
 40
0.0
 40
0.0
 40
0.0391380840301956
 40
0.0832011738581045
 40
0.1272678850584069
 40
0.1713592713991157
 40
0.2154505935135517
 40
0.2595171432969225
 40
0.3035800796257994
 40
0.3476684615097989
 40
0.3917621457185618
 40
0.4358330255546964
 40
0.4798933199557808
 40
0.5239781072324136
 40
0.5680731806880551
 40
0.6121484142845325
 40
0.6562071294474469
 40
0.7002878296888543
 40
0.744383469840227
 40
0.7884631217345827
 40
0.8325216753242911
 40
0.8765980145172165
 40
0.9206933154399781
 40
0.9647771312031341
 40
1.0
 40
1.0
 40
1.0
 40
1.0
 10
132.341035949867
 20
144.7641029717517
 30
0.0
 10
132.3214657520966
 20
144.7689828533617
 30
0.0
 10
132.2798627082207
 20
144.7793566845878
 30
0.0
 10
132.2161676166701
 20
144.9001170192842
 30
0.0
 10
132.1500042301733
 20
145.1033759061064
 30
0.0
 10
132.0838795743925
 20
145.3877959066368
 30
0.0
 10
132.0177550163841
 20
145.7446209414864
 30
0.0
 10
131.9515911907884
 20
146.1685558359916
 30
0.0
 10
131.885419773807
 20
146.653259922472
 30
0.0
 10
131.819291981267
 20
147.1877145814008
 30
0.0
 10
131.7531696173518
 20
147.7611963185094
 30
0.0
 10
131.6870142116287
 20
148.3631691256138
 30
0.0
 10
131.6208369268391
 20
148.9827619721241
 30
0.0
 10
131.554704598718
 20
149.6075363512009
 30
0.0
 10
131.488583468285
 20
150.2256918301528
 30
0.0
 10
131.4224362066772
 20
150.8256423660843
 30
0.0
 10
131.356255572024
 20
151.3950635826365
 30
0.0
 10
131.2901173663764
 20
151.9229775334376
 30
0.0
 10
131.2239967138513
 20
152.4005428342072
 30
0.0
 10
131.1578568580144
 20
152.8188861890359
 30
0.0
 10
131.0916758584738
 20
153.1679877097121
 30
0.0
 10
131.0255304788992
 20
153.441505248474
 30
0.0
 10
130.959409668461
 20
153.6332832455919
 30
0.0
 10
130.8976949813552
 20
153.7444696144659
 30
0.0
 10
130.8580035978681
 20
153.7492834696488
 30
0.0
 10
130.8403752680408
 20
153.7514214708835
 30
0.0
  0
SPLINE
  5
159
330
1F
100
AcDbEntity
  8
0
  6
Continuous
 62
     8
370
    15
100
AcDbSpline
210
0.0
220
0.0
230
1.0
 70
     8
 71
     3
 72
    31
 73
    27
 74
     0
 42
0.00000001
 43
0.00000001
 12
1.0
 22
0.0
 32
0.0
 13
1.0
 23
0.0
 33
0.0
 40
0.0
 40
0.0
 40
0.0
 40
0.0
 40
0.0234393762296077
 40
0.0675320166394341
 40
0.1116011850360803
 40
0.1556840350659394
 40
0.1997883458852542
 40
0.2438848511304741
 40
0.28795619463544
 40
0.3320347177068215
 40
0.3761371757668715
 40
0.4202369981779657
 40
0.4643115788739656
 40
0.5083861595699648
 40
0.5524859819810558
 40
0.5965884400411006
 40
0.6406669631124745
 40
0.6847383066174318
 40
0.7288348118626423
 40
0.772939122681949
 40
0.8170219727117994
 40
0.8610911411084362
 40
0.9051837815182502
 40
0.9492890932833206
 40
0.9933763826235109
 40
1.0
 40
1.0
 40
1.0
 40
1.0
 10
129.3409070331319
 20
144.7705067965683
 30
0.0
 10
129.3291897876697
 20
144.7689343914507
 30
0.0
 10
129.2954308169629
 20
144.764404079401
 30
0.0
 10
129.2396297702248
 20
144.8498381867423
 30
0.0
 10
129.1734502036655
 20
145.0205487829853
 30
0.0
 10
129.1072989703461
 20
145.2784323397682
 30
0.0
 10
129.0411772984514
 20
145.6104923532064
 30
0.0
 10
128.9750474235302
 20
146.0116595506922
 30
0.0
 10
128.9088728160589
 20
146.4751485702218
 30
0.0
 10
128.8427131688217
 20
146.9933375631685
 30
0.0
 10
128.776589817291
 20
147.5544425472827
 30
0.0
 10
128.7104637859709
 20
148.1476850982328
 30
0.0
 10
128.6442960517015
 20
148.7622470382269
 30
0.0
 10
128.5781283174394
 20
149.3865767865612
 30
0.0
 10
128.5120022861
 20
150.0083333109547
 30
0.0
 10
128.4458789346459
 20
150.6159444356418
 30
0.0
 10
128.3797192871304
 20
151.1978858349456
 30
0.0
 10
128.3135446807042
 20
151.7417383679249
 30
0.0
 10
128.2474148018847
 20
152.2378360032623
 30
0.0
 10
128.1812931445434
 20
152.677691319457
 30
0.0
 10
128.1151418569411
 20
153.0530373250291
 30
0.0
 10
128.0489624929234
 20
153.3535235742575
 30
0.0
 10
127.9828276379953
 20
153.5770829634658
 30
0.0
 10
127.9167060095973
 20
153.7108276017693
 30
0.0
 10
127.8692908083615
 20
153.7686923813647
 30
0.0
 10
127.8439181258263
 20
153.7545999380361
 30
0.0
 10
127.840604066745
 20
153.7527592501337
 30
0.0
  0
SPLINE
  5
15A
330
1F
100
AcDbEntity
  8
0
  6
Continuous
 62
     8
370
    15
100
AcDbSpline
210
0.0
220
0.0
230
1.0
 70
     8
 71
     3
 72
    31
 73
    27
 74
     0
 42
0.00000001
 43
0.00000001
 12
1.0
 22
0.0
 32
0.0
 13
1.0
 23
0.0
 33
0.0
 40
0.0
 40
0.0
 40
0.0
 40
0.0
 40
0.0076208144407736
 40
0.0517338261400462
 40
0.0958278684935507
 40
0.1399041181002993
 40
0.1840014744857887
 40
0.2281148255499449
 40
0.2722132307035537
 40
0.3162896419484097
 40
0.360382578261414
 40
0.4044953624022117
 40
0.4485978562325767
 40
0.4926758473498817
 40
0.5367644281538493
 40
0.5808758224897657
 40
0.6249819123712494
 40
0.669062546477461
 40
0.7131467954895038
 40
0.7572558267823621
 40
0.8013649223272892
 40
0.8454493328210938
 40
0.8895301204879876
 40
0.9336362140300383
 40
0.9777475458173217
 40
1.0
 40
1.0
 40
1.0
 40
1.0
 10
126.3406218850016
 20
144.7658598648716
 30
0.0
 10
126.3368117414941
 20
144.7640427189511
 30
0.0
 10
126.3109466186362
 20
144.7517070412028
 30
0.0
 10
126.2630635572455
 20
144.8114768892268
 30
0.0
 10
126.1969157274193
 20
144.9488381155605
 30
0.0
 10
126.1307353841351
 20
145.1781068065834
 30
0.0
 10
126.0645953523822
 20
145.4844461937222
 30
0.0
 10
125.9984747470134
 20
145.8625633914622
 30
0.0
 10
125.9323365287333
 20
146.3046620780722
 30
0.0
 10
125.8661558974629
 20
146.8041389404334
 30
0.0
 10
125.8000086349496
 20
147.3514696192937
 30
0.0
 10
125.7338875047602
 20
147.9347871069133
 30
0.0
 10
125.6677551765787
 20
148.5431038479652
 30
0.0
 10
125.6015778917957
 20
149.1653216845975
 30
0.0
 10
125.5354224861146
 20
149.7893155003827
 30
0.0
 10
125.4693001220306
 20
150.4031382635669
 30
0.0
 10
125.4031723301283
 20
150.9953954602118
 30
0.0
 10
125.3370009107712
 20
151.5545399934948
 30
0.0
 10
125.2708370940488
 20
152.0684990357875
 30
0.0
 10
125.204712502914
 20
152.5288555800901
 30
0.0
 10
125.1385879707633
 20
152.9276425196743
 30
0.0
 10
125.0724241231481
 20
153.2563461187139
 30
0.0
 10
125.0062532232635
 20
153.5076146860286
 30
0.0
 10
124.940123891401
 20
153.6730274663314
 30
0.0
 10
124.8849190041438
 20
153.7557090278717
 30
0.0
 10
124.8517276971185
 20
153.7493418535668
 30
0.0
 10
124.8405983134034
 20
153.7472068750929
 30
0.0
  0
SPLINE
  5
15B
330
1F
100
AcDbEntity
  8
0
  6
Continuous
 62
     8
370
    15
100
AcDbSpline
210
0.0
220
0.0
230
1.0
 70
     8
 71
     3
 72
    10
 73
     6
 74
     0
 42
0.00000001
 43
0.00000001
 12
1.0
 22
0.0
 32
0.0
 13
1.0
 23
0.0
 33
0.0
 40
0.0
 40
0.0
 40
0.0
 40
0.0
 40
0.0287423338741237
 40
0.7467376150127575
 40
1.0
 40
1.0
 40
1.0
 40
1.0
 10
124.6728988740275
 20
153.0085096416119
 30
0.0
 10
124.6737813217692
 20
153.0115158742169
 30
0.0
 10
124.6967076757964
 20
153.0896190294949
 30
0.0
 10
124.727409963521
 20
153.1575155286559
 30
0.0
 10
124.7572549047264
 20
153.1896655646946
 30
0.0
 10
124.7650371866615
 20
153.1980489165986
 30
0.0
  0
SPLINE
  5
15C
330
1F
100
AcDbEntity
  8
0
  6
Continuous
 62
     8
370
    15
100
AcDbSpline
210
0.0
220
0.0
230
1.0
 70
     8
 71
     3
 72
     9
 73
     5
 74
     0
 42
0.00000001
 43
0.00000001
 12
1.0
 22
0.0
 32
0.0
 13
1.0
 23
0.0
 33
0.0
 40
0.0
 40
0.0
 40
0.0
 40
0.0
 40
0.4745873085137747
 40
1.0
 40
1.0
 40
1.0
 40
1.0
 10
126.4188506597758
 20
145.3195261148018
 30
0.0
 10
126.4330625802369
 20
145.3370866827368
 30
0.0
 10
126.4630084304653
 20
145.3740884474701
 30
0.0
 10
126.4929419456991
 20
145.4622096456823
 30
0.0
 10
126.5086693945038
 20
145.5085096416119
 30
0.0
  0
SPLINE
  5
15D
330
1F
100
AcDbEntity
  8
0
  6
Continuous
 62
     8
370
    15
100
AcDbSpline
210
0.0
220
0.0
230
1.0
 70
     8
 71
     3
 72
     9
 73
     5
 74
     0
 42
0.00000001
 43
0.00000001
 12
1.0
 22
0.0
 32
0.0
 13
1.0
 23
0.0
 33
0.0
 40
0.0
 40
0.0
 40
0.0
 40
0.0
 40
0.48474825943439
 40
1.0
 40
1.0
 40
1.0
 40
1.0
 10
127.6752350628333
 20
153.0085096416119
 30
0.0
 10
127.6895735112366
 20
153.0510400893082
 30
0.0
 10
127.7191526755228
 20
153.1387772742668
 30
0.0
 10
127.7487489292269
 20
153.1772888491269
 30
0.0
 10
127.7639984504621
 20
153.1971320051054
 30
0.0
  0
SPLINE
  5
15E
330
1F
100
AcDbEntity
  8
0
  6
Continuous
 62
     8
370
    15
100
AcDbSpline
210
0.0
220
0.0
230
1.0
 70
     8
 71
     3
 72
    14
 73
    10
 74
     0
 42
0.00000001
 43
0.00000001
 12
1.0
 22
0.0
 32
0.0
 13
1.0
 23
0.0
 33
0.0
 40
0.0
 40
0.0
 40
0.0
 40
0.0
 40
0.0574991562666538
 40
0.245620557900848
 40
0.4338275011655495
 40
0.6221069289402772
 40
0.8103275224102273
 40
0.9984511541360309
 40
1.0
 40
1.0
 40
1.0
 40
1.0
 10
129.4178372822466
 20
145.3177991573475
 30
0.0
 10
129.4245730693706
 20
145.3243664832922
 30
0.0
 10
129.453346496647
 20
145.3524202908123
 30
0.0
 10
129.5042118986753
 20
145.4792709654404
 30
0.0
 10
129.5703508650496
 20
145.6974608766547
 30
0.0
 10
129.636473274634
 20
145.9869415911656
 30
0.0
 10
129.7026059981111
 20
146.3422513926327
 30
0.0
 10
129.7469156285439
 20
146.6042979634436
 30
0.0
 10
129.7691381054622
 20
146.7572605648061
 30
0.0
 10
129.7693195719137
 20
146.7585096416119
 30
0.0
  0
SPLINE
  5
15F
330
1F
100
AcDbEntity
  8
0
  6
Continuous
 62
     8
370
    15
100
AcDbSpline
210
0.0
220
0.0
230
1.0
 70
     8
 71
     3
 72
    14
 73
    10
 74
     0
 42
0.00000001
 43
0.00000001
 12
1.0
 22
0.0
 32
0.0
 13
1.0
 23
0.0
 33
0.0
 40
0.0
 40
0.0
 40
0.0
 40
0.0
 40
0.044160867423013
 40
0.2333934781560646
 40
0.422521781583831
 40
0.6116269233933542
 40
0.8008404153119255
 40
0.9900818277632034
 40
1.0
 40
1.0
 40
1.0
 40
1.0
 10
130.4147966881024
 20
151.7585096416119
 30
0.0
 10
130.4199423716563
 20
151.7933534925811
 30
0.0
 10
130.44713769304
 20
151.977505843851
 30
0.0
 10
130.4963572663629
 20
152.2639629662442
 30
0.0
 10
130.5625207046312
 20
152.6052720835776
 30
0.0
 10
130.6286923127491
 20
152.8792748829905
 30
0.0
 10
130.6948248197418
 20
153.0762798901821
 30
0.0
 10
130.7400587606668
 20
153.1835647892233
 30
0.0
 10
130.7632749152153
 20
153.2026053529874
 30
0.0
 10
130.7644310826167
 20
153.2035535754453
 30
0.0
  0
SPLINE
  5
160
330
1F
100
AcDbEntity
  8
0
  6
Continuous
 62
     8
370
    15
100
AcDbSpline
210
0.0
220
0.0
230
1.0
 70
     8
 71
     3
 72
    13
 73
     9
 74
     0
 42
0.00000001
 43
0.00000001
 12
1.0
 22
0.0
 32
0.0
 13
1.0
 23
0.0
 33
0.0
 40
0.0
 40
0.0
 40
0.0
 40
0.0
 40
0.1747251204021942
 40
0.364384106969916
 40
0.5541500638796333
 40
0.7439564934136645
 40
0.9336663990494166
 40
1.0
 40
1.0
 40
1.0
 40
1.0
 10
132.4198302813718
 20
145.315521976825
 30
0.0
 10
132.4401364248056
 20
145.3479937330587
 30
0.0
 10
132.4824842905508
 20
145.4157126269974
 30
0.0
 10
132.546922775018
 20
145.612288554523
 30
0.0
 10
132.6130532364062
 20
145.8769519767366
 30
0.0
 10
132.6791737204634
 20
146.2103555760029
 30
0.0
 10
132.7309897626384
 20
146.5067980431207
 30
0.0
 10
132.7607634706868
 20
146.7067164579813
 30
0.0
 10
132.7684769928723
 20
146.7585096416119
 30
0.0
  0
SPLINE
  5
161
330
1F
100
AcDbEntity
  8
0
  6
Continuous
 62
     8
370
    15
100
AcDbSpline
210
0.0
220
0.0
230
1.0
 70
     8
 71
     3
 72
    31
 73
    27
 74
     0
 42
0.00000001
 43
0.00000001
 12
1.0
 22
0.0
 32
0.0
 13
1.0
 23
0.0
 33
0.0
 40
0.0
 40
0.0
 40
0.0
 40
0.0
 40
0.0188886564999595
 40
0.0630281224181698
 40
0.1071728968048073
 40
0.1512948403960017
 40
0.1954061862870894
 40
0.2395420534329726
 40
0.2836882186761893
 40
0.3278145210723253
 40
0.3719242858954304
 40
0.416056061270554
 40
0.4602027938661202
 40
0.5043335196795039
 40
0.5484431227421989
 40
0.5925705320158191
 40
0.6367169249897278
 40
0.6808518194964831
 40
0.7249626360779385
 40
0.769085605827429
 40
0.8132307779539331
 40
0.8573694176516792
 40
0.9014827071854767
 40
0.9456014157400285
 40
0.9897445285762989
 40
0.9999999999999999
 40
0.9999999999999999
 40
0.9999999999999999
 40
0.9999999999999999
 10
133.8414945181241
 20
153.747570082458
 30
0.0
 10
133.8509360605693
 20
153.7500217304651
 30
0.0
 10
133.8824408260379
 20
153.758202448385
 30
0.0
 10
133.9359658163518
 20
153.6804886527597
 30
0.0
 10
134.0020894132022
 20
153.5204247586067
 30
0.0
 10
134.0682444887294
 20
153.2743453776775
 30
0.0
 10
134.1344218619676
 20
152.9508276076165
 30
0.0
 10
134.2005541663752
 20
152.5559200366144
 30
0.0
 10
134.2666753031668
 20
152.0989478518273
 30
0.0
 10
134.3328225630595
 20
151.5881695978057
 30
0.0
 10
134.3990031982156
 20
151.0318279184774
 30
0.0
 10
134.465141403565
 20
150.4412174155374
 30
0.0
 10
134.5312620567787
 20
149.8283410003415
 30
0.0
 10
134.5974019101592
 20
149.2046438026752
 30
0.0
 10
134.6635829188324
 20
148.5818840679721
 30
0.0
 10
134.7297282643167
 20
147.9724101489507
 30
0.0
 10
134.7958492020324
 20
147.3873210471254
 30
0.0
 10
134.8619828434138
 20
146.8374920440571
 30
0.0
 10
134.9281612096877
 20
146.3342381716863
 30
0.0
 10
134.9943145985055
 20
145.8883910368222
 30
0.0
 10
135.0604365660247
 20
145.5063252098736
 30
0.0
 10
135.1265654635551
 20
145.1955024229447
 30
0.0
 10
135.1927381118132
 20
144.9605888956856
 30
0.0
 10
135.2589013501872
 20
144.8172475314522
 30
0.0
 10
135.3080978803941
 20
144.7538800952319
 30
0.0
 10
135.3352701640689
 20
144.7653278021687
 30
0.0
 10
135.3403928080225
 20
144.7674859765579
 30
0.0
  0
SPLINE
  5
162
330
1F
100
AcDbEntity
  8
0
  6
Continuous
 62
     8
370
    15
100
AcDbSpline
210
0.0
220
0.0
230
1.0
 70
     8
 71
     3
 72
    31
 73
    27
 74
     0
 42
0.00000001
 43
0.00000001
 12
1.0
 22
0.0
 32
0.0
 13
1.0
 23
0.0
 33
0.0
 40
0.0
 40
0.0
 40
0.0
 40
0.0
 40
0.003591406555095
 40
0.0476840123758622
 40
0.0918005608323475
 40
0.1359144727978103
 40
0.1800031349836492
 40
0.2240917971694914
 40
0.2682057091349629
 40
0.3123222575914594
 40
0.3564148634122383
 40
0.4005002873727798
 40
0.4446108811125546
 40
0.4887292829202422
 40
0.5328262170819137
 40
0.576909465239191
 40
0.6210161929087706
 40
0.6651355959820087
 40
0.7092369708723456
 40
0.7533193466883881
 40
0.7974218268490764
 40
0.8415413425958522
 40
0.8856470308812954
 40
0.9297299308213
 40
0.9738279809937401
 40
1.0
 40
1.0
 40
1.0
 40
1.0
 10
136.8409908209437
 20
153.7552062518134
 30
0.0
 10
136.8427870066919
 20
153.756306946961
 30
0.0
 10
136.866635418765
 20
153.77092115458
 30
0.0
 10
136.9125461826611
 20
153.716487727117
 30
0.0
 10
136.9786687969845
 20
153.5884658848035
 30
0.0
 10
137.0447950258375
 20
153.3694014456431
 30
0.0
 10
137.1109627072082
 20
153.0743689873112
 30
0.0
 10
137.1771304556422
 20
152.7035560626676
 30
0.0
 10
137.2432564831888
 20
152.2672781673032
 30
0.0
 10
137.3093798356406
 20
151.7742305228569
 30
0.0
 10
137.3755394829673
 20
151.2333170334007
 30
0.0
 10
137.4417140891594
 20
150.6535535842902
 30
0.0
 10
137.5078439691101
 20
150.0471431022047
 30
0.0
 10
137.5739656221632
 20
149.4258871474756
 30
0.0
 10
137.6401169257777
 20
148.8013651141464
 30
0.0
 10
137.7062962300422
 20
148.1857260832449
 30
0.0
 10
137.7724313080898
 20
147.5909287128339
 30
0.0
 10
137.8385521035731
 20
147.0276356899842
 30
0.0
 10
137.9046955520181
 20
146.5064190728603
 30
0.0
 10
137.9708767534381
 20
146.0387405407241
 30
0.0
 10
138.0370183758999
 20
145.6336672429917
 30
0.0
 10
138.1031390535169
 20
145.2973626630162
 30
0.0
 10
138.1692757444444
 20
145.0347633428846
 30
0.0
 10
138.2354554711866
 20
144.8576327879394
 30
0.0
 10
138.2926325297569
 20
144.7667390191627
 30
0.0
 10
138.3277479548477
 20
144.769248470971
 30
0.0
 10
138.3408266608121
 20
144.7701831138593
 30
0.0
  0
LWPOLYLINE
  5
163
330
1F
100
AcDbEntity
  8
0
  6
Continuous
 62
     8
370
    15
100
AcDbPolyline
 90
       25
 70
   128
 43
0.0
 10
139.8402387906
 20
153.7498722417
 10
139.8890878477
 20
153.7361969198
 10
139.9552336841
 20
153.6308130289
 10
140.0213795205
 20
153.4422685551
 10
140.0875253569
 20
153.174516736
 10
140.1536711933
 20
152.8315238028
 10
140.2198170297
 20
152.4189887341
 10
140.2859628661
 20
151.9460657678
 10
140.3521087026
 20
151.4223189853
 10
140.418254539
 20
150.8573126871
 10
140.4844003754
 20
150.2611400804
 10
140.5505462118
 20
149.6455588728
 10
140.6166920482
 20
149.0226533765
 10
140.6828378846
 20
148.4045079039
 10
140.748983721
 20
147.80302744
 10
140.8151295574
 20
147.2292056173
 10
140.8812753938
 20
146.6937472694
 10
140.9474212303
 20
146.2073571146
 10
141.0135670667
 20
145.7803841489
 10
141.0797129031
 20
145.4201875726
 10
141.1458587395
 20
145.1326310861
 10
141.2120045759
 20
144.9235672828
 10
141.2781504123
 20
144.7986072937
 10
141.3442962487
 20
144.7597572013
 10
141.3442962487
 20
144.7597572013
  0
LINE
  5
164
330
1F
100
AcDbEntity
  8
0
  6
Continuous
 62
     8
370
    15
100
AcDbLine
 10
141.3442958748
 20
145.2596185778
 30
0.0
 11
141.3230116289
 21
145.2707306554
 31
0.0
  0
SPLINE
  5
165
330
1F
100
AcDbEntity
  8
0
  6
Continuous
 62
     8
370
    15
100
AcDbSpline
210
0.0
220
0.0
230
1.0
 70
     8
 71
     3
 72
    14
 73
    10
 74
     0
 42
0.00000001
 43
0.00000001
 12
1.0
 22
0.0
 32
0.0
 13
1.0
 23
0.0
 33
0.0
 40
0.0
 40
0.0
 40
0.0
 40
0.0
 40
0.0219562552222098
 40
0.2111046184348961
 40
0.4001846024386644
 40
0.5891743524833737
 40
0.7782401685842613
 40
0.9673870809485924
 40
1.0
 40
1.0
 40
1.0
 40
1.0
 10
139.7644767134503
 20
153.2014387766455
 30
0.0
 10
139.761916396175
 20
153.1992228190237
 30
0.0
 10
139.7372995024473
 20
153.1779168684649
 30
0.0
 10
139.6906654697702
 20
153.0662819583237
 30
0.0
 10
139.6245224871363
 20
152.8642807173424
 30
0.0
 10
139.5583430399156
 20
152.5857413722584
 30
0.0
 10
139.4921950068614
 20
152.2401926098545
 30
0.0
 10
139.4443193280933
 20
151.9601521731992
 30
0.0
 10
139.4184616290624
 20
151.7843620630993
 30
0.0
 10
139.4146588887737
 20
151.7585096416119
 30
0.0
  0
SPLINE
  5
166
330
1F
100
AcDbEntity
  8
0
  6
Continuous
 62
     8
370
    15
100
AcDbSpline
210
0.0
220
0.0
230
1.0
 70
     8
 71
     3
 72
    14
 73
    10
 74
     0
 42
0.00000001
 43
0.00000001
 12
1.0
 22
0.0
 32
0.0
 13
1.0
 23
0.0
 33
0.0
 40
0.0
 40
0.0
 40
0.0
 40
0.0
 40
0.0128415565636037
 40
0.2011461728252917
 40
0.389558828830274
 40
0.5779883245524794
 40
0.7663180764574813
 40
0.9546099091993093
 40
1.0
 40
1.0
 40
1.0
 40
1.0
 10
138.7691191536739
 20
146.7585096416119
 30
0.0
 10
138.7676156065769
 20
146.7481997368629
 30
0.0
 10
138.7440645095802
 20
146.5867085755555
 30
0.0
 10
138.6984390711644
 20
146.3184029407529
 30
0.0
 10
138.6323142432915
 20
145.9670029730565
 30
0.0
 10
138.5661901213654
 20
145.6810940913061
 30
0.0
 10
138.5000354026016
 20
145.467819610046
 30
0.0
 10
138.4506013640823
 20
145.3472414314056
 30
0.0
 10
138.4232547934967
 20
145.3219453518741
 30
0.0
 10
138.4179430290986
 20
145.3170318723485
 30
0.0
  0
SPLINE
  5
167
330
1F
100
AcDbEntity
  8
0
  6
Continuous
 62
     8
370
    15
100
AcDbSpline
210
0.0
220
0.0
230
1.0
 70
     8
 71
     3
 72
    13
 73
     9
 74
     0
 42
0.00000001
 43
0.00000001
 12
1.0
 22
0.0
 32
0.0
 13
1.0
 23
0.0
 33
0.0
 40
0.0
 40
0.0
 40
0.0
 40
0.0
 40
0.1427281084188875
 40
0.332446195824425
 40
0.5220722405501096
 40
0.7116396065092975
 40
0.9013076409556637
 40
1.0
 40
1.0
 40
1.0
 40
1.0
 10
136.7638591384836
 20
153.1977848621712
 30
0.0
 10
136.7472676074151
 20
153.1736880542842
 30
0.0
 10
136.7086221615548
 20
153.1175611133312
 30
0.0
 10
136.6479606762232
 20
152.9426961603872
 30
0.0
 10
136.5818083361781
 20
152.6922486024822
 30
0.0
 10
136.5156291867189
 20
152.3696459816437
 30
0.0
 10
136.4600760455964
 20
152.0563245939268
 30
0.0
 10
136.4265650382428
 20
151.834447766351
 30
0.0
 10
136.4150957780935
 20
151.7585096416119
 30
0.0
  0
SPLINE
  5
168
330
1F
100
AcDbEntity
  8
0
  6
Continuous
 62
     8
370
    15
100
AcDbSpline
210
0.0
220
0.0
230
1.0
 70
     8
 71
     3
 72
    13
 73
     9
 74
     0
 42
0.00000001
 43
0.00000001
 12
1.0
 22
0.0
 32
0.0
 13
1.0
 23
0.0
 33
0.0
 40
0.0
 40
0.0
 40
0.0
 40
0.0
 40
0.1333235742331511
 40
0.322323884500089
 40
0.5114242937275434
 40
0.7005078032790367
 40
0.8894828884058139
 40
1.0
 40
1.0
 40
1.0
 40
1.0
 10
135.7685699063011
 20
146.7585096416119
 30
0.0
 10
135.7530131375093
 20
146.6571247945679
 30
0.0
 10
135.7154029985967
 20
146.4120161713057
 30
0.0
 10
135.655734083339
 20
146.0848674945696
 30
0.0
 10
135.5896116759638
 20
145.774840673215
 30
0.0
 10
135.5234856681968
 20
145.5357217861142
 30
0.0
 10
135.4664689030283
 20
145.3794400623905
 30
0.0
 10
135.4315284571764
 20
145.3359479280004
 30
0.0
 10
135.4186349087113
 20
145.3198986782286
 30
0.0
  0
SPLINE
  5
169
330
1F
100
AcDbEntity
  8
0
  6
Continuous
 62
     8
370
    15
100
AcDbSpline
210
0.0
220
0.0
230
1.0
 70
     8
 71
     3
 72
    13
 73
     9
 74
     0
 42
0.00000001
 43
0.00000001
 12
1.0
 22
0.0
 32
0.0
 13
1.0
 23
0.0
 33
0.0
 40
0.0
 40
0.0
 40
0.0
 40
0.0
 40
0.0781805743757841
 40
0.2670426173033639
 40
0.455904934526415
 40
0.6446618696589346
 40
0.8334033387402062
 40
1.0
 40
1.0
 40
1.0
 40
1.0
 10
133.7649221694803
 20
153.1972594063019
 30
0.0
 10
133.7557891253053
 20
153.18714779298
 30
0.0
 10
133.7245932426972
 20
153.1526093963489
 30
0.0
 10
133.6713807482059
 20
153.014278174513
 30
0.0
 10
133.6052544505255
 20
152.7892405302312
 30
0.0
 10
133.5390915566507
 20
152.4910972726932
 30
0.0
 10
133.4755189108333
 20
152.1491000758135
 30
0.0
 10
133.4340382167921
 20
151.8831824231646
 30
0.0
 10
133.4145904161089
 20
151.7585096416119
 30
0.0
  0
SPLINE
  5
16A
330
1F
100
AcDbEntity
  8
0
  6
Continuous
 62
     8
370
    15
100
AcDbSpline
210
0.0
220
0.0
230
1.0
 70
     8
 71
     3
 72
    14
 73
    10
 74
     0
 42
0.00000001
 43
0.00000001
 12
1.0
 22
0.0
 32
0.0
 13
1.0
 23
0.0
 33
0.0
 40
0.0
 40
0.0
 40
0.0
 40
0.0
 40
0.1559284523471439
 40
0.3117871511385398
 40
0.4677201244623013
 40
0.6237324360705034
 40
0.7797114810096551
 40
0.9356026011595064
 40
1.0
 40
1.0
 40
1.0
 40
1.0
 10
141.3442962286007
 20
145.2596185882454
 30
0.0
 10
141.3663416597754
 20
145.2677230563586
 30
0.0
 10
141.4104226602479
 20
145.2839283671051
 30
0.0
 10
141.4766069325785
 20
145.4054530156741
 30
0.0
 10
141.5427518380127
 20
145.5969669189205
 30
0.0
 10
141.608872339858
 20
145.858343551465
 30
0.0
 10
141.6750019824756
 20
146.1863878859635
 30
0.0
 10
141.7282358627651
 20
146.4892044582299
 30
0.0
 10
141.7593839012443
 20
146.697591442931
 30
0.0
 10
141.7684894718217
 20
146.7585096416119
 30
0.0
  0
SPLINE
  5
16B
330
1F
100
AcDbEntity
  8
0
  6
Continuous
 62
     8
370
    15
100
AcDbSpline
210
0.0
220
0.0
230
1.0
 70
     8
 71
     3
 72
    13
 73
     9
 74
     0
 42
0.00000001
 43
0.00000001
 12
1.0
 22
0.0
 32
0.0
 13
1.0
 23
0.0
 33
0.0
 40
0.0
 40
0.0
 40
0.0
 40
0.0
 40
0.1543319631345361
 40
0.3432585255348982
 40
0.5321398435378683
 40
0.7211258492978991
 40
0.910155820428858
 40
1.0
 40
1.0
 40
1.0
 40
1.0
 10
142.4147694332029
 20
151.7585096416119
 30
0.0
 10
142.4327695725169
 20
151.8745771383406
 30
0.0
 10
142.4728047094701
 20
152.1327294807359
 30
0.0
 10
142.5349117242867
 20
152.4701141820956
 30
0.0
 10
142.6010883174946
 20
152.7728256839028
 30
0.0
 10
142.6672224339113
 20
153.0022704346094
 30
0.0
 10
142.7217807894357
 20
153.1464326611226
 30
0.0
 10
142.7543262024168
 20
153.1844618098147
 30
0.0
 10
142.764811275776
 20
153.1967135644339
 30
0.0
  0
SPLINE
  5
16C
330
1F
100
AcDbEntity
  8
0
  6
Continuous
 62
     8
370
    15
100
AcDbSpline
210
0.0
220
0.0
230
1.0
 70
     8
 71
     3
 72
    13
 73
     9
 74
     0
 42
0.00000001
 43
0.00000001
 12
1.0
 22
0.0
 32
0.0
 13
1.0
 23
0.0
 33
0.0
 40
0.0
 40
0.0
 40
0.0
 40
0.0
 40
0.0990772601529691
 40
0.2878696407577423
 40
0.4767593277898449
 40
0.6657080582730837
 40
0.8545840465756649
 40
1.0
 40
1.0
 40
1.0
 40
1.0
 10
144.4184491679389
 20
145.3200757030933
 30
0.0
 10
144.4300152111537
 20
145.33376522125
 30
0.0
 10
144.4636204269229
 20
145.3735402076377
 30
0.0
 10
144.5193176680243
 20
145.5226729656306
 30
0.0
 10
144.5854528431113
 20
145.7574821521045
 30
0.0
 10
144.6515736193425
 20
146.0637275372907
 30
0.0
 10
144.7126534354079
 20
146.3958892619325
 30
0.0
 10
144.7516981887931
 20
146.6485869391191
 30
0.0
 10
144.768682534902
 20
146.7585096416119
 30
0.0
  0
SPLINE
  5
16D
330
1F
100
AcDbEntity
  8
0
  6
Continuous
 62
     8
370
    15
100
AcDbSpline
210
0.0
220
0.0
230
1.0
 70
     8
 71
     3
 72
    13
 73
     9
 74
     0
 42
0.00000001
 43
0.00000001
 12
1.0
 22
0.0
 32
0.0
 13
1.0
 23
0.0
 33
0.0
 40
0.0
 40
0.0
 40
0.0
 40
0.0
 40
0.086804878125373
 40
0.2765644533901377
 40
0.4662157354345318
 40
0.6558670174789377
 40
0.8456265927437376
 40
1.0
 40
1.0
 40
1.0
 40
1.0
 10
145.4150813396109
 20
151.7585096416119
 30
0.0
 10
145.4251669453162
 20
151.8256116141041
 30
0.0
 10
145.4573001628178
 20
152.0394016768805
 30
0.0
 10
145.5114610036067
 20
152.3469626184341
 30
0.0
 10
145.5776294165096
 20
152.6741561929673
 30
0.0
 10
145.6437976406146
 20
152.9292648000452
 30
0.0
 10
145.7058085299064
 20
153.1111096148499
 30
0.0
 10
145.7457925662213
 20
153.1715914123245
 30
0.0
 10
145.7637288647899
 20
153.1987227296564
 30
0.0
  0
SPLINE
  5
16E
330
1F
100
AcDbEntity
  8
0
  6
Continuous
 62
     8
370
    15
100
AcDbSpline
210
0.0
220
0.0
230
1.0
 70
     8
 71
     3
 72
    14
 73
    10
 74
     0
 42
0.00000001
 43
0.00000001
 12
1.0
 22
0.0
 32
0.0
 13
1.0
 23
0.0
 33
0.0
 40
0.0
 40
0.0
 40
0.0
 40
0.0
 40
0.0330633194400738
 40
0.2215768787254046
 40
0.4100673516772435
 40
0.5986658225561141
 40
0.7872921232145964
 40
0.9758238362461585
 40
1.0
 40
1.0
 40
1.0
 40
1.0
 10
147.4181177444185
 20
145.3160163767245
 30
0.0
 10
147.4219825529289
 20
145.3194138070881
 30
0.0
 10
147.4478829229192
 20
145.3421819994049
 30
0.0
 10
147.4958553079508
 20
145.4569796085487
 30
0.0
 10
147.5620259985515
 20
145.6648870005871
 30
0.0
 10
147.6281554704832
 20
145.9472079767999
 30
0.0
 10
147.6942772555132
 20
146.2947373022981
 30
0.0
 10
147.7412150331629
 20
146.5693286722527
 30
0.0
 10
147.7660980818129
 20
146.739202008713
 30
0.0
 10
147.7689262641442
 20
146.7585096416119
 30
0.0
  0
SPLINE
  5
16F
330
1F
100
AcDbEntity
  8
0
  6
Continuous
 62
     8
370
    15
100
AcDbSpline
210
0.0
220
0.0
230
1.0
 70
     8
 71
     3
 72
    10
 73
     6
 74
     0
 42
0.00000001
 43
0.00000001
 12
1.0
 22
0.0
 32
0.0
 13
1.0
 23
0.0
 33
0.0
 40
0.0
 40
0.0
 40
0.0
 40
0.0
 40
0.1364153781804845
 40
0.8656968945899223
 40
1.0
 40
1.0
 40
1.0
 40
1.0
 10
148.6741041641791
 20
153.0085096416119
 30
0.0
 10
148.6782308073213
 20
153.0219739144533
 30
0.0
 10
148.7044186330702
 20
153.1074186739975
 30
0.0
 10
148.73463795336
 20
153.1720520532589
 30
0.0
 10
148.7607509574117
 20
153.1962261978029
 30
0.0
 10
148.7648120041779
 20
153.1999857166745
 30
0.0
  0
SPLINE
  5
170
330
1F
100
AcDbEntity
  8
0
  6
Continuous
 62
     8
370
    15
100
AcDbSpline
210
0.0
220
0.0
230
1.0
 70
     8
 71
     3
 72
    22
 73
    18
 74
     0
 42
0.00000001
 43
0.00000001
 12
1.0
 22
0.0
 32
0.0
 13
1.0
 23
0.0
 33
0.0
 40
0.0
 40
0.0
 40
0.0
 40
0.0
 40
0.0682806323969787
 40
0.1365305686282675
 40
0.2048131258543075
 40
0.2731305279918461
 40
0.3414333196087664
 40
0.4096974951482704
 40
0.4779768684305276
 40
0.5462911438761948
 40
0.6145973069635806
 40
0.6828642793837186
 40
0.7511368623983554
 40
0.8194476746233421
 40
0.8877583873425248
 40
0.9560307202738119
 40
1.0
 40
1.0
 40
1.0
 40
1.0
 10
149.8109629743408
 20
147.2644643829535
 30
0.0
 10
149.7889175288818
 20
147.4542377978323
 30
0.0
 10
149.7448365486899
 20
147.8336993132631
 30
0.0
 10
149.6786521686455
 20
148.4408593235829
 30
0.0
 10
149.6125071395575
 20
149.0612232568467
 30
0.0
 10
149.5463871578984
 20
149.6859942593618
 30
0.0
 10
149.4802558744502
 20
150.302563441494
 30
0.0
 10
149.4140788385492
 20
150.8992115307823
 30
0.0
 10
149.3479229952697
 20
151.4635885290096
 30
0.0
 10
149.2818003833748
 20
151.986060670372
 30
0.0
 10
149.2156725282454
 20
152.457093234175
 30
0.0
 10
149.1495012159214
 20
152.8670896225676
 30
0.0
 10
149.0833375421959
 20
153.2058258240484
 30
0.0
 10
149.0172127267626
 20
153.4703223056485
 30
0.0
 10
148.9510890946916
 20
153.6518744850993
 30
0.0
 10
148.8927699103467
 20
153.7498477300865
 30
0.0
 10
148.8565188608215
 20
153.7486587443581
 30
0.0
 10
148.8423179552998
 20
153.748192973733
 30
0.0
  0
SPLINE
  5
171
330
1F
100
AcDbEntity
  8
0
  6
Continuous
 62
     8
370
    15
100
AcDbSpline
210
0.0
220
0.0
230
1.0
 70
     8
 71
     3
 72
    31
 73
    27
 74
     0
 42
0.00000001
 43
0.00000001
 12
1.0
 22
0.0
 32
0.0
 13
1.0
 23
0.0
 33
0.0
 40
0.0
 40
0.0
 40
0.0
 40
0.0
 40
0.0300685153040729
 40
0.0741442939658144
 40
0.1182182384591793
 40
0.1623175453173777
 40
0.2064208053005736
 40
0.2505006503990304
 40
0.2945715939568073
 40
0.3386674320421855
 40
0.3827723358388821
 40
0.4268565605374677
 40
0.4709256397534601
 40
0.5150175001703581
 40
0.5591231837134482
 40
0.6032118370113942
 40
0.6472803922677501
 40
0.6913679406418828
 40
0.7354735115467829
 40
0.7795664110219754
 40
0.82363583834608
 40
0.8677189473837845
 40
0.911823517337038
 40
0.955920281670337
 40
0.9999918841155487
 40
1.0
 40
1.0
 40
1.0
 40
1.0
 10
147.3425202344844
 20
144.7690897976263
 30
0.0
 10
147.3274889209194
 20
144.76889599404
 30
0.0
 10
147.2904240335982
 20
144.7684181044627
 30
0.0
 10
147.2312764446131
 20
144.8659069391945
 30
0.0
 10
147.1651075043264
 20
145.049387764975
 30
0.0
 10
147.098980442566
 20
145.3164626087491
 30
0.0
 10
147.0328576528455
 20
145.6569915746392
 30
0.0
 10
146.9667000991303
 20
146.0661612760098
 30
0.0
 10
146.9005240794795
 20
146.5379978686421
 30
0.0
 10
146.8343930220263
 20
147.0620422063414
 30
0.0
 10
146.768271659759
 20
147.6274759891392
 30
0.0
 10
146.702122401661
 20
148.2238565369045
 30
0.0
 10
146.6359423403964
 20
148.8405450673136
 30
0.0
 10
146.5698057391513
 20
149.4652041232071
 30
0.0
 10
146.5036850374774
 20
150.0859109951355
 30
0.0
 10
146.4375434215301
 20
150.6910598226472
 30
0.0
 10
146.3713622181058
 20
151.2684522293687
 30
0.0
 10
146.3052187711673
 20
151.8066117274549
 30
0.0
 10
146.2390979716559
 20
152.2965845213025
 30
0.0
 10
146.1729629081994
 20
152.7292213265866
 30
0.0
 10
146.106783549614
 20
153.0950978733547
 30
0.0
 10
146.0406324487634
 20
153.3850372363823
 30
0.0
 10
145.9745100386254
 20
153.5997177405916
 30
0.0
 10
145.9083829834094
 20
153.7217036842156
 30
0.0
 10
145.8642536911929
 20
153.7729028850619
 30
0.0
 10
145.8422046114169
 20
153.7584717187085
 30
0.0
 10
145.8422005517769
 20
153.7584690616662
 30
0.0
  0
SPLINE
  5
172
330
1F
100
AcDbEntity
  8
0
  6
Continuous
 62
     8
370
    15
100
AcDbSpline
210
0.0
220
0.0
230
1.0
 70
     8
 71
     3
 72
    31
 73
    27
 74
     0
 42
0.00000001
 43
0.00000001
 12
1.0
 22
0.0
 32
0.0
 13
1.0
 23
0.0
 33
0.0
 40
0.0
 40
0.0
 40
0.0
 40
0.0
 40
0.0143784655476736
 40
0.058456865042969
 40
0.1025103798557034
 40
0.1465727926888215
 40
0.1906586111467896
 40
0.2347404780431036
 40
0.2787969926046446
 40
0.3228553406092043
 40
0.3669387130186704
 40
0.4110233966430662
 40
0.4550837082880198
 40
0.4991386080850064
 40
0.5432188244916667
 40
0.5873055646805567
 40
0.6313701318801974
 40
0.675422561998117
 40
0.7194990381710387
 40
0.7635869975913833
 40
0.8076559984388646
 40
0.8517072166442864
 40
0.8957795296416623
 40
0.9398678282341415
 40
0.9839411894040266
 40
1.0
 40
1.0
 40
1.0
 40
1.0
 10
144.3424309674685
 20
144.7692708627894
 30
0.0
 10
144.335240191492
 20
144.7665690679598
 30
0.0
 10
144.3060054849498
 20
144.7555846930829
 30
0.0
 10
144.2547350521043
 20
144.8230742254364
 30
0.0
 10
144.1885585715625
 20
144.9730444117681
 30
0.0
 10
144.1224011534638
 20
145.2131558722915
 30
0.0
 10
144.0562782821799
 20
145.528375657041
 30
0.0
 10
143.9901514109495
 20
145.9143617857358
 30
0.0
 10
143.9239817904821
 20
146.3642124292945
 30
0.0
 10
143.8578160169504
 20
146.8710487226391
 30
0.0
 10
143.7916907608702
 20
147.4232620890655
 30
0.0
 10
143.725566834492
 20
148.0100754758305
 30
0.0
 10
143.6594050951654
 20
148.6207403362808
 30
0.0
 10
143.5932320453115
 20
149.2439747343867
 30
0.0
 10
143.5271032554516
 20
149.8673555480312
 30
0.0
 10
143.4609812590604
 20
150.4792350202221
 30
0.0
 10
143.3948278780307
 20
151.068086681779
 30
0.0
 10
143.3286495094625
 20
151.6215188924367
 30
0.0
 10
143.2625158694728
 20
152.1292808154014
 30
0.0
 10
143.1963949284846
 20
152.5828316227789
 30
0.0
 10
143.1302495946918
 20
152.9737160476989
 30
0.0
 10
143.0640685425363
 20
153.2917777558548
 30
0.0
 10
142.9979288514778
 20
153.5330413459288
 30
0.0
 10
142.931807592272
 20
153.6878011365228
 30
0.0
 10
142.8796741620818
 20
153.7609189915838
 30
0.0
 10
142.849575036399
 20
153.7509180911784
 30
0.0
 10
142.84153680754
 20
153.7482472652182
 30
0.0
  0
DIMENSION
  5
173
330
1F
100
AcDbEntity
  8
0
  6
Continuous
 62
     7
370
     0
100
AcDbDimension
  2
_D_2
 10
96.110600654
 20
145.7585096416
 30
0.0
 11
96.110600654
 21
149.7016135056
 31
0.0
 70
   160
  1
%%c<>
 71
     2
 42
-1.0
  3
SLDDIMSTYLE3
100
AcDbAlignedDimension
 13
110.601459854
 23
152.7585096416
 33
0.0
 14
110.601459854
 24
145.7585096416
 34
0.0
 50
90.0
100
AcDbRotatedDimension
  0
DIMENSION
  5
181
330
1F
100
AcDbEntity
  8
0
  6
Continuous
 62
     7
370
     0
100
AcDbDimension
  2
_D_3
 10
110.601459854
 20
168.5585096416
 30
0.0
 11
126.0446477967
 21
168.5585096416
 31
0.0
 70
   160
  1
<>
 71
     2
 42
-1.0
  3
SLDDIMSTYLE4
100
AcDbAlignedDimension
 13
116.101459854
 23
155.2585096416
 33
0.0
 14
110.601459854
 24
152.7585096416
 34
0.0
100
AcDbRotatedDimension
  0
DIMENSION
  5
18E
330
1F
100
AcDbEntity
  8
0
  6
Continuous
 62
     7
370
     0
100
AcDbDimension
  2
_D_4
 10
172.101459854
 20
180.5585096416
 30
0.0
 11
142.3271232461
 21
180.5585096416
 31
0.0
 70
   160
  1
<>
 71
     2
 42
-1.0
  3
SLDDIMSTYLE5
100
AcDbAlignedDimension
 13
110.601459854
 23
152.7585096416
 33
0.0
 14
172.101459854
 24
151.2585096416
 34
0.0
100
AcDbRotatedDimension
  0
DIMENSION
  5
199
330
1F
100
AcDbEntity
  8
0
  6
Continuous
 62
     7
370
     0
100
AcDbDimension
  2
_D_5
 10
179.7819000834
 20
146.7585096416
 30
0.0
 11
179.7819000834
 21
159.9053119162
 31
0.0
 70
   160
  1
%%c<>
 71
     2
 42
-1.0
  3
SLDDIMSTYLE3
100
AcDbAlignedDimension
 13
171.601459854
 23
151.7585096416
 33
0.0
 14
171.601459854
 24
146.7585096416
 34
0.0
 50
90.0
100
AcDbRotatedDimension
  0
DIMENSION
  5
1A6
330
1F
100
AcDbEntity
  8
0
  6
Continuous
 62
     7
370
     0
100
AcDbDimension
  2
_D_6
 10
191.5049921309
 20
145.2585096416
 30
0.0
 11
191.5049921309
 21
159.9053119162
 31
0.0
 70
   160
  1
%%c<>
 71
     2
 42
-1.0
  3
SLDDIMSTYLE3
100
AcDbAlignedDimension
 13
169.801459854
 23
153.2585096416
 33
0.0
 14
169.801459854
 24
145.2585096416
 34
0.0
 50
90.0
100
AcDbRotatedDimension
  0
DIMENSION
  5
1B3
330
1F
100
AcDbEntity
  8
0
  6
Continuous
 62
     7
370
     0
100
AcDbDimension
  2
_D_7
 10
148.101459854
 20
123.0086253635
 30
0.0
 11
138.5697457039
 21
123.0086253635
 31
0.0
 70
   160
  1
<>st
 71
     2
 42
-1.0
  3
SLDDIMSTYLE1
100
AcDbAlignedDimension
 13
128.101459854
 23
145.5085096416
 33
0.0
 14
148.101459854
 24
145.8085096416
 34
0.0
100
AcDbRotatedDimension
  0
DIMENSION
  5
1BE
330
1F
100
AcDbEntity
  8
0
  6
Continuous
 62
     7
370
     0
100
AcDbDimension
  2
_D_8
 10
170.101459854
 20
123.0086253635
 30
0.0
 11
161.81122504
 21
123.0086253635
 31
0.0
 70
   160
  1
<>
 71
     2
 42
-1.0
  3
SLDDIMSTYLE1
100
AcDbAlignedDimension
 13
152.101459854
 23
143.5585096416
 33
0.0
 14
170.101459854
 24
145.5585096416
 34
0.0
100
AcDbRotatedDimension
  0
MTEXT
  5
1C8
330
1F
100
AcDbEntity
  8
0
  6
Continuous
 62
     7
370
     0
100
AcDbMText
 10
91.979844411
 20
126.4946680303
 30
0.0
 40
3.5
 41
0.0
 71
     1
 72
     1
  1
ＢＦ -6
  7
SLDTEXTSTYLE0
 73
     1
 44
1.0
  0
LEADER
  5
1C9
330
1F
100
AcDbEntity
  8
0
  6
Continuous
 62
     7
370
     0
100
AcDbLeader
  3
SLDDIMSTYLE2
 76
     3
 10
119.0827493595
 20
135.9891551748
 30
0.0
 10
104.697080292
 20
121.9890510949
 30
0.0
 10
91.9708029197
 20
121.9890510949
 30
0.0
  0
LINE
  5
1CA
330
1F
100
AcDbEntity
  8
0
  6
CENTERX2
 62
     7
370
     0
100
AcDbLine
 10
175.9193955087
 20
149.2585096416
 30
0.0
 11
172.101459854
 21
149.2585096416
 31
0.0
  0
LINE
  5
1CB
330
1F
100
AcDbEntity
  8
0
  6
CENTERX2
 62
     7
370
     0
100
AcDbLine
 10
106.4699707437
 20
149.2585096416
 30
0.0
 11
175.9193955087
 21
149.2585096416
 31
0.0
  0
LINE
  5
1CC
330
1F
100
AcDbEntity
  8
0
  6
CENTERX2
 62
     7
370
     0
100
AcDbLine
 10
146.101459854
 20
149.2585096416
 30
0.0
 11
150.401459854
 21
149.2585096416
 31
0.0
  0
LINE
  5
1CD
330
1F
100
AcDbEntity
  8
0
  6
CENTERX2
 62
     7
370
     0
100
AcDbLine
 10
150.101459854
 20
149.2585096416
 30
0.0
 11
175.9193955087
 21
149.2585096416
 31
0.0
  0
ENDSEC
  0
SECTION
  2
OBJECTS
  0
DICTIONARY
  5
C
330
0
100
AcDbDictionary
281
     1
  3
ACAD_GROUP
350
D
  3
ACAD_LAYOUT
350
1A
  3
ACAD_MLINESTYLE
350
17
  3
ACAD_PLOTSETTINGS
350
19
  3
ACAD_PLOTSTYLENAME
350
E
  0
DICTIONARY
  5
D
102
{ACAD_REACTORS
330
C
102
}
330
C
100
AcDbDictionary
281
     1
  0
DICTIONARY
  5
1A
102
{ACAD_REACTORS
330
C
102
}
330
C
100
AcDbDictionary
281
     1
  3
Layout1
350
1E
  3
Layout2
350
26
  3
Model
350
22
  0
DICTIONARY
  5
17
102
{ACAD_REACTORS
330
C
102
}
330
C
100
AcDbDictionary
281
     1
  3
Standard
350
18
  0
DICTIONARY
  5
19
102
{ACAD_REACTORS
330
C
102
}
330
C
100
AcDbDictionary
281
     1
  0
ACDBDICTIONARYWDFLT
  5
E
102
{ACAD_REACTORS
330
C
102
}
330
C
100
AcDbDictionary
281
     1
  3
Normal
350
F
100
AcDbDictionaryWithDefault
340
F
  0
LAYOUT
  5
1E
102
{ACAD_REACTORS
330
1A
102
}
330
1A
100
AcDbPlotSettings
  1

  2
none_device
  4

  6

 40
0.0
 41
0.0
 42
0.0
 43
0.0
 44
0.0
 45
0.0
 46
0.0
 47
0.0
 48
0.0
 49
0.0
140
0.0
141
0.0
142
1.0
143
1.0
 70
   688
 72
     0
 73
     0
 74
     5
  7

 75
    16
147
1.0
148
0.0
149
0.0
100
AcDbLayout
  1
Layout1
 70
     1
 71
     1
 10
0.0
 20
0.0
 11
420.0
 21
297.0
 12
0.0
 22
0.0
 32
0.0
 14
1.0000000000E+20
 24
1.0000000000E+20
 34
1.0000000000E+20
 15
-1.0000000000E+20
 25
-1.0000000000E+20
 35
-1.0000000000E+20
146
0.0
 13
0.0
 23
0.0
 33
0.0
 16
1.0
 26
0.0
 36
0.0
 17
0.0
 27
1.0
 37
0.0
 76
     0
330
1B
  0
LAYOUT
  5
26
102
{ACAD_REACTORS
330
1A
102
}
330
1A
100
AcDbPlotSettings
  1

  2
none_device
  4

  6

 40
0.0
 41
0.0
 42
0.0
 43
0.0
 44
0.0
 45
0.0
 46
0.0
 47
0.0
 48
0.0
 49
0.0
140
0.0
141
0.0
142
1.0
143
1.0
 70
   688
 72
     0
 73
     0
 74
     5
  7

 75
    16
147
1.0
148
0.0
149
0.0
100
AcDbLayout
  1
Layout2
 70
     1
 71
     2
 10
0.0
 20
0.0
 11
0.0
 21
0.0
 12
0.0
 22
0.0
 32
0.0
 14
0.0
 24
0.0
 34
0.0
 15
0.0
 25
0.0
 35
0.0
146
0.0
 13
0.0
 23
0.0
 33
0.0
 16
1.0
 26
0.0
 36
0.0
 17
0.0
 27
1.0
 37
0.0
 76
     0
330
23
  0
LAYOUT
  5
22
102
{ACAD_REACTORS
330
1A
102
}
330
1A
100
AcDbPlotSettings
  1

  2
none_device
  4

  6

 40
0.0
 41
0.0
 42
0.0
 43
0.0
 44
0.0
 45
0.0
 46
0.0
 47
0.0
 48
0.0
 49
0.0
140
0.0
141
0.0
142
1.0
143
1.0
 70
  1712
 72
     0
 73
     0
 74
     0
  7

 75
     0
147
1.0
148
0.0
149
0.0
100
AcDbLayout
  1
Model
 70
     1
 71
     0
 10
0.0
 20
0.0
 11
210.0
 21
297.0
 12
0.0
 22
0.0
 32
0.0
 14
0.0
 24
0.0
 34
0.0
 15
210.0
 25
297.0
 35
0.0
146
0.0
 13
0.0
 23
0.0
 33
0.0
 16
1.0
 26
0.0
 36
0.0
 17
0.0
 27
1.0
 37
0.0
 76
     0
330
1F
331
29
  0
MLINESTYLE
  5
18
102
{ACAD_REACTORS
330
17
102
}
330
17
100
AcDbMlineStyle
  2
Standard
 70
     0
  3

 62
   256
 51
90.0
 52
90.0
 71
     2
 49
0.5
 62
   256
  6
BYLAYER
 49
-0.5
 62
   256
  6
BYLAYER
  0
ACDBPLACEHOLDER
  5
F
102
{ACAD_REACTORS
330
E
102
}
330
E
  0
ENDSEC
  0
EOF
