  0
SECTION
  2
HEADER
  9
$ACADVER
  1
AC1015
  9
$ACADMAINTVER
 70
     6
  9
$DWGCODEPAGE
  3
DOS932
  9
$INSBASE
 10
0.0
 20
0.0
 30
0.0
  9
$EXTMIN
 10
0.0
 20
0.0
 30
0.0
  9
$EXTMAX
 10
210.0
 20
297.0
 30
0.0
  9
$LIMMIN
 10
0.0
 20
0.0
  9
$LIMMAX
 10
210.0
 20
297.0
  9
$ORTHOMODE
 70
     0
  9
$REGENMODE
 70
     1
  9
$FILLMODE
 70
     1
  9
$QTEXTMODE
 70
     0
  9
$MIRRTEXT
 70
     1
  9
$LTSCALE
 40
1.0
  9
$ATTMODE
 70
     1
  9
$TEXTSIZE
 40
3.5
  9
$TRACEWID
 40
1.0
  9
$TEXTSTYLE
  7
Standard
  9
$CLAYER
  8
0
  9
$CELTYPE
  6
ByLayer
  9
$CECOLOR
 62
   256
  9
$CELTSCALE
 40
1.0
  9
$DISPSILH
 70
     0
  9
$DIMSCALE
 40
1.0
  9
$DIMASZ
 40
2.0
  9
$DIMEXO
 40
1.0
  9
$DIMDLI
 40
3.75
  9
$DIMRND
 40
0.0
  9
$DIMDLE
 40
0.0
  9
$DIMEXE
 40
1.0
  9
$DIMTP
 40
0.0
  9
$DIMTM
 40
0.0
  9
$DIMTXT
 40
3.5
  9
$DIMCEN
 40
2.5
  9
$DIMTSZ
 40
0.0
  9
$DIMTOL
 70
     0
  9
$DIMLIM
 70
     0
  9
$DIMTIH
 70
     1
  9
$DIMTOH
 70
     1
  9
$DIMSE1
 70
     0
  9
$DIMSE2
 70
     0
  9
$DIMTAD
 70
     1
  9
$DIMZIN
 70
     0
  9
$DIMBLK
  1

  9
$DIMASO
 70
     1
  9
$DIMSHO
 70
     1
  9
$DIMPOST
  1

  9
$DIMAPOST
  1

  9
$DIMALT
 70
     0
  9
$DIMALTD
 70
     3
  9
$DIMALTF
 40
0.0393700787
  9
$DIMLFAC
 40
1.0
  9
$DIMTOFL
 70
     1
  9
$DIMTVP
 40
0.0
  9
$DIMTIX
 70
     0
  9
$DIMSOXD
 70
     0
  9
$DIMSAH
 70
     0
  9
$DIMBLK1
  1

  9
$DIMBLK2
  1

  9
$DIMSTYLE
  2
ISO-25
  9
$DIMCLRD
 70
     0
  9
$DIMCLRE
 70
     0
  9
$DIMCLRT
 70
     0
  9
$DIMTFAC
 40
1.0
  9
$DIMGAP
 40
1.524
  9
$DIMJUST
 70
     0
  9
$DIMSD1
 70
     0
  9
$DIMSD2
 70
     0
  9
$DIMTOLJ
 70
     0
  9
$DIMTZIN
 70
     0
  9
$DIMALTZ
 70
     0
  9
$DIMALTTZ
 70
     0
  9
$DIMUPT
 70
     0
  9
$DIMDEC
 70
     2
  9
$DIMTDEC
 70
     2
  9
$DIMALTU
 70
     2
  9
$DIMALTTD
 70
     3
  9
$DIMTXSTY
  7
Standard
  9
$DIMAUNIT
 70
     0
  9
$DIMADEC
 70
     2
  9
$DIMALTRND
 40
0.0
  9
$DIMAZIN
 70
     0
  9
$DIMDSEP
 70
    44
  9
$DIMATFIT
 70
     3
  9
$DIMFRAC
 70
     0
  9
$DIMLDRBLK
  1

  9
$DIMLUNIT
 70
     2
  9
$DIMLWD
 70
    -2
  9
$DIMLWE
 70
    -2
  9
$DIMTMOVE
 70
     0
  9
$LUNITS
 70
     2
  9
$LUPREC
 70
     2
  9
$SKETCHINC
 40
1.0
  9
$FILLETRAD
 40
10.0
  9
$AUNITS
 70
     0
  9
$AUPREC
 70
     2
  9
$MENU
  1
.
  9
$ELEVATION
 40
0.0
  9
$PELEVATION
 40
0.0
  9
$THICKNESS
 40
0.0
  9
$LIMCHECK
 70
     0
  9
$CHAMFERA
 40
10.0
  9
$CHAMFERB
 40
10.0
  9
$CHAMFERC
 40
20.0
  9
$CHAMFERD
 40
0.0
  9
$SKPOLY
 70
     0
  9
$TDCREATE
 40
2456909.836278171
  9
$TDUCREATE
 40
2456909.461278171
  9
$TDUPDATE
 40
2456909.836279792
  9
$TDUUPDATE
 40
2456909.461279792
  9
$TDINDWG
 40
0.0000000116
  9
$TDUSRTIMER
 40
0.0000000116
  9
$USRTIMER
 70
     1
  9
$ANGBASE
 50
0.0
  9
$ANGDIR
 70
     0
  9
$PDMODE
 70
     0
  9
$PDSIZE
 40
-1.0
  9
$PLINEWID
 40
0.0
  9
$SPLFRAME
 70
     0
  9
$SPLINETYPE
 70
     6
  9
$SPLINESEGS
 70
     8
  9
$HANDSEED
  5
1D7
  9
$SURFTAB1
 70
     6
  9
$SURFTAB2
 70
     6
  9
$SURFTYPE
 70
     6
  9
$SURFU
 70
     6
  9
$SURFV
 70
     6
  9
$UCSBASE
  2

  9
$UCSNAME
  2

  9
$UCSORG
 10
0.0
 20
0.0
 30
0.0
  9
$UCSXDIR
 10
1.0
 20
0.0
 30
0.0
  9
$UCSYDIR
 10
0.0
 20
1.0
 30
0.0
  9
$UCSORTHOREF
  2

  9
$UCSORTHOVIEW
 70
     0
  9
$UCSORGTOP
 10
0.0
 20
0.0
 30
0.0
  9
$UCSORGBOTTOM
 10
0.0
 20
0.0
 30
0.0
  9
$UCSORGLEFT
 10
0.0
 20
0.0
 30
0.0
  9
$UCSORGRIGHT
 10
0.0
 20
0.0
 30
0.0
  9
$UCSORGFRONT
 10
0.0
 20
0.0
 30
0.0
  9
$UCSORGBACK
 10
0.0
 20
0.0
 30
0.0
  9
$PUCSBASE
  2

  9
$PUCSNAME
  2

  9
$PUCSORG
 10
0.0
 20
0.0
 30
0.0
  9
$PUCSXDIR
 10
1.0
 20
0.0
 30
0.0
  9
$PUCSYDIR
 10
0.0
 20
1.0
 30
0.0
  9
$PUCSORTHOREF
  2

  9
$PUCSORTHOVIEW
 70
     0
  9
$PUCSORGTOP
 10
0.0
 20
0.0
 30
0.0
  9
$PUCSORGBOTTOM
 10
0.0
 20
0.0
 30
0.0
  9
$PUCSORGLEFT
 10
0.0
 20
0.0
 30
0.0
  9
$PUCSORGRIGHT
 10
0.0
 20
0.0
 30
0.0
  9
$PUCSORGFRONT
 10
0.0
 20
0.0
 30
0.0
  9
$PUCSORGBACK
 10
0.0
 20
0.0
 30
0.0
  9
$USERI1
 70
     0
  9
$USERI2
 70
     0
  9
$USERI3
 70
     0
  9
$USERI4
 70
     0
  9
$USERI5
 70
     0
  9
$USERR1
 40
0.0
  9
$USERR2
 40
0.0
  9
$USERR3
 40
0.0
  9
$USERR4
 40
0.0
  9
$USERR5
 40
0.0
  9
$WORLDVIEW
 70
     1
  9
$SHADEDGE
 70
     3
  9
$SHADEDIF
 70
    70
  9
$TILEMODE
 70
     1
  9
$MAXACTVP
 70
    64
  9
$PINSBASE
 10
0.0
 20
0.0
 30
0.0
  9
$PLIMCHECK
 70
     0
  9
$PEXTMIN
 10
1.0000000000E+20
 20
1.0000000000E+20
 30
1.0000000000E+20
  9
$PEXTMAX
 10
-1.0000000000E+20
 20
-1.0000000000E+20
 30
-1.0000000000E+20
  9
$PLIMMIN
 10
0.0
 20
0.0
  9
$PLIMMAX
 10
420.0
 20
297.0
  9
$UNITMODE
 70
     0
  9
$VISRETAIN
 70
     1
  9
$PLINEGEN
 70
     0
  9
$PSLTSCALE
 70
     1
  9
$TREEDEPTH
 70
  3020
  9
$CMLSTYLE
  2
Standard
  9
$CMLJUST
 70
     0
  9
$CMLSCALE
 40
20.0
  9
$PROXYGRAPHICS
 70
     1
  9
$MEASUREMENT
 70
     1
  9
$CELWEIGHT
370
    -1
  9
$ENDCAPS
280
     0
  9
$JOINSTYLE
280
     0
  9
$LWDISPLAY
290
     1
  9
$INSUNITS
 70
     4
  9
$HYPERLINKBASE
  1

  9
$STYLESHEET
  1

  9
$XEDIT
290
     1
  9
$CEPSNTYPE
380
     0
  9
$PSTYLEMODE
290
     1
  9
$FINGERPRINTGUID
  2
{532963B8-3C1A-4EC9-B0A9-BA3EBC283C79}
  9
$VERSIONGUID
  2
{FAEB1C32-E019-11D5-929B-00C0DF256EC4}
  9
$EXTNAMES
290
     1
  9
$PSVPSCALE
 40
0.0
  9
$OLESTARTUP
290
     0
  0
ENDSEC
  0
SECTION
  2
CLASSES
  0
CLASS
  1
ACDBDICTIONARYWDFLT
  2
AcDbDictionaryWithDefault
  3
ObjectDBX Classes
 90
        0
280
     0
281
     0
  0
CLASS
  1
VISUALSTYLE
  2
AcDbVisualStyle
  3
ObjectDBX Classes
 90
     4095
280
     0
281
     0
  0
CLASS
  1
MATERIAL
  2
AcDbMaterial
  3
ObjectDBX Classes
 90
     1153
280
     0
281
     0
  0
CLASS
  1
ACDBPLACEHOLDER
  2
AcDbPlaceHolder
  3
ObjectDBX Classes
 90
        0
280
     0
281
     0
  0
CLASS
  1
LAYOUT
  2
AcDbLayout
  3
ObjectDBX Classes
 90
        0
280
     0
281
     0
  0
ENDSEC
  0
SECTION
  2
TABLES
  0
TABLE
  2
VPORT
  5
8
330
0
100
AcDbSymbolTable
 70
     1
  0
VPORT
  5
29
330
8
100
AcDbSymbolTableRecord
100
AcDbViewportTableRecord
  2
*Active
 70
     0
 10
0.0
 20
0.0
 11
1.0
 21
1.0
 12
105.0
 22
148.5
 13
0.0
 23
0.0
 14
10.0
 24
10.0
 15
10.0
 25
10.0
 16
0.0
 26
0.0
 36
1.0
 17
0.0
 27
0.0
 37
0.0
 40
297.0
 41
0.7070707071
 42
50.0
 43
0.0
 44
0.0
 50
0.0
 51
0.0
 71
     0
 72
  2000
 73
     1
 74
     3
 75
     0
 76
     0
 77
     0
 78
     0
281
     0
 65
     1
110
0.0
120
0.0
130
0.0
111
1.0
121
0.0
131
0.0
112
0.0
122
1.0
132
0.0
 79
     0
146
0.0
  0
ENDTAB
  0
TABLE
  2
LTYPE
  5
5
330
0
100
AcDbSymbolTable
 70
     6
  0
LTYPE
  5
14
330
5
100
AcDbSymbolTableRecord
100
AcDbLinetypeTableRecord
  2
ByBlock
 70
     0
  3

 72
    65
 73
     0
 40
0.0
  0
LTYPE
  5
15
330
5
100
AcDbSymbolTableRecord
100
AcDbLinetypeTableRecord
  2
ByLayer
 70
     0
  3

 72
    65
 73
     0
 40
0.0
  0
LTYPE
  5
16
330
5
100
AcDbSymbolTableRecord
100
AcDbLinetypeTableRecord
  2
Continuous
 70
     0
  3
Solid line
 72
    65
 73
     0
 40
0.0
  0
LTYPE
  5
3F
330
5
100
AcDbSymbolTableRecord
100
AcDbLinetypeTableRecord
  2
HIDDEN
 70
     0
  3
Hidden __ __ __ __ __ __ __ __ __ __ __ __ __ __
 72
    65
 73
     2
 40
1.905
 49
1.27
 74
     0
 49
-0.635
 74
     0
  0
LTYPE
  5
40
330
5
100
AcDbSymbolTableRecord
100
AcDbLinetypeTableRecord
  2
PHANTOM
 70
     0
  3
Phantom ______  __  __  ______  __  __  ______
 72
    65
 73
     6
 40
12.7
 49
6.35
 74
     0
 49
-1.27
 74
     0
 49
1.27
 74
     0
 49
-1.27
 74
     0
 49
1.27
 74
     0
 49
-1.27
 74
     0
  0
LTYPE
  5
41
330
5
100
AcDbSymbolTableRecord
100
AcDbLinetypeTableRecord
  2
CENTER
 70
     0
  3
Center ____ _ ____ _ ____ _ ____ _ ____ _ ____
 72
    65
 73
     4
 40
10.16
 49
6.35
 74
     0
 49
-1.27
 74
     0
 49
1.27
 74
     0
 49
-1.27
 74
     0
  0
LTYPE
  5
42
330
5
100
AcDbSymbolTableRecord
100
AcDbLinetypeTableRecord
  2
CENTERX2
 70
     0
  3
Center (2x) ________  __  ________  __  _____
 72
    65
 73
     4
 40
20.32
 49
12.7
 74
     0
 49
-2.54
 74
     0
 49
2.54
 74
     0
 49
-2.54
 74
     0
  0
LTYPE
  5
43
330
5
100
AcDbSymbolTableRecord
100
AcDbLinetypeTableRecord
  2
DOT2
 70
     0
  3
Dot (.5x) ........................................
 72
    65
 73
     2
 40
0.635
 49
0.0
 74
     0
 49
-0.635
 74
     0
  0
ENDTAB
  0
TABLE
  2
LAYER
  5
2
330
0
100
AcDbSymbolTable
 70
     1
  0
LAYER
  5
10
330
2
100
AcDbSymbolTableRecord
100
AcDbLayerTableRecord
  2
0
 70
     0
 62
     7
  6
Continuous
370
    -3
390
F
  0
ENDTAB
  0
TABLE
  2
STYLE
  5
3
330
0
100
AcDbSymbolTable
 70
     3
  0
STYLE
  5
11
330
3
100
AcDbSymbolTableRecord
100
AcDbTextStyleTableRecord
  2
Standard
 70
     0
 40
0.0
 41
1.0
 50
0.0
 71
     0
 42
3.5
  3
txt
  4
bigfont
  0
STYLE
  5
4C
330
3
100
AcDbSymbolTableRecord
100
AcDbTextStyleTableRecord
  2
SLDTEXTSTYLE0
 70
     0
 40
0.0
 41
0.7
 50
0.0
 71
     0
 42
0.2
  3
TXT
  4
bigfont
  0
STYLE
  5
8F
330
3
100
AcDbSymbolTableRecord
100
AcDbTextStyleTableRecord
  2
SLDTEXTSTYLE1
 70
     0
 40
0.0
 41
0.75
 50
0.0
 71
     0
 42
0.2
  3
TXT
  4
bigfont
  0
ENDTAB
  0
TABLE
  2
VIEW
  5
6
330
0
100
AcDbSymbolTable
 70
     0
  0
ENDTAB
  0
TABLE
  2
UCS
  5
7
330
0
100
AcDbSymbolTable
 70
     0
  0
ENDTAB
  0
TABLE
  2
APPID
  5
9
330
0
100
AcDbSymbolTable
 70
     1
  0
APPID
  5
12
330
9
100
AcDbSymbolTableRecord
100
AcDbRegAppTableRecord
  2
ACAD
 70
     0
  0
ENDTAB
  0
TABLE
  2
DIMSTYLE
  5
A
330
0
100
AcDbSymbolTable
 70
     4
100
AcDbDimStyleTable
  0
DIMSTYLE
105
27
330
A
100
AcDbSymbolTableRecord
100
AcDbDimStyleTableRecord
  2
ISO-25
 70
     0
 41
2.5
 42
0.625
 43
3.75
 44
1.25
 73
     0
 74
     0
 77
     1
 78
     8
140
2.5
141
2.5
143
0.0393700787
147
0.625
171
     3
172
     1
178
     0
271
     2
272
     2
274
     3
278
    44
283
     0
284
     8
340
11
  0
DIMSTYLE
105
90
102
{ACAD_REACTORS
330
8E
330
9A
330
A4
330
19B
330
1BF
102
}
330
A
100
AcDbSymbolTableRecord
100
AcDbDimStyleTableRecord
  2
SLDDIMSTYLE0
 70
     0
 41
2.0
 44
0.0
 45
0.000000001
 73
     0
 74
     0
 77
     3
 78
    12
 79
     3
140
3.5
147
0.875
173
     1
178
     0
271
     1
272
     1
276
     2
284
    12
340
8F
  0
DIMSTYLE
105
B0
330
A
100
AcDbSymbolTableRecord
100
AcDbDimStyleTableRecord
  2
SLDDIMSTYLE1
 70
     0
 41
2.0
 44
0.0
 45
0.000000001
140
0.0
146
2.0
147
0.0
173
     1
178
     0
271
     0
272
     0
276
     2
340
11
  0
DIMSTYLE
105
182
102
{ACAD_REACTORS
330
181
330
18F
330
1A5
330
1B2
330
1C9
102
}
330
A
100
AcDbSymbolTableRecord
100
AcDbDimStyleTableRecord
  2
SLDDIMSTYLE2
 70
     0
 41
2.0
 44
0.0
 45
0.000000001
 73
     0
 74
     0
 77
     3
 78
    12
 79
     3
140
3.5
147
0.875
172
     1
173
     1
178
     0
271
     1
272
     1
276
     2
284
    12
289
     0
340
8F
  0
ENDTAB
  0
TABLE
  2
BLOCK_RECORD
  5
1
330
0
100
AcDbSymbolTable
 70
    12
  0
BLOCK_RECORD
  5
1F
330
1
100
AcDbSymbolTableRecord
100
AcDbBlockTableRecord
  2
*Model_Space
340
22
  0
BLOCK_RECORD
  5
1B
330
1
100
AcDbSymbolTableRecord
100
AcDbBlockTableRecord
  2
*Paper_Space
340
1E
  0
BLOCK_RECORD
  5
23
330
1
100
AcDbSymbolTableRecord
100
AcDbBlockTableRecord
  2
*Paper_Space0
340
26
  0
BLOCK_RECORD
  5
91
330
1
100
AcDbSymbolTableRecord
100
AcDbBlockTableRecord
  2
_D
340
0
  0
BLOCK_RECORD
  5
9B
330
1
100
AcDbSymbolTableRecord
100
AcDbBlockTableRecord
  2
_D_1
340
0
  0
BLOCK_RECORD
  5
A5
330
1
100
AcDbSymbolTableRecord
100
AcDbBlockTableRecord
  2
_D_2
340
0
  0
BLOCK_RECORD
  5
B2
330
1
100
AcDbSymbolTableRecord
100
AcDbBlockTableRecord
  2
SW_CENTERMARKSYMBOL_0
340
0
102
{BLKREFS
331
BD
102
}
  0
BLOCK_RECORD
  5
183
330
1
100
AcDbSymbolTableRecord
100
AcDbBlockTableRecord
  2
_D_3
340
0
  0
BLOCK_RECORD
  5
190
330
1
100
AcDbSymbolTableRecord
100
AcDbBlockTableRecord
  2
_D_4
340
0
  0
BLOCK_RECORD
  5
19C
330
1
100
AcDbSymbolTableRecord
100
AcDbBlockTableRecord
  2
_D_5
340
0
  0
BLOCK_RECORD
  5
1A6
330
1
100
AcDbSymbolTableRecord
100
AcDbBlockTableRecord
  2
_D_6
340
0
  0
BLOCK_RECORD
  5
1B3
330
1
100
AcDbSymbolTableRecord
100
AcDbBlockTableRecord
  2
_D_7
340
0
  0
BLOCK_RECORD
  5
1C0
330
1
100
AcDbSymbolTableRecord
100
AcDbBlockTableRecord
  2
_D_8
340
0
  0
BLOCK_RECORD
  5
1CA
330
1
100
AcDbSymbolTableRecord
100
AcDbBlockTableRecord
  2
_D_9
340
0
  0
ENDTAB
  0
ENDSEC
  0
SECTION
  2
BLOCKS
  0
BLOCK
  5
20
330
1F
100
AcDbEntity
  8
0
100
AcDbBlockBegin
  2
*Model_Space
 70
     0
 10
0.0
 20
0.0
 30
0.0
  3
*Model_Space
  1

  0
ENDBLK
  5
21
330
1F
100
AcDbEntity
  8
0
100
AcDbBlockEnd
  0
BLOCK
  5
1C
330
1B
100
AcDbEntity
 67
     1
  8
0
100
AcDbBlockBegin
  2
*Paper_Space
 70
     0
 10
0.0
 20
0.0
 30
0.0
  3
*Paper_Space
  1

  0
ENDBLK
  5
1D
330
1B
100
AcDbEntity
 67
     1
  8
0
100
AcDbBlockEnd
  0
BLOCK
  5
24
330
23
100
AcDbEntity
  8
0
100
AcDbBlockBegin
  2
*Paper_Space0
 70
     0
 10
0.0
 20
0.0
 30
0.0
  3
*Paper_Space0
  1

  0
ENDBLK
  5
25
330
23
100
AcDbEntity
  8
0
100
AcDbBlockEnd
  0
BLOCK
  5
92
330
91
100
AcDbEntity
  8
0
100
AcDbBlockBegin
  2
_D
 70
     0
 10
0.0
 20
0.0
 30
0.0
  3
_D
  1

  0
SOLID
  5
94
330
91
100
AcDbEntity
  8
0
  6
Continuous
 62
     7
370
     0
100
AcDbTrace
 10
43.4759124088
 20
175.4260948905
 30
0.0
 11
42.7259124088
 21
173.4260948905
 31
0.0
 12
44.2259124088
 22
173.4260948905
 32
0.0
 13
44.2259124088
 23
173.4260948905
 33
0.0
  0
SOLID
  5
95
330
91
100
AcDbEntity
  8
0
  6
Continuous
 62
     7
370
     0
100
AcDbTrace
 10
43.4759124088
 20
156.8260948905
 30
0.0
 11
44.2259124088
 21
158.8260948905
 31
0.0
 12
42.7259124088
 22
158.8260948905
 32
0.0
 13
42.7259124088
 23
158.8260948905
 33
0.0
  0
LINE
  5
96
330
91
100
AcDbEntity
  8
0
  6
Continuous
 62
     7
370
     0
100
AcDbLine
 10
62.4259124088
 20
175.4260948905
 30
0.0
 11
42.4759124088
 21
175.4260948905
 31
0.0
  0
LINE
  5
97
330
91
100
AcDbEntity
  8
0
  6
Continuous
 62
     7
370
     0
100
AcDbLine
 10
62.4259124088
 20
156.8260948905
 30
0.0
 11
42.4759124088
 21
156.8260948905
 31
0.0
  0
LINE
  5
98
330
91
100
AcDbEntity
  8
0
  6
Continuous
 62
     7
370
     0
100
AcDbLine
 10
43.4759124088
 20
175.4260948905
 30
0.0
 11
43.4759124088
 21
156.8260948905
 31
0.0
  0
MTEXT
  5
99
330
91
100
AcDbEntity
  8
0
  6
Continuous
 62
     7
370
     0
100
AcDbMText
 10
38.9641754942
 20
161.6004003601
 30
30.85
 40
3.5
 41
0.0
 71
     1
 72
     1
  1
18.6
  7
SLDTEXTSTYLE1
 11
-7.044195017643634E-15
 21
1.0
 31
0.0
 73
     1
 44
1.0
  0
ENDBLK
  5
93
330
91
100
AcDbEntity
  8
0
100
AcDbBlockEnd
  0
BLOCK
  5
9C
330
9B
100
AcDbEntity
  8
0
100
AcDbBlockBegin
  2
_D_1
 70
     0
 10
0.0
 20
0.0
 30
0.0
  3
_D_1
  1

  0
SOLID
  5
9E
330
9B
100
AcDbEntity
  8
0
  6
Continuous
 62
     7
370
     0
100
AcDbTrace
 10
52.4192102665
 20
172.1260948905
 30
0.0
 11
51.6692102665
 21
170.1260948905
 31
0.0
 12
53.1692102665
 22
170.1260948905
 32
0.0
 13
53.1692102665
 23
170.1260948905
 33
0.0
  0
SOLID
  5
9F
330
9B
100
AcDbEntity
  8
0
  6
Continuous
 62
     7
370
     0
100
AcDbTrace
 10
52.4192102665
 20
160.1260948905
 30
0.0
 11
53.1692102665
 21
162.1260948905
 31
0.0
 12
51.6692102665
 22
162.1260948905
 32
0.0
 13
51.6692102665
 23
162.1260948905
 33
0.0
  0
LINE
  5
A0
330
9B
100
AcDbEntity
  8
0
  6
Continuous
 62
     7
370
     0
100
AcDbLine
 10
63.0118107936
 20
172.1260948905
 30
0.0
 11
51.4192102665
 21
172.1260948905
 31
0.0
  0
LINE
  5
A1
330
9B
100
AcDbEntity
  8
0
  6
Continuous
 62
     7
370
     0
100
AcDbLine
 10
63.0118107936
 20
160.1260948905
 30
0.0
 11
51.4192102665
 21
160.1260948905
 31
0.0
  0
LINE
  5
A2
330
9B
100
AcDbEntity
  8
0
  6
Continuous
 62
     7
370
     0
100
AcDbLine
 10
52.4192102665
 20
172.1260948905
 30
0.0
 11
52.4192102665
 21
160.1260948905
 31
0.0
  0
MTEXT
  5
A3
330
9B
100
AcDbEntity
  8
0
  6
Continuous
 62
     7
370
     0
100
AcDbMText
 10
47.9074733519
 20
163.539983697
 30
30.85
 40
3.5
 41
0.0
 71
     1
 72
     1
  1
12
  7
SLDTEXTSTYLE1
 11
-7.044195017643634E-15
 21
1.0
 31
0.0
 73
     1
 44
1.0
  0
ENDBLK
  5
9D
330
9B
100
AcDbEntity
  8
0
100
AcDbBlockEnd
  0
BLOCK
  5
A6
330
A5
100
AcDbEntity
  8
0
100
AcDbBlockBegin
  2
_D_2
 70
     0
 10
0.0
 20
0.0
 30
0.0
  3
_D_2
  1

  0
SOLID
  5
A8
330
A5
100
AcDbEntity
  8
0
  6
Continuous
 62
     7
370
     0
100
AcDbTrace
 10
59.4759124088
 20
185.4260948905
 30
0.0
 11
61.4759124088
 21
184.6760948905
 31
0.0
 12
61.4759124088
 22
186.1760948905
 32
0.0
 13
61.4759124088
 23
186.1760948905
 33
0.0
  0
SOLID
  5
A9
330
A5
100
AcDbEntity
  8
0
  6
Continuous
 62
     7
370
     0
100
AcDbTrace
 10
75.4759124088
 20
185.4260948905
 30
0.0
 11
73.4759124088
 21
186.1760948905
 31
0.0
 12
73.4759124088
 22
184.6760948905
 32
0.0
 13
73.4759124088
 23
184.6760948905
 33
0.0
  0
LINE
  5
AA
330
A5
100
AcDbEntity
  8
0
  6
Continuous
 62
     7
370
     0
100
AcDbLine
 10
59.4759124088
 20
167.1260948905
 30
0.0
 11
59.4759124088
 21
186.4260948905
 31
0.0
  0
LINE
  5
AB
330
A5
100
AcDbEntity
  8
0
  6
Continuous
 62
     7
370
     0
100
AcDbLine
 10
75.4759124088
 20
167.1260948905
 30
0.0
 11
75.4759124088
 21
186.4260948905
 31
0.0
  0
LINE
  5
AC
330
A5
100
AcDbEntity
  8
0
  6
Continuous
 62
     7
370
     0
100
AcDbLine
 10
59.4759124088
 20
185.4260948905
 30
0.0
 11
75.4759124088
 21
185.4260948905
 31
0.0
  0
MTEXT
  5
AD
330
A5
100
AcDbEntity
  8
0
  6
Continuous
 62
     7
370
     0
100
AcDbMText
 10
62.2505822832
 20
189.9378319797
 30
30.85
 40
3.5
 41
0.0
 71
     1
 72
     1
  1
%%c
  7
SLDTEXTSTYLE1
 73
     1
 44
1.0
  0
MTEXT
  5
AE
330
A5
100
AcDbEntity
  8
0
  6
Continuous
 62
     7
370
     0
100
AcDbMText
 10
67.5290196816
 20
189.9913041564
 30
30.85
 40
3.5
 41
0.0
 71
     1
 72
     1
  1
16
  7
SLDTEXTSTYLE1
 73
     1
 44
1.0
  0
ENDBLK
  5
A7
330
A5
100
AcDbEntity
  8
0
100
AcDbBlockEnd
  0
BLOCK
  5
B3
330
B2
100
AcDbEntity
  8
0
100
AcDbBlockBegin
  2
SW_CENTERMARKSYMBOL_0
 70
     0
 10
0.0
 20
0.0
 30
0.0
  3
SW_CENTERMARKSYMBOL_0
  1

  0
LINE
  5
B5
330
B2
100
AcDbEntity
  8
0
  6
Continuous
 62
     0
370
     0
100
AcDbLine
 10
0.0
 20
0.0
 30
0.0
 11
0.0
 21
2.5
 31
0.0
  0
LINE
  5
B6
330
B2
100
AcDbEntity
  8
0
  6
Continuous
 62
     0
370
     0
100
AcDbLine
 10
0.0
 20
0.0
 30
0.0
 11
-2.5
 21
0.0
 31
0.0
  0
LINE
  5
B7
330
B2
100
AcDbEntity
  8
0
  6
Continuous
 62
     0
370
     0
100
AcDbLine
 10
0.0
 20
0.0
 30
0.0
 11
0.0
 21
-2.5
 31
0.0
  0
LINE
  5
B8
330
B2
100
AcDbEntity
  8
0
  6
Continuous
 62
     0
370
     0
100
AcDbLine
 10
0.0
 20
0.0
 30
0.0
 11
2.5
 21
0.0
 31
0.0
  0
LINE
  5
B9
330
B2
100
AcDbEntity
  8
0
  6
Continuous
 62
     0
370
     0
100
AcDbLine
 10
0.0
 20
5.0
 30
0.0
 11
0.0
 21
10.5
 31
0.0
  0
LINE
  5
BA
330
B2
100
AcDbEntity
  8
0
  6
Continuous
 62
     0
370
     0
100
AcDbLine
 10
-5.0
 20
0.0
 30
0.0
 11
-10.5
 21
0.0
 31
0.0
  0
LINE
  5
BB
330
B2
100
AcDbEntity
  8
0
  6
Continuous
 62
     0
370
     0
100
AcDbLine
 10
0.0
 20
-5.0
 30
0.0
 11
0.0
 21
-10.5
 31
0.0
  0
LINE
  5
BC
330
B2
100
AcDbEntity
  8
0
  6
Continuous
 62
     0
370
     0
100
AcDbLine
 10
5.0
 20
0.0
 30
0.0
 11
10.5
 21
0.0
 31
0.0
  0
ENDBLK
  5
B4
330
B2
100
AcDbEntity
  8
0
100
AcDbBlockEnd
  0
BLOCK
  5
184
330
183
100
AcDbEntity
  8
0
100
AcDbBlockBegin
  2
_D_3
 70
     0
 10
0.0
 20
0.0
 30
0.0
  3
_D_3
  1

  0
SOLID
  5
186
330
183
100
AcDbEntity
  8
0
  6
Continuous
 62
     7
370
     0
100
AcDbTrace
 10
90.8295620438
 20
169.6260948905
 30
0.0
 11
91.5795620438
 21
171.6260948905
 31
0.0
 12
90.0795620438
 22
171.6260948905
 32
0.0
 13
90.0795620438
 23
171.6260948905
 33
0.0
  0
SOLID
  5
187
330
183
100
AcDbEntity
  8
0
  6
Continuous
 62
     7
370
     0
100
AcDbTrace
 10
90.8295620438
 20
162.6260948905
 30
0.0
 11
90.0795620438
 21
160.6260948905
 31
0.0
 12
91.5795620438
 22
160.6260948905
 32
0.0
 13
91.5795620438
 23
160.6260948905
 33
0.0
  0
LINE
  5
188
330
183
100
AcDbEntity
  8
0
  6
Continuous
 62
     7
370
     0
100
AcDbLine
 10
99.8295620438
 20
169.6260948905
 30
0.0
 11
89.8295620438
 21
169.6260948905
 31
0.0
  0
LINE
  5
189
330
183
100
AcDbEntity
  8
0
  6
Continuous
 62
     7
370
     0
100
AcDbLine
 10
99.8295620438
 20
162.6260948905
 30
0.0
 11
89.8295620438
 21
162.6260948905
 31
0.0
  0
LINE
  5
18A
330
183
100
AcDbEntity
  8
0
  6
Continuous
 62
     7
370
     0
100
AcDbLine
 10
90.8295620438
 20
169.6260948905
 30
0.0
 11
90.8295620438
 21
174.6260948905
 31
0.0
  0
LINE
  5
18B
330
183
100
AcDbEntity
  8
0
  6
Continuous
 62
     7
370
     0
100
AcDbLine
 10
90.8295620438
 20
169.6260948905
 30
0.0
 11
90.8295620438
 21
162.6260948905
 31
0.0
  0
LINE
  5
18C
330
183
100
AcDbEntity
  8
0
  6
Continuous
 62
     7
370
     0
100
AcDbLine
 10
90.8295620438
 20
162.6260948905
 30
0.0
 11
90.8295620438
 21
157.6260948905
 31
0.0
  0
MTEXT
  5
18D
330
183
100
AcDbEntity
  8
0
  6
Continuous
 62
     7
370
     0
100
AcDbMText
 10
86.3178249546
 20
162.1938204781
 30
0.1
 40
3.5
 41
0.0
 71
     1
 72
     1
  1
%%c
  7
SLDTEXTSTYLE1
 11
-7.044195017643634E-15
 21
1.0
 31
0.0
 73
     1
 44
1.0
  0
MTEXT
  5
18E
330
183
100
AcDbEntity
  8
0
  6
Continuous
 62
     7
370
     0
100
AcDbMText
 10
86.2643527779
 20
167.4722578765
 30
0.1
 40
3.5
 41
0.0
 71
     1
 72
     1
  1
7
  7
SLDTEXTSTYLE1
 11
-7.044195017643634E-15
 21
1.0
 31
0.0
 73
     1
 44
1.0
  0
ENDBLK
  5
185
330
183
100
AcDbEntity
  8
0
100
AcDbBlockEnd
  0
BLOCK
  5
191
330
190
100
AcDbEntity
  8
0
100
AcDbBlockBegin
  2
_D_4
 70
     0
 10
0.0
 20
0.0
 30
0.0
  3
_D_4
  1

  0
SOLID
  5
193
330
190
100
AcDbEntity
  8
0
  6
Continuous
 62
     7
370
     0
100
AcDbTrace
 10
106.3295620438
 20
185.4260948905
 30
0.0
 11
108.3295620438
 21
184.6760948905
 31
0.0
 12
108.3295620438
 22
186.1760948905
 32
0.0
 13
108.3295620438
 23
186.1760948905
 33
0.0
  0
SOLID
  5
194
330
190
100
AcDbEntity
  8
0
  6
Continuous
 62
     7
370
     0
100
AcDbTrace
 10
100.8295620438
 20
185.4260948905
 30
0.0
 11
98.8295620438
 21
186.1760948905
 31
0.0
 12
98.8295620438
 22
184.6760948905
 32
0.0
 13
98.8295620438
 23
184.6760948905
 33
0.0
  0
LINE
  5
195
330
190
100
AcDbEntity
  8
0
  6
Continuous
 62
     7
370
     0
100
AcDbLine
 10
106.3295620438
 20
173.1260948905
 30
0.0
 11
106.3295620438
 21
186.4260948905
 31
0.0
  0
LINE
  5
196
330
190
100
AcDbEntity
  8
0
  6
Continuous
 62
     7
370
     0
100
AcDbLine
 10
100.8295620438
 20
170.6260948905
 30
0.0
 11
100.8295620438
 21
186.4260948905
 31
0.0
  0
LINE
  5
197
330
190
100
AcDbEntity
  8
0
  6
Continuous
 62
     7
370
     0
100
AcDbLine
 10
106.3295620438
 20
185.4260948905
 30
0.0
 11
118.7894441247
 21
185.4260948905
 31
0.0
  0
LINE
  5
198
330
190
100
AcDbEntity
  8
0
  6
Continuous
 62
     7
370
     0
100
AcDbLine
 10
106.3295620438
 20
185.4260948905
 30
0.0
 11
100.8295620438
 21
185.4260948905
 31
0.0
  0
LINE
  5
199
330
190
100
AcDbEntity
  8
0
  6
Continuous
 62
     7
370
     0
100
AcDbLine
 10
100.8295620438
 20
185.4260948905
 30
0.0
 11
95.8295620438
 21
185.4260948905
 31
0.0
  0
MTEXT
  5
19A
330
190
100
AcDbEntity
  8
0
  6
Continuous
 62
     7
370
     0
100
AcDbMText
 10
112.3241664901
 20
189.9378318051
 30
0.1
 40
3.5
 41
0.0
 71
     1
 72
     1
  1
5.5
  7
SLDTEXTSTYLE1
 73
     1
 44
1.0
  0
ENDBLK
  5
192
330
190
100
AcDbEntity
  8
0
100
AcDbBlockEnd
  0
BLOCK
  5
19D
330
19C
100
AcDbEntity
  8
0
100
AcDbBlockBegin
  2
_D_5
 70
     0
 10
0.0
 20
0.0
 30
0.0
  3
_D_5
  1

  0
SOLID
  5
19F
330
19C
100
AcDbEntity
  8
0
  6
Continuous
 62
     7
370
     0
100
AcDbTrace
 10
100.8295620438
 20
197.4260948905
 30
0.0
 11
102.8295620438
 21
196.6760948905
 31
0.0
 12
102.8295620438
 22
198.1760948905
 32
0.0
 13
102.8295620438
 23
198.1760948905
 33
0.0
  0
SOLID
  5
1A0
330
19C
100
AcDbEntity
  8
0
  6
Continuous
 62
     7
370
     0
100
AcDbTrace
 10
162.3295620438
 20
197.4260948905
 30
0.0
 11
160.3295620438
 21
198.1760948905
 31
0.0
 12
160.3295620438
 22
196.6760948905
 32
0.0
 13
160.3295620438
 23
196.6760948905
 33
0.0
  0
LINE
  5
1A1
330
19C
100
AcDbEntity
  8
0
  6
Continuous
 62
     7
370
     0
100
AcDbLine
 10
100.8295620438
 20
170.6260948905
 30
0.0
 11
100.8295620438
 21
198.4260948905
 31
0.0
  0
LINE
  5
1A2
330
19C
100
AcDbEntity
  8
0
  6
Continuous
 62
     7
370
     0
100
AcDbLine
 10
162.3295620438
 20
169.1260948905
 30
0.0
 11
162.3295620438
 21
198.4260948905
 31
0.0
  0
LINE
  5
1A3
330
19C
100
AcDbEntity
  8
0
  6
Continuous
 62
     7
370
     0
100
AcDbLine
 10
100.8295620438
 20
197.4260948905
 30
0.0
 11
162.3295620438
 21
197.4260948905
 31
0.0
  0
MTEXT
  5
1A4
330
19C
100
AcDbEntity
  8
0
  6
Continuous
 62
     7
370
     0
100
AcDbMText
 10
127.0538675133
 20
201.9378318051
 30
0.1
 40
3.5
 41
0.0
 71
     1
 72
     1
  1
61.5
  7
SLDTEXTSTYLE1
 73
     1
 44
1.0
  0
ENDBLK
  5
19E
330
19C
100
AcDbEntity
  8
0
100
AcDbBlockEnd
  0
BLOCK
  5
1A7
330
1A6
100
AcDbEntity
  8
0
100
AcDbBlockBegin
  2
_D_6
 70
     0
 10
0.0
 20
0.0
 30
0.0
  3
_D_6
  1

  0
SOLID
  5
1A9
330
1A6
100
AcDbEntity
  8
0
  6
Continuous
 62
     7
370
     0
100
AcDbTrace
 10
171.0892221133
 20
168.6260948905
 30
0.0
 11
171.8392221133
 21
170.6260948905
 31
0.0
 12
170.3392221133
 22
170.6260948905
 32
0.0
 13
170.3392221133
 23
170.6260948905
 33
0.0
  0
SOLID
  5
1AA
330
1A6
100
AcDbEntity
  8
0
  6
Continuous
 62
     7
370
     0
100
AcDbTrace
 10
171.0892221133
 20
163.6260948905
 30
0.0
 11
170.3392221133
 21
161.6260948905
 31
0.0
 12
171.8392221133
 22
161.6260948905
 32
0.0
 13
171.8392221133
 23
161.6260948905
 33
0.0
  0
LINE
  5
1AB
330
1A6
100
AcDbEntity
  8
0
  6
Continuous
 62
     7
370
     0
100
AcDbLine
 10
162.8295620438
 20
168.6260948905
 30
0.0
 11
172.0892221133
 21
168.6260948905
 31
0.0
  0
LINE
  5
1AC
330
1A6
100
AcDbEntity
  8
0
  6
Continuous
 62
     7
370
     0
100
AcDbLine
 10
162.8295620438
 20
163.6260948905
 30
0.0
 11
172.0892221133
 21
163.6260948905
 31
0.0
  0
LINE
  5
1AD
330
1A6
100
AcDbEntity
  8
0
  6
Continuous
 62
     7
370
     0
100
AcDbLine
 10
171.0892221133
 20
168.6260948905
 30
0.0
 11
171.0892221133
 21
181.1934738556
 31
0.0
  0
LINE
  5
1AE
330
1A6
100
AcDbEntity
  8
0
  6
Continuous
 62
     7
370
     0
100
AcDbLine
 10
171.0892221133
 20
168.6260948905
 30
0.0
 11
171.0892221133
 21
163.6260948905
 31
0.0
  0
LINE
  5
1AF
330
1A6
100
AcDbEntity
  8
0
  6
Continuous
 62
     7
370
     0
100
AcDbLine
 10
171.0892221133
 20
163.6260948905
 30
0.0
 11
171.0892221133
 21
158.6260948905
 31
0.0
  0
MTEXT
  5
1B0
330
1A6
100
AcDbEntity
  8
0
  6
Continuous
 62
     7
370
     0
100
AcDbMText
 10
166.5774850241
 20
173.3289250308
 30
0.1
 40
3.5
 41
0.0
 71
     1
 72
     1
  1
%%c
  7
SLDTEXTSTYLE1
 11
-7.044195017643634E-15
 21
1.0
 31
0.0
 73
     1
 44
1.0
  0
MTEXT
  5
1B1
330
1A6
100
AcDbEntity
  8
0
  6
Continuous
 62
     7
370
     0
100
AcDbMText
 10
166.5240128474
 20
178.6073624292
 30
0.1
 40
3.5
 41
0.0
 71
     1
 72
     1
  1
5
  7
SLDTEXTSTYLE1
 11
-7.044195017643634E-15
 21
1.0
 31
0.0
 73
     1
 44
1.0
  0
ENDBLK
  5
1A8
330
1A6
100
AcDbEntity
  8
0
100
AcDbBlockEnd
  0
BLOCK
  5
1B4
330
1B3
100
AcDbEntity
  8
0
100
AcDbBlockBegin
  2
_D_7
 70
     0
 10
0.0
 20
0.0
 30
0.0
  3
_D_7
  1

  0
SOLID
  5
1B6
330
1B3
100
AcDbEntity
  8
0
  6
Continuous
 62
     7
370
     0
100
AcDbTrace
 10
182.0111452246
 20
172.1260948905
 30
0.0
 11
182.7611452246
 21
174.1260948905
 31
0.0
 12
181.2611452246
 22
174.1260948905
 32
0.0
 13
181.2611452246
 23
174.1260948905
 33
0.0
  0
SOLID
  5
1B7
330
1B3
100
AcDbEntity
  8
0
  6
Continuous
 62
     7
370
     0
100
AcDbTrace
 10
182.0111452246
 20
160.1260948905
 30
0.0
 11
181.2611452246
 21
158.1260948905
 31
0.0
 12
182.7611452246
 22
158.1260948905
 32
0.0
 13
182.7611452246
 23
158.1260948905
 33
0.0
  0
LINE
  5
1B8
330
1B3
100
AcDbEntity
  8
0
  6
Continuous
 62
     7
370
     0
100
AcDbLine
 10
161.0295620438
 20
172.1260948905
 30
0.0
 11
183.0111452246
 21
172.1260948905
 31
0.0
  0
LINE
  5
1B9
330
1B3
100
AcDbEntity
  8
0
  6
Continuous
 62
     7
370
     0
100
AcDbLine
 10
161.0295620438
 20
160.1260948905
 30
0.0
 11
183.0111452246
 21
160.1260948905
 31
0.0
  0
LINE
  5
1BA
330
1B3
100
AcDbEntity
  8
0
  6
Continuous
 62
     7
370
     0
100
AcDbLine
 10
182.0111452246
 20
172.1260948905
 30
0.0
 11
182.0111452246
 21
177.1260948905
 31
0.0
  0
LINE
  5
1BB
330
1B3
100
AcDbEntity
  8
0
  6
Continuous
 62
     7
370
     0
100
AcDbLine
 10
182.0111452246
 20
172.1260948905
 30
0.0
 11
182.0111452246
 21
160.1260948905
 31
0.0
  0
LINE
  5
1BC
330
1B3
100
AcDbEntity
  8
0
  6
Continuous
 62
     7
370
     0
100
AcDbLine
 10
182.0111452246
 20
160.1260948905
 30
0.0
 11
182.0111452246
 21
155.1260948905
 31
0.0
  0
MTEXT
  5
1BD
330
1B3
100
AcDbEntity
  8
0
  6
Continuous
 62
     7
370
     0
100
AcDbMText
 10
177.4994081354
 20
160.900764765
 30
0.1
 40
3.5
 41
0.0
 71
     1
 72
     1
  1
%%c
  7
SLDTEXTSTYLE1
 11
-7.044195017643634E-15
 21
1.0
 31
0.0
 73
     1
 44
1.0
  0
MTEXT
  5
1BE
330
1B3
100
AcDbEntity
  8
0
  6
Continuous
 62
     7
370
     0
100
AcDbMText
 10
177.4459359587
 20
166.1792021633
 30
0.1
 40
3.5
 41
0.0
 71
     1
 72
     1
  1
12
  7
SLDTEXTSTYLE1
 11
-7.044195017643634E-15
 21
1.0
 31
0.0
 73
     1
 44
1.0
  0
ENDBLK
  5
1B5
330
1B3
100
AcDbEntity
  8
0
100
AcDbBlockEnd
  0
BLOCK
  5
1C1
330
1C0
100
AcDbEntity
  8
0
100
AcDbBlockBegin
  2
_D_8
 70
     0
 10
0.0
 20
0.0
 30
0.0
  3
_D_8
  1

  0
SOLID
  5
1C3
330
1C0
100
AcDbEntity
  8
0
  6
Continuous
 62
     7
370
     0
100
AcDbTrace
 10
160.3295620438
 20
142.4943261655
 30
0.0
 11
158.3295620438
 21
143.2443261655
 31
0.0
 12
158.3295620438
 22
141.7443261655
 32
0.0
 13
158.3295620438
 23
141.7443261655
 33
0.0
  0
SOLID
  5
1C4
330
1C0
100
AcDbEntity
  8
0
  6
Continuous
 62
     7
370
     0
100
AcDbTrace
 10
142.3295620438
 20
142.4943261655
 30
0.0
 11
144.3295620438
 21
141.7443261655
 31
0.0
 12
144.3295620438
 22
143.2443261655
 32
0.0
 13
144.3295620438
 23
143.2443261655
 33
0.0
  0
LINE
  5
1C5
330
1C0
100
AcDbEntity
  8
0
  6
Continuous
 62
     7
370
     0
100
AcDbLine
 10
160.3295620438
 20
159.4260948905
 30
0.0
 11
160.3295620438
 21
141.4943261655
 31
0.0
  0
LINE
  5
1C6
330
1C0
100
AcDbEntity
  8
0
  6
Continuous
 62
     7
370
     0
100
AcDbLine
 10
142.3295620438
 20
157.4260948905
 30
0.0
 11
142.3295620438
 21
141.4943261655
 31
0.0
  0
LINE
  5
1C7
330
1C0
100
AcDbEntity
  8
0
  6
Continuous
 62
     7
370
     0
100
AcDbLine
 10
160.3295620438
 20
142.4943261655
 30
0.0
 11
142.3295620438
 21
142.4943261655
 31
0.0
  0
MTEXT
  5
1C8
330
1C0
100
AcDbEntity
  8
0
  6
Continuous
 62
     7
370
     0
100
AcDbMText
 10
148.7434508503
 20
147.0060630801
 30
0.1
 40
3.5
 41
0.0
 71
     1
 72
     1
  1
18
  7
SLDTEXTSTYLE1
 73
     1
 44
1.0
  0
ENDBLK
  5
1C2
330
1C0
100
AcDbEntity
  8
0
100
AcDbBlockEnd
  0
BLOCK
  5
1CB
330
1CA
100
AcDbEntity
  8
0
100
AcDbBlockBegin
  2
_D_9
 70
     0
 10
0.0
 20
0.0
 30
0.0
  3
_D_9
  1

  0
SOLID
  5
1CD
330
1CA
100
AcDbEntity
  8
0
  6
Continuous
 62
     7
370
     0
100
AcDbTrace
 10
118.3295620438
 20
142.4943261655
 30
0.0
 11
120.3295620438
 21
141.7443261655
 31
0.0
 12
120.3295620438
 22
143.2443261655
 32
0.0
 13
120.3295620438
 23
143.2443261655
 33
0.0
  0
SOLID
  5
1CE
330
1CA
100
AcDbEntity
  8
0
  6
Continuous
 62
     7
370
     0
100
AcDbTrace
 10
138.3295620438
 20
142.4943261655
 30
0.0
 11
136.3295620438
 21
143.2443261655
 31
0.0
 12
136.3295620438
 22
141.7443261655
 32
0.0
 13
136.3295620438
 23
141.7443261655
 33
0.0
  0
LINE
  5
1CF
330
1CA
100
AcDbEntity
  8
0
  6
Continuous
 62
     7
370
     0
100
AcDbLine
 10
118.3295620438
 20
161.3760948905
 30
0.0
 11
118.3295620438
 21
141.4943261655
 31
0.0
  0
LINE
  5
1D0
330
1CA
100
AcDbEntity
  8
0
  6
Continuous
 62
     7
370
     0
100
AcDbLine
 10
138.3295620438
 20
161.6760948905
 30
0.0
 11
138.3295620438
 21
141.4943261655
 31
0.0
  0
LINE
  5
1D1
330
1CA
100
AcDbEntity
  8
0
  6
Continuous
 62
     7
370
     0
100
AcDbLine
 10
118.3295620438
 20
142.4943261655
 30
0.0
 11
138.3295620438
 21
142.4943261655
 31
0.0
  0
MTEXT
  5
1D2
330
1CA
100
AcDbEntity
  8
0
  6
Continuous
 62
     7
370
     0
100
AcDbMText
 10
124.0469231475
 20
147.0060630801
 30
0.1
 40
3.5
 41
0.0
 71
     1
 72
     1
  1
20
  7
SLDTEXTSTYLE1
 73
     1
 44
1.0
  0
MTEXT
  5
1D3
330
1CA
100
AcDbEntity
  8
0
  6
Continuous
 62
     7
370
     0
100
AcDbMText
 10
129.2191455346
 20
147.0060630801
 30
0.1
 40
3.5
 41
0.0
 71
     1
 72
     1
  1
st
  7
SLDTEXTSTYLE1
 73
     1
 44
1.0
  0
ENDBLK
  5
1CC
330
1CA
100
AcDbEntity
  8
0
100
AcDbBlockEnd
  0
ENDSEC
  0
SECTION
  2
ENTITIES
  0
LINE
  5
44
330
1F
100
AcDbEntity
  8
0
  6
Continuous
 62
     7
370
     0
100
AcDbLine
 10
20.2604743903
 20
285.0
 30
0.0
 11
196.7604743903
 21
285.0
 31
0.0
  0
LINE
  5
45
330
1F
100
AcDbEntity
  8
0
  6
Continuous
 62
     7
370
     0
100
AcDbLine
 10
20.2604743903
 20
285.0
 30
0.0
 11
20.2604743903
 21
10.0
 31
0.0
  0
LINE
  5
46
330
1F
100
AcDbEntity
  8
0
  6
Continuous
 62
     7
370
     0
100
AcDbLine
 10
20.2604743903
 20
10.0
 30
0.0
 11
196.7604743903
 21
10.0
 31
0.0
  0
LINE
  5
47
330
1F
100
AcDbEntity
  8
0
  6
Continuous
 62
     7
370
     0
100
AcDbLine
 10
196.7604743903
 20
285.0
 30
0.0
 11
196.7604743903
 21
10.0
 31
0.0
  0
LINE
  5
48
330
1F
100
AcDbEntity
  8
0
  6
Continuous
 62
     7
370
     0
100
AcDbLine
 10
127.0104743903
 20
50.75
 30
0.0
 11
196.7604743903
 21
50.75
 31
0.0
  0
LINE
  5
49
330
1F
100
AcDbEntity
  8
0
  6
Continuous
 62
     7
370
     0
100
AcDbLine
 10
127.0104743903
 20
50.75
 30
0.0
 11
127.0104743903
 21
10.0
 31
0.0
  0
LINE
  5
4A
330
1F
100
AcDbEntity
  8
0
  6
Continuous
 62
     7
370
     0
100
AcDbLine
 10
127.0104743903
 20
22.75
 30
0.0
 11
196.7604743903
 21
22.75
 31
0.0
  0
LINE
  5
4B
330
1F
100
AcDbEntity
  8
0
  6
Continuous
 62
     7
370
     0
100
AcDbLine
 10
127.0104743903
 20
36.75
 30
0.0
 11
196.7604743903
 21
36.75
 31
0.0
  0
MTEXT
  5
4D
330
1F
100
AcDbEntity
  8
0
  6
Continuous
 62
     7
370
     0
100
AcDbMText
 10
160.9594284911
 20
30.4171582345
 30
0.0
 40
4.2333333333
 41
0.0
 71
     2
 72
     1
  1
VFIL2-SS-20-P12
  7
SLDTEXTSTYLE0
 73
     1
 44
1.0
  0
MTEXT
  5
4E
330
1F
100
AcDbEntity
  8
0
  6
Continuous
 62
     7
370
     0
100
AcDbMText
 10
161.3686533351
 20
43.9409718514
 30
0.0
 40
4.2333333333
 41
0.0
 71
     2
 72
     1
  1
吸着金具・ミニ用
  7
SLDTEXTSTYLE0
 73
     1
 44
1.0
  0
MTEXT
  5
4F
330
1F
100
AcDbEntity
  8
0
  6
Continuous
 62
     7
370
     0
100
AcDbMText
 10
162.659870068
 20
16.8228189052
 30
0.0
 40
4.2333333333
 41
0.0
 71
     2
 72
     1
  1
211037
  7
SLDTEXTSTYLE0
 73
     1
 44
1.0
  0
LINE
  5
50
330
1F
100
AcDbEntity
  8
0
  6
Continuous
 62
     7
370
    15
100
AcDbLine
 10
65.1259124088
 20
154.3260948905
 30
0.0
 11
65.4759124088
 21
151.8260948905
 31
0.0
  0
LINE
  5
51
330
1F
100
AcDbEntity
  8
0
  6
Continuous
 62
     7
370
    15
100
AcDbLine
 10
69.4759124088
 20
151.8260948905
 30
0.0
 11
69.8259124088
 21
154.3260948905
 31
0.0
  0
LINE
  5
52
330
1F
100
AcDbEntity
  8
0
  6
Continuous
 62
     7
370
    15
100
AcDbLine
 10
65.1259124088
 20
151.8260948905
 30
0.0
 11
65.4759124088
 21
149.3260948905
 31
0.0
  0
LINE
  5
53
330
1F
100
AcDbEntity
  8
0
  6
Continuous
 62
     7
370
    15
100
AcDbLine
 10
69.4759124088
 20
149.3260948905
 30
0.0
 11
69.8259124088
 21
151.8260948905
 31
0.0
  0
LINE
  5
54
330
1F
100
AcDbEntity
  8
0
  6
Continuous
 62
     7
370
    15
100
AcDbLine
 10
69.5759124088
 20
154.3260948905
 30
0.0
 11
69.5759124088
 21
156.8260948905
 31
0.0
  0
LINE
  5
55
330
1F
100
AcDbEntity
  8
0
  6
Continuous
 62
     7
370
    15
100
AcDbLine
 10
65.3759124088
 20
156.8260948905
 30
0.0
 11
65.3759124088
 21
154.3260948905
 31
0.0
  0
LINE
  5
56
330
1F
100
AcDbEntity
  8
0
  6
Continuous
 62
     7
370
    15
100
AcDbLine
 10
63.4759124088
 20
172.9260948905
 30
0.0
 11
63.4759124088
 21
172.1260948905
 31
0.0
  0
LINE
  5
57
330
1F
100
AcDbEntity
  8
0
  6
Continuous
 62
     7
370
    15
100
AcDbLine
 10
71.4759124088
 20
172.1260948905
 30
0.0
 11
71.4759124088
 21
172.9260948905
 31
0.0
  0
LINE
  5
58
330
1F
100
AcDbEntity
  8
0
  6
Continuous
 62
     7
370
    15
100
AcDbLine
 10
63.4759124088
 20
160.1260948905
 30
0.0
 11
63.4759124088
 21
159.3260948905
 31
0.0
  0
LINE
  5
59
330
1F
100
AcDbEntity
  8
0
  6
Continuous
 62
     7
370
    15
100
AcDbLine
 10
71.4759124088
 20
159.3260948905
 30
0.0
 11
71.4759124088
 21
160.1260948905
 31
0.0
  0
ARC
  5
5A
330
1F
100
AcDbEntity
  8
0
  6
Continuous
 62
     7
370
    15
100
AcDbCircle
 10
67.4759124088
 20
166.1260948905
 30
0.0
 40
7.700000000000008
100
AcDbArc
 50
121.2974122203
 51
238.7025877797
  0
ARC
  5
5B
330
1F
100
AcDbEntity
  8
0
  6
Continuous
 62
     7
370
    15
100
AcDbCircle
 10
67.4759124088
 20
166.1260948905
 30
0.0
 40
7.700000000000004
100
AcDbArc
 50
301.2974122203
 51
58.7025877797
  0
ARC
  5
5C
330
1F
100
AcDbEntity
  8
0
  6
Continuous
 62
     7
370
    15
100
AcDbCircle
 10
67.4759124088
 20
166.1260948905
 30
0.0
 40
8.000000000000014
100
AcDbArc
 50
120.4143653546
 51
239.5856346455
  0
ARC
  5
5D
330
1F
100
AcDbEntity
  8
0
  6
Continuous
 62
     7
370
    15
100
AcDbCircle
 10
67.4759124088
 20
166.1260948905
 30
0.0
 40
8.00000000000001
100
AcDbArc
 50
300.4143653546
 51
59.5856346455
  0
LINE
  5
5E
330
1F
100
AcDbEntity
  8
0
  6
Continuous
 62
     7
370
    15
100
AcDbLine
 10
69.5009124088
 20
156.8260948905
 30
0.0
 11
69.5009124088
 21
159.3260948905
 31
0.0
  0
LINE
  5
5F
330
1F
100
AcDbEntity
  8
0
  6
Continuous
 62
     7
370
    15
100
AcDbLine
 10
65.4509124088
 20
156.8260948905
 30
0.0
 11
69.5009124088
 21
156.8260948905
 31
0.0
  0
LINE
  5
60
330
1F
100
AcDbEntity
  8
0
  6
Continuous
 62
     7
370
    15
100
AcDbLine
 10
65.4509124088
 20
156.8260948905
 30
0.0
 11
65.4509124087
 21
159.3260948905
 31
0.0
  0
LINE
  5
61
330
1F
100
AcDbEntity
  8
0
  6
Continuous
 62
     7
370
    15
100
AcDbLine
 10
65.4509124087
 20
159.3260948905
 30
0.0
 11
65.5528614474
 21
159.3260948905
 31
0.0
  0
LINE
  5
62
330
1F
100
AcDbEntity
  8
0
  6
Continuous
 62
     7
370
    15
100
AcDbLine
 10
69.3989633701
 20
159.3260948905
 30
0.0
 11
69.5009124088
 21
159.3260948905
 31
0.0
  0
LINE
  5
63
330
1F
100
AcDbEntity
  8
0
  6
Continuous
 62
     7
370
    15
100
AcDbLine
 10
63.4259124088
 20
159.3260948905
 30
0.0
 11
63.4259124088
 21
156.8260948905
 31
0.0
  0
LINE
  5
64
330
1F
100
AcDbEntity
  8
0
  6
Continuous
 62
     7
370
    15
100
AcDbLine
 10
63.4259124088
 20
159.3260948905
 30
0.0
 11
63.4768869281
 21
159.3260948905
 31
0.0
  0
LINE
  5
65
330
1F
100
AcDbEntity
  8
0
  6
Continuous
 62
     7
370
    15
100
AcDbLine
 10
65.3999378894
 20
159.3260948905
 30
0.0
 11
65.4509124087
 21
159.3260948905
 31
0.0
  0
LINE
  5
66
330
1F
100
AcDbEntity
  8
0
  6
Continuous
 62
     7
370
    15
100
AcDbLine
 10
63.4259124088
 20
156.8260948905
 30
0.0
 11
65.4509124088
 21
156.8260948905
 31
0.0
  0
LINE
  5
67
330
1F
100
AcDbEntity
  8
0
  6
Continuous
 62
     7
370
    15
100
AcDbLine
 10
71.5259124088
 20
156.8260948905
 30
0.0
 11
71.5259124088
 21
159.3260948905
 31
0.0
  0
LINE
  5
68
330
1F
100
AcDbEntity
  8
0
  6
Continuous
 62
     7
370
    15
100
AcDbLine
 10
69.5009124088
 20
159.3260948905
 30
0.0
 11
69.5518869281
 21
159.3260948905
 31
0.0
  0
LINE
  5
69
330
1F
100
AcDbEntity
  8
0
  6
Continuous
 62
     7
370
    15
100
AcDbLine
 10
71.4749378894
 20
159.3260948905
 30
0.0
 11
71.5259124088
 21
159.3260948905
 31
0.0
  0
LINE
  5
6A
330
1F
100
AcDbEntity
  8
0
  6
Continuous
 62
     7
370
    15
100
AcDbLine
 10
69.5009124088
 20
156.8260948905
 30
0.0
 11
71.5259124088
 21
156.8260948905
 31
0.0
  0
LINE
  5
6B
330
1F
100
AcDbEntity
  8
0
  6
Continuous
 62
     7
370
    15
100
AcDbLine
 10
69.8259124088
 20
154.3260948905
 30
0.0
 11
65.1259124088
 21
154.3260948905
 31
0.0
  0
LINE
  5
6C
330
1F
100
AcDbEntity
  8
0
  6
Continuous
 62
     7
370
    15
100
AcDbLine
 10
69.8259124088
 20
151.8260948905
 30
0.0
 11
65.1259124088
 21
151.8260948905
 31
0.0
  0
LINE
  5
6D
330
1F
100
AcDbEntity
  8
0
  6
Continuous
 62
     7
370
    15
100
AcDbLine
 10
69.4759124088
 20
149.3260948905
 30
0.0
 11
65.4759124088
 21
149.3260948905
 31
0.0
  0
CIRCLE
  5
6E
330
1F
100
AcDbEntity
  8
0
  6
Continuous
 62
     7
370
    15
100
AcDbCircle
 10
67.4759124088
 20
166.1260948905
 30
0.0
 40
3.500000000000007
  0
CIRCLE
  5
6F
330
1F
100
AcDbEntity
  8
0
  6
Continuous
 62
     7
370
    15
100
AcDbCircle
 10
67.4759124088
 20
166.1260948905
 30
0.0
 40
1.25
  0
LINE
  5
70
330
1F
100
AcDbEntity
  8
0
  6
Continuous
 62
     7
370
    15
100
AcDbLine
 10
60.5477091785
 20
166.1260948905
 30
0.0
 11
64.0118107936
 21
172.1260948905
 31
0.0
  0
LINE
  5
71
330
1F
100
AcDbEntity
  8
0
  6
Continuous
 62
     7
370
    15
100
AcDbLine
 10
64.0118107936
 20
172.1260948905
 30
0.0
 11
70.9400140239
 21
172.1260948905
 31
0.0
  0
LINE
  5
72
330
1F
100
AcDbEntity
  8
0
  6
Continuous
 62
     7
370
    15
100
AcDbLine
 10
64.0118107936
 20
160.1260948905
 30
0.0
 11
60.5477091785
 21
166.1260948905
 31
0.0
  0
LINE
  5
73
330
1F
100
AcDbEntity
  8
0
  6
Continuous
 62
     7
370
    15
100
AcDbLine
 10
70.9400140239
 20
172.1260948905
 30
0.0
 11
74.404115639
 21
166.1260948905
 31
0.0
  0
LINE
  5
74
330
1F
100
AcDbEntity
  8
0
  6
Continuous
 62
     7
370
    15
100
AcDbLine
 10
70.9400140239
 20
160.1260948905
 30
0.0
 11
64.0118107936
 21
160.1260948905
 31
0.0
  0
LINE
  5
75
330
1F
100
AcDbEntity
  8
0
  6
Continuous
 62
     7
370
    15
100
AcDbLine
 10
74.404115639
 20
166.1260948905
 30
0.0
 11
70.9400140239
 21
160.1260948905
 31
0.0
  0
LINE
  5
76
330
1F
100
AcDbEntity
  8
0
  6
Continuous
 62
     7
370
    15
100
AcDbLine
 10
65.4509124088
 20
172.9260948905
 30
0.0
 11
65.4509124088
 21
175.4260948905
 31
0.0
  0
LINE
  5
77
330
1F
100
AcDbEntity
  8
0
  6
Continuous
 62
     7
370
    15
100
AcDbLine
 10
63.4259124088
 20
172.9260948905
 30
0.0
 11
63.4768869281
 21
172.9260948905
 31
0.0
  0
LINE
  5
78
330
1F
100
AcDbEntity
  8
0
  6
Continuous
 62
     7
370
    15
100
AcDbLine
 10
65.3999378894
 20
172.9260948905
 30
0.0
 11
65.4509124088
 21
172.9260948905
 31
0.0
  0
LINE
  5
79
330
1F
100
AcDbEntity
  8
0
  6
Continuous
 62
     7
370
    15
100
AcDbLine
 10
63.4259124088
 20
172.9260948905
 30
0.0
 11
63.4259124088
 21
175.4260948905
 31
0.0
  0
LINE
  5
7A
330
1F
100
AcDbEntity
  8
0
  6
Continuous
 62
     7
370
    15
100
AcDbLine
 10
63.4259124088
 20
175.4260948905
 30
0.0
 11
65.4509124088
 21
175.4260948905
 31
0.0
  0
LINE
  5
7B
330
1F
100
AcDbEntity
  8
0
  6
Continuous
 62
     7
370
    15
100
AcDbLine
 10
69.5009124088
 20
172.9260948905
 30
0.0
 11
69.5009124088
 21
175.4260948905
 31
0.0
  0
LINE
  5
7C
330
1F
100
AcDbEntity
  8
0
  6
Continuous
 62
     7
370
    15
100
AcDbLine
 10
65.4509124088
 20
172.9260948905
 30
0.0
 11
65.5528614474
 21
172.9260948905
 31
0.0
  0
LINE
  5
7D
330
1F
100
AcDbEntity
  8
0
  6
Continuous
 62
     7
370
    15
100
AcDbLine
 10
69.3989633701
 20
172.9260948905
 30
0.0
 11
69.5009124088
 21
172.9260948905
 31
0.0
  0
LINE
  5
7E
330
1F
100
AcDbEntity
  8
0
  6
Continuous
 62
     7
370
    15
100
AcDbLine
 10
65.4509124088
 20
175.4260948905
 30
0.0
 11
69.5009124088
 21
175.4260948905
 31
0.0
  0
LINE
  5
7F
330
1F
100
AcDbEntity
  8
0
  6
Continuous
 62
     7
370
    15
100
AcDbLine
 10
71.5259124088
 20
172.9260948905
 30
0.0
 11
71.5259124087
 21
175.4260948905
 31
0.0
  0
LINE
  5
80
330
1F
100
AcDbEntity
  8
0
  6
Continuous
 62
     7
370
    15
100
AcDbLine
 10
69.5009124088
 20
172.9260948905
 30
0.0
 11
69.5518869281
 21
172.9260948905
 31
0.0
  0
LINE
  5
81
330
1F
100
AcDbEntity
  8
0
  6
Continuous
 62
     7
370
    15
100
AcDbLine
 10
71.4749378894
 20
172.9260948905
 30
0.0
 11
71.5259124088
 21
172.9260948905
 31
0.0
  0
LINE
  5
82
330
1F
100
AcDbEntity
  8
0
  6
Continuous
 62
     7
370
    15
100
AcDbLine
 10
69.5009124088
 20
175.4260948905
 30
0.0
 11
71.5259124087
 21
175.4260948905
 31
0.0
  0
LINE
  5
83
330
1F
100
AcDbEntity
  8
0
  6
Continuous
 62
     7
370
    15
100
AcDbLine
 10
71.4749378894
 20
172.9260948905
 30
0.0
 11
69.5518869281
 21
172.9260948905
 31
0.0
  0
LINE
  5
84
330
1F
100
AcDbEntity
  8
0
  6
Continuous
 62
     7
370
    15
100
AcDbLine
 10
69.3989633701
 20
172.9260948905
 30
0.0
 11
65.5528614474
 21
172.9260948905
 31
0.0
  0
LINE
  5
85
330
1F
100
AcDbEntity
  8
0
  6
Continuous
 62
     7
370
    15
100
AcDbLine
 10
65.3999378894
 20
172.9260948905
 30
0.0
 11
63.4768869281
 21
172.9260948905
 31
0.0
  0
LINE
  5
86
330
1F
100
AcDbEntity
  8
0
  6
Continuous
 62
     7
370
    15
100
AcDbLine
 10
71.4759124088
 20
172.1260948905
 30
0.0
 11
70.9400140239
 21
172.1260948905
 31
0.0
  0
LINE
  5
87
330
1F
100
AcDbEntity
  8
0
  6
Continuous
 62
     7
370
    15
100
AcDbLine
 10
64.0118107936
 20
172.1260948905
 30
0.0
 11
63.4759124088
 21
172.1260948905
 31
0.0
  0
LINE
  5
88
330
1F
100
AcDbEntity
  8
0
  6
Continuous
 62
     7
370
    15
100
AcDbLine
 10
64.0118107936
 20
160.1260948905
 30
0.0
 11
63.4759124088
 21
160.1260948905
 31
0.0
  0
LINE
  5
89
330
1F
100
AcDbEntity
  8
0
  6
Continuous
 62
     7
370
    15
100
AcDbLine
 10
71.4759124088
 20
160.1260948905
 30
0.0
 11
70.9400140239
 21
160.1260948905
 31
0.0
  0
LINE
  5
8A
330
1F
100
AcDbEntity
  8
0
  6
Continuous
 62
     7
370
    15
100
AcDbLine
 10
64.5108787941
 20
159.3260948905
 30
0.0
 11
63.4768869281
 21
159.3260948905
 31
0.0
  0
LINE
  5
8B
330
1F
100
AcDbEntity
  8
0
  6
Continuous
 62
     7
370
    15
100
AcDbLine
 10
71.4749378894
 20
159.3260948905
 30
0.0
 11
69.5518869281
 21
159.3260948905
 31
0.0
  0
LINE
  5
8C
330
1F
100
AcDbEntity
  8
0
  6
Continuous
 62
     7
370
    15
100
AcDbLine
 10
69.3989633701
 20
159.3260948905
 30
0.0
 11
65.5528614474
 21
159.3260948905
 31
0.0
  0
LINE
  5
8D
330
1F
100
AcDbEntity
  8
0
  6
Continuous
 62
     7
370
    15
100
AcDbLine
 10
65.3999378894
 20
159.3260948905
 30
0.0
 11
64.5108787941
 21
159.3260948905
 31
0.0
  0
DIMENSION
  5
8E
330
1F
100
AcDbEntity
  8
0
  6
Continuous
 62
     7
370
     0
100
AcDbDimension
  2
_D
 10
43.4759124088
 20
156.8260948905
 30
0.0
 11
43.4759124088
 21
166.1260948905
 31
0.0
 70
   160
  1
<>
 71
     2
 42
-1.0
  3
SLDDIMSTYLE0
100
AcDbAlignedDimension
 13
63.4259124088
 23
175.4260948905
 33
0.0
 14
63.4259124088
 24
156.8260948905
 34
0.0
 50
90.0
100
AcDbRotatedDimension
  0
DIMENSION
  5
9A
330
1F
100
AcDbEntity
  8
0
  6
Continuous
 62
     7
370
     0
100
AcDbDimension
  2
_D_1
 10
52.4192102665
 20
160.1260948905
 30
0.0
 11
52.4192102665
 21
166.1260948905
 31
0.0
 70
   160
  1
<>
 71
     2
 42
-1.0
  3
SLDDIMSTYLE0
100
AcDbAlignedDimension
 13
64.0118107936
 23
172.1260948905
 33
0.0
 14
64.0118107936
 24
160.1260948905
 34
0.0
 50
90.0
100
AcDbRotatedDimension
  0
DIMENSION
  5
A4
330
1F
100
AcDbEntity
  8
0
  6
Continuous
 62
     7
370
     0
100
AcDbDimension
  2
_D_2
 10
75.4759124088
 20
185.4260948905
 30
0.0
 11
67.4759124088
 21
185.4260948905
 31
0.0
 70
   160
  1
%%c<>
 71
     2
 42
-1.0
  3
SLDDIMSTYLE0
100
AcDbAlignedDimension
 13
59.4759124088
 23
166.1260948905
 33
0.0
 14
75.4759124088
 24
166.1260948905
 34
0.0
100
AcDbRotatedDimension
  0
MTEXT
  5
AF
330
1F
100
AcDbEntity
  8
0
  6
Continuous
 62
     7
370
     0
100
AcDbMText
 10
43.3145194469
 20
190.6713277724
 30
0.0
 40
3.5
 41
0.0
 71
     1
 72
     1
  1
M3
  7
SLDTEXTSTYLE1
 73
     1
 44
1.0
  0
LEADER
  5
B1
330
1F
100
AcDbEntity
  8
0
  6
Continuous
 62
     7
370
     0
100
AcDbLeader
  3
SLDDIMSTYLE1
 76
     3
 10
66.6086600211
 20
167.0263022533
 30
0.0
 10
50.6824817518
 20
186.0401459854
 30
0.0
 10
43.2481751825
 20
186.0401459854
 30
0.0
  0
INSERT
  5
BD
330
1F
100
AcDbEntity
  8
0
  6
Continuous
 62
     7
370
     0
100
AcDbBlockReference
  2
SW_CENTERMARKSYMBOL_0
 10
67.4759124088
 20
166.1260948905
 30
0.0
  0
LINE
  5
BE
330
1F
100
AcDbEntity
  8
0
  6
Continuous
 62
     7
370
    15
100
AcDbLine
 10
142.0295620438
 20
158.1260948905
 30
0.0
 11
142.3295620438
 21
158.4260948905
 31
0.0
  0
LINE
  5
BF
330
1F
100
AcDbEntity
  8
0
  6
Continuous
 62
     7
370
    15
100
AcDbLine
 10
142.3295620438
 20
173.8260948905
 30
0.0
 11
142.0295620438
 21
174.1260948905
 31
0.0
  0
LINE
  5
C0
330
1F
100
AcDbEntity
  8
0
  6
Continuous
 62
     7
370
    15
100
AcDbLine
 10
142.0295620438
 20
174.1260948905
 30
0.0
 11
140.6295620438
 21
174.1260948905
 31
0.0
  0
LINE
  5
C1
330
1F
100
AcDbEntity
  8
0
  6
Continuous
 62
     7
370
    15
100
AcDbLine
 10
140.6295620438
 20
158.1260948905
 30
0.0
 11
142.0295620438
 21
158.1260948905
 31
0.0
  0
LINE
  5
C2
330
1F
100
AcDbEntity
  8
0
  6
Continuous
 62
     7
370
    15
100
AcDbLine
 10
140.6295620438
 20
174.1260948905
 30
0.0
 11
140.3295620438
 21
173.8260948905
 31
0.0
  0
LINE
  5
C3
330
1F
100
AcDbEntity
  8
0
  6
Continuous
 62
     7
370
    15
100
AcDbLine
 10
140.3295620438
 20
158.4260948905
 30
0.0
 11
140.6295620438
 21
158.1260948905
 31
0.0
  0
LINE
  5
C4
330
1F
100
AcDbEntity
  8
0
  6
Continuous
 62
     7
370
    15
100
AcDbLine
 10
160.0295620438
 20
160.1260948905
 30
0.0
 11
160.3295620438
 21
160.4260948905
 31
0.0
  0
LINE
  5
C5
330
1F
100
AcDbEntity
  8
0
  6
Continuous
 62
     7
370
    15
100
AcDbLine
 10
160.3295620438
 20
171.8260948905
 30
0.0
 11
160.0295620438
 21
172.1260948905
 31
0.0
  0
LINE
  5
C6
330
1F
100
AcDbEntity
  8
0
  6
Continuous
 62
     7
370
    15
100
AcDbLine
 10
160.0295620438
 20
172.1260948905
 30
0.0
 11
142.3295620438
 21
172.1260948905
 31
0.0
  0
LINE
  5
C7
330
1F
100
AcDbEntity
  8
0
  6
Continuous
 62
     7
370
    15
100
AcDbLine
 10
142.3295620438
 20
160.1260948905
 30
0.0
 11
160.0295620438
 21
160.1260948905
 31
0.0
  0
LINE
  5
C8
330
1F
100
AcDbEntity
  8
0
  6
Continuous
 62
     7
370
    15
100
AcDbLine
 10
140.3295620438
 20
169.8760948905
 30
0.0
 11
139.5555904873
 21
169.8760948905
 31
0.0
  0
LINE
  5
C9
330
1F
100
AcDbEntity
  8
0
  6
Continuous
 62
     7
370
    15
100
AcDbLine
 10
139.0491484162
 20
169.8760948905
 30
0.0
 11
138.6295620438
 21
169.8760948905
 31
0.0
  0
LINE
  5
CA
330
1F
100
AcDbEntity
  8
0
  6
Continuous
 62
     7
370
    15
100
AcDbLine
 10
138.6295620438
 20
162.3760948905
 30
0.0
 11
140.3295620438
 21
162.3760948905
 31
0.0
  0
LINE
  5
CB
330
1F
100
AcDbEntity
  8
0
  6
Continuous
 62
     7
370
    15
100
AcDbLine
 10
138.6295620438
 20
169.8760948905
 30
0.0
 11
138.3295620438
 21
169.5760948905
 31
0.0
  0
LINE
  5
CC
330
1F
100
AcDbEntity
  8
0
  6
Continuous
 62
     7
370
    15
100
AcDbLine
 10
138.3295620438
 20
162.6760948905
 30
0.0
 11
138.6295620438
 21
162.3760948905
 31
0.0
  0
LINE
  5
CD
330
1F
100
AcDbEntity
  8
0
  6
Continuous
 62
     7
370
    15
100
AcDbLine
 10
160.4295620438
 20
162.6260948905
 30
0.0
 11
161.0295620438
 21
162.6260948905
 31
0.0
  0
LINE
  5
CE
330
1F
100
AcDbEntity
  8
0
  6
Continuous
 62
     7
370
    15
100
AcDbLine
 10
161.0295620438
 20
168.7090257383
 30
0.0
 11
160.4295620438
 21
168.7090257383
 31
0.0
  0
LINE
  5
CF
330
1F
100
AcDbEntity
  8
0
  6
Continuous
 62
     7
370
    15
100
AcDbLine
 10
107.9795620438
 20
154.3260948905
 30
0.0
 11
108.3295620438
 21
151.8260948905
 31
0.0
  0
LINE
  5
D0
330
1F
100
AcDbEntity
  8
0
  6
Continuous
 62
     7
370
    15
100
AcDbLine
 10
112.3295620438
 20
151.8260948905
 30
0.0
 11
112.6795620438
 21
154.3260948905
 31
0.0
  0
LINE
  5
D1
330
1F
100
AcDbEntity
  8
0
  6
Continuous
 62
     7
370
    15
100
AcDbLine
 10
107.9795620438
 20
151.8260948905
 30
0.0
 11
108.3295620438
 21
149.3260948905
 31
0.0
  0
LINE
  5
D2
330
1F
100
AcDbEntity
  8
0
  6
Continuous
 62
     7
370
    15
100
AcDbLine
 10
112.3295620438
 20
149.3260948905
 30
0.0
 11
112.6795620438
 21
151.8260948905
 31
0.0
  0
LINE
  5
D3
330
1F
100
AcDbEntity
  8
0
  6
Continuous
 62
     7
370
    15
100
AcDbLine
 10
112.4295620438
 20
154.3260948905
 30
0.0
 11
112.4295620438
 21
156.8260948905
 31
0.0
  0
LINE
  5
D4
330
1F
100
AcDbEntity
  8
0
  6
Continuous
 62
     7
370
    15
100
AcDbLine
 10
108.2295620438
 20
156.8260948905
 30
0.0
 11
108.2295620438
 21
154.3260948905
 31
0.0
  0
LWPOLYLINE
  5
D5
330
1F
100
AcDbEntity
  8
0
  6
Continuous
 62
     7
370
    15
100
AcDbPolyline
 90
       31
 70
   128
 43
0.0
 10
114.9772941854
 20
170.1395022204
 10
114.9703067469
 20
170.1385623965
 10
114.9910387806
 20
170.0723575587
 10
115.023417042
 20
169.9687242086
 10
115.0578310715
 20
169.8390365861
 10
115.0990090277
 20
169.6560555123
 10
115.1472361427
 20
169.4064778339
 10
115.2024555168
 20
169.078590759
 10
115.2646139498
 20
168.6618302416
 10
115.3326965809
 20
168.155327095
 10
115.3941733357
 20
167.6608378097
 10
115.445144649
 20
167.230660925
 10
115.4855456685
 20
166.8803577559
 10
115.5153277424
 20
166.6184722867
 10
115.5365697202
 20
166.4304192085
 10
115.5643924428
 20
166.1832035519
 10
115.6017905801
 20
165.8506462224
 10
115.6487830298
 20
165.4351757419
 10
115.7040335883
 20
164.9550221324
 10
115.7588484019
 20
164.4934250601
 10
115.811695798
 20
164.0680532832
 10
115.862594715
 20
163.6817537835
 10
115.9115656147
 20
163.3361657189
 10
115.9586304821
 20
163.0311075526
 10
116.0505959877
 20
162.5208474183
 10
116.149149312
 20
162.1154589453
 10
116.2032937959
 20
161.9572872205
 10
116.2765447355
 20
161.8119990833
 10
116.3955025656
 20
161.6853435573
 10
116.5758597842
 20
161.6273604471
 10
116.5758597842
 20
161.6273604471
  0
SPLINE
  5
D6
330
1F
100
AcDbEntity
  8
0
  6
Continuous
 62
     7
370
    15
100
AcDbSpline
210
0.0
220
0.0
230
1.0
 70
     8
 71
     3
 72
    38
 73
    34
 74
     0
 42
0.00000001
 43
0.00000001
 12
1.0
 22
0.0
 32
0.0
 13
1.0
 23
0.0
 33
0.0
 40
0.0
 40
0.0
 40
0.0
 40
0.0
 40
0.0116029926432391
 40
0.0301243639732665
 40
0.065365040735795
 40
0.1003244253532798
 40
0.134929268365473
 40
0.1705416722091498
 40
0.2091297807560246
 40
0.2506957847414089
 40
0.2952174408438056
 40
0.3426408377490796
 40
0.3857048139158219
 40
0.4193735483563852
 40
0.4365781906397447
 40
0.4495782264592647
 40
0.4596891573235397
 40
0.4812695997719729
 40
0.5119598990610368
 40
0.5517942892679897
 40
0.6008151374254821
 40
0.6567062583310809
 40
0.7094186325292848
 40
0.7578576320863252
 40
0.8020355595370366
 40
0.8419248747689811
 40
0.8774405861114735
 40
0.907166316540745
 40
0.9304904509867318
 40
0.9473581590406945
 40
0.9578108924983146
 40
0.9764905101994308
 40
0.9999999999999999
 40
0.9999999999999999
 40
0.9999999999999999
 40
0.9999999999999999
 10
117.9660718732421
 20
170.1471365660865
 30
0.0
 10
117.9644559888585
 20
170.146921820592
 30
0.0
 10
117.9602607358916
 20
170.1463642858561
 30
0.0
 10
117.981741098703
 20
170.1015402576041
 30
0.0
 10
118.0145053347912
 20
170.0045800088334
 30
0.0
 10
118.0592293758189
 20
169.8397955247907
 30
0.0
 10
118.1072091275545
 20
169.6227312199909
 30
0.0
 10
118.1582928791351
 20
169.3510040071505
 30
0.0
 10
118.2127493194112
 20
169.0195447747001
 30
0.0
 10
118.2717581755199
 20
168.61744750877
 30
0.0
 10
118.3351651476537
 20
168.1424015780192
 30
0.0
 10
118.399451666032
 20
167.6217619840632
 30
0.0
 10
118.4585323713455
 20
167.1176245241807
 30
0.0
 10
118.5032223794193
 20
166.7258360760061
 30
0.0
 10
118.5336063878378
 20
166.4568139220619
 30
0.0
 10
118.5527893298982
 20
166.2863700400832
 30
0.0
 10
118.5740567974118
 20
166.0971514003397
 30
0.0
 10
118.6037547844702
 20
165.8328169127642
 30
0.0
 10
118.6476348018528
 20
165.4439929834247
 30
0.0
 10
118.7046039236267
 20
164.9469877181036
 30
0.0
 10
118.7736018293199
 20
164.3660193894232
 30
0.0
 10
118.8487952353103
 20
163.7738859527471
 30
0.0
 10
118.9242126173599
 20
163.2405251336031
 30
0.0
 10
118.9947404190616
 20
162.807240797719
 30
0.0
 10
119.060312560701
 20
162.466885466614
 30
0.0
 10
119.1214100029686
 20
162.2079053784905
 30
0.0
 10
119.1781023229045
 20
162.0198271918433
 30
0.0
 10
119.2289521851982
 20
161.8925988657236
 30
0.0
 10
119.2732691802422
 20
161.8109506158078
 30
0.0
 10
119.30923884724
 20
161.7609126763793
 30
0.0
 10
119.3521308134885
 20
161.7146649509239
 30
0.0
 10
119.4337957129746
 20
161.6478930985695
 30
0.0
 10
119.5247629820939
 20
161.6348228089339
 30
0.0
 10
119.5754536511359
 20
161.6275395109673
 30
0.0
  0
SPLINE
  5
D7
330
1F
100
AcDbEntity
  8
0
  6
Continuous
 62
     7
370
    15
100
AcDbSpline
210
0.0
220
0.0
230
1.0
 70
     8
 71
     3
 72
    35
 73
    31
 74
     0
 42
0.00000001
 43
0.00000001
 12
1.0
 22
0.0
 32
0.0
 13
1.0
 23
0.0
 33
0.0
 40
0.0
 40
0.0
 40
0.0
 40
0.0
 40
0.0085121100829564
 40
0.0279630385308779
 40
0.054536996970078
 40
0.0881428452223306
 40
0.1264792800612851
 40
0.168819071273664
 40
0.2151982336598242
 40
0.2656078194585536
 40
0.3199756519331809
 40
0.3714519785972451
 40
0.4141349278433311
 40
0.4479613469677007
 40
0.4728841150345563
 40
0.4892418721464344
 40
0.5089219141318514
 40
0.537697900790689
 40
0.5755987225635435
 40
0.6215027006050214
 40
0.6664347853108727
 40
0.7084820724520798
 40
0.7600649451619139
 40
0.8066383113724258
 40
0.8515302484488976
 40
0.8854873595857642
 40
0.9198232676716326
 40
0.9571776837178108
 40
0.9778834133540123
 40
1.0
 40
1.0
 40
1.0
 40
1.0
 10
120.9514673492665
 20
170.1682003107312
 30
0.0
 10
120.9515465788267
 20
170.1676401059069
 30
0.0
 10
120.9518068549771
 20
170.1657997832447
 30
0.0
 10
120.9687648825491
 20
170.1351314361313
 30
0.0
 10
120.9954904951671
 20
170.0667953968637
 30
0.0
 10
121.0353228689798
 20
169.9380902435472
 30
0.0
 10
121.0847825567423
 20
169.7348010877159
 30
0.0
 10
121.1428004244917
 20
169.4433455609468
 30
0.0
 10
121.2080534842647
 20
169.0541416492439
 30
0.0
 10
121.2800459937088
 20
168.5611174186005
 30
0.0
 10
121.355154083352
 20
167.9863184895055
 30
0.0
 10
121.4267051363015
 20
167.3927059716262
 30
0.0
 10
121.4882988755102
 20
166.8581400368524
 30
0.0
 10
121.5371153433916
 20
166.4260240521185
 30
0.0
 10
121.5732729506551
 20
166.1040798339345
 30
0.0
 10
121.6026257308495
 20
165.842889318844
 30
0.0
 10
121.633844393273
 20
165.5659915314948
 30
0.0
 10
121.6754651001285
 20
165.2000983363109
 30
0.0
 10
121.7297322330679
 20
164.7329521857945
 30
0.0
 10
121.7917747193459
 20
164.2203424084828
 30
0.0
 10
121.8559076893653
 20
163.7244582905745
 30
0.0
 10
121.9229676340912
 20
163.2495784009588
 30
0.0
 10
121.9912754030531
 20
162.8239790639022
 30
0.0
 10
122.0612204702713
 20
162.4587117049576
 30
0.0
 10
122.1245048713022
 20
162.1905930087779
 30
0.0
 10
122.1890020410732
 20
161.9866749635887
 30
0.0
 10
122.2498183836261
 20
161.8414444192905
 30
0.0
 10
122.3367899841095
 20
161.7208235264754
 30
0.0
 10
122.4550011533103
 20
161.6412836859318
 30
0.0
 10
122.5344015189488
 20
161.6321925278075
 30
0.0
 10
122.5754096945644
 20
161.6274971865971
 30
0.0
  0
SPLINE
  5
D8
330
1F
100
AcDbEntity
  8
0
  6
Continuous
 62
     7
370
    15
100
AcDbSpline
210
0.0
220
0.0
230
1.0
 70
     8
 71
     3
 72
    12
 73
     8
 74
     0
 42
0.00000001
 43
0.00000001
 12
1.0
 22
0.0
 32
0.0
 13
1.0
 23
0.0
 33
0.0
 40
0.0
 40
0.0
 40
0.0
 40
0.0
 40
0.1025291646924126
 40
0.3410469958129632
 40
0.5609686983907088
 40
0.8252093415656679
 40
1.0
 40
1.0
 40
1.0
 40
1.0
 10
122.7692355926348
 20
163.6260948905109
 30
0.0
 10
122.7622774302258
 20
163.5754412482279
 30
0.0
 10
122.7391322071753
 20
163.4069499454903
 30
0.0
 10
122.701368052377
 20
163.1611766801751
 30
0.0
 10
122.6531701744124
 20
162.8715510959926
 30
0.0
 10
122.6096532298549
 20
162.6380463958758
 30
0.0
 10
122.5816012414965
 20
162.5150386820942
 30
0.0
 10
122.570432959195
 20
162.4660658657925
 30
0.0
  0
SPLINE
  5
D9
330
1F
100
AcDbEntity
  8
0
  6
Continuous
 62
     7
370
    15
100
AcDbSpline
210
0.0
220
0.0
230
1.0
 70
     8
 71
     3
 72
    17
 73
    13
 74
     0
 42
0.00000001
 43
0.00000001
 12
1.0
 22
0.0
 32
0.0
 13
1.0
 23
0.0
 33
0.0
 40
0.0
 40
0.0
 40
0.0
 40
0.0
 40
0.0784437276561499
 40
0.1741162088775154
 40
0.2805120501116961
 40
0.3716981440764791
 40
0.4735537581830048
 40
0.5928151098156483
 40
0.7364215180966537
 40
0.8601594259639196
 40
0.9975424146548729
 40
1.0
 40
1.0
 40
1.0
 40
1.0
 10
121.0751895268395
 20
170.6260382522152
 30
0.0
 10
121.0249799824032
 20
170.6178605899774
 30
0.0
 10
120.9135332703724
 20
170.5997091891086
 30
0.0
 10
120.8113924733024
 20
170.498799285075
 30
0.0
 10
120.7334640493591
 20
170.3749023905419
 30
0.0
 10
120.6703822571903
 20
170.2125392165237
 30
0.0
 10
120.6190932124184
 20
170.0373600274696
 30
0.0
 10
120.5597873799916
 20
169.7869340686567
 30
0.0
 10
120.4982028018652
 20
169.4659857842223
 30
0.0
 10
120.4342445501041
 20
169.0708833483075
 30
0.0
 10
120.3927743732226
 20
168.795386942724
 30
0.0
 10
120.3708246829399
 20
168.6290186786216
 30
0.0
 10
120.3704389348297
 20
168.6260948905109
 30
0.0
  0
SPLINE
  5
DA
330
1F
100
AcDbEntity
  8
0
  6
Continuous
 62
     7
370
    15
100
AcDbSpline
210
0.0
220
0.0
230
1.0
 70
     8
 71
     3
 72
    12
 73
     8
 74
     0
 42
0.00000001
 43
0.00000001
 12
1.0
 22
0.0
 32
0.0
 13
1.0
 23
0.0
 33
0.0
 40
0.0
 40
0.0
 40
0.0
 40
0.0
 40
0.21445188266853
 40
0.4609572101963503
 40
0.7050438718890794
 40
0.9439497451795933
 40
1.0
 40
1.0
 40
1.0
 40
1.0
 10
119.7694463605731
 20
163.6260948905109
 30
0.0
 10
119.7548374795415
 20
163.5231797386079
 30
0.0
 10
119.7234361742201
 20
163.3019670324389
 30
0.0
 10
119.6754158960549
 20
163.0017978237422
 30
0.0
 10
119.6265803237202
 20
162.7305636347712
 30
0.0
 10
119.5909133728817
 20
162.5518408182853
 30
0.0
 10
119.5726989197076
 20
162.4778839581544
 30
0.0
 10
119.5692376431158
 20
162.4638300007655
 30
0.0
  0
SPLINE
  5
DB
330
1F
100
AcDbEntity
  8
0
  6
Continuous
 62
     7
370
    15
100
AcDbSpline
210
0.0
220
0.0
230
1.0
 70
     8
 71
     3
 72
    13
 73
     9
 74
     0
 42
0.00000001
 43
0.00000001
 12
1.0
 22
0.0
 32
0.0
 13
1.0
 23
0.0
 33
0.0
 40
0.0
 40
0.0
 40
0.0
 40
0.0
 40
0.1188520983452837
 40
0.2310812535659859
 40
0.4366026556648173
 40
0.6281548252302098
 40
0.8175000869726863
 40
1.0
 40
1.0
 40
1.0
 40
1.0
 10
118.0749430272015
 20
170.6259113174242
 30
0.0
 10
118.0348255665265
 20
170.6213600455641
 30
0.0
 10
117.9568261602751
 20
170.6125111180198
 30
0.0
 10
117.840021332367
 20
170.5347075489905
 30
0.0
 10
117.7531271421448
 20
170.4159746367025
 30
0.0
 10
117.6918392458128
 20
170.2709390744618
 30
0.0
 10
117.6335341587102
 20
170.0944609879176
 30
0.0
 10
117.5998814214098
 20
169.9479847559794
 30
0.0
 10
117.5833648116831
 20
169.8760948905109
 30
0.0
  0
SPLINE
  5
DC
330
1F
100
AcDbEntity
  8
0
  6
Continuous
 62
     7
370
    15
100
AcDbSpline
210
0.0
220
0.0
230
1.0
 70
     8
 71
     3
 72
    16
 73
    12
 74
     0
 42
0.00000001
 43
0.00000001
 12
1.0
 22
0.0
 32
0.0
 13
1.0
 23
0.0
 33
0.0
 40
0.0
 40
0.0
 40
0.0
 40
0.0
 40
0.1501243271048535
 40
0.1935270491105532
 40
0.2337920194006955
 40
0.2890526295290867
 40
0.3951068016574666
 40
0.5526031854080078
 40
0.760959148102664
 40
0.9501444796937772
 40
1.0
 40
1.0
 40
1.0
 40
1.0
 10
115.0753586365588
 20
170.625553907239
 30
0.0
 10
115.015610311384
 20
170.6154076562273
 30
0.0
 10
114.9385880373571
 20
170.6023280038107
 30
0.0
 10
114.8758263450853
 20
170.5568543892694
 30
0.0
 10
114.8442784518385
 20
170.5296599364336
 30
0.0
 10
114.8142535476928
 20
170.4966891812727
 30
0.0
 10
114.7747633293832
 20
170.4403849177229
 30
0.0
 10
114.7206571902979
 20
170.3338243578103
 30
0.0
 10
114.6613333956863
 20
170.1657749542146
 30
0.0
 10
114.6150863372088
 20
170.0071242989686
 30
0.0
 10
114.5914526917497
 20
169.8987069409297
 30
0.0
 10
114.5865235439419
 20
169.8760948905109
 30
0.0
  0
SPLINE
  5
DD
330
1F
100
AcDbEntity
  8
0
  6
Continuous
 62
     7
370
    15
100
AcDbSpline
210
0.0
220
0.0
230
1.0
 70
     8
 71
     3
 72
    15
 73
    11
 74
     0
 42
0.00000001
 43
0.00000001
 12
1.0
 22
0.0
 32
0.0
 13
1.0
 23
0.0
 33
0.0
 40
0.0
 40
0.0
 40
0.0
 40
0.0
 40
0.1286168853791826
 40
0.2302206043005876
 40
0.2881319736050428
 40
0.3843349916286635
 40
0.519085356358159
 40
0.6920907682443662
 40
0.898236321624562
 40
1.0
 40
1.0
 40
1.0
 40
1.0
 10
116.5642892231942
 20
161.6273702815045
 30
0.0
 10
116.6150178278275
 20
161.6345371042671
 30
0.0
 10
116.7058206021256
 20
161.6473655152684
 30
0.0
 10
116.7883678224363
 20
161.7147855538927
 30
0.0
 10
116.8317131018288
 20
161.76181984754
 30
0.0
 10
116.8688301825208
 20
161.8143138185898
 30
0.0
 10
116.9154153046836
 20
161.9025989572622
 30
0.0
 10
116.9690834407078
 20
162.0444874445722
 30
0.0
 10
117.0168155013248
 20
162.2024167073625
 30
0.0
 10
117.0456178573591
 20
162.3329528366097
 30
0.0
 10
117.0551370058407
 20
162.3760948905109
 30
0.0
  0
SPLINE
  5
DE
330
1F
100
AcDbEntity
  8
0
  6
Continuous
 62
     7
370
    15
100
AcDbSpline
210
0.0
220
0.0
230
1.0
 70
     8
 71
     3
 72
    17
 73
    13
 74
     0
 42
0.00000001
 43
0.00000001
 12
1.0
 22
0.0
 32
0.0
 13
1.0
 23
0.0
 33
0.0
 40
0.0
 40
0.0
 40
0.0
 40
0.0
 40
0.0834080930995695
 40
0.1888898246018738
 40
0.3078815486909156
 40
0.4074801020637722
 40
0.4873530364594042
 40
0.5733904034359616
 40
0.6736739728809572
 40
0.7881152692043601
 40
0.9166386364882396
 40
1.0
 40
1.0
 40
1.0
 40
1.0
 10
119.5638937761784
 20
161.6275509715883
 30
0.0
 10
119.6151704891104
 20
161.635934027105
 30
0.0
 10
119.7312941043611
 20
161.6549186822786
 30
0.0
 10
119.8370624986074
 20
161.7637412250448
 30
0.0
 10
119.9201847861573
 20
161.9050182185942
 30
0.0
 10
119.9811813208284
 20
162.0771609323859
 30
0.0
 10
120.0254031015725
 20
162.2367594146119
 30
0.0
 10
120.0683007027828
 20
162.4179242844286
 30
0.0
 10
120.116352556163
 20
162.6534422696529
 30
0.0
 10
120.1706978590036
 20
162.9615864621614
 30
0.0
 10
120.2221657696568
 20
163.2873407612263
 30
0.0
 10
120.2554288455396
 20
163.5304492353884
 30
0.0
 10
120.2685154674485
 20
163.6260948905109
 30
0.0
  0
SPLINE
  5
DF
330
1F
100
AcDbEntity
  8
0
  6
Continuous
 62
     7
370
    15
100
AcDbSpline
210
0.0
220
0.0
230
1.0
 70
     8
 71
     3
 72
    11
 73
     7
 74
     0
 42
0.00000001
 43
0.00000001
 12
1.0
 22
0.0
 32
0.0
 13
1.0
 23
0.0
 33
0.0
 40
0.0
 40
0.0
 40
0.0
 40
0.0
 40
0.0712293573333077
 40
0.298814007449429
 40
0.7308934045929395
 40
1.0
 40
1.0
 40
1.0
 40
1.0
 10
120.8704372832655
 20
168.6260948905109
 30
0.0
 10
120.8753307689915
 20
168.6617878447306
 30
0.0
 10
120.8958594124463
 20
168.8115232219313
 30
0.0
 10
120.9457211870725
 20
169.1388409731321
 30
0.0
 10
121.0102707676473
 20
169.5264848974349
 30
0.0
 10
121.0544661148248
 20
169.7112612840021
 30
0.0
 10
121.0714277477412
 20
169.7821761979179
 30
0.0
  0
SPLINE
  5
E0
330
1F
100
AcDbEntity
  8
0
  6
Continuous
 62
     7
370
    15
100
AcDbSpline
210
0.0
220
0.0
230
1.0
 70
     8
 71
     3
 72
    19
 73
    15
 74
     0
 42
0.00000001
 43
0.00000001
 12
1.0
 22
0.0
 32
0.0
 13
1.0
 23
0.0
 33
0.0
 40
0.0
 40
0.0
 40
0.0
 40
0.0
 40
0.0690443254876616
 40
0.130515817243165
 40
0.2085023614798866
 40
0.2706034792450482
 40
0.3346871270686395
 40
0.417923418436529
 40
0.5079269883851493
 40
0.6129297601111249
 40
0.7328244498211918
 40
0.8324550764667449
 40
0.9403265959116416
 40
1.0
 40
1.0
 40
1.0
 40
1.0
 10
122.5638614922411
 20
161.6274941379619
 30
0.0
 10
122.6032340802011
 20
161.6317698351087
 30
0.0
 10
122.6776608409563
 20
161.6398522677121
 30
0.0
 10
122.778942854125
 20
161.7040896832265
 30
0.0
 10
122.8555754486107
 20
161.7907338309775
 30
0.0
 10
122.9061694289646
 20
161.8830665633007
 30
0.0
 10
122.9437252086519
 20
161.9720484301004
 30
0.0
 10
122.9862422565399
 20
162.0967573575628
 30
0.0
 10
123.033183527683
 20
162.2685438805634
 30
0.0
 10
123.0852232291418
 20
162.497704659096
 30
0.0
 10
123.1377981189222
 20
162.7720409532567
 30
0.0
 10
123.1902632055534
 20
163.0857658450353
 30
0.0
 10
123.232824099491
 20
163.3630045543562
 30
0.0
 10
123.2593298286724
 20
163.5570005700596
 30
0.0
 10
123.2687702047503
 20
163.6260948905109
 30
0.0
  0
SPLINE
  5
E1
330
1F
100
AcDbEntity
  8
0
  6
Continuous
 62
     7
370
    15
100
AcDbSpline
210
0.0
220
0.0
230
1.0
 70
     8
 71
     3
 72
    37
 73
    33
 74
     0
 42
0.00000001
 43
0.00000001
 12
1.0
 22
0.0
 32
0.0
 13
1.0
 23
0.0
 33
0.0
 40
0.0
 40
0.0
 40
0.0
 40
0.0
 40
0.0230608209887279
 40
0.0580182188805382
 40
0.0927703260242722
 40
0.1272209196522464
 40
0.1626739147953969
 40
0.2010620502902656
 40
0.2424046985862672
 40
0.2867345676368221
 40
0.3339873060588346
 40
0.3768706687157271
 40
0.4103772548667028
 40
0.427502583156326
 40
0.4404489209144432
 40
0.45051573728619
 40
0.4720035577027957
 40
0.5025806526804877
 40
0.5422591116847402
 40
0.5910382496430793
 40
0.6467237534291231
 40
0.6996747348782071
 40
0.748747753507961
 40
0.7939309636571936
 40
0.8352540070595303
 40
0.8726416225241984
 40
0.9040374677301058
 40
0.9285446950462266
 40
0.9461002341135205
 40
0.9567522701715203
 40
0.9757311144062883
 40
0.9999999999999999
 40
0.9999999999999999
 40
0.9999999999999999
 40
0.9999999999999999
 10
122.6687595745567
 20
162.108844356115
 30
0.0
 10
122.6705736512189
 20
162.1104519240028
 30
0.0
 10
122.6751376473101
 20
162.1144963691517
 30
0.0
 10
122.6346653012278
 20
162.2115781024354
 30
0.0
 10
122.5952115127948
 20
162.3560913193829
 30
0.0
 10
122.5471662099337
 20
162.5591820539125
 30
0.0
 10
122.4965402333591
 20
162.816435222857
 30
0.0
 10
122.4422187466675
 20
163.1338497405416
 30
0.0
 10
122.3833068754872
 20
163.5242825755826
 30
0.0
 10
122.3199889704302
 20
163.9898310048659
 30
0.0
 10
122.2558020041127
 20
164.5017072135821
 30
0.0
 10
122.1967366433205
 20
164.9997596546482
 30
0.0
 10
122.1520334022379
 20
165.3886512483832
 30
0.0
 10
122.1216490876232
 20
165.6564569600304
 30
0.0
 10
122.1024676650799
 20
165.8264214433885
 30
0.0
 10
122.0812049645268
 20
166.0153380521094
 30
0.0
 10
122.0515209472561
 20
166.2796700080986
 30
0.0
 10
122.0076874375064
 20
166.6694567128027
 30
0.0
 10
121.9507869514954
 20
167.1695418711252
 30
0.0
 10
121.8817759478182
 20
167.7573543121777
 30
0.0
 10
121.8063426117517
 20
168.3600177899397
 30
0.0
 10
121.7304522256198
 20
168.9093936469402
 30
0.0
 10
121.6588598176062
 20
169.3647865170981
 30
0.0
 10
121.5915783258885
 20
169.7276861288175
 30
0.0
 10
121.5281707561042
 20
170.0057535359898
 30
0.0
 10
121.4689269117372
 20
170.2088870227282
 30
0.0
 10
121.4156879423932
 20
170.3471978859972
 30
0.0
 10
121.3694753973069
 20
170.4356653931156
 30
0.0
 10
121.3325110134791
 20
170.488873078004
 30
0.0
 10
121.2888547116272
 20
170.5372044381357
 30
0.0
 10
121.2055905710343
 20
170.6059088109671
 30
0.0
 10
121.1146940844042
 20
170.6187899017563
 30
0.0
 10
121.0636866339867
 20
170.6260182515431
 30
0.0
  0
SPLINE
  5
E2
330
1F
100
AcDbEntity
  8
0
  6
Continuous
 62
     7
370
    15
100
AcDbSpline
210
0.0
220
0.0
230
1.0
 70
     8
 71
     3
 72
    36
 73
    32
 74
     0
 42
0.00000001
 43
0.00000001
 12
1.0
 22
0.0
 32
0.0
 13
1.0
 23
0.0
 33
0.0
 40
0.0
 40
0.0
 40
0.0
 40
0.0
 40
0.0074922817493976
 40
0.0260058519850031
 40
0.0510713480919005
 40
0.0826476197847432
 40
0.119147481513763
 40
0.1600700801395696
 40
0.205398472840577
 40
0.2551039720972227
 40
0.3092051461241326
 40
0.3606670704489155
 40
0.4033046878492894
 40
0.4370750537671549
 40
0.4619654219677145
 40
0.4783104927088507
 40
0.4979682817239789
 40
0.5267293007107108
 40
0.56460297750202
 40
0.6104346676949165
 40
0.6552871102549783
 40
0.6972992658201237
 40
0.7488518068691563
 40
0.7953378524531658
 40
0.8400823436986163
 40
0.8738944329143165
 40
0.9080910861744098
 40
0.9270579200143485
 40
0.9485950866673885
 40
0.9729045834805125
 40
1.0
 40
1.0
 40
1.0
 40
1.0
 10
119.6895677535948
 20
162.0827829562649
 30
0.0
 10
119.689585573946
 20
162.0829946325735
 30
0.0
 10
119.6896474287229
 20
162.0837293650537
 30
0.0
 10
119.6741714457951
 20
162.1100520655641
 30
0.0
 10
119.649479267868
 20
162.1702382733029
 30
0.0
 10
119.612175387199
 20
162.2864599446134
 30
0.0
 10
119.5652219240343
 20
162.4730315274242
 30
0.0
 10
119.5093572044051
 20
162.7432128562314
 30
0.0
 10
119.4456766473942
 20
163.108856058915
 30
0.0
 10
119.3745768536989
 20
163.5818450706331
 30
0.0
 10
119.2999153327984
 20
164.1435256639584
 30
0.0
 10
119.2285750550303
 20
164.7276687318732
 30
0.0
 10
119.1669890030323
 20
165.2571280720263
 30
0.0
 10
119.118153071546
 20
165.6870485816482
 30
0.0
 10
119.0819910886181
 20
166.0083730973705
 30
0.0
 10
119.0526429451726
 20
166.2696175677163
 30
0.0
 10
119.0214353917626
 20
166.5471071430158
 30
0.0
 10
118.9798524090993
 20
166.9146902600778
 30
0.0
 10
118.9256359122503
 20
167.3858303668698
 30
0.0
 10
118.8635964527193
 20
167.9053845204996
 30
0.0
 10
118.7994601594899
 20
168.4094154834946
 30
0.0
 10
118.7325013942078
 20
168.8940824403364
 30
0.0
 10
118.6644341011488
 20
169.3334925301346
 30
0.0
 10
118.5947084859146
 20
169.7157609173574
 30
0.0
 10
118.532198287384
 20
169.9954984585401
 30
0.0
 10
118.4705427977392
 20
170.2073986058094
 30
0.0
 10
118.4233923815858
 20
170.333408416802
 30
0.0
 10
118.3669799081818
 20
170.4412429107946
 30
0.0
 10
118.2988526457553
 20
170.5287072457442
 30
0.0
 10
118.198630981715
 20
170.6077385161592
 30
0.0
 10
118.1100762615609
 20
170.6196348076309
 30
0.0
 10
118.0633992637453
 20
170.6259053166458
 30
0.0
  0
LWPOLYLINE
  5
E3
330
1F
100
AcDbEntity
  8
0
  6
Continuous
 62
     7
370
    15
100
AcDbPolyline
 90
       31
 70
   128
 43
0.0
 10
116.6702538835
 20
162.1048682825
 10
116.6744627561
 20
162.1038276188
 10
116.6613978243
 20
162.1454046291
 10
116.6342811364
 20
162.2236981897
 10
116.6022825976
 20
162.3331380273
 10
116.563423479
 20
162.491464266
 10
116.5175911378
 20
162.7110107831
 10
116.4648721106
 20
163.0035775262
 10
116.4053460605
 20
163.3804041777
 10
116.33908583
 20
163.8512898161
 10
116.2734409466
 20
164.3626078152
 10
116.2156859604
 20
164.8408779955
 10
116.1658839161
 20
165.2687718847
 10
116.1240866132
 20
165.6353740313
 10
116.0903346055
 20
165.9344110576
 10
116.0632999736
 20
166.1748197886
 10
116.0204143309
 20
166.5558217745
 10
115.966144442
 20
167.0331244029
 10
115.9022637413
 20
167.5802458761
 10
115.8529042811
 20
167.9861157671
 10
115.8028073614
 20
168.377821969
 10
115.7519366195
 20
168.7503751704
 10
115.7002506378
 20
169.09925755
 10
115.6305593201
 20
169.5160273116
 10
115.5612263176
 20
169.8614931111
 10
115.4908019685
 20
170.1352308009
 10
115.4357595415
 20
170.2956655264
 10
115.3623804662
 20
170.4410234329
 10
115.2436086523
 20
170.5675481111
 10
115.0638053575
 20
170.6255756132
 10
115.0638053575
 20
170.6255756132
  0
LWPOLYLINE
  5
E4
330
1F
100
AcDbEntity
  8
0
  6
Continuous
 62
     7
370
    15
100
AcDbPolyline
 90
       31
 70
   128
 43
0.0
 10
123.9756297557
 20
170.1413222628
 10
123.9689713491
 20
170.1410696198
 10
123.9882616773
 20
170.0797847911
 10
124.0197861464
 20
169.9808951613
 10
124.0540114451
 20
169.8544404383
 10
124.095073392
 20
169.6749767209
 10
124.1432184428
 20
169.4288572271
 10
124.19838228
 20
169.1042746063
 10
124.2605050445
 20
168.6906785168
 10
124.3285659144
 20
168.187302487
 10
124.3900289949
 20
167.6951720998
 10
124.4409919085
 20
167.266352816
 10
124.4813881786
 20
166.9167666759
 10
124.5111679813
 20
166.6552171553
 10
124.532408535
 20
166.467312157
 10
124.5602288472
 20
166.2201873391
 10
124.5976240235
 20
165.8875672054
 10
124.6446127586
 20
165.4717617792
 10
124.6998752996
 20
164.9907168783
 10
124.7548226676
 20
164.5267893942
 10
124.8079420443
 20
164.0976413518
 10
124.8592531416
 20
163.7063410279
 10
124.9087773148
 20
163.3549267609
 10
124.9565375621
 20
163.0439208809
 10
125.0499153721
 20
162.5243344791
 10
125.1491065855
 20
162.1157135982
 10
125.2032642641
 20
161.9571757549
 10
125.2764775417
 20
161.8118749965
 10
125.3954480002
 20
161.6853042119
 10
125.5758686146
 20
161.6275018488
 10
125.5758686146
 20
161.6275018488
  0
SPLINE
  5
E5
330
1F
100
AcDbEntity
  8
0
  6
Continuous
 62
     7
370
    15
100
AcDbSpline
210
0.0
220
0.0
230
1.0
 70
     8
 71
     3
 72
    38
 73
    34
 74
     0
 42
0.00000001
 43
0.00000001
 12
1.0
 22
0.0
 32
0.0
 13
1.0
 23
0.0
 33
0.0
 40
0.0
 40
0.0
 40
0.0
 40
0.0
 40
0.0098090761178851
 40
0.0281534862068633
 40
0.0633393190318843
 40
0.0982597451744014
 40
0.1328276265775182
 40
0.1683957461137312
 40
0.2069395724317342
 40
0.2484684274956377
 40
0.2929581649082882
 40
0.3403375338176206
 40
0.3833576010420492
 40
0.4169977769574919
 40
0.4341905421298304
 40
0.4471827710735494
 40
0.4572868486169194
 40
0.4788513201004211
 40
0.5095159824888038
 40
0.5493068770766466
 40
0.598275778027716
 40
0.654144022946234
 40
0.7069458965001026
 40
0.7555824904329008
 40
0.8000884453665849
 40
0.8404414347626175
 40
0.8765426954640705
 40
0.9067737094738555
 40
0.9304418422934847
 40
0.9474945215311148
 40
0.9579743942902118
 40
0.976580721292332
 40
1.0
 40
1.0
 40
1.0
 40
1.0
 10
126.9653004390361
 20
170.148752476818
 30
0.0
 10
126.9637424165191
 20
170.148777722198
 30
0.0
 10
126.9592706635309
 20
170.148850180139
 30
0.0
 10
126.9795983480974
 20
170.1074812318473
 30
0.0
 10
127.0111136151785
 20
170.0152859702456
 30
0.0
 10
127.0554308842633
 20
169.8549895326381
 30
0.0
 10
127.103209560945
 20
169.6424394177046
 30
0.0
 10
127.1542541359612
 20
169.3742517262825
 30
0.0
 10
127.2086593404692
 20
169.0460116699384
 30
0.0
 10
127.2676373413718
 20
168.6468221563009
 30
0.0
 10
127.3310085701087
 20
168.174599043063
 30
0.0
 10
127.3952888812325
 20
167.6564990093034
 30
0.0
 10
127.4543741098384
 20
167.1537182027952
 30
0.0
 10
127.4990597738248
 20
166.7625820830369
 30
0.0
 10
127.5294413694609
 20
166.493799859356
 30
0.0
 10
127.5486234970444
 20
166.3234303898828
 30
0.0
 10
127.5698890401198
 20
166.1342438785828
 30
0.0
 10
127.5995804057258
 20
165.8698811648325
 30
0.0
 10
127.6434477810991
 20
165.4807608143218
 30
0.0
 10
127.7004156263253
 20
164.9829355302077
 30
0.0
 10
127.769417446322
 20
164.400358467644
 30
0.0
 10
127.8446541457781
 20
163.8053103509469
 30
0.0
 10
127.920222630894
 20
163.2668215066863
 30
0.0
 10
127.9910993945282
 20
162.8277637137444
 30
0.0
 10
128.0571793653741
 20
162.4818050760676
 30
0.0
 10
128.1189636056528
 20
162.2174285041862
 30
0.0
 10
128.1764212929824
 20
162.0248962592853
 30
0.0
 10
128.2279871502294
 20
161.8944447926719
 30
0.0
 10
128.2728535109917
 20
161.8113078116071
 30
0.0
 10
128.3090883315747
 20
161.7608262283736
 30
0.0
 10
128.35202304941
 20
161.7145640151813
 30
0.0
 10
128.433776628238
 20
161.64779619219
 30
0.0
 10
128.5246665036071
 20
161.6347928113496
 30
0.0
 10
128.5753159894865
 20
161.6275465195972
 30
0.0
  0
SPLINE
  5
E6
330
1F
100
AcDbEntity
  8
0
  6
Continuous
 62
     7
370
    15
100
AcDbSpline
210
0.0
220
0.0
230
1.0
 70
     8
 71
     3
 72
    37
 73
    33
 74
     0
 42
0.00000001
 43
0.00000001
 12
1.0
 22
0.0
 32
0.0
 13
1.0
 23
0.0
 33
0.0
 40
0.0
 40
0.0
 40
0.0
 40
0.0
 40
0.0025502391996287
 40
0.0178569956249472
 40
0.0392385854569877
 40
0.0667722286845932
 40
0.1000233680254477
 40
0.1370698597647383
 40
0.1777159324465105
 40
0.2219896400288767
 40
0.2698993311678973
 40
0.3214017644712463
 40
0.3725486083512855
 40
0.4161388683690585
 40
0.4519877281731638
 40
0.4800492926945097
 40
0.5002942910337154
 40
0.5150536887372973
 40
0.5361466418261016
 40
0.5652157005423845
 40
0.6022833655053585
 40
0.6464364584153445
 40
0.6901504017062267
 40
0.7317855006417228
 40
0.7713403407890946
 40
0.8088397070474502
 40
0.8443130857914176
 40
0.8845573460884576
 40
0.9088194185189115
 40
0.9360999016120937
 40
0.9665136443116767
 40
1.0
 40
1.0
 40
1.0
 40
1.0
 10
129.9507321252623
 20
170.1695260849734
 30
0.0
 10
129.9504048422858
 20
170.1697476423809
 30
0.0
 10
129.9481131785548
 20
170.1712990065265
 30
0.0
 10
129.9590342774888
 20
170.1550512332007
 30
0.0
 10
129.9758564267862
 20
170.1170382829736
 30
0.0
 10
130.0054842042408
 20
170.0372054775681
 30
0.0
 10
130.0434032631642
 20
169.9058579136337
 30
0.0
 10
130.089901341941
 20
169.7095943250178
 30
0.0
 10
130.1431259523095
 20
169.4399320347482
 30
0.0
 10
130.2026090219354
 20
169.0873818016244
 30
0.0
 10
130.2678561115173
 20
168.6472072733439
 30
0.0
 10
130.3368109389093
 20
168.1301517883232
 30
0.0
 10
130.404053750241
 20
167.5836265277492
 30
0.0
 10
130.4640634084793
 20
167.0699600817397
 30
0.0
 10
130.5134536192935
 20
166.6360070512992
 30
0.0
 10
130.5521184046016
 20
166.2925345791148
 30
0.0
 10
130.5811005747404
 20
166.0344255846083
 30
0.0
 10
130.6068829531903
 20
165.8050724561957
 30
0.0
 10
130.6367333788633
 20
165.5404276815046
 30
0.0
 10
130.6768659312132
 20
165.1879174289048
 30
0.0
 10
130.7276236360094
 20
164.7511781238899
 30
0.0
 10
130.7851089073096
 20
164.2748993628698
 30
0.0
 10
130.8447391223459
 20
163.8090726432533
 30
0.0
 10
130.9024421125156
 20
163.3920652891265
 30
0.0
 10
130.9573461708956
 20
163.0317485956028
 30
0.0
 10
131.010138367474
 20
162.7242160159099
 30
0.0
 10
131.061758221956
 20
162.4601886284006
 30
0.0
 10
131.1143342184628
 20
162.2318089601937
 30
0.0
 10
131.182633915585
 20
162.0331391580837
 30
0.0
 10
131.2619570131474
 20
161.8783413937878
 30
0.0
 10
131.3717498655149
 20
161.7377441226975
 30
0.0
 10
131.462604705131
 20
161.691470457743
 30
0.0
 10
131.5102164858972
 20
161.6672210990916
 30
0.0
  0
SPLINE
  5
E7
330
1F
100
AcDbEntity
  8
0
  6
Continuous
 62
     7
370
    15
100
AcDbSpline
210
0.0
220
0.0
230
1.0
 70
     8
 71
     3
 72
    17
 73
    13
 74
     0
 42
0.00000001
 43
0.00000001
 12
1.0
 22
0.0
 32
0.0
 13
1.0
 23
0.0
 33
0.0
 40
0.0
 40
0.0
 40
0.0
 40
0.0
 40
0.0794286299781396
 40
0.1776074009578826
 40
0.2873797932076486
 40
0.3804696858684108
 40
0.4566571428859758
 40
0.5392230213329751
 40
0.6355218149472527
 40
0.7455555410498304
 40
0.869300441682835
 40
1.0
 40
1.0
 40
1.0
 40
1.0
 10
130.0752055003657
 20
170.6259386362753
 30
0.0
 10
130.0247551923536
 20
170.6175923348108
 30
0.0
 10
129.911945137767
 20
170.5989294809868
 30
0.0
 10
129.8090816217969
 20
170.4957425676854
 30
0.0
 10
129.729908462368
 20
170.367631850853
 30
0.0
 10
129.6714667348874
 20
170.214049579279
 30
0.0
 10
129.6289990584569
 20
170.0712857365346
 30
0.0
 10
129.5875343687538
 20
169.907182133902
 30
0.0
 10
129.541075686046
 20
169.6912282752612
 30
0.0
 10
129.4886034571858
 20
169.40719194686
 30
0.0
 10
129.4310460157326
 20
169.0543320807748
 30
0.0
 10
129.3910599394806
 20
168.7714182218185
 30
0.0
 10
129.3705204373569
 20
168.6260948905109
 30
0.0
  0
SPLINE
  5
E8
330
1F
100
AcDbEntity
  8
0
  6
Continuous
 62
     7
370
    15
100
AcDbSpline
210
0.0
220
0.0
230
1.0
 70
     8
 71
     3
 72
    12
 73
     8
 74
     0
 42
0.00000001
 43
0.00000001
 12
1.0
 22
0.0
 32
0.0
 13
1.0
 23
0.0
 33
0.0
 40
0.0
 40
0.0
 40
0.0
 40
0.0
 40
0.2276602986276071
 40
0.4703650347537137
 40
0.7109368198165076
 40
0.9471890216807979
 40
0.9999999999999999
 40
0.9999999999999999
 40
0.9999999999999999
 40
0.9999999999999999
 10
128.7695694943315
 20
163.6260948905109
 30
0.0
 10
128.7540636378781
 20
163.5174206247396
 30
0.0
 10
128.7220272540485
 20
163.2928905898388
 30
0.0
 10
128.6736323945225
 20
162.9915685422356
 30
0.0
 10
128.625501462069
 20
162.7251893458283
 30
0.0
 10
128.590477118349
 20
162.5498404982436
 30
0.0
 10
128.5726394401887
 20
162.4774041195538
 30
0.0
 10
128.5693805497483
 20
162.4641702098525
 30
0.0
  0
SPLINE
  5
E9
330
1F
100
AcDbEntity
  8
0
  6
Continuous
 62
     7
370
    15
100
AcDbSpline
210
0.0
220
0.0
230
1.0
 70
     8
 71
     3
 72
    16
 73
    12
 74
     0
 42
0.00000001
 43
0.00000001
 12
1.0
 22
0.0
 32
0.0
 13
1.0
 23
0.0
 33
0.0
 40
0.0
 40
0.0
 40
0.0
 40
0.0
 40
0.0700915632561525
 40
0.1353333800616928
 40
0.2517991709492039
 40
0.3577212589137485
 40
0.4624352015695783
 40
0.6007963999300542
 40
0.7443573663033849
 40
0.9035590618486248
 40
1.0
 40
1.0
 40
1.0
 40
1.0
 10
127.0753020760393
 20
170.6260274061639
 30
0.0
 10
127.0334914783024
 20
170.6210347003308
 30
0.0
 10
126.9527632244118
 20
170.6113947419014
 30
0.0
 10
126.8333214172158
 20
170.5282054572475
 30
0.0
 10
126.7464639364138
 20
170.4032994561665
 30
0.0
 10
126.6862782282347
 20
170.2566526352047
 30
0.0
 10
126.6222006881554
 20
170.052759066197
 30
0.0
 10
126.5590299816467
 20
169.7848251933093
 30
0.0
 10
126.4890605141795
 20
169.4149540129063
 30
0.0
 10
126.4260643165243
 20
169.0235042229864
 30
0.0
 10
126.3859950702348
 20
168.7349512300808
 30
0.0
 10
126.3708789855375
 20
168.6260948905109
 30
0.0
  0
SPLINE
  5
EA
330
1F
100
AcDbEntity
  8
0
  6
Continuous
 62
     7
370
    15
100
AcDbSpline
210
0.0
220
0.0
230
1.0
 70
     8
 71
     3
 72
    11
 73
     7
 74
     0
 42
0.00000001
 43
0.00000001
 12
1.0
 22
0.0
 32
0.0
 13
1.0
 23
0.0
 33
0.0
 40
0.0
 40
0.0
 40
0.0
 40
0.0
 40
0.3185393925172459
 40
0.642232933247655
 40
0.9378285244908615
 40
1.0
 40
1.0
 40
1.0
 40
1.0
 10
125.7693474425716
 20
163.6260948905109
 30
0.0
 10
125.7475703074369
 20
163.4737253881831
 30
0.0
 10
125.7036636707574
 20
163.166520958476
 30
0.0
 10
125.6409991630637
 20
162.8033454369875
 30
0.0
 10
125.5959259772172
 20
162.5691929569639
 30
0.0
 10
125.5739505519562
 20
162.4805203273597
 30
0.0
 10
125.5701317415055
 20
162.4651111163616
 30
0.0
  0
SPLINE
  5
EB
330
1F
100
AcDbEntity
  8
0
  6
Continuous
 62
     7
370
    15
100
AcDbSpline
210
0.0
220
0.0
230
1.0
 70
     8
 71
     3
 72
    18
 73
    14
 74
     0
 42
0.00000001
 43
0.00000001
 12
1.0
 22
0.0
 32
0.0
 13
1.0
 23
0.0
 33
0.0
 40
0.0
 40
0.0
 40
0.0
 40
0.0
 40
0.0472975821781253
 40
0.0885242989450709
 40
0.1237547943652116
 40
0.1620891665464213
 40
0.22985082357635
 40
0.328601138805699
 40
0.4565731624001496
 40
0.6006003533285806
 40
0.7575713119911074
 40
0.927717585039903
 40
1.0
 40
1.0
 40
1.0
 40
1.0
 10
124.075745171583
 20
170.6257730913661
 30
0.0
 10
124.0422104271661
 20
170.6229039543642
 30
0.0
 10
123.9794452792855
 20
170.617533947485
 30
0.0
 10
123.9057157007318
 20
170.5798788706761
 30
0.0
 10
123.8494616558175
 20
170.5361530577188
 30
0.0
 10
123.8048538600203
 20
170.4873863823352
 30
0.0
 10
123.7594696579232
 20
170.4198839361598
 30
0.0
 10
123.7005825025052
 20
170.2954897752094
 30
0.0
 10
123.6339381943325
 20
170.0930204426577
 30
0.0
 10
123.5612221495083
 20
169.7954147383915
 30
0.0
 10
123.4846565779329
 20
169.3895139631174
 30
0.0
 10
123.421104449297
 20
168.9941958491375
 30
0.0
 10
123.3830209775032
 20
168.7106398143717
 30
0.0
 10
123.3716660288215
 20
168.6260948905109
 30
0.0
  0
SPLINE
  5
EC
330
1F
100
AcDbEntity
  8
0
  6
Continuous
 62
     7
370
    15
100
AcDbSpline
210
0.0
220
0.0
230
1.0
 70
     8
 71
     3
 72
    12
 73
     8
 74
     0
 42
0.00000001
 43
0.00000001
 12
1.0
 22
0.0
 32
0.0
 13
1.0
 23
0.0
 33
0.0
 40
0.0
 40
0.0
 40
0.0
 40
0.0
 40
0.0877557688528678
 40
0.3684758642915745
 40
0.6548172729051678
 40
0.9450695296840043
 40
1.0
 40
1.0
 40
1.0
 40
1.0
 10
123.8705409748681
 20
168.6260948905109
 30
0.0
 10
123.876642306589
 20
168.6706566574626
 30
0.0
 10
123.9022610608726
 20
168.8577661296546
 30
0.0
 10
123.9478965361131
 20
169.1526798585895
 30
0.0
 10
124.0051934294907
 20
169.4857095592738
 30
0.0
 10
124.046755742023
 20
169.6984322956924
 30
0.0
 10
124.0656859642547
 20
169.7776447217965
 30
0.0
 10
124.0686984151358
 20
169.7902501492389
 30
0.0
  0
SPLINE
  5
ED
330
1F
100
AcDbEntity
  8
0
  6
Continuous
 62
     7
370
    15
100
AcDbSpline
210
0.0
220
0.0
230
1.0
 70
     8
 71
     3
 72
    18
 73
    14
 74
     0
 42
0.00000001
 43
0.00000001
 12
1.0
 22
0.0
 32
0.0
 13
1.0
 23
0.0
 33
0.0
 40
0.0
 40
0.0
 40
0.0
 40
0.0
 40
0.0716126649295103
 40
0.1283087872692081
 40
0.1605311003411758
 40
0.2137505405223618
 40
0.2881014163604656
 40
0.3834203310409131
 40
0.4970790099656332
 40
0.622899638553857
 40
0.7605208094100789
 40
0.9099100544941716
 40
1.0
 40
1.0
 40
1.0
 40
1.0
 10
125.5642951732509
 20
161.6275022280313
 30
0.0
 10
125.6149824084813
 20
161.6347071187242
 30
0.0
 10
125.7057989936319
 20
161.6476161591589
 30
0.0
 10
125.7880609945937
 20
161.7147897335918
 30
0.0
 10
125.8312582344595
 20
161.7615157492679
 30
0.0
 10
125.8681030764453
 20
161.8132595670182
 30
0.0
 10
125.914157387642
 20
161.8999269268418
 30
0.0
 10
125.9672532462376
 20
162.037104134654
 30
0.0
 10
126.0263436405389
 20
162.2395835772097
 30
0.0
 10
126.0895894314618
 20
162.5160664922484
 30
0.0
 10
126.1567330727638
 20
162.8757044225163
 30
0.0
 10
126.2169954540047
 20
163.2530179541485
 30
0.0
 10
126.2548295960304
 20
163.5241117944464
 30
0.0
 10
126.2690624643851
 20
163.6260948905109
 30
0.0
  0
SPLINE
  5
EE
330
1F
100
AcDbEntity
  8
0
  6
Continuous
 62
     7
370
    15
100
AcDbSpline
210
0.0
220
0.0
230
1.0
 70
     8
 71
     3
 72
    12
 73
     8
 74
     0
 42
0.00000001
 43
0.00000001
 12
1.0
 22
0.0
 32
0.0
 13
1.0
 23
0.0
 33
0.0
 40
0.0
 40
0.0
 40
0.0
 40
0.0
 40
0.0595835602933103
 40
0.351393088569756
 40
0.6221540731444375
 40
0.8719987688068008
 40
0.9999999999999999
 40
0.9999999999999999
 40
0.9999999999999999
 40
0.9999999999999999
 10
126.8705166303352
 20
168.6260948905109
 30
0.0
 10
126.8745412873637
 20
168.6558355139165
 30
0.0
 10
126.8982766374625
 20
168.8312303621438
 30
0.0
 10
126.9401456028013
 20
169.1028572135372
 30
0.0
 10
126.9943011564546
 20
169.4238214342153
 30
0.0
 10
127.0379565364117
 20
169.6506461724355
 30
0.0
 10
127.0618174137602
 20
169.750591478142
 30
0.0
 10
127.0699006600277
 20
169.7844495172874
 30
0.0
  0
SPLINE
  5
EF
330
1F
100
AcDbEntity
  8
0
  6
Continuous
 62
     7
370
    15
100
AcDbSpline
210
0.0
220
0.0
230
1.0
 70
     8
 71
     3
 72
    17
 73
    13
 74
     0
 42
0.00000001
 43
0.00000001
 12
1.0
 22
0.0
 32
0.0
 13
1.0
 23
0.0
 33
0.0
 40
0.0
 40
0.0
 40
0.0
 40
0.0
 40
0.0830701621976737
 40
0.1861809946136126
 40
0.3015121364461737
 40
0.3989815840539522
 40
0.4784295402957086
 40
0.5644524485087311
 40
0.6647246559034549
 40
0.7791626393290233
 40
0.9076725023764357
 40
1.0
 40
1.0
 40
1.0
 40
1.0
 10
128.5637479574291
 20
161.6275534442632
 30
0.0
 10
128.6148763890062
 20
161.635864564815
 30
0.0
 10
128.7294679823321
 20
161.6544918631101
 30
0.0
 10
128.8349544612973
 20
161.7613613721854
 30
0.0
 10
128.916798008615
 20
161.8979445942097
 30
0.0
 10
128.977002269577
 20
162.0637549049187
 30
0.0
 10
129.0209541357635
 20
162.2192840392021
 30
0.0
 10
129.0639138312571
 20
162.3978426713323
 30
0.0
 10
129.1120468698638
 20
162.6308734889369
 30
0.0
 10
129.1664481994782
 20
162.9361423751879
 30
0.0
 10
129.2193597641503
 20
163.2684950333955
 30
0.0
 10
129.2540578229745
 20
163.5206670333183
 30
0.0
 10
129.2685643581636
 20
163.6260948905109
 30
0.0
  0
SPLINE
  5
F0
330
1F
100
AcDbEntity
  8
0
  6
Continuous
 62
     7
370
    15
100
AcDbSpline
210
0.0
220
0.0
230
1.0
 70
     8
 71
     3
 72
    11
 73
     7
 74
     0
 42
0.00000001
 43
0.00000001
 12
1.0
 22
0.0
 32
0.0
 13
1.0
 23
0.0
 33
0.0
 40
0.0
 40
0.0
 40
0.0
 40
0.0
 40
0.0569325459264116
 40
0.2875419241750591
 40
0.7266372139686881
 40
1.0
 40
1.0
 40
1.0
 40
1.0
 10
129.8703779031929
 20
168.6260948905109
 30
0.0
 10
129.8742895941216
 20
168.6547181037832
 30
0.0
 10
129.8940458709247
 20
168.7992817042066
 30
0.0
 10
129.9436147797722
 20
169.1254774736117
 30
0.0
 10
130.0091503748254
 20
169.5210256353959
 30
0.0
 10
130.0540951593597
 20
169.7094291788877
 30
0.0
 10
130.0713400077723
 20
169.7817176675646
 30
0.0
  0
SPLINE
  5
F1
330
1F
100
AcDbEntity
  8
0
  6
Continuous
 62
     7
370
    15
100
AcDbSpline
210
0.0
220
0.0
230
1.0
 70
     8
 71
     3
 72
     9
 73
     5
 74
     0
 42
0.00000001
 43
0.00000001
 12
1.0
 22
0.0
 32
0.0
 13
1.0
 23
0.0
 33
0.0
 40
0.0
 40
0.0
 40
0.0
 40
0.0
 40
0.4576131563324184
 40
1.0
 40
1.0
 40
1.0
 40
1.0
 10
131.5097334049391
 20
161.6635089706235
 30
0.0
 10
131.5273241370287
 20
161.6532616626239
 30
0.0
 10
131.5657643170067
 20
161.630868713781
 30
0.0
 10
131.6039580361446
 20
161.6324327428583
 30
0.0
 10
131.6246738069158
 20
161.633281051653
 30
0.0
  0
SPLINE
  5
F2
330
1F
100
AcDbEntity
  8
0
  6
Continuous
 62
     7
370
    15
100
AcDbSpline
210
0.0
220
0.0
230
1.0
 70
     8
 71
     3
 72
    32
 73
    28
 74
     0
 42
0.00000001
 43
0.00000001
 12
1.0
 22
0.0
 32
0.0
 13
1.0
 23
0.0
 33
0.0
 40
0.0
 40
0.0
 40
0.0
 40
0.0
 40
0.0042493474001228
 40
0.0183608234182068
 40
0.0484048935918275
 40
0.0813321856366863
 40
0.1171346513731429
 40
0.1557863592393211
 40
0.1972633581070305
 40
0.2401032976996853
 40
0.2918207555381929
 40
0.3367602297624678
 40
0.3748652452118169
 40
0.4063589085746104
 40
0.4366156335527953
 40
0.4678636645101285
 40
0.5172253491337175
 40
0.5730763573970248
 40
0.6142784686630741
 40
0.6586860822298387
 40
0.7062389497115991
 40
0.7786946358308177
 40
0.8509256200041547
 40
0.923329362605276
 40
0.9604584994174388
 40
0.9798902839588944
 40
1.0
 40
1.0
 40
1.0
 40
1.0
 10
131.6523174289427
 20
162.1483081786512
 30
0.0
 10
131.6539484110648
 20
162.1480581034876
 30
0.0
 10
131.6609956519523
 20
162.1469775644099
 30
0.0
 10
131.6401230623928
 20
162.1923946313009
 30
0.0
 10
131.6150342247743
 20
162.281641248061
 30
0.0
 10
131.5734900813191
 20
162.4395005365957
 30
0.0
 10
131.5272813259565
 20
162.6547947933298
 30
0.0
 10
131.4750703965147
 20
162.9356875485365
 30
0.0
 10
131.4186697960978
 20
163.2843137684591
 30
0.0
 10
131.3556438510404
 20
163.7215857459067
 30
0.0
 10
131.2909976633663
 20
164.2164436148169
 30
0.0
 10
131.22842226624
 20
164.7302246066416
 30
0.0
 10
131.1751507209846
 20
165.1863244057668
 30
0.0
 10
131.1286722815103
 20
165.5937989826649
 30
0.0
 10
131.085402292191
 20
165.9778457863799
 30
0.0
 10
131.03384381969
 20
166.4373223351956
 30
0.0
 10
130.970358225939
 20
166.9999728316949
 30
0.0
 10
130.9021077840808
 20
167.5868800797599
 30
0.0
 10
130.8361235350008
 20
168.1242913719585
 30
0.0
 10
130.7739304185749
 20
168.5993205399287
 30
0.0
 10
130.6970467094836
 20
169.1343133477332
 30
0.0
 10
130.6063688096369
 20
169.6757567575653
 30
0.0
 10
130.4918069094005
 20
170.1535476409392
 30
0.0
 10
130.3953106549317
 20
170.4097185115367
 30
0.0
 10
130.285255289772
 20
170.5463799739758
 30
0.0
 10
130.1748294747419
 20
170.6146641513779
 30
0.0
 10
130.1011566784312
 20
170.6221147986401
 30
0.0
 10
130.0636887272423
 20
170.6259039922356
 30
0.0
  0
SPLINE
  5
F3
330
1F
100
AcDbEntity
  8
0
  6
Continuous
 62
     7
370
    15
100
AcDbSpline
210
0.0
220
0.0
230
1.0
 70
     8
 71
     3
 72
    35
 73
    31
 74
     0
 42
0.00000001
 43
0.00000001
 12
1.0
 22
0.0
 32
0.0
 13
1.0
 23
0.0
 33
0.0
 40
0.0
 40
0.0
 40
0.0
 40
0.0
 40
0.0075956789081358
 40
0.0263653332283681
 40
0.0518643299165202
 40
0.0840446058768828
 40
0.1211042700428768
 40
0.1624647552511632
 40
0.2081033419553952
 40
0.2580041624132294
 40
0.3121927427761029
 40
0.3636677737352747
 40
0.4063074950493803
 40
0.4400837080531388
 40
0.4649831019094709
 40
0.4813346138941924
 40
0.5010030752511853
 40
0.5297755932785115
 40
0.5676574042084506
 40
0.6134952713183855
 40
0.658366891142449
 40
0.700399454971512
 40
0.751967114679754
 40
0.7984628857852915
 40
0.8432374103759257
 40
0.8770889433134933
 40
0.9113235598396298
 40
0.9509472393563644
 40
0.9742693097885246
 40
0.9999999999999999
 40
0.9999999999999999
 40
0.9999999999999999
 40
0.9999999999999999
 10
128.6895936513349
 20
162.0825346992554
 30
0.0
 10
128.6895914192681
 20
162.0827617635473
 30
0.0
 10
128.6895836715493
 20
162.083549925579
 30
0.0
 10
128.6736953984358
 20
162.1106408273136
 30
0.0
 10
128.6484224075571
 20
162.1729020973197
 30
0.0
 10
128.6103451028744
 20
162.2928664526037
 30
0.0
 10
128.5626431865365
 20
162.4842938291312
 30
0.0
 10
128.50614404734
 20
162.760028984704
 30
0.0
 10
128.4419833861933
 20
163.131464899106
 30
0.0
 10
128.370584516174
 20
163.6104999924224
 30
0.0
 10
128.2958082754409
 20
164.1761526936988
 30
0.0
 10
128.2244231437683
 20
164.7626416682998
 30
0.0
 10
128.1628188037064
 20
165.2933690636407
 30
0.0
 10
128.1139793466397
 20
165.7239399474822
 30
0.0
 10
128.0778218218923
 20
166.0454552385072
 30
0.0
 10
128.0484734738515
 20
166.3067450563614
 30
0.0
 10
128.0172639848543
 20
166.5841626803457
 30
0.0
 10
127.9756767030492
 20
166.9514078922047
 30
0.0
 10
127.9214500674823
 20
167.4216833318778
 30
0.0
 10
127.8593866545091
 20
167.9395247589615
 30
0.0
 10
127.7952487534477
 20
168.4410001562203
 30
0.0
 10
127.7282754616744
 20
168.9229636536895
 30
0.0
 10
127.6601670538878
 20
169.359265142119
 30
0.0
 10
127.5903384102166
 20
169.7374531313181
 30
0.0
 10
127.5277207084106
 20
170.0132395402819
 30
0.0
 10
127.4652175475345
 20
170.2226243995405
 30
0.0
 10
127.4069053942112
 20
170.3762205300354
 30
0.0
 10
127.3199333434219
 20
170.5142426129484
 30
0.0
 10
127.1952194842421
 20
170.6089676720763
 30
0.0
 10
127.1089872770785
 20
170.6201541126094
 30
0.0
 10
127.0637540592195
 20
170.6260219747267
 30
0.0
  0
LWPOLYLINE
  5
F4
330
1F
100
AcDbEntity
  8
0
  6
Continuous
 62
     7
370
    15
100
AcDbPolyline
 90
       28
 70
   128
 43
0.0
 10
125.6683548614
 20
162.1066105048
 10
125.6732920392
 20
162.1056662566
 10
125.6587919851
 20
162.1517644857
 10
125.6307831168
 20
162.23475665
 10
125.5985551113
 20
162.3473999053
 10
125.5595506085
 20
162.5089313245
 10
125.5136156105
 20
162.7317248422
 10
125.4608272588
 20
163.0275729529
 10
125.4012568822
 20
163.4078120012
 10
125.3349700473
 20
163.8822387765
 10
125.2693079754
 20
164.3961651538
 10
125.2115414232
 20
164.8760376622
 10
125.1617318565
 20
165.3048706434
 10
125.1199298198
 20
165.671992393
 10
125.0861749358
 20
165.9712911049
 10
125.0591386139
 20
166.2117921603
 10
125.0162502232
 20
166.5927136911
 10
124.9619761233
 20
167.0694877027
 10
124.8981459532
 20
167.6148411679
 10
124.7993268614
 20
168.4040063713
 10
124.698135865
 20
169.1128821518
 10
124.5953774613
 20
169.7006472394
 10
124.4908735649
 20
170.1347348277
 10
124.4357503462
 20
170.2955072945
 10
124.3623095969
 20
170.4411612682
 10
124.2436744987
 20
170.567685835
 10
124.0642073354
 20
170.6258065273
 10
124.0642073354
 20
170.6258065273
  0
SPLINE
  5
F5
330
1F
100
AcDbEntity
  8
0
  6
Continuous
 62
     7
370
    15
100
AcDbSpline
210
0.0
220
0.0
230
1.0
 70
     8
 71
     3
 72
    16
 73
    12
 74
     0
 42
0.00000001
 43
0.00000001
 12
1.0
 22
0.0
 32
0.0
 13
1.0
 23
0.0
 33
0.0
 40
0.0
 40
0.0
 40
0.0
 40
0.0
 40
0.1340517323829046
 40
0.2453836004109421
 40
0.3349015412165806
 40
0.4139633862489817
 40
0.5376354987358426
 40
0.6831853160901666
 40
0.850509818478024
 40
0.9881540517923564
 40
1.0
 40
1.0
 40
1.0
 40
1.0
 10
131.6228531413367
 20
161.6328923649719
 30
0.0
 10
131.6757861082186
 20
161.6518219205667
 30
0.0
 10
131.7726806560399
 20
161.6864727409884
 30
0.0
 10
131.8747986452804
 20
161.822800958144
 30
0.0
 10
131.9403676973451
 20
161.9629834624728
 30
0.0
 10
131.9935822425797
 20
162.1212788689693
 30
0.0
 10
132.0534577547097
 20
162.3471905114183
 30
0.0
 10
132.1238356699731
 20
162.6862620207653
 30
0.0
 10
132.1947912207573
 20
163.1092762539837
 30
0.0
 10
132.2440702817798
 20
163.4376739136656
 30
0.0
 10
132.2672701871486
 20
163.6122602637805
 30
0.0
 10
132.2691086013817
 20
163.6260948905109
 30
0.0
  0
SPLINE
  5
F6
330
1F
100
AcDbEntity
  8
0
  6
Continuous
 62
     7
370
    15
100
AcDbSpline
210
0.0
220
0.0
230
1.0
 70
     8
 71
     3
 72
    12
 73
     8
 74
     0
 42
0.00000001
 43
0.00000001
 12
1.0
 22
0.0
 32
0.0
 13
1.0
 23
0.0
 33
0.0
 40
0.0
 40
0.0
 40
0.0
 40
0.0
 40
0.1166000058990636
 40
0.3614529328607162
 40
0.6087755567843081
 40
0.8576743380554614
 40
1.0
 40
1.0
 40
1.0
 40
1.0
 10
132.8707797446706
 20
168.6260948905109
 30
0.0
 10
132.878866884201
 20
168.6852206676823
 30
0.0
 10
132.9039365253145
 20
168.8685069840207
 30
0.0
 10
132.9460723867533
 20
169.1393208515616
 30
0.0
 10
132.9959095826656
 20
169.4335963581228
 30
0.0
 10
133.037723973981
 20
169.6528674708643
 30
0.0
 10
133.0605551834382
 20
169.7528614985071
 30
0.0
 10
133.0688610729483
 20
169.789238868126
 30
0.0
  0
SPLINE
  5
F7
330
1F
100
AcDbEntity
  8
0
  6
Continuous
 62
     7
370
    15
100
AcDbSpline
210
0.0
220
0.0
230
1.0
 70
     8
 71
     3
 72
    18
 73
    14
 74
     0
 42
0.00000001
 43
0.00000001
 12
1.0
 22
0.0
 32
0.0
 13
1.0
 23
0.0
 33
0.0
 40
0.0
 40
0.0
 40
0.0
 40
0.0
 40
0.071481227652641
 40
0.1281388203370154
 40
0.1601949531530843
 40
0.2127849391836458
 40
0.2860372045401084
 40
0.3797813374322709
 40
0.491630342172254
 40
0.6159852123080694
 40
0.7525184178870482
 40
0.9011655933417865
 40
1.0
 40
1.0
 40
1.0
 40
1.0
 10
134.5642365340528
 20
161.6275540864282
 30
0.0
 10
134.6149180999995
 20
161.6347981260217
 30
0.0
 10
134.7057709894434
 20
161.6477839506705
 30
0.0
 10
134.7878376536678
 20
161.7148344265961
 30
0.0
 10
134.8309330324415
 20
161.7613890478342
 30
0.0
 10
134.8675055604043
 20
161.8125612475879
 30
0.0
 10
134.9130286853078
 20
161.8975123804329
 30
0.0
 10
134.9654442210806
 20
162.0314381628371
 30
0.0
 10
135.023808557447
 20
162.2295021032136
 30
0.0
 10
135.0864036835103
 20
162.5006597832959
 30
0.0
 10
135.1530640618619
 20
162.8545603787215
 30
0.0
 10
135.2144553589858
 20
163.2361142565341
 30
0.0
 10
135.2535836452893
 20
163.5147991207024
 30
0.0
 10
135.2692099433247
 20
163.6260948905109
 30
0.0
  0
SPLINE
  5
F8
330
1F
100
AcDbEntity
  8
0
  6
Continuous
 62
     7
370
    15
100
AcDbSpline
210
0.0
220
0.0
230
1.0
 70
     8
 71
     3
 72
    12
 73
     8
 74
     0
 42
0.00000001
 43
0.00000001
 12
1.0
 22
0.0
 32
0.0
 13
1.0
 23
0.0
 33
0.0
 40
0.0
 40
0.0
 40
0.0
 40
0.0
 40
0.0399144058703639
 40
0.3318077941760756
 40
0.6027060570013715
 40
0.8526736687483225
 40
1.0
 40
1.0
 40
1.0
 40
1.0
 10
135.8703802252752
 20
168.6260948905109
 30
0.0
 10
135.8730770247814
 20
168.6460933636073
 30
0.0
 10
135.8954954743601
 20
168.812340338861
 30
0.0
 10
135.9360569994768
 20
169.0765569238682
 30
0.0
 10
135.9902950749848
 20
169.4014623522545
 30
0.0
 10
136.0352177682532
 20
169.6374676114296
 30
0.0
 10
136.0604405548429
 20
169.7445716451325
 30
0.0
 10
136.06979378229
 20
169.7842884458182
 30
0.0
  0
SPLINE
  5
F9
330
1F
100
AcDbEntity
  8
0
  6
Continuous
 62
     7
370
    15
100
AcDbSpline
210
0.0
220
0.0
230
1.0
 70
     8
 71
     3
 72
    17
 73
    13
 74
     0
 42
0.00000001
 43
0.00000001
 12
1.0
 22
0.0
 32
0.0
 13
1.0
 23
0.0
 33
0.0
 40
0.0
 40
0.0
 40
0.0
 40
0.0
 40
0.0822658995932559
 40
0.1827465729459047
 40
0.2941313895573148
 40
0.3880063689692839
 40
0.4642388943141077
 40
0.5466929262813647
 40
0.6429118784596431
 40
0.7528306894548741
 40
0.8763554626820232
 40
0.9999999999999999
 40
0.9999999999999999
 40
0.9999999999999999
 40
0.9999999999999999
 10
137.5636764302352
 20
161.6274683124348
 30
0.0
 10
137.6145743806455
 20
161.6357015854775
 30
0.0
 10
137.7276397704782
 20
161.6539910886633
 30
0.0
 10
137.8325126650753
 20
161.7586252287196
 30
0.0
 10
137.9126863787306
 20
161.8897770158177
 30
0.0
 10
137.9715111801642
 20
162.0469806186155
 30
0.0
 10
138.0140408353174
 20
162.1931695321167
 30
0.0
 10
138.0554317731267
 20
162.3602908137009
 30
0.0
 10
138.1018008593312
 20
162.5785716670852
 30
0.0
 10
138.1542048516687
 20
162.8640894334317
 30
0.0
 10
138.21066930526
 20
163.211106616363
 30
0.0
 10
138.2495873993233
 20
163.4877207886668
 30
0.0
 10
138.2690558750946
 20
163.6260948905109
 30
0.0
  0
SPLINE
  5
FA
330
1F
100
AcDbEntity
  8
0
  6
Continuous
 62
     7
370
    15
100
AcDbSpline
210
0.0
220
0.0
230
1.0
 70
     8
 71
     3
 72
    25
 73
    21
 74
     0
 42
0.00000001
 43
0.00000001
 12
1.0
 22
0.0
 32
0.0
 13
1.0
 23
0.0
 33
0.0
 40
0.0
 40
0.0
 40
0.0
 40
0.0
 40
0.0711321469137448
 40
0.1337647888744996
 40
0.1879215388137542
 40
0.233573323724206
 40
0.2706781003299644
 40
0.299537485432829
 40
0.3569626683082371
 40
0.4218682667747628
 40
0.494350909273041
 40
0.5537442533922674
 40
0.6164293649093098
 40
0.6794216296111264
 40
0.7426928303737663
 40
0.8064114135452716
 40
0.8706790889878123
 40
0.9351770778713591
 40
0.9674293535546424
 40
1.0
 40
1.0
 40
1.0
 40
1.0
 10
140.2876967342122
 20
164.2491855318508
 30
0.0
 10
140.2642544894366
 20
164.439382385244
 30
0.0
 10
140.2201710889037
 20
164.7970496713106
 30
0.0
 10
140.1581997553555
 20
165.3336317166331
 30
0.0
 10
140.1046726755594
 20
165.8062281447241
 30
0.0
 10
140.0595873587255
 20
166.2079812391476
 30
0.0
 10
140.0228387046323
 20
166.5348937609945
 30
0.0
 10
139.9822198598398
 20
166.8939192980711
 30
0.0
 10
139.9323818869151
 20
167.3283257590138
 30
0.0
 10
139.8680694760798
 20
167.8687066002374
 30
0.0
 10
139.8030232788183
 20
168.3823239071081
 30
0.0
 10
139.7386502935017
 20
168.8499202368928
 30
0.0
 10
139.6772611892449
 20
169.2533942414404
 30
0.0
 10
139.6128949712826
 20
169.6207153302232
 30
0.0
 10
139.5451441441308
 20
169.9376047446777
 30
0.0
 10
139.4720243651668
 20
170.2010510086242
 30
0.0
 10
139.389250001825
 20
170.4044474359393
 30
0.0
 10
139.3135057407672
 20
170.5205100577618
 30
0.0
 10
139.1938962791928
 20
170.6095940217801
 30
0.0
 10
139.1073680211593
 20
170.6203158105657
 30
0.0
 10
139.0638914050582
 20
170.6257030344107
 30
0.0
  0
SPLINE
  5
FB
330
1F
100
AcDbEntity
  8
0
  6
Continuous
 62
     7
370
    15
100
AcDbSpline
210
0.0
220
0.0
230
1.0
 70
     8
 71
     3
 72
    35
 73
    31
 74
     0
 42
0.00000001
 43
0.00000001
 12
1.0
 22
0.0
 32
0.0
 13
1.0
 23
0.0
 33
0.0
 40
0.0
 40
0.0
 40
0.0
 40
0.0
 40
0.007753087140862
 40
0.0267782559349994
 40
0.0527019250858856
 40
0.0854676567856831
 40
0.1230676813747694
 40
0.1648507338652623
 40
0.2107923996797487
 40
0.2608947419732435
 40
0.3151757331312605
 40
0.3666687695342578
 40
0.409318552197301
 40
0.4431108695158101
 40
0.4680243542050449
 40
0.4843846296145694
 40
0.5040659338469854
 40
0.532852494297912
 40
0.5707467786049453
 40
0.6166018085893616
 40
0.6615029335958634
 40
0.7035607170363245
 40
0.7551489563265269
 40
0.8016648246169303
 40
0.8464828493217768
 40
0.8803820999881006
 40
0.914663451966389
 40
0.9533975900591994
 40
0.9756907354827066
 40
1.0
 40
1.0
 40
1.0
 40
1.0
 10
137.6894589510885
 20
162.0824485002444
 30
0.0
 10
137.6894344552381
 20
162.0827121815195
 30
0.0
 10
137.6893498494366
 20
162.0836229057951
 30
0.0
 10
137.6730573859865
 20
162.1116363581372
 30
0.0
 10
137.6472190109935
 20
162.1761468541762
 30
0.0
 10
137.6084072195641
 20
162.2996956552646
 30
0.0
 10
137.5599890313152
 20
162.4959192287834
 30
0.0
 10
137.5028830074216
 20
162.7771407078764
 30
0.0
 10
137.4382588940587
 20
163.1545234586526
 30
0.0
 10
137.3665884650457
 20
163.6394709087575
 30
0.0
 10
137.2916983474093
 20
164.2088845829939
 30
0.0
 10
137.2202664952821
 20
164.7976832762179
 30
0.0
 10
137.1586432912102
 20
165.3297177232181
 30
0.0
 10
137.1098075408963
 20
165.7608993235432
 30
0.0
 10
137.0736529643434
 20
166.0825898627791
 30
0.0
 10
137.0443041350926
 20
166.3439018654802
 30
0.0
 10
137.013092686722
 20
166.6212133504939
 30
0.0
 10
136.9715005632168
 20
166.9880692148525
 30
0.0
 10
136.9172602952194
 20
167.4574354875056
 30
0.0
 10
136.8551786489818
 20
167.9733732339146
 30
0.0
 10
136.7910423348862
 20
168.4724568228335
 30
0.0
 10
136.7240522894313
 20
168.951713089546
 30
0.0
 10
136.6558863386863
 20
169.3848877902008
 30
0.0
 10
136.5859856975692
 20
169.7585868908576
 30
0.0
 10
136.523146119924
 20
170.0308121552637
 30
0.0
 10
136.4599816942654
 20
170.2378268366978
 30
0.0
 10
136.4009846546871
 20
170.3882993887572
 30
0.0
 10
136.3141737410153
 20
170.520471086694
 30
0.0
 10
136.1918085665141
 20
170.6100507301891
 30
0.0
 10
136.1080139426066
 20
170.6205338167781
 30
0.0
 10
136.0643040640772
 20
170.6260021203524
 30
0.0
  0
LWPOLYLINE
  5
FC
330
1F
100
AcDbEntity
  8
0
  6
Continuous
 62
     7
370
    15
100
AcDbPolyline
 90
       28
 70
   128
 43
0.0
 10
134.6665824851
 20
162.108173213
 10
134.6721597232
 20
162.1074549937
 10
134.6561576029
 20
162.1584673361
 10
134.6272428086
 20
162.2463401085
 10
134.5947998147
 20
162.3620506309
 10
134.5556613041
 20
162.5266632942
 10
134.5096314205
 20
162.7526250191
 10
134.4567788355
 20
163.0517515007
 10
134.3971673256
 20
163.4355125749
 10
134.3308558195
 20
163.9133990498
 10
134.2651773318
 20
164.4298050779
 10
134.2073996112
 20
164.9112126296
 10
134.1575826179
 20
165.3409690995
 10
134.1157756996
 20
165.7086317793
 10
134.0820175909
 20
166.0082017714
 10
134.0549796806
 20
166.248785178
 10
134.0120896408
 20
166.6295856687
 10
133.9578123186
 20
167.1057598155
 10
133.8940301346
 20
167.6492720475
 10
133.7958163285
 20
168.4302903848
 10
133.6959238227
 20
169.127140596
 10
133.5946871416
 20
169.7042208663
 10
133.4908366906
 20
170.1346236926
 10
133.4356978316
 20
170.2955434841
 10
133.3622313298
 20
170.4414087928
 10
133.2437013378
 20
170.5679133289
 10
133.0644698952
 20
170.6259823957
 10
133.0644698952
 20
170.6259823957
  0
LWPOLYLINE
  5
FD
330
1F
100
AcDbEntity
  8
0
  6
Continuous
 62
     7
370
    15
100
AcDbPolyline
 90
       31
 70
   128
 43
0.0
 10
132.9738894356
 20
170.143286427
 10
132.9676586289
 20
170.1435882462
 10
132.9855134055
 20
170.0870595038
 10
133.0161791899
 20
169.9927394004
 10
133.0502075619
 20
169.8693908559
 10
133.0911480424
 20
169.6934743284
 10
133.1392077273
 20
169.4509616149
 10
133.1943142764
 20
169.1297824981
 10
133.2564006711
 20
168.7193658572
 10
133.324439549
 20
168.2190105476
 10
133.3858884748
 20
167.7293024627
 10
133.436842424
 20
167.3019272424
 10
133.4772332768
 20
166.9531192098
 10
133.5070100244
 20
166.6919458734
 10
133.52824905
 20
166.5042089856
 10
133.5560676439
 20
166.2571870815
 10
133.5934603833
 20
165.9245101475
 10
133.6404457655
 20
165.5083449149
 10
133.6957199165
 20
165.0264129301
 10
133.7507965263
 20
164.5602248222
 10
133.804181488
 20
164.1274143196
 10
133.8558952836
 20
163.7312483417
 10
133.9059601608
 20
163.3740483548
 10
133.9544001336
 20
163.0570305249
 10
134.0491748116
 20
162.5280613757
 10
134.1490587558
 20
162.1160640054
 10
134.203283698
 20
161.9570363973
 10
134.276482302
 20
161.8116085229
 10
134.3954253566
 20
161.6851596346
 10
134.5758060427
 20
161.6275614627
 10
134.5758060427
 20
161.6275614627
  0
SPLINE
  5
FE
330
1F
100
AcDbEntity
  8
0
  6
Continuous
 62
     7
370
    15
100
AcDbSpline
210
0.0
220
0.0
230
1.0
 70
     8
 71
     3
 72
    38
 73
    34
 74
     0
 42
0.00000001
 43
0.00000001
 12
1.0
 22
0.0
 32
0.0
 13
1.0
 23
0.0
 33
0.0
 40
0.0
 40
0.0
 40
0.0
 40
0.0
 40
0.0080333861579636
 40
0.0261919233083817
 40
0.0613164156336886
 40
0.0961942743815677
 40
0.1307266788181443
 40
0.1662512512388693
 40
0.204747215727904
 40
0.246233515920658
 40
0.2906881549967154
 40
0.3380268192125489
 40
0.3810004175413868
 40
0.4146076736830378
 40
0.4317862947026775
 40
0.4447692221357676
 40
0.4548655078463503
 40
0.4764128436941891
 40
0.5070531214716235
 40
0.5468021118589693
 40
0.5957145711792219
 40
0.6515525779905756
 40
0.7044385807658279
 40
0.7532611392646879
 40
0.7980724712291085
 40
0.8388607072796306
 40
0.8755162224610018
 40
0.9062305157494374
 40
0.9302313452580013
 40
0.947467921099243
 40
0.9579850419314585
 40
0.9765722887430704
 40
1.0
 40
1.0
 40
1.0
 40
1.0
 10
135.9647753963575
 20
170.1501072915931
 30
0.0
 10
135.9633304611077
 20
170.1502872656518
 30
0.0
 10
135.9586194174078
 20
170.1508740501846
 30
0.0
 10
135.9777432992943
 20
170.1128722673689
 30
0.0
 10
136.0078057459732
 20
170.0255938238499
 30
0.0
 10
136.0516670260936
 20
169.8697855259685
 30
0.0
 10
136.0992176700215
 20
169.6615980101505
 30
0.0
 10
136.1502205469753
 20
169.3972436345785
 30
0.0
 10
136.2045731314342
 20
169.0723041567892
 30
0.0
 10
136.2635215253376
 20
168.6760754145738
 30
0.0
 10
136.3268604580638
 20
168.2065620537863
 30
0.0
 10
136.3911225994106
 20
167.6910421317155
 30
0.0
 10
136.4502152249661
 20
167.189726348503
 30
0.0
 10
136.4948978206796
 20
166.7992872069404
 30
0.0
 10
136.525276977112
 20
166.5307830188249
 30
0.0
 10
136.5444581869926
 20
166.3605094074885
 30
0.0
 10
136.5657220106174
 20
166.171373626313
 30
0.0
 10
136.5954083113149
 20
165.906990778353
 30
0.0
 10
136.6392610225131
 20
165.5176164927762
 30
0.0
 10
136.6962232120868
 20
165.0189372039253
 30
0.0
 10
136.7652331830462
 20
164.4347623130909
 30
0.0
 10
136.8405178301137
 20
163.8368572808351
 30
0.0
 10
136.9162233300416
 20
163.293613794746
 30
0.0
 10
136.9874293624411
 20
162.8485469929523
 30
0.0
 10
137.0539978721775
 20
162.4970177464934
 30
0.0
 10
137.1164374763529
 20
162.2273315916581
 30
0.0
 10
137.1746269334801
 20
162.0304538394919
 30
0.0
 10
137.2268763588393
 20
161.8968400381761
 30
0.0
 10
137.272274750313
 20
161.8119808459624
 30
0.0
 10
137.3087767181777
 20
161.7609339958702
 30
0.0
 10
137.3518083629532
 20
161.7144998950041
 30
0.0
 10
137.4337615610598
 20
161.6476036852147
 30
0.0
 10
137.5245977834978
 20
161.6346766737456
 30
0.0
 10
137.5752484300479
 20
161.6274685196491
 30
0.0
  0
SPLINE
  5
FF
330
1F
100
AcDbEntity
  8
0
  6
Continuous
 62
     7
370
    15
100
AcDbSpline
210
0.0
220
0.0
230
1.0
 70
     8
 71
     3
 72
    20
 73
    16
 74
     0
 42
0.00000001
 43
0.00000001
 12
1.0
 22
0.0
 32
0.0
 13
1.0
 23
0.0
 33
0.0
 40
0.0
 40
0.0
 40
0.0
 40
0.0
 40
0.0089931444486506
 40
0.0457859287357243
 40
0.0988931210076369
 40
0.1661519458551455
 40
0.2404129655002931
 40
0.3211613585630756
 40
0.4084347825222113
 40
0.5018718721387923
 40
0.5980038096191787
 40
0.6959076172964915
 40
0.7955858303584594
 40
0.8969215571276704
 40
1.0
 40
1.0
 40
1.0
 40
1.0
 10
138.9515264791901
 20
170.1686358565452
 30
0.0
 10
138.9510593918695
 20
170.1688721042423
 30
0.0
 10
138.9486813552554
 20
170.1700748893515
 30
0.0
 10
138.9705323212233
 20
170.1336790665812
 30
0.0
 10
139.0028808683037
 20
170.0457071363674
 30
0.0
 10
139.0538480287442
 20
169.8690466160227
 30
0.0
 10
139.1150167660126
 20
169.5911099436122
 30
0.0
 10
139.185140463054
 20
169.2001017577659
 30
0.0
 10
139.2622364927818
 20
168.6905637804832
 30
0.0
 10
139.3447631805863
 20
168.0706618440184
 30
0.0
 10
139.4306046970548
 20
167.3625476865682
 30
0.0
 10
139.5183378506646
 20
166.5948491866003
 30
0.0
 10
139.6075986615401
 20
165.7977726444675
 30
0.0
 10
139.6985662318239
 20
164.99177876486
 30
0.0
 10
139.7596843192231
 20
164.4896953315694
 30
0.0
 10
139.7905038915233
 20
164.236513379524
 30
0.0
  0
SPLINE
  5
100
330
1F
100
AcDbEntity
  8
0
  6
Continuous
 62
     7
370
    15
100
AcDbSpline
210
0.0
220
0.0
230
1.0
 70
     8
 71
     3
 72
    14
 73
    10
 74
     0
 42
0.00000001
 43
0.00000001
 12
1.0
 22
0.0
 32
0.0
 13
1.0
 23
0.0
 33
0.0
 40
0.0
 40
0.0
 40
0.0
 40
0.0
 40
0.138659787268834
 40
0.3117734804183989
 40
0.5063405136585203
 40
0.6717623555853316
 40
0.8077150523829608
 40
0.9552388506237851
 40
1.0
 40
1.0
 40
1.0
 40
1.0
 10
139.0754267019538
 20
170.6257378233828
 30
0.0
 10
139.0246578929875
 20
170.617271171882
 30
0.0
 10
138.9105053432117
 20
170.5982340922941
 30
0.0
 10
138.8065884824716
 20
170.4925979652088
 30
0.0
 10
138.7257094687086
 20
170.3589632414984
 30
0.0
 10
138.6659135609782
 20
170.1981999253484
 30
0.0
 10
138.6220730098834
 20
170.0448742502732
 30
0.0
 10
138.5909791301788
 20
169.923061926847
 30
0.0
 10
138.5730188502916
 20
169.8357059983751
 30
0.0
 10
138.5688379573989
 20
169.8153708041143
 30
0.0
  0
SPLINE
  5
101
330
1F
100
AcDbEntity
  8
0
  6
Continuous
 62
     7
370
    15
100
AcDbSpline
210
0.0
220
0.0
230
1.0
 70
     8
 71
     3
 72
    11
 73
     7
 74
     0
 42
0.00000001
 43
0.00000001
 12
1.0
 22
0.0
 32
0.0
 13
1.0
 23
0.0
 33
0.0
 40
0.0
 40
0.0
 40
0.0
 40
0.0
 40
0.0478386245149867
 40
0.2809587203024771
 40
0.7259417271944018
 40
1.0
 40
1.0
 40
1.0
 40
1.0
 10
137.7693750157979
 20
163.6260948905109
 30
0.0
 10
137.7660824118443
 20
163.6019067427066
 30
0.0
 10
137.7467447782347
 20
163.4598484974603
 30
0.0
 10
137.6971024915671
 20
163.1331978187402
 30
0.0
 10
137.6308290151988
 20
162.7340406425563
 30
0.0
 10
137.5854276602122
 20
162.5428830492354
 30
0.0
 10
137.568123205959
 20
162.4700244786104
 30
0.0
  0
SPLINE
  5
102
330
1F
100
AcDbEntity
  8
0
  6
Continuous
 62
     7
370
    15
100
AcDbSpline
210
0.0
220
0.0
230
1.0
 70
     8
 71
     3
 72
    16
 73
    12
 74
     0
 42
0.00000001
 43
0.00000001
 12
1.0
 22
0.0
 32
0.0
 13
1.0
 23
0.0
 33
0.0
 40
0.0
 40
0.0
 40
0.0
 40
0.0
 40
0.0744617363446709
 40
0.142854634887588
 40
0.2619916524710247
 40
0.3676862800696954
 40
0.4721800121148702
 40
0.6103202884914454
 40
0.7537333485968769
 40
0.9127768817369615
 40
1.0
 40
1.0
 40
1.0
 40
1.0
 10
136.0758533462059
 20
170.6260023694583
 30
0.0
 10
136.0324088771678
 20
170.6206102545586
 30
0.0
 10
135.9490607836772
 20
170.6102654970618
 30
0.0
 10
135.8270874792194
 20
170.5218497645787
 30
0.0
 10
135.7401409732547
 20
170.3910806807935
 30
0.0
 10
135.6808982314031
 20
170.2415664119058
 30
0.0
 10
135.6175817231651
 20
170.0354221959923
 30
0.0
 10
135.5546687307221
 20
169.7640351072371
 30
0.0
 10
135.484772152345
 20
169.3894644284507
 30
0.0
 10
135.4232684645415
 20
169.0047057175794
 30
0.0
 10
135.3846321280027
 20
168.7251192683145
 30
0.0
 10
135.3709478482516
 20
168.6260948905109
 30
0.0
  0
SPLINE
  5
103
330
1F
100
AcDbEntity
  8
0
  6
Continuous
 62
     7
370
    15
100
AcDbSpline
210
0.0
220
0.0
230
1.0
 70
     8
 71
     3
 72
    11
 73
     7
 74
     0
 42
0.00000001
 43
0.00000001
 12
1.0
 22
0.0
 32
0.0
 13
1.0
 23
0.0
 33
0.0
 40
0.0
 40
0.0
 40
0.0
 40
0.0
 40
0.3384413656572903
 40
0.6603464452045817
 40
0.9532929736365169
 40
0.9999999999999999
 40
0.9999999999999999
 40
0.9999999999999999
 40
0.9999999999999999
 10
134.7695830570723
 20
163.6260948905109
 30
0.0
 10
134.7464578157756
 20
163.4653631103607
 30
0.0
 10
134.7013372352723
 20
163.1517529243023
 30
0.0
 10
134.6377449833458
 20
162.786144617777
 30
0.0
 10
134.5939926581397
 20
162.5601771152657
 30
0.0
 10
134.5731573869962
 20
162.4766175767971
 30
0.0
 10
134.5702922511987
 20
162.4651269931978
 30
0.0
  0
SPLINE
  5
104
330
1F
100
AcDbEntity
  8
0
  6
Continuous
 62
     7
370
    15
100
AcDbSpline
210
0.0
220
0.0
230
1.0
 70
     8
 71
     3
 72
    19
 73
    15
 74
     0
 42
0.00000001
 43
0.00000001
 12
1.0
 22
0.0
 32
0.0
 13
1.0
 23
0.0
 33
0.0
 40
0.0
 40
0.0
 40
0.0
 40
0.0
 40
0.070656273645015
 40
0.1267797918639053
 40
0.1548645973006559
 40
0.2005682765605665
 40
0.2649155653061465
 40
0.3477712794100671
 40
0.448415669778441
 40
0.5617874271297625
 40
0.6866529593789443
 40
0.8230924512312591
 40
0.9711637429294848
 40
1.0
 40
1.0
 40
1.0
 40
1.0
 10
133.0759911440616
 20
170.6259490651933
 30
0.0
 10
133.0268117891323
 20
170.6193025893215
 30
0.0
 10
132.9385684094535
 20
170.607376701015
 30
0.0
 10
132.8585675775799
 20
170.5442898649938
 30
0.0
 10
132.8149566828827
 20
170.4985663915091
 30
0.0
 10
132.7819691082542
 20
170.4541409828055
 30
0.0
 10
132.7403853247513
 20
170.3818093949632
 30
0.0
 10
132.692662963567
 20
170.2704059941234
 30
0.0
 10
132.6389184237124
 20
170.1060964884581
 30
0.0
 10
132.5809507908217
 20
169.8787818282621
 30
0.0
 10
132.5191146695934
 20
169.5799798559165
 30
0.0
 10
132.4532068735291
 20
169.1940566666632
 30
0.0
 10
132.4034042378738
 20
168.8703918154833
 30
0.0
 10
132.3755291132512
 20
168.6603346038345
 30
0.0
 10
132.3709854164723
 20
168.6260948905109
 30
0.0
  0
SPLINE
  5
105
330
1F
100
AcDbEntity
  8
0
  6
Continuous
 62
     7
370
    15
100
AcDbSpline
210
0.0
220
0.0
230
1.0
 70
     8
 71
     3
 72
    12
 73
     8
 74
     0
 42
0.00000001
 43
0.00000001
 12
1.0
 22
0.0
 32
0.0
 13
1.0
 23
0.0
 33
0.0
 40
0.0
 40
0.0
 40
0.0
 40
0.0
 40
0.017312505227716
 40
0.2861306119074266
 40
0.5326731695771096
 40
0.7570826733736356
 40
0.9999999999999999
 40
0.9999999999999999
 40
0.9999999999999999
 40
0.9999999999999999
 10
131.7695004235561
 20
163.6260948905109
 30
0.0
 10
131.7683157469867
 20
163.6172770377403
 30
0.0
 10
131.7487361294064
 20
163.4715409021686
 30
0.0
 10
131.7123206709591
 20
163.2319259311915
 30
0.0
 10
131.6623502822719
 20
162.9248635989158
 30
0.0
 10
131.6131835833879
 20
162.6604212443141
 30
0.0
 10
131.584728426003
 20
162.530311166809
 30
0.0
 10
131.5699373840369
 20
162.4626797146066
 30
0.0
  0
LINE
  5
106
330
1F
100
AcDbEntity
  8
0
  6
Continuous
 62
     7
370
    15
100
AcDbLine
 10
114.3295620438
 20
162.3760948905
 30
0.0
 11
116.0857865364
 21
162.3760948905
 31
0.0
  0
LINE
  5
107
330
1F
100
AcDbEntity
  8
0
  6
Continuous
 62
     7
370
    15
100
AcDbLine
 10
116.5917393936
 20
162.3760948905
 30
0.0
 11
118.3295620438
 21
162.3760948905
 31
0.0
  0
LINE
  5
108
330
1F
100
AcDbEntity
  8
0
  6
Continuous
 62
     7
370
    15
100
AcDbLine
 10
118.0477055445
 20
169.8760948905
 30
0.0
 11
115.5574697256
 21
169.8760948905
 31
0.0
  0
LINE
  5
109
330
1F
100
AcDbEntity
  8
0
  6
Continuous
 62
     7
370
    15
100
AcDbLine
 10
115.047997245
 20
169.8760948905
 30
0.0
 11
114.3295620438
 21
169.8760948905
 31
0.0
  0
LINE
  5
10A
330
1F
100
AcDbEntity
  8
0
  6
Continuous
 62
     7
370
    15
100
AcDbLine
 10
100.8295620438
 20
162.6260948905
 30
0.0
 11
102.8295620438
 21
162.6260948905
 31
0.0
  0
LINE
  5
10B
330
1F
100
AcDbEntity
  8
0
  6
Continuous
 62
     7
370
    15
100
AcDbLine
 10
102.8295620438
 20
169.6260948905
 30
0.0
 11
100.8295620438
 21
169.6260948905
 31
0.0
  0
LINE
  5
10C
330
1F
100
AcDbEntity
  8
0
  6
Continuous
 62
     7
370
    15
100
AcDbLine
 10
161.8295620438
 20
163.6260948905
 30
0.0
 11
162.3295620438
 21
164.1260948905
 31
0.0
  0
LINE
  5
10D
330
1F
100
AcDbEntity
  8
0
  6
Continuous
 62
     7
370
    15
100
AcDbLine
 10
162.3295620438
 20
168.1260948905
 30
0.0
 11
161.8295620438
 21
168.6260948905
 31
0.0
  0
LINE
  5
10E
330
1F
100
AcDbEntity
  8
0
  6
Continuous
 62
     7
370
    15
100
AcDbLine
 10
161.0295620438
 20
163.6260948905
 30
0.0
 11
161.8295620438
 21
163.6260948905
 31
0.0
  0
LINE
  5
10F
330
1F
100
AcDbEntity
  8
0
  6
Continuous
 62
     7
370
    15
100
AcDbLine
 10
161.8295620438
 20
168.6260948905
 30
0.0
 11
161.0295620438
 21
168.6260948905
 31
0.0
  0
LINE
  5
110
330
1F
100
AcDbEntity
  8
0
  6
Continuous
 62
     7
370
    15
100
AcDbLine
 10
118.3295620438
 20
163.6260948905
 30
0.0
 11
118.8711780477
 21
163.6260948905
 31
0.0
  0
LINE
  5
111
330
1F
100
AcDbEntity
  8
0
  6
Continuous
 62
     7
370
    15
100
AcDbLine
 10
119.3702198617
 20
163.6260948905
 30
0.0
 11
121.8707442297
 21
163.6260948905
 31
0.0
  0
LINE
  5
112
330
1F
100
AcDbEntity
  8
0
  6
Continuous
 62
     7
370
    15
100
AcDbLine
 10
122.370487394
 20
163.6260948905
 30
0.0
 11
124.8705620837
 21
163.6260948905
 31
0.0
  0
LINE
  5
113
330
1F
100
AcDbEntity
  8
0
  6
Continuous
 62
     7
370
    15
100
AcDbLine
 10
125.370758431
 20
163.6260948905
 30
0.0
 11
127.8712812034
 21
163.6260948905
 31
0.0
  0
LINE
  5
114
330
1F
100
AcDbEntity
  8
0
  6
Continuous
 62
     7
370
    15
100
AcDbLine
 10
128.3700321379
 20
163.6260948905
 30
0.0
 11
130.8708812966
 21
163.6260948905
 31
0.0
  0
LINE
  5
115
330
1F
100
AcDbEntity
  8
0
  6
Continuous
 62
     7
370
    15
100
AcDbLine
 10
131.3703652389
 20
163.6260948905
 30
0.0
 11
133.870633511
 21
163.6260948905
 31
0.0
  0
LINE
  5
116
330
1F
100
AcDbEntity
  8
0
  6
Continuous
 62
     7
370
    15
100
AcDbLine
 10
134.3707221319
 20
163.6260948905
 30
0.0
 11
136.8713593968
 21
163.6260948905
 31
0.0
  0
LINE
  5
117
330
1F
100
AcDbEntity
  8
0
  6
Continuous
 62
     7
370
    15
100
AcDbLine
 10
137.3699997276
 20
163.6260948905
 30
0.0
 11
138.3295620438
 21
163.6260948905
 31
0.0
  0
LINE
  5
118
330
1F
100
AcDbEntity
  8
0
  6
Continuous
 62
     7
370
    15
100
AcDbLine
 10
138.3295620438
 20
168.6260948905
 30
0.0
 11
136.76864863
 21
168.6260948905
 31
0.0
  0
LINE
  5
119
330
1F
100
AcDbEntity
  8
0
  6
Continuous
 62
     7
370
    15
100
AcDbLine
 10
136.2692677641
 20
168.6260948905
 30
0.0
 11
133.7677480257
 21
168.6260948905
 31
0.0
  0
LINE
  5
11A
330
1F
100
AcDbEntity
  8
0
  6
Continuous
 62
     7
370
    15
100
AcDbLine
 10
133.269083762
 20
168.6260948905
 30
0.0
 11
130.7689477325
 21
168.6260948905
 31
0.0
  0
LINE
  5
11B
330
1F
100
AcDbEntity
  8
0
  6
Continuous
 62
     7
370
    15
100
AcDbLine
 10
130.2694660001
 20
168.6260948905
 30
0.0
 11
127.7686131113
 21
168.6260948905
 31
0.0
  0
LINE
  5
11C
330
1F
100
AcDbEntity
  8
0
  6
Continuous
 62
     7
370
    15
100
AcDbLine
 10
127.2694279367
 20
168.6260948905
 30
0.0
 11
124.7676240453
 21
168.6260948905
 31
0.0
  0
LINE
  5
11D
330
1F
100
AcDbEntity
  8
0
  6
Continuous
 62
     7
370
    15
100
AcDbLine
 10
124.2692373192
 20
168.6260948905
 30
0.0
 11
121.7681416794
 21
168.6260948905
 31
0.0
  0
LINE
  5
11E
330
1F
100
AcDbEntity
  8
0
  6
Continuous
 62
     7
370
    15
100
AcDbLine
 10
121.2691602782
 20
168.6260948905
 30
0.0
 11
118.7686108713
 21
168.6260948905
 31
0.0
  0
LINE
  5
11F
330
1F
100
AcDbEntity
  8
0
  6
Continuous
 62
     7
370
    15
100
AcDbLine
 10
102.8295620438
 20
163.6260948905
 30
0.0
 11
106.3295620438
 21
163.6260948905
 31
0.0
  0
LINE
  5
120
330
1F
100
AcDbEntity
  8
0
  6
Continuous
 62
     7
370
    15
100
AcDbLine
 10
106.3295620438
 20
168.6260948905
 30
0.0
 11
102.8295620438
 21
168.6260948905
 31
0.0
  0
LINE
  5
121
330
1F
100
AcDbEntity
  8
0
  6
Continuous
 62
     7
370
    15
100
AcDbLine
 10
160.3295620438
 20
164.6260948905
 30
0.0
 11
160.4295620438
 21
164.6260948905
 31
0.0
  0
LINE
  5
122
330
1F
100
AcDbEntity
  8
0
  6
Continuous
 62
     7
370
    15
100
AcDbLine
 10
160.4295620438
 20
167.6260948905
 30
0.0
 11
160.3295620438
 21
167.6260948905
 31
0.0
  0
LINE
  5
123
330
1F
100
AcDbEntity
  8
0
  6
Continuous
 62
     7
370
    15
100
AcDbLine
 10
106.3295620438
 20
172.9260948905
 30
0.0
 11
106.3295620438
 21
172.1260948905
 31
0.0
  0
LINE
  5
124
330
1F
100
AcDbEntity
  8
0
  6
Continuous
 62
     7
370
    15
100
AcDbLine
 10
114.3295620438
 20
172.1260948905
 30
0.0
 11
114.3295620438
 21
172.9260948905
 31
0.0
  0
LINE
  5
125
330
1F
100
AcDbEntity
  8
0
  6
Continuous
 62
     7
370
    15
100
AcDbLine
 10
106.3295620438
 20
160.1260948905
 30
0.0
 11
106.3295620438
 21
159.3260948905
 31
0.0
  0
LINE
  5
126
330
1F
100
AcDbEntity
  8
0
  6
Continuous
 62
     7
370
    15
100
AcDbLine
 10
114.3295620438
 20
159.3260948905
 30
0.0
 11
114.3295620438
 21
160.1260948905
 31
0.0
  0
LINE
  5
127
330
1F
100
AcDbEntity
  8
0
  6
Continuous
 62
     7
370
    15
100
AcDbLine
 10
142.3295620438
 20
173.8260948905
 30
0.0
 11
142.3295620438
 21
158.4260948905
 31
0.0
  0
LINE
  5
128
330
1F
100
AcDbEntity
  8
0
  6
Continuous
 62
     7
370
    15
100
AcDbLine
 10
142.0295620438
 20
174.1260948905
 30
0.0
 11
142.0295620438
 21
158.1260948905
 31
0.0
  0
LINE
  5
129
330
1F
100
AcDbEntity
  8
0
  6
Continuous
 62
     7
370
    15
100
AcDbLine
 10
140.6295620438
 20
174.1260948905
 30
0.0
 11
140.6295620438
 21
158.1260948905
 31
0.0
  0
LINE
  5
12A
330
1F
100
AcDbEntity
  8
0
  6
Continuous
 62
     7
370
    15
100
AcDbLine
 10
140.3295620438
 20
173.8260948905
 30
0.0
 11
140.3295620438
 21
158.4260948905
 31
0.0
  0
LINE
  5
12B
330
1F
100
AcDbEntity
  8
0
  6
Continuous
 62
     7
370
    15
100
AcDbLine
 10
160.3295620438
 20
171.8260948905
 30
0.0
 11
160.3295620438
 21
160.4260948905
 31
0.0
  0
LINE
  5
12C
330
1F
100
AcDbEntity
  8
0
  6
Continuous
 62
     7
370
    15
100
AcDbLine
 10
160.0295620438
 20
172.1260948905
 30
0.0
 11
160.0295620438
 21
160.1260948905
 31
0.0
  0
LINE
  5
12D
330
1F
100
AcDbEntity
  8
0
  6
Continuous
 62
     7
370
    15
100
AcDbLine
 10
138.6295620438
 20
169.8760948905
 30
0.0
 11
138.6295620438
 21
162.3760948905
 31
0.0
  0
LINE
  5
12E
330
1F
100
AcDbEntity
  8
0
  6
Continuous
 62
     7
370
    15
100
AcDbLine
 10
138.3295620438
 20
169.5760948905
 30
0.0
 11
138.3295620438
 21
162.6760948905
 31
0.0
  0
LINE
  5
12F
330
1F
100
AcDbEntity
  8
0
  6
Continuous
 62
     7
370
    15
100
AcDbLine
 10
161.0295620438
 20
168.6534457897
 30
0.0
 11
160.4295620438
 21
168.6534457897
 31
0.0
  0
LINE
  5
130
330
1F
100
AcDbEntity
  8
0
  6
Continuous
 62
     7
370
    15
100
AcDbLine
 10
161.0295620438
 20
162.6260948905
 30
0.0
 11
161.0295620438
 21
168.6534457897
 31
0.0
  0
LINE
  5
131
330
1F
100
AcDbEntity
  8
0
  6
Continuous
 62
     7
370
    15
100
AcDbLine
 10
160.4295620438
 20
162.6260948905
 30
0.0
 11
160.4295620438
 21
168.6534457897
 31
0.0
  0
LINE
  5
132
330
1F
100
AcDbEntity
  8
0
  6
Continuous
 62
     7
370
    15
100
AcDbLine
 10
160.4295620438
 20
168.6534457897
 30
0.0
 11
160.4295620438
 21
168.7090257383
 31
0.0
  0
LINE
  5
133
330
1F
100
AcDbEntity
  8
0
  6
Continuous
 62
     7
370
    15
100
AcDbLine
 10
161.0295620438
 20
168.7090257383
 30
0.0
 11
161.0295620438
 21
168.6534457897
 31
0.0
  0
LINE
  5
134
330
1F
100
AcDbEntity
  8
0
  6
Continuous
 62
     7
370
    15
100
AcDbLine
 10
113.8369649291
 20
156.8260948905
 30
0.0
 11
113.8369649291
 21
159.3260948905
 31
0.0
  0
LINE
  5
135
330
1F
100
AcDbEntity
  8
0
  6
Continuous
 62
     7
370
    15
100
AcDbLine
 10
110.3295620438
 20
156.8260948905
 30
0.0
 11
110.3295620438
 21
159.3260948905
 31
0.0
  0
LINE
  5
136
330
1F
100
AcDbEntity
  8
0
  6
Continuous
 62
     7
370
    15
100
AcDbLine
 10
110.3295620438
 20
159.3260948905
 30
0.0
 11
110.4178525011
 21
159.3260948905
 31
0.0
  0
LINE
  5
137
330
1F
100
AcDbEntity
  8
0
  6
Continuous
 62
     7
370
    15
100
AcDbLine
 10
113.7486744718
 20
159.3260948905
 30
0.0
 11
113.8369649291
 21
159.3260948905
 31
0.0
  0
LINE
  5
138
330
1F
100
AcDbEntity
  8
0
  6
Continuous
 62
     7
370
    15
100
AcDbLine
 10
110.3295620438
 20
156.8260948905
 30
0.0
 11
113.8369649291
 21
156.8260948905
 31
0.0
  0
LINE
  5
139
330
1F
100
AcDbEntity
  8
0
  6
Continuous
 62
     7
370
    15
100
AcDbLine
 10
106.8221591585
 20
156.8260948905
 30
0.0
 11
106.8221591585
 21
159.3260948905
 31
0.0
  0
LINE
  5
13A
330
1F
100
AcDbEntity
  8
0
  6
Continuous
 62
     7
370
    15
100
AcDbLine
 10
106.8221591585
 20
159.3260948905
 30
0.0
 11
106.9104496158
 21
159.3260948905
 31
0.0
  0
LINE
  5
13B
330
1F
100
AcDbEntity
  8
0
  6
Continuous
 62
     7
370
    15
100
AcDbLine
 10
110.2412715864
 20
159.3260948905
 30
0.0
 11
110.3295620438
 21
159.3260948905
 31
0.0
  0
LINE
  5
13C
330
1F
100
AcDbEntity
  8
0
  6
Continuous
 62
     7
370
    15
100
AcDbLine
 10
106.8221591585
 20
156.8260948905
 30
0.0
 11
110.3295620438
 21
156.8260948905
 31
0.0
  0
LINE
  5
13D
330
1F
100
AcDbEntity
  8
0
  6
Continuous
 62
     7
370
    15
100
AcDbLine
 10
112.6795620438
 20
154.3260948905
 30
0.0
 11
107.9795620438
 21
154.3260948905
 31
0.0
  0
LINE
  5
13E
330
1F
100
AcDbEntity
  8
0
  6
Continuous
 62
     7
370
    15
100
AcDbLine
 10
112.0616128514
 20
149.3260948905
 30
0.0
 11
108.3295620438
 21
149.3260948905
 31
0.0
  0
LINE
  5
13F
330
1F
100
AcDbEntity
  8
0
  6
Continuous
 62
     7
370
    15
100
AcDbLine
 10
112.3295620438
 20
149.3260948905
 30
0.0
 11
112.0616128514
 21
149.3260948905
 31
0.0
  0
LINE
  5
140
330
1F
100
AcDbEntity
  8
0
  6
Continuous
 62
     7
370
    15
100
AcDbLine
 10
112.3647217427
 20
151.8260948905
 30
0.0
 11
107.9795620438
 21
151.8260948905
 31
0.0
  0
LINE
  5
141
330
1F
100
AcDbEntity
  8
0
  6
Continuous
 62
     7
370
    15
100
AcDbLine
 10
112.6795620438
 20
151.8260948905
 30
0.0
 11
112.3647217427
 21
151.8260948905
 31
0.0
  0
SPLINE
  5
142
330
1F
100
AcDbEntity
  8
0
  6
Continuous
 62
     7
370
    15
100
AcDbSpline
210
0.0
220
0.0
230
1.0
 70
     8
 71
     3
 72
    10
 73
     6
 74
     0
 42
0.00000001
 43
0.00000001
 12
1.0
 22
0.0
 32
0.0
 13
1.0
 23
0.0
 33
0.0
 40
0.5000240753719273
 40
0.5000240753719273
 40
0.5000240753719273
 40
0.5000240753719273
 40
0.6666666666666999
 40
0.8333333333333001
 40
0.9999756847801039
 40
0.9999756847801039
 40
0.9999756847801039
 40
0.9999756847801039
 10
131.5723980444953
 20
161.6273424623942
 30
0.0
 10
131.6589880740421
 20
161.6273569010054
 30
0.0
 10
131.8321681358423
 20
161.7273291767337
 30
0.0
 10
131.8321681358423
 20
162.0272169791779
 30
0.0
 10
131.6589883232816
 20
162.1271892548952
 30
0.0
 10
131.5723984183817
 20
162.1272038373233
 30
0.0
  0
SPLINE
  5
143
330
1F
100
AcDbEntity
  8
0
  6
Continuous
 62
     7
370
    15
100
AcDbSpline
210
0.0
220
0.0
230
1.0
 70
     8
 71
     3
 72
    12
 73
     8
 74
     0
 42
0.00000001
 43
0.00000001
 12
1.0
 22
0.0
 32
0.0
 13
1.0
 23
0.0
 33
0.0
 40
0.0
 40
0.0
 40
0.0
 40
0.0
 40
0.205578401031399
 40
0.4105313990189315
 40
0.629531519712948
 40
0.8338903850497953
 40
1.0
 40
1.0
 40
1.0
 40
1.0
 10
140.0390651054878
 20
164.1320491229181
 30
0.0
 10
140.0668661539092
 20
164.1333765723693
 30
0.0
 10
140.1223836754259
 20
164.1360274329537
 30
0.0
 10
140.1979600850003
 20
164.1552224898988
 30
0.0
 10
140.2560011531339
 20
164.1832888552901
 30
0.0
 10
140.2868486604343
 20
164.2169682812939
 30
0.0
 10
140.2862623143497
 20
164.2392403335021
 30
0.0
 10
140.2859994101419
 20
164.2492266136131
 30
0.0
  0
SPLINE
  5
144
330
1F
100
AcDbEntity
  8
0
  6
Continuous
 62
     7
370
    15
100
AcDbSpline
210
0.0
220
0.0
230
1.0
 70
     8
 71
     3
 72
    12
 73
     8
 74
     0
 42
0.00000001
 43
0.00000001
 12
1.0
 22
0.0
 32
0.0
 13
1.0
 23
0.0
 33
0.0
 40
0.0
 40
0.0
 40
0.0
 40
0.0
 40
0.2202820578324561
 40
0.4398946262121545
 40
0.6745367862647935
 40
0.8934544479401717
 40
1.0
 40
1.0
 40
1.0
 40
1.0
 10
140.0390651054878
 20
164.1320491229181
 30
0.0
 10
140.0112708992481
 20
164.1333812545812
 30
0.0
 10
139.9557669599579
 20
164.136041469243
 30
0.0
 10
139.8800641478902
 20
164.1552414608527
 30
0.0
 10
139.8225797268237
 20
164.18334713289
 30
0.0
 10
139.7936780738948
 20
164.213133542088
 30
0.0
 10
139.7935424135381
 20
164.2313610055897
 30
0.0
 10
139.7934980029657
 20
164.2373280552577
 30
0.0
  0
LINE
  5
145
330
1F
100
AcDbEntity
  8
0
  6
Continuous
 62
     7
370
    15
100
AcDbLine
 10
114.3295620438
 20
166.1260948905
 30
0.0
 11
106.3295620438
 21
166.1260948905
 31
0.0
  0
LINE
  5
146
330
1F
100
AcDbEntity
  8
0
  6
Continuous
 62
     7
370
    15
100
AcDbLine
 10
114.3295620438
 20
166.1260948905
 30
0.0
 11
114.3295620438
 21
160.1260948905
 31
0.0
  0
LINE
  5
147
330
1F
100
AcDbEntity
  8
0
  6
Continuous
 62
     7
370
    15
100
AcDbLine
 10
114.3295620438
 20
160.1260948905
 30
0.0
 11
112.3295620438
 21
160.1260948905
 31
0.0
  0
LINE
  5
148
330
1F
100
AcDbEntity
  8
0
  6
Continuous
 62
     7
370
    15
100
AcDbLine
 10
108.3295620438
 20
160.1260948905
 30
0.0
 11
106.3295620438
 21
160.1260948905
 31
0.0
  0
LINE
  5
149
330
1F
100
AcDbEntity
  8
0
  6
Continuous
 62
     7
370
    15
100
AcDbLine
 10
106.3295620438
 20
166.1260948905
 30
0.0
 11
106.3295620438
 21
160.1260948905
 31
0.0
  0
LINE
  5
14A
330
1F
100
AcDbEntity
  8
0
  6
Continuous
 62
     7
370
    15
100
AcDbLine
 10
114.3295620438
 20
172.1260948905
 30
0.0
 11
112.3295620438
 21
172.1260948905
 31
0.0
  0
LINE
  5
14B
330
1F
100
AcDbEntity
  8
0
  6
Continuous
 62
     7
370
    15
100
AcDbLine
 10
108.3295620438
 20
172.1260948905
 30
0.0
 11
106.3295620438
 21
172.1260948905
 31
0.0
  0
LINE
  5
14C
330
1F
100
AcDbEntity
  8
0
  6
Continuous
 62
     7
370
    15
100
AcDbLine
 10
114.3295620438
 20
172.1260948905
 30
0.0
 11
114.3295620438
 21
166.1260948905
 31
0.0
  0
LINE
  5
14D
330
1F
100
AcDbEntity
  8
0
  6
Continuous
 62
     7
370
    15
100
AcDbLine
 10
106.3295620438
 20
172.1260948905
 30
0.0
 11
106.3295620438
 21
166.1260948905
 31
0.0
  0
LINE
  5
14E
330
1F
100
AcDbEntity
  8
0
  6
Continuous
 62
     7
370
    15
100
AcDbLine
 10
118.3295620438
 20
168.1905752209
 30
0.0
 11
118.3295620438
 21
162.3760948905
 31
0.0
  0
LINE
  5
14F
330
1F
100
AcDbEntity
  8
0
  6
Continuous
 62
     7
370
    15
100
AcDbLine
 10
100.8295620438
 20
169.6260948905
 30
0.0
 11
100.8295620438
 21
162.6260948905
 31
0.0
  0
LINE
  5
150
330
1F
100
AcDbEntity
  8
0
  6
Continuous
 62
     7
370
    15
100
AcDbLine
 10
102.8295620438
 20
169.6260948905
 30
0.0
 11
102.8295620438
 21
162.6260948905
 31
0.0
  0
LINE
  5
151
330
1F
100
AcDbEntity
  8
0
  6
Continuous
 62
     7
370
    15
100
AcDbLine
 10
162.3295620438
 20
168.1260948905
 30
0.0
 11
162.3295620438
 21
164.1260948905
 31
0.0
  0
LINE
  5
152
330
1F
100
AcDbEntity
  8
0
  6
Continuous
 62
     7
370
    15
100
AcDbLine
 10
161.8295620438
 20
163.6260948905
 30
0.0
 11
161.8295620438
 21
168.6260948905
 31
0.0
  0
LINE
  5
153
330
1F
100
AcDbEntity
  8
0
  6
Continuous
 62
     7
370
    15
100
AcDbLine
 10
113.8369649291
 20
172.9260948905
 30
0.0
 11
113.8369649291
 21
175.4260948905
 31
0.0
  0
LINE
  5
154
330
1F
100
AcDbEntity
  8
0
  6
Continuous
 62
     7
370
    15
100
AcDbLine
 10
110.3295620438
 20
172.9260948905
 30
0.0
 11
110.4178525011
 21
172.9260948905
 31
0.0
  0
LINE
  5
155
330
1F
100
AcDbEntity
  8
0
  6
Continuous
 62
     7
370
    15
100
AcDbLine
 10
113.7486744718
 20
172.9260948905
 30
0.0
 11
113.8369649291
 21
172.9260948905
 31
0.0
  0
LINE
  5
156
330
1F
100
AcDbEntity
  8
0
  6
Continuous
 62
     7
370
    15
100
AcDbLine
 10
110.3295620438
 20
172.9260948905
 30
0.0
 11
110.3295620439
 21
175.4260948905
 31
0.0
  0
LINE
  5
157
330
1F
100
AcDbEntity
  8
0
  6
Continuous
 62
     7
370
    15
100
AcDbLine
 10
110.3295620439
 20
175.4260948905
 30
0.0
 11
113.8369649291
 21
175.4260948905
 31
0.0
  0
LINE
  5
158
330
1F
100
AcDbEntity
  8
0
  6
Continuous
 62
     7
370
    15
100
AcDbLine
 10
106.8221591585
 20
172.9260948905
 30
0.0
 11
106.8221591585
 21
175.4260948905
 31
0.0
  0
LINE
  5
159
330
1F
100
AcDbEntity
  8
0
  6
Continuous
 62
     7
370
    15
100
AcDbLine
 10
106.8221591585
 20
175.4260948905
 30
0.0
 11
110.3295620439
 21
175.4260948905
 31
0.0
  0
LINE
  5
15A
330
1F
100
AcDbEntity
  8
0
  6
Continuous
 62
     7
370
    15
100
AcDbLine
 10
106.8221591585
 20
172.9260948905
 30
0.0
 11
106.9104496158
 21
172.9260948905
 31
0.0
  0
LINE
  5
15B
330
1F
100
AcDbEntity
  8
0
  6
Continuous
 62
     7
370
    15
100
AcDbLine
 10
110.2412715864
 20
172.9260948905
 30
0.0
 11
110.3295620438
 21
172.9260948905
 31
0.0
  0
LINE
  5
15C
330
1F
100
AcDbEntity
  8
0
  6
Continuous
 62
     7
370
    15
100
AcDbLine
 10
114.3295620438
 20
172.9260948905
 30
0.0
 11
113.8369649291
 21
172.9260948905
 31
0.0
  0
LINE
  5
15D
330
1F
100
AcDbEntity
  8
0
  6
Continuous
 62
     7
370
    15
100
AcDbLine
 10
113.7486744718
 20
172.9260948905
 30
0.0
 11
110.4178525011
 21
172.9260948905
 31
0.0
  0
LINE
  5
15E
330
1F
100
AcDbEntity
  8
0
  6
Continuous
 62
     7
370
    15
100
AcDbLine
 10
110.2412715864
 20
172.9260948905
 30
0.0
 11
106.9104496158
 21
172.9260948905
 31
0.0
  0
LINE
  5
15F
330
1F
100
AcDbEntity
  8
0
  6
Continuous
 62
     7
370
    15
100
AcDbLine
 10
106.8221591585
 20
172.9260948905
 30
0.0
 11
106.3295620438
 21
172.9260948905
 31
0.0
  0
LINE
  5
160
330
1F
100
AcDbEntity
  8
0
  6
Continuous
 62
     7
370
    15
100
AcDbLine
 10
112.3295620438
 20
172.1260948905
 30
0.0
 11
108.3295620438
 21
172.1260948905
 31
0.0
  0
LINE
  5
161
330
1F
100
AcDbEntity
  8
0
  6
Continuous
 62
     7
370
    15
100
AcDbLine
 10
112.3295620438
 20
160.1260948905
 30
0.0
 11
108.3295620438
 21
160.1260948905
 31
0.0
  0
LINE
  5
162
330
1F
100
AcDbEntity
  8
0
  6
Continuous
 62
     7
370
    15
100
AcDbLine
 10
114.3295620438
 20
159.3260948905
 30
0.0
 11
113.8369649291
 21
159.3260948905
 31
0.0
  0
LINE
  5
163
330
1F
100
AcDbEntity
  8
0
  6
Continuous
 62
     7
370
    15
100
AcDbLine
 10
113.7486744718
 20
159.3260948905
 30
0.0
 11
110.4178525011
 21
159.3260948905
 31
0.0
  0
LINE
  5
164
330
1F
100
AcDbEntity
  8
0
  6
Continuous
 62
     7
370
    15
100
AcDbLine
 10
110.2412715864
 20
159.3260948905
 30
0.0
 11
106.9104496158
 21
159.3260948905
 31
0.0
  0
LINE
  5
165
330
1F
100
AcDbEntity
  8
0
  6
Continuous
 62
     7
370
    15
100
AcDbLine
 10
106.8221591585
 20
159.3260948905
 30
0.0
 11
106.3295620438
 21
159.3260948905
 31
0.0
  0
SPLINE
  5
166
330
1F
100
AcDbEntity
  8
0
  6
Continuous
 62
     8
370
    15
100
AcDbSpline
210
0.0
220
0.0
230
1.0
 70
     8
 71
     3
 72
    30
 73
    26
 74
     0
 42
0.00000001
 43
0.00000001
 12
1.0
 22
0.0
 32
0.0
 13
1.0
 23
0.0
 33
0.0
 40
0.0
 40
0.0
 40
0.0
 40
0.0
 40
0.0391380840301956
 40
0.0832011738581045
 40
0.1272678850584069
 40
0.1713592713991157
 40
0.2154505935135517
 40
0.2595171432969225
 40
0.3035800796257994
 40
0.3476684615097989
 40
0.3917621457185618
 40
0.4358330255546964
 40
0.4798933199557808
 40
0.5239781072324136
 40
0.5680731806880551
 40
0.6121484142845325
 40
0.6562071294474469
 40
0.7002878296888543
 40
0.744383469840227
 40
0.7884631217345827
 40
0.8325216753242911
 40
0.8765980145172165
 40
0.9206933154399781
 40
0.9647771312031341
 40
1.0
 40
1.0
 40
1.0
 40
1.0
 10
122.569138139648
 20
161.6316882206507
 30
0.0
 10
122.5495679418777
 20
161.6365681022607
 30
0.0
 10
122.5079648980017
 20
161.6469419334868
 30
0.0
 10
122.4442698064511
 20
161.7677022681833
 30
0.0
 10
122.3781064199543
 20
161.9709611550054
 30
0.0
 10
122.3119817641736
 20
162.2553811555358
 30
0.0
 10
122.2458572061651
 20
162.6122061903855
 30
0.0
 10
122.1796933805694
 20
163.0361410848906
 30
0.0
 10
122.113521963588
 20
163.520845171371
 30
0.0
 10
122.047394171048
 20
164.0552998302998
 30
0.0
 10
121.9812718071328
 20
164.6287815674084
 30
0.0
 10
121.9151164014097
 20
165.2307543745129
 30
0.0
 10
121.8489391166202
 20
165.8503472210232
 30
0.0
 10
121.782806788499
 20
166.4751216001
 30
0.0
 10
121.716685658066
 20
167.0932770790518
 30
0.0
 10
121.6505383964583
 20
167.6932276149833
 30
0.0
 10
121.584357761805
 20
168.2626488315356
 30
0.0
 10
121.5182195561574
 20
168.7905627823366
 30
0.0
 10
121.4520989036323
 20
169.2681280831062
 30
0.0
 10
121.3859590477954
 20
169.686471437935
 30
0.0
 10
121.3197780482548
 20
170.0355729586111
 30
0.0
 10
121.2536326686802
 20
170.3090904973731
 30
0.0
 10
121.187511858242
 20
170.5008684944909
 30
0.0
 10
121.1257971711362
 20
170.6120548633649
 30
0.0
 10
121.0861057876491
 20
170.6168687185478
 30
0.0
 10
121.0684774578218
 20
170.6190067197826
 30
0.0
  0
SPLINE
  5
167
330
1F
100
AcDbEntity
  8
0
  6
Continuous
 62
     8
370
    15
100
AcDbSpline
210
0.0
220
0.0
230
1.0
 70
     8
 71
     3
 72
    31
 73
    27
 74
     0
 42
0.00000001
 43
0.00000001
 12
1.0
 22
0.0
 32
0.0
 13
1.0
 23
0.0
 33
0.0
 40
0.0
 40
0.0
 40
0.0
 40
0.0
 40
0.0234393762296077
 40
0.0675320166394341
 40
0.1116011850360803
 40
0.1556840350659394
 40
0.1997883458852542
 40
0.2438848511304741
 40
0.28795619463544
 40
0.3320347177068215
 40
0.3761371757668715
 40
0.4202369981779657
 40
0.4643115788739656
 40
0.5083861595699648
 40
0.5524859819810558
 40
0.5965884400411006
 40
0.6406669631124745
 40
0.6847383066174318
 40
0.7288348118626423
 40
0.772939122681949
 40
0.8170219727117994
 40
0.8610911411084362
 40
0.9051837815182502
 40
0.9492890932833206
 40
0.9933763826235109
 40
1.0
 40
1.0
 40
1.0
 40
1.0
 10
119.5690092229129
 20
161.6380920454674
 30
0.0
 10
119.5572919774508
 20
161.6365196403497
 30
0.0
 10
119.523533006744
 20
161.6319893283001
 30
0.0
 10
119.4677319600058
 20
161.7174234356413
 30
0.0
 10
119.4015523934465
 20
161.8881340318843
 30
0.0
 10
119.3354011601271
 20
162.1460175886672
 30
0.0
 10
119.2692794882325
 20
162.4780776021055
 30
0.0
 10
119.2031496133112
 20
162.8792447995912
 30
0.0
 10
119.1369750058399
 20
163.3427338191208
 30
0.0
 10
119.0708153586028
 20
163.8609228120675
 30
0.0
 10
119.004692007072
 20
164.4220277961818
 30
0.0
 10
118.9385659757519
 20
165.0152703471318
 30
0.0
 10
118.8723982414825
 20
165.6298322871259
 30
0.0
 10
118.8062305072204
 20
166.2541620354602
 30
0.0
 10
118.7401044758811
 20
166.8759185598538
 30
0.0
 10
118.6739811244269
 20
167.4835296845408
 30
0.0
 10
118.6078214769114
 20
168.0654710838446
 30
0.0
 10
118.5416468704853
 20
168.6093236168239
 30
0.0
 10
118.4755169916657
 20
169.1054212521614
 30
0.0
 10
118.4093953343245
 20
169.545276568356
 30
0.0
 10
118.3432440467221
 20
169.9206225739281
 30
0.0
 10
118.2770646827044
 20
170.2211088231566
 30
0.0
 10
118.2109298277763
 20
170.4446682123648
 30
0.0
 10
118.1448081993783
 20
170.5784128506683
 30
0.0
 10
118.0973929981425
 20
170.6362776302637
 30
0.0
 10
118.0720203156073
 20
170.6221851869351
 30
0.0
 10
118.068706256526
 20
170.6203444990328
 30
0.0
  0
SPLINE
  5
168
330
1F
100
AcDbEntity
  8
0
  6
Continuous
 62
     8
370
    15
100
AcDbSpline
210
0.0
220
0.0
230
1.0
 70
     8
 71
     3
 72
    31
 73
    27
 74
     0
 42
0.00000001
 43
0.00000001
 12
1.0
 22
0.0
 32
0.0
 13
1.0
 23
0.0
 33
0.0
 40
0.0
 40
0.0
 40
0.0
 40
0.0
 40
0.0076208144407736
 40
0.0517338261400462
 40
0.0958278684935507
 40
0.1399041181002993
 40
0.1840014744857887
 40
0.2281148255499449
 40
0.2722132307035537
 40
0.3162896419484097
 40
0.360382578261414
 40
0.4044953624022117
 40
0.4485978562325767
 40
0.4926758473498817
 40
0.5367644281538493
 40
0.5808758224897657
 40
0.6249819123712494
 40
0.669062546477461
 40
0.7131467954895038
 40
0.7572558267823621
 40
0.8013649223272892
 40
0.8454493328210938
 40
0.8895301204879876
 40
0.9336362140300383
 40
0.9777475458173217
 40
1.0
 40
1.0
 40
1.0
 40
1.0
 10
116.5687240747826
 20
161.6334451137706
 30
0.0
 10
116.5649139312751
 20
161.6316279678501
 30
0.0
 10
116.5390488084172
 20
161.6192922901019
 30
0.0
 10
116.4911657470265
 20
161.6790621381258
 30
0.0
 10
116.4250179172003
 20
161.8164233644596
 30
0.0
 10
116.3588375739161
 20
162.0456920554824
 30
0.0
 10
116.2926975421633
 20
162.3520314426212
 30
0.0
 10
116.2265769367944
 20
162.7301486403612
 30
0.0
 10
116.1604387185143
 20
163.1722473269712
 30
0.0
 10
116.0942580872439
 20
163.6717241893324
 30
0.0
 10
116.0281108247306
 20
164.2190548681927
 30
0.0
 10
115.9619896945412
 20
164.8023723558124
 30
0.0
 10
115.8958573663598
 20
165.4106890968642
 30
0.0
 10
115.8296800815767
 20
166.0329069334965
 30
0.0
 10
115.7635246758956
 20
166.6569007492817
 30
0.0
 10
115.6974023118117
 20
167.2707235124659
 30
0.0
 10
115.6312745199093
 20
167.8629807091108
 30
0.0
 10
115.5651031005522
 20
168.4221252423939
 30
0.0
 10
115.4989392838298
 20
168.9360842846865
 30
0.0
 10
115.4328146926951
 20
169.3964408289892
 30
0.0
 10
115.3666901605444
 20
169.7952277685734
 30
0.0
 10
115.3005263129291
 20
170.123931367613
 30
0.0
 10
115.2343554130445
 20
170.3751999349277
 30
0.0
 10
115.168226081182
 20
170.5406127152304
 30
0.0
 10
115.1130211939248
 20
170.6232942767708
 30
0.0
 10
115.0798298868995
 20
170.6169271024659
 30
0.0
 10
115.0687005031844
 20
170.614792123992
 30
0.0
  0
SPLINE
  5
169
330
1F
100
AcDbEntity
  8
0
  6
Continuous
 62
     8
370
    15
100
AcDbSpline
210
0.0
220
0.0
230
1.0
 70
     8
 71
     3
 72
    10
 73
     6
 74
     0
 42
0.00000001
 43
0.00000001
 12
1.0
 22
0.0
 32
0.0
 13
1.0
 23
0.0
 33
0.0
 40
0.0
 40
0.0
 40
0.0
 40
0.0
 40
0.0287423338741237
 40
0.7467376150127575
 40
1.0
 40
1.0
 40
1.0
 40
1.0
 10
114.9010010638085
 20
169.8760948905109
 30
0.0
 10
114.9018835115502
 20
169.8791011231159
 30
0.0
 10
114.9248098655774
 20
169.957204278394
 30
0.0
 10
114.955512153302
 20
170.0251007775549
 30
0.0
 10
114.9853570945074
 20
170.0572508135936
 30
0.0
 10
114.9931393764426
 20
170.0656341654976
 30
0.0
  0
SPLINE
  5
16A
330
1F
100
AcDbEntity
  8
0
  6
Continuous
 62
     8
370
    15
100
AcDbSpline
210
0.0
220
0.0
230
1.0
 70
     8
 71
     3
 72
     9
 73
     5
 74
     0
 42
0.00000001
 43
0.00000001
 12
1.0
 22
0.0
 32
0.0
 13
1.0
 23
0.0
 33
0.0
 40
0.0
 40
0.0
 40
0.0
 40
0.0
 40
0.4745873085137747
 40
1.0
 40
1.0
 40
1.0
 40
1.0
 10
116.6469528495568
 20
162.1871113637008
 30
0.0
 10
116.6611647700179
 20
162.2046719316359
 30
0.0
 10
116.6911106202463
 20
162.2416736963692
 30
0.0
 10
116.7210441354802
 20
162.3297948945813
 30
0.0
 10
116.7367715842848
 20
162.3760948905109
 30
0.0
  0
SPLINE
  5
16B
330
1F
100
AcDbEntity
  8
0
  6
Continuous
 62
     8
370
    15
100
AcDbSpline
210
0.0
220
0.0
230
1.0
 70
     8
 71
     3
 72
     9
 73
     5
 74
     0
 42
0.00000001
 43
0.00000001
 12
1.0
 22
0.0
 32
0.0
 13
1.0
 23
0.0
 33
0.0
 40
0.0
 40
0.0
 40
0.0
 40
0.0
 40
0.48474825943439
 40
1.0
 40
1.0
 40
1.0
 40
1.0
 10
117.9033372526143
 20
169.8760948905109
 30
0.0
 10
117.9176757010176
 20
169.9186253382072
 30
0.0
 10
117.9472548653038
 20
170.0063625231658
 30
0.0
 10
117.9768511190079
 20
170.0448740980259
 30
0.0
 10
117.9921006402431
 20
170.0647172540044
 30
0.0
  0
SPLINE
  5
16C
330
1F
100
AcDbEntity
  8
0
  6
Continuous
 62
     8
370
    15
100
AcDbSpline
210
0.0
220
0.0
230
1.0
 70
     8
 71
     3
 72
    14
 73
    10
 74
     0
 42
0.00000001
 43
0.00000001
 12
1.0
 22
0.0
 32
0.0
 13
1.0
 23
0.0
 33
0.0
 40
0.0
 40
0.0
 40
0.0
 40
0.0
 40
0.0574991562666538
 40
0.245620557900848
 40
0.4338275011655495
 40
0.6221069289402772
 40
0.8103275224102273
 40
0.9984511541360309
 40
1.0
 40
1.0
 40
1.0
 40
1.0
 10
119.6459394720276
 20
162.1853844062465
 30
0.0
 10
119.6526752591516
 20
162.1919517321913
 30
0.0
 10
119.6814486864281
 20
162.2200055397113
 30
0.0
 10
119.7323140884563
 20
162.3468562143395
 30
0.0
 10
119.7984530548306
 20
162.5650461255537
 30
0.0
 10
119.864575464415
 20
162.8545268400647
 30
0.0
 10
119.9307081878921
 20
163.2098366415317
 30
0.0
 10
119.975017818325
 20
163.4718832123426
 30
0.0
 10
119.9972402952432
 20
163.6248458137051
 30
0.0
 10
119.9974217616947
 20
163.6260948905109
 30
0.0
  0
SPLINE
  5
16D
330
1F
100
AcDbEntity
  8
0
  6
Continuous
 62
     8
370
    15
100
AcDbSpline
210
0.0
220
0.0
230
1.0
 70
     8
 71
     3
 72
    14
 73
    10
 74
     0
 42
0.00000001
 43
0.00000001
 12
1.0
 22
0.0
 32
0.0
 13
1.0
 23
0.0
 33
0.0
 40
0.0
 40
0.0
 40
0.0
 40
0.0
 40
0.044160867423013
 40
0.2333934781560646
 40
0.422521781583831
 40
0.6116269233933542
 40
0.8008404153119255
 40
0.9900818277632034
 40
1.0
 40
1.0
 40
1.0
 40
1.0
 10
120.6428988778834
 20
168.6260948905109
 30
0.0
 10
120.6480445614374
 20
168.6609387414802
 30
0.0
 10
120.675239882821
 20
168.84509109275
 30
0.0
 10
120.7244594561439
 20
169.1315482151432
 30
0.0
 10
120.7906228944122
 20
169.4728573324766
 30
0.0
 10
120.8567945025301
 20
169.7468601318895
 30
0.0
 10
120.9229270095228
 20
169.9438651390811
 30
0.0
 10
120.9681609504478
 20
170.0511500381223
 30
0.0
 10
120.9913771049963
 20
170.0701906018865
 30
0.0
 10
120.9925332723977
 20
170.0711388243443
 30
0.0
  0
SPLINE
  5
16E
330
1F
100
AcDbEntity
  8
0
  6
Continuous
 62
     8
370
    15
100
AcDbSpline
210
0.0
220
0.0
230
1.0
 70
     8
 71
     3
 72
    13
 73
     9
 74
     0
 42
0.00000001
 43
0.00000001
 12
1.0
 22
0.0
 32
0.0
 13
1.0
 23
0.0
 33
0.0
 40
0.0
 40
0.0
 40
0.0
 40
0.0
 40
0.1747251204021942
 40
0.364384106969916
 40
0.5541500638796333
 40
0.7439564934136645
 40
0.9336663990494166
 40
1.0
 40
1.0
 40
1.0
 40
1.0
 10
122.6479324711528
 20
162.183107225724
 30
0.0
 10
122.6682386145866
 20
162.2155789819577
 30
0.0
 10
122.7105864803319
 20
162.2832978758964
 30
0.0
 10
122.775024964799
 20
162.479873803422
 30
0.0
 10
122.8411554261872
 20
162.7445372256356
 30
0.0
 10
122.9072759102445
 20
163.0779408249019
 30
0.0
 10
122.9590919524195
 20
163.3743832920197
 30
0.0
 10
122.9888656604678
 20
163.5743017068803
 30
0.0
 10
122.9965791826533
 20
163.6260948905109
 30
0.0
  0
SPLINE
  5
16F
330
1F
100
AcDbEntity
  8
0
  6
Continuous
 62
     8
370
    15
100
AcDbSpline
210
0.0
220
0.0
230
1.0
 70
     8
 71
     3
 72
    31
 73
    27
 74
     0
 42
0.00000001
 43
0.00000001
 12
1.0
 22
0.0
 32
0.0
 13
1.0
 23
0.0
 33
0.0
 40
0.0
 40
0.0
 40
0.0
 40
0.0
 40
0.0188886564999595
 40
0.0630281224181698
 40
0.1071728968048073
 40
0.1512948403960017
 40
0.1954061862870894
 40
0.2395420534329726
 40
0.2836882186761893
 40
0.3278145210723253
 40
0.3719242858954304
 40
0.416056061270554
 40
0.4602027938661202
 40
0.5043335196795039
 40
0.5484431227421989
 40
0.5925705320158191
 40
0.6367169249897278
 40
0.6808518194964831
 40
0.7249626360779385
 40
0.769085605827429
 40
0.8132307779539331
 40
0.8573694176516792
 40
0.9014827071854767
 40
0.9456014157400285
 40
0.9897445285762989
 40
0.9999999999999999
 40
0.9999999999999999
 40
0.9999999999999999
 40
0.9999999999999999
 10
124.0695967079051
 20
170.615155331357
 30
0.0
 10
124.0790382503503
 20
170.6176069793641
 30
0.0
 10
124.1105430158189
 20
170.625787697284
 30
0.0
 10
124.1640680061328
 20
170.5480739016587
 30
0.0
 10
124.2301916029833
 20
170.3880100075057
 30
0.0
 10
124.2963466785104
 20
170.1419306265765
 30
0.0
 10
124.3625240517487
 20
169.8184128565155
 30
0.0
 10
124.4286563561562
 20
169.4235052855134
 30
0.0
 10
124.4947774929478
 20
168.9665331007263
 30
0.0
 10
124.5609247528405
 20
168.4557548467047
 30
0.0
 10
124.6271053879966
 20
167.8994131673765
 30
0.0
 10
124.693243593346
 20
167.3088026644364
 30
0.0
 10
124.7593642465597
 20
166.6959262492405
 30
0.0
 10
124.8255040999402
 20
166.0722290515742
 30
0.0
 10
124.8916851086134
 20
165.4494693168712
 30
0.0
 10
124.9578304540978
 20
164.8399953978497
 30
0.0
 10
125.0239513918134
 20
164.2549062960244
 30
0.0
 10
125.0900850331948
 20
163.7050772929561
 30
0.0
 10
125.1562633994688
 20
163.2018234205854
 30
0.0
 10
125.2224167882866
 20
162.7559762857213
 30
0.0
 10
125.2885387558058
 20
162.3739104587726
 30
0.0
 10
125.3546676533361
 20
162.0630876718437
 30
0.0
 10
125.4208403015942
 20
161.8281741445846
 30
0.0
 10
125.4870035399683
 20
161.6848327803513
 30
0.0
 10
125.5362000701751
 20
161.621465344131
 30
0.0
 10
125.5633723538499
 20
161.6329130510678
 30
0.0
 10
125.5684949978035
 20
161.635071225457
 30
0.0
  0
SPLINE
  5
170
330
1F
100
AcDbEntity
  8
0
  6
Continuous
 62
     8
370
    15
100
AcDbSpline
210
0.0
220
0.0
230
1.0
 70
     8
 71
     3
 72
    31
 73
    27
 74
     0
 42
0.00000001
 43
0.00000001
 12
1.0
 22
0.0
 32
0.0
 13
1.0
 23
0.0
 33
0.0
 40
0.0
 40
0.0
 40
0.0
 40
0.0
 40
0.003591406555095
 40
0.0476840123758622
 40
0.0918005608323475
 40
0.1359144727978103
 40
0.1800031349836492
 40
0.2240917971694914
 40
0.2682057091349629
 40
0.3123222575914594
 40
0.3564148634122383
 40
0.4005002873727798
 40
0.4446108811125546
 40
0.4887292829202422
 40
0.5328262170819137
 40
0.576909465239191
 40
0.6210161929087706
 40
0.6651355959820087
 40
0.7092369708723456
 40
0.7533193466883881
 40
0.7974218268490764
 40
0.8415413425958522
 40
0.8856470308812954
 40
0.9297299308213
 40
0.9738279809937401
 40
1.0
 40
1.0
 40
1.0
 40
1.0
 10
127.0690930107247
 20
170.6227915007125
 30
0.0
 10
127.070889196473
 20
170.62389219586
 30
0.0
 10
127.0947376085461
 20
170.6385064034791
 30
0.0
 10
127.1406483724421
 20
170.584072976016
 30
0.0
 10
127.2067709867655
 20
170.4560511337025
 30
0.0
 10
127.2728972156185
 20
170.2369866945421
 30
0.0
 10
127.3390648969892
 20
169.9419542362102
 30
0.0
 10
127.4052326454232
 20
169.5711413115666
 30
0.0
 10
127.4713586729698
 20
169.1348634162023
 30
0.0
 10
127.5374820254216
 20
168.641815771756
 30
0.0
 10
127.6036416727483
 20
168.1009022822998
 30
0.0
 10
127.6698162789404
 20
167.5211388331892
 30
0.0
 10
127.7359461588911
 20
166.9147283511038
 30
0.0
 10
127.8020678119442
 20
166.2934723963746
 30
0.0
 10
127.8682191155587
 20
165.6689503630454
 30
0.0
 10
127.9343984198232
 20
165.0533113321439
 30
0.0
 10
128.0005334978708
 20
164.4585139617329
 30
0.0
 10
128.0666542933542
 20
163.8952209388832
 30
0.0
 10
128.1327977417992
 20
163.3740043217593
 30
0.0
 10
128.1989789432191
 20
162.9063257896231
 30
0.0
 10
128.2651205656809
 20
162.5012524918908
 30
0.0
 10
128.3312412432979
 20
162.1649479119153
 30
0.0
 10
128.3973779342254
 20
161.9023485917837
 30
0.0
 10
128.4635576609676
 20
161.7252180368384
 30
0.0
 10
128.5207347195379
 20
161.6343242680618
 30
0.0
 10
128.5558501446287
 20
161.63683371987
 30
0.0
 10
128.5689288505932
 20
161.6377683627583
 30
0.0
  0
LWPOLYLINE
  5
171
330
1F
100
AcDbEntity
  8
0
  6
Continuous
 62
     8
370
    15
100
AcDbPolyline
 90
       25
 70
   128
 43
0.0
 10
130.0683409804
 20
170.6174574906
 10
130.1171900374
 20
170.6037821687
 10
130.1833358739
 20
170.4983982778
 10
130.2494817103
 20
170.309853804
 10
130.3156275467
 20
170.0421019849
 10
130.3817733831
 20
169.6991090517
 10
130.4479192195
 20
169.286573983
 10
130.5140650559
 20
168.8136510167
 10
130.5802108923
 20
168.2899042342
 10
130.6463567287
 20
167.724897936
 10
130.7125025652
 20
167.1287253293
 10
130.7786484016
 20
166.5131441217
 10
130.844794238
 20
165.8902386254
 10
130.9109400744
 20
165.2720931528
 10
130.9770859108
 20
164.6706126889
 10
131.0432317472
 20
164.0967908662
 10
131.1093775836
 20
163.5613325183
 10
131.17552342
 20
163.0749423635
 10
131.2416692564
 20
162.6479693978
 10
131.3078150929
 20
162.2877728215
 10
131.3739609293
 20
162.000216335
 10
131.4401067657
 20
161.7911525317
 10
131.5062526021
 20
161.6661925426
 10
131.5723984385
 20
161.6273424502
 10
131.5723984385
 20
161.6273424502
  0
LINE
  5
172
330
1F
100
AcDbEntity
  8
0
  6
Continuous
 62
     8
370
    15
100
AcDbLine
 10
131.5723980646
 20
162.1272038267
 30
0.0
 11
131.5513965969
 21
162.1381682714
 31
0.0
  0
SPLINE
  5
173
330
1F
100
AcDbEntity
  8
0
  6
Continuous
 62
     8
370
    15
100
AcDbSpline
210
0.0
220
0.0
230
1.0
 70
     8
 71
     3
 72
    14
 73
    10
 74
     0
 42
0.00000001
 43
0.00000001
 12
1.0
 22
0.0
 32
0.0
 13
1.0
 23
0.0
 33
0.0
 40
0.0
 40
0.0
 40
0.0
 40
0.0
 40
0.0219562552222098
 40
0.2111046184348961
 40
0.4001846024386644
 40
0.5891743524833737
 40
0.7782401685842613
 40
0.9673870809485924
 40
1.0
 40
1.0
 40
1.0
 40
1.0
 10
129.9925789032313
 20
170.0690240255445
 30
0.0
 10
129.990018585956
 20
170.0668080679227
 30
0.0
 10
129.9654016922283
 20
170.045502117364
 30
0.0
 10
129.9187676595512
 20
169.9338672072227
 30
0.0
 10
129.8526246769173
 20
169.7318659662415
 30
0.0
 10
129.7864452296966
 20
169.4533266211574
 30
0.0
 10
129.7202971966425
 20
169.1077778587536
 30
0.0
 10
129.6724215178743
 20
168.8277374220982
 30
0.0
 10
129.6465638188434
 20
168.6519473119983
 30
0.0
 10
129.6427610785547
 20
168.6260948905109
 30
0.0
  0
SPLINE
  5
174
330
1F
100
AcDbEntity
  8
0
  6
Continuous
 62
     8
370
    15
100
AcDbSpline
210
0.0
220
0.0
230
1.0
 70
     8
 71
     3
 72
    14
 73
    10
 74
     0
 42
0.00000001
 43
0.00000001
 12
1.0
 22
0.0
 32
0.0
 13
1.0
 23
0.0
 33
0.0
 40
0.0
 40
0.0
 40
0.0
 40
0.0
 40
0.0128415565636037
 40
0.2011461728252917
 40
0.389558828830274
 40
0.5779883245524794
 40
0.7663180764574813
 40
0.9546099091993093
 40
1.0
 40
1.0
 40
1.0
 40
1.0
 10
128.9972213434549
 20
163.6260948905109
 30
0.0
 10
128.9957177963579
 20
163.6157849857619
 30
0.0
 10
128.9721666993613
 20
163.4542938244545
 30
0.0
 10
128.9265412609454
 20
163.1859881896519
 30
0.0
 10
128.8604164330725
 20
162.8345882219555
 30
0.0
 10
128.7942923111464
 20
162.5486793402052
 30
0.0
 10
128.7281375923826
 20
162.335404858945
 30
0.0
 10
128.6787035538634
 20
162.2148266803046
 30
0.0
 10
128.6513569832778
 20
162.1895306007731
 30
0.0
 10
128.6460452188796
 20
162.1846171212475
 30
0.0
  0
SPLINE
  5
175
330
1F
100
AcDbEntity
  8
0
  6
Continuous
 62
     8
370
    15
100
AcDbSpline
210
0.0
220
0.0
230
1.0
 70
     8
 71
     3
 72
    13
 73
     9
 74
     0
 42
0.00000001
 43
0.00000001
 12
1.0
 22
0.0
 32
0.0
 13
1.0
 23
0.0
 33
0.0
 40
0.0
 40
0.0
 40
0.0
 40
0.0
 40
0.1427281084188875
 40
0.332446195824425
 40
0.5220722405501096
 40
0.7116396065092975
 40
0.9013076409556637
 40
1.0
 40
1.0
 40
1.0
 40
1.0
 10
126.9919613282647
 20
170.0653701110702
 30
0.0
 10
126.9753697971961
 20
170.0412733031832
 30
0.0
 10
126.9367243513358
 20
169.9851463622302
 30
0.0
 10
126.8760628660042
 20
169.8102814092863
 30
0.0
 10
126.8099105259592
 20
169.5598338513812
 30
0.0
 10
126.7437313765
 20
169.2372312305427
 30
0.0
 10
126.6881782353774
 20
168.9239098428258
 30
0.0
 10
126.6546672280238
 20
168.7020330152501
 30
0.0
 10
126.6431979678745
 20
168.6260948905109
 30
0.0
  0
SPLINE
  5
176
330
1F
100
AcDbEntity
  8
0
  6
Continuous
 62
     8
370
    15
100
AcDbSpline
210
0.0
220
0.0
230
1.0
 70
     8
 71
     3
 72
    13
 73
     9
 74
     0
 42
0.00000001
 43
0.00000001
 12
1.0
 22
0.0
 32
0.0
 13
1.0
 23
0.0
 33
0.0
 40
0.0
 40
0.0
 40
0.0
 40
0.0
 40
0.1333235742331511
 40
0.322323884500089
 40
0.5114242937275434
 40
0.7005078032790367
 40
0.8894828884058139
 40
1.0
 40
1.0
 40
1.0
 40
1.0
 10
125.9966720960821
 20
163.6260948905109
 30
0.0
 10
125.9811153272903
 20
163.5247100434669
 30
0.0
 10
125.9435051883777
 20
163.2796014202048
 30
0.0
 10
125.88383627312
 20
162.9524527434686
 30
0.0
 10
125.8177138657448
 20
162.642425922114
 30
0.0
 10
125.7515878579778
 20
162.4033070350133
 30
0.0
 10
125.6945710928093
 20
162.2470253112896
 30
0.0
 10
125.6596306469574
 20
162.2035331768994
 30
0.0
 10
125.6467370984923
 20
162.1874839271277
 30
0.0
  0
SPLINE
  5
177
330
1F
100
AcDbEntity
  8
0
  6
Continuous
 62
     8
370
    15
100
AcDbSpline
210
0.0
220
0.0
230
1.0
 70
     8
 71
     3
 72
    13
 73
     9
 74
     0
 42
0.00000001
 43
0.00000001
 12
1.0
 22
0.0
 32
0.0
 13
1.0
 23
0.0
 33
0.0
 40
0.0
 40
0.0
 40
0.0
 40
0.0
 40
0.0781805743757841
 40
0.2670426173033639
 40
0.455904934526415
 40
0.6446618696589346
 40
0.8334033387402062
 40
1.0
 40
1.0
 40
1.0
 40
1.0
 10
123.9930243592614
 20
170.0648446552009
 30
0.0
 10
123.9838913150863
 20
170.054733041879
 30
0.0
 10
123.9526954324782
 20
170.0201946452479
 30
0.0
 10
123.8994829379869
 20
169.8818634234121
 30
0.0
 10
123.8333566403066
 20
169.6568257791302
 30
0.0
 10
123.7671937464317
 20
169.3586825215922
 30
0.0
 10
123.7036211006143
 20
169.0166853247125
 30
0.0
 10
123.6621404065731
 20
168.7507676720636
 30
0.0
 10
123.6426926058899
 20
168.6260948905109
 30
0.0
  0
SPLINE
  5
178
330
1F
100
AcDbEntity
  8
0
  6
Continuous
 62
     8
370
    15
100
AcDbSpline
210
0.0
220
0.0
230
1.0
 70
     8
 71
     3
 72
    14
 73
    10
 74
     0
 42
0.00000001
 43
0.00000001
 12
1.0
 22
0.0
 32
0.0
 13
1.0
 23
0.0
 33
0.0
 40
0.0
 40
0.0
 40
0.0
 40
0.0
 40
0.1559284523471439
 40
0.3117871511385398
 40
0.4677201244623013
 40
0.6237324360705034
 40
0.7797114810096551
 40
0.9356026011595064
 40
1.0
 40
1.0
 40
1.0
 40
1.0
 10
131.5723984183817
 20
162.1272038371444
 30
0.0
 10
131.5944438495565
 20
162.1353083052576
 30
0.0
 10
131.638524850029
 20
162.1515136160041
 30
0.0
 10
131.7047091223595
 20
162.2730382645732
 30
0.0
 10
131.7708540277937
 20
162.4645521678196
 30
0.0
 10
131.836974529639
 20
162.725928800364
 30
0.0
 10
131.9031041722566
 20
163.0539731348625
 30
0.0
 10
131.9563380525461
 20
163.3567897071289
 30
0.0
 10
131.9874860910253
 20
163.5651766918301
 30
0.0
 10
131.9965916616027
 20
163.6260948905109
 30
0.0
  0
SPLINE
  5
179
330
1F
100
AcDbEntity
  8
0
  6
Continuous
 62
     8
370
    15
100
AcDbSpline
210
0.0
220
0.0
230
1.0
 70
     8
 71
     3
 72
    13
 73
     9
 74
     0
 42
0.00000001
 43
0.00000001
 12
1.0
 22
0.0
 32
0.0
 13
1.0
 23
0.0
 33
0.0
 40
0.0
 40
0.0
 40
0.0
 40
0.0
 40
0.1543319631345361
 40
0.3432585255348982
 40
0.5321398435378683
 40
0.7211258492978991
 40
0.910155820428858
 40
1.0
 40
1.0
 40
1.0
 40
1.0
 10
132.6428716229839
 20
168.6260948905109
 30
0.0
 10
132.6608717622979
 20
168.7421623872397
 30
0.0
 10
132.7009068992511
 20
169.0003147296349
 30
0.0
 10
132.7630139140677
 20
169.3376994309946
 30
0.0
 10
132.8291905072756
 20
169.6404109328018
 30
0.0
 10
132.8953246236923
 20
169.8698556835085
 30
0.0
 10
132.9498829792167
 20
170.0140179100217
 30
0.0
 10
132.9824283921978
 20
170.0520470587138
 30
0.0
 10
132.992913465557
 20
170.0642988133329
 30
0.0
  0
SPLINE
  5
17A
330
1F
100
AcDbEntity
  8
0
  6
Continuous
 62
     8
370
    15
100
AcDbSpline
210
0.0
220
0.0
230
1.0
 70
     8
 71
     3
 72
    13
 73
     9
 74
     0
 42
0.00000001
 43
0.00000001
 12
1.0
 22
0.0
 32
0.0
 13
1.0
 23
0.0
 33
0.0
 40
0.0
 40
0.0
 40
0.0
 40
0.0
 40
0.0990772601529691
 40
0.2878696407577423
 40
0.4767593277898449
 40
0.6657080582730837
 40
0.8545840465756649
 40
1.0
 40
1.0
 40
1.0
 40
1.0
 10
134.6465513577199
 20
162.1876609519924
 30
0.0
 10
134.6581174009348
 20
162.2013504701491
 30
0.0
 10
134.6917226167039
 20
162.2411254565368
 30
0.0
 10
134.7474198578053
 20
162.3902582145297
 30
0.0
 10
134.8135550328923
 20
162.6250674010035
 30
0.0
 10
134.8796758091235
 20
162.9313127861898
 30
0.0
 10
134.9407556251889
 20
163.2634745108315
 30
0.0
 10
134.9798003785741
 20
163.5161721880181
 30
0.0
 10
134.996784724683
 20
163.6260948905109
 30
0.0
  0
SPLINE
  5
17B
330
1F
100
AcDbEntity
  8
0
  6
Continuous
 62
     8
370
    15
100
AcDbSpline
210
0.0
220
0.0
230
1.0
 70
     8
 71
     3
 72
    13
 73
     9
 74
     0
 42
0.00000001
 43
0.00000001
 12
1.0
 22
0.0
 32
0.0
 13
1.0
 23
0.0
 33
0.0
 40
0.0
 40
0.0
 40
0.0
 40
0.0
 40
0.086804878125373
 40
0.2765644533901377
 40
0.4662157354345318
 40
0.6558670174789377
 40
0.8456265927437376
 40
1.0
 40
1.0
 40
1.0
 40
1.0
 10
135.6431835293919
 20
168.6260948905109
 30
0.0
 10
135.6532691350972
 20
168.6931968630032
 30
0.0
 10
135.6854023525989
 20
168.9069869257795
 30
0.0
 10
135.7395631933877
 20
169.2145478673332
 30
0.0
 10
135.8057316062907
 20
169.5417414418663
 30
0.0
 10
135.8718998303956
 20
169.7968500489442
 30
0.0
 10
135.9339107196874
 20
169.978694863749
 30
0.0
 10
135.9738947560024
 20
170.0391766612235
 30
0.0
 10
135.991831054571
 20
170.0663079785554
 30
0.0
  0
SPLINE
  5
17C
330
1F
100
AcDbEntity
  8
0
  6
Continuous
 62
     8
370
    15
100
AcDbSpline
210
0.0
220
0.0
230
1.0
 70
     8
 71
     3
 72
    14
 73
    10
 74
     0
 42
0.00000001
 43
0.00000001
 12
1.0
 22
0.0
 32
0.0
 13
1.0
 23
0.0
 33
0.0
 40
0.0
 40
0.0
 40
0.0
 40
0.0
 40
0.0330633194400738
 40
0.2215768787254046
 40
0.4100673516772435
 40
0.5986658225561141
 40
0.7872921232145964
 40
0.9758238362461585
 40
1.0
 40
1.0
 40
1.0
 40
1.0
 10
137.6462199341995
 20
162.1836016256236
 30
0.0
 10
137.6500847427099
 20
162.1869990559871
 30
0.0
 10
137.6759851127002
 20
162.2097672483039
 30
0.0
 10
137.7239574977318
 20
162.3245648574478
 30
0.0
 10
137.7901281883325
 20
162.5324722494861
 30
0.0
 10
137.8562576602642
 20
162.8147932256989
 30
0.0
 10
137.9223794452942
 20
163.1623225511972
 30
0.0
 10
137.9693172229439
 20
163.4369139211517
 30
0.0
 10
137.9942002715939
 20
163.606787257612
 30
0.0
 10
137.9970284539252
 20
163.6260948905109
 30
0.0
  0
SPLINE
  5
17D
330
1F
100
AcDbEntity
  8
0
  6
Continuous
 62
     8
370
    15
100
AcDbSpline
210
0.0
220
0.0
230
1.0
 70
     8
 71
     3
 72
    10
 73
     6
 74
     0
 42
0.00000001
 43
0.00000001
 12
1.0
 22
0.0
 32
0.0
 13
1.0
 23
0.0
 33
0.0
 40
0.0
 40
0.0
 40
0.0
 40
0.0
 40
0.1364153781804845
 40
0.8656968945899223
 40
1.0
 40
1.0
 40
1.0
 40
1.0
 10
138.9022063539602
 20
169.8760948905109
 30
0.0
 10
138.9063329971023
 20
169.8895591633523
 30
0.0
 10
138.9325208228512
 20
169.9750039228965
 30
0.0
 10
138.962740143141
 20
170.0396373021579
 30
0.0
 10
138.9888531471928
 20
170.063811446702
 30
0.0
 10
138.9929141939589
 20
170.0675709655735
 30
0.0
  0
SPLINE
  5
17E
330
1F
100
AcDbEntity
  8
0
  6
Continuous
 62
     8
370
    15
100
AcDbSpline
210
0.0
220
0.0
230
1.0
 70
     8
 71
     3
 72
    22
 73
    18
 74
     0
 42
0.00000001
 43
0.00000001
 12
1.0
 22
0.0
 32
0.0
 13
1.0
 23
0.0
 33
0.0
 40
0.0
 40
0.0
 40
0.0
 40
0.0
 40
0.0682806323969787
 40
0.1365305686282675
 40
0.2048131258543075
 40
0.2731305279918461
 40
0.3414333196087664
 40
0.4096974951482704
 40
0.4779768684305276
 40
0.5462911438761948
 40
0.6145973069635806
 40
0.6828642793837186
 40
0.7511368623983554
 40
0.8194476746233421
 40
0.8877583873425248
 40
0.9560307202738119
 40
1.0
 40
1.0
 40
1.0
 40
1.0
 10
140.0390651641218
 20
164.1320496318525
 30
0.0
 10
140.0170197186628
 20
164.3218230467313
 30
0.0
 10
139.9729387384709
 20
164.7012845621622
 30
0.0
 10
139.9067543584265
 20
165.3084445724819
 30
0.0
 10
139.8406093293385
 20
165.9288085057458
 30
0.0
 10
139.7744893476794
 20
166.5535795082609
 30
0.0
 10
139.7083580642312
 20
167.170148690393
 30
0.0
 10
139.6421810283302
 20
167.7667967796814
 30
0.0
 10
139.5760251850507
 20
168.3311737779086
 30
0.0
 10
139.5099025731558
 20
168.853645919271
 30
0.0
 10
139.4437747180264
 20
169.3246784830741
 30
0.0
 10
139.3776034057024
 20
169.7346748714666
 30
0.0
 10
139.3114397319769
 20
170.0734110729474
 30
0.0
 10
139.2453149165436
 20
170.3379075545475
 30
0.0
 10
139.1791912844726
 20
170.5194597339983
 30
0.0
 10
139.1208721001277
 20
170.6174329789855
 30
0.0
 10
139.0846210506025
 20
170.6162439932571
 30
0.0
 10
139.0704201450809
 20
170.6157782226321
 30
0.0
  0
SPLINE
  5
17F
330
1F
100
AcDbEntity
  8
0
  6
Continuous
 62
     8
370
    15
100
AcDbSpline
210
0.0
220
0.0
230
1.0
 70
     8
 71
     3
 72
    31
 73
    27
 74
     0
 42
0.00000001
 43
0.00000001
 12
1.0
 22
0.0
 32
0.0
 13
1.0
 23
0.0
 33
0.0
 40
0.0
 40
0.0
 40
0.0
 40
0.0
 40
0.0300685153040729
 40
0.0741442939658144
 40
0.1182182384591793
 40
0.1623175453173777
 40
0.2064208053005736
 40
0.2505006503990304
 40
0.2945715939568073
 40
0.3386674320421855
 40
0.3827723358388821
 40
0.4268565605374677
 40
0.4709256397534601
 40
0.5150175001703581
 40
0.5591231837134482
 40
0.6032118370113942
 40
0.6472803922677501
 40
0.6913679406418828
 40
0.7354735115467829
 40
0.7795664110219754
 40
0.82363583834608
 40
0.8677189473837845
 40
0.911823517337038
 40
0.955920281670337
 40
0.9999918841155487
 40
1.0
 40
1.0
 40
1.0
 40
1.0
 10
137.5706224242655
 20
161.6366750465253
 30
0.0
 10
137.5555911107004
 20
161.636481242939
 30
0.0
 10
137.5185262233793
 20
161.6360033533617
 30
0.0
 10
137.4593786343942
 20
161.7334921880936
 30
0.0
 10
137.3932096941074
 20
161.916973013874
 30
0.0
 10
137.327082632347
 20
162.1840478576481
 30
0.0
 10
137.2609598426266
 20
162.5245768235382
 30
0.0
 10
137.1948022889114
 20
162.9337465249088
 30
0.0
 10
137.1286262692605
 20
163.4055831175411
 30
0.0
 10
137.0624952118074
 20
163.9296274552404
 30
0.0
 10
136.99637384954
 20
164.4950612380383
 30
0.0
 10
136.9302245914421
 20
165.0914417858036
 30
0.0
 10
136.8640445301774
 20
165.7081303162126
 30
0.0
 10
136.7979079289323
 20
166.3327893721062
 30
0.0
 10
136.7317872272585
 20
166.9534962440346
 30
0.0
 10
136.6656456113111
 20
167.5586450715462
 30
0.0
 10
136.5994644078868
 20
168.1360374782678
 30
0.0
 10
136.5333209609483
 20
168.674196976354
 30
0.0
 10
136.4672001614369
 20
169.1641697702015
 30
0.0
 10
136.4010650979804
 20
169.5968065754857
 30
0.0
 10
136.334885739395
 20
169.9626831222537
 30
0.0
 10
136.2687346385444
 20
170.2526224852813
 30
0.0
 10
136.2026122284065
 20
170.4673029894906
 30
0.0
 10
136.1364851731904
 20
170.5892889331147
 30
0.0
 10
136.0923558809739
 20
170.6404881339609
 30
0.0
 10
136.0703068011979
 20
170.6260569676076
 30
0.0
 10
136.070302741558
 20
170.6260543105652
 30
0.0
  0
SPLINE
  5
180
330
1F
100
AcDbEntity
  8
0
  6
Continuous
 62
     8
370
    15
100
AcDbSpline
210
0.0
220
0.0
230
1.0
 70
     8
 71
     3
 72
    31
 73
    27
 74
     0
 42
0.00000001
 43
0.00000001
 12
1.0
 22
0.0
 32
0.0
 13
1.0
 23
0.0
 33
0.0
 40
0.0
 40
0.0
 40
0.0
 40
0.0
 40
0.014402110386299
 40
0.0585529951297231
 40
0.1026789542686741
 40
0.1468138260604642
 40
0.1909721419667623
 40
0.2351264998132138
 40
0.279255463633944
 40
0.3233862639127201
 40
0.3675421297480826
 40
0.4116993089546179
 40
0.4558320761029196
 40
0.4999594225036766
 40
0.5441121271463072
 40
0.5882713662992786
 40
0.6324083960003648
 40
0.6765332686607617
 40
0.7206822269189818
 40
0.7648426873083874
 40
0.8089841579482793
 40
0.8531078167032344
 40
0.8972526049397251
 40
0.9414134050590212
 40
0.9855592431917007
 40
0.9999999999999999
 40
0.9999999999999999
 40
0.9999999999999999
 40
0.9999999999999999
 10
134.5705331572495
 20
161.6368561116885
 30
0.0
 10
134.563342381273
 20
161.6341543168588
 30
0.0
 10
134.5341076747309
 20
161.6231699419819
 30
0.0
 10
134.4828372418853
 20
161.6906594743354
 30
0.0
 10
134.4166607613436
 20
161.8406296606671
 30
0.0
 10
134.3505033432448
 20
162.0807411211906
 30
0.0
 10
134.2843804719609
 20
162.3959609059401
 30
0.0
 10
134.2182536007305
 20
162.7819470346346
 30
0.0
 10
134.1520839802632
 20
163.2317976781941
 30
0.0
 10
134.0859182067315
 20
163.7386339715358
 30
0.0
 10
134.0197929506512
 20
164.2908473379732
 30
0.0
 10
133.953669024273
 20
164.8776607246974
 30
0.0
 10
133.8875072849465
 20
165.4883255852996
 30
0.0
 10
133.8213342350924
 20
166.1115599828385
 30
0.0
 10
133.7552054452333
 20
166.7349407986005
 30
0.0
 10
133.6890834488391
 20
167.3468202628877
 30
0.0
 10
133.6229300678204
 20
167.9356719539257
 30
0.0
 10
133.5567516992108
 20
168.4891040545795
 30
0.0
 10
133.4906180593758
 20
168.9968663883149
 30
0.0
 10
133.4244971178101
 20
169.4504156623297
 30
0.0
 10
133.3583517861717
 20
169.8413058069721
 30
0.0
 10
133.2921707259785
 20
170.1593461757354
 30
0.0
 10
133.226031064932
 20
170.4006894456037
 30
0.0
 10
133.1599096936814
 20
170.5551517655214
 30
0.0
 10
133.1085978342083
 20
170.6279787875939
 30
0.0
 10
133.0793206179381
 20
170.6185862657945
 30
0.0
 10
133.0721042033196
 20
170.6162711436534
 30
0.0
  0
DIMENSION
  5
181
330
1F
100
AcDbEntity
  8
0
  6
Continuous
 62
     7
370
     0
100
AcDbDimension
  2
_D_3
 10
90.8295620438
 20
162.6260948905
 30
0.0
 11
90.8295620438
 21
166.1260948905
 31
0.0
 70
   160
  1
%%c<>
 71
     2
 42
-1.0
  3
SLDDIMSTYLE2
100
AcDbAlignedDimension
 13
100.8295620438
 23
169.6260948905
 33
0.0
 14
100.8295620438
 24
162.6260948905
 34
0.0
 50
90.0
100
AcDbRotatedDimension
  0
DIMENSION
  5
18F
330
1F
100
AcDbEntity
  8
0
  6
Continuous
 62
     7
370
     0
100
AcDbDimension
  2
_D_4
 10
100.8295620438
 20
185.4260948905
 30
0.0
 11
115.5568053074
 21
185.4260948905
 31
0.0
 70
   160
  1
<>
 71
     2
 42
-1.0
  3
SLDDIMSTYLE2
100
AcDbAlignedDimension
 13
106.3295620438
 23
172.1260948905
 33
0.0
 14
100.8295620438
 24
169.6260948905
 34
0.0
100
AcDbRotatedDimension
  0
DIMENSION
  5
19B
330
1F
100
AcDbEntity
  8
0
  6
Continuous
 62
     7
370
     0
100
AcDbDimension
  2
_D_5
 10
162.3295620438
 20
197.4260948905
 30
0.0
 11
131.5795620438
 21
197.4260948905
 31
0.0
 70
   160
  1
<>
 71
     2
 42
-1.0
  3
SLDDIMSTYLE0
100
AcDbAlignedDimension
 13
100.8295620438
 23
169.6260948905
 33
0.0
 14
162.3295620438
 24
168.1260948905
 34
0.0
100
AcDbRotatedDimension
  0
DIMENSION
  5
1A5
330
1F
100
AcDbEntity
  8
0
  6
Continuous
 62
     7
370
     0
100
AcDbDimension
  2
_D_6
 10
171.0892221133
 20
163.6260948905
 30
0.0
 11
171.0892221133
 21
177.2611994432
 31
0.0
 70
   160
  1
%%c<>
 71
     2
 42
-1.0
  3
SLDDIMSTYLE2
100
AcDbAlignedDimension
 13
161.8295620438
 23
168.6260948905
 33
0.0
 14
161.8295620438
 24
163.6260948905
 34
0.0
 50
90.0
100
AcDbRotatedDimension
  0
DIMENSION
  5
1B2
330
1F
100
AcDbEntity
  8
0
  6
Continuous
 62
     7
370
     0
100
AcDbDimension
  2
_D_7
 10
182.0111452246
 20
160.1260948905
 30
0.0
 11
182.0111452246
 21
166.1260948905
 31
0.0
 70
   160
  1
%%c<>
 71
     2
 42
-1.0
  3
SLDDIMSTYLE2
100
AcDbAlignedDimension
 13
160.0295620438
 23
172.1260948905
 33
0.0
 14
160.0295620438
 24
160.1260948905
 34
0.0
 50
90.0
100
AcDbRotatedDimension
  0
DIMENSION
  5
1BF
330
1F
100
AcDbEntity
  8
0
  6
Continuous
 62
     7
370
     0
100
AcDbDimension
  2
_D_8
 10
142.3295620438
 20
142.4943261655
 30
0.0
 11
151.3295620438
 21
142.4943261655
 31
0.0
 70
   160
  1
<>
 71
     2
 42
-1.0
  3
SLDDIMSTYLE0
100
AcDbAlignedDimension
 13
160.3295620438
 23
160.4260948905
 33
0.0
 14
142.3295620438
 24
158.4260948905
 34
0.0
100
AcDbRotatedDimension
  0
DIMENSION
  5
1C9
330
1F
100
AcDbEntity
  8
0
  6
Continuous
 62
     7
370
     0
100
AcDbDimension
  2
_D_9
 10
138.3295620438
 20
142.4943261655
 30
0.0
 11
128.3295620438
 21
142.4943261655
 31
0.0
 70
   160
  1
<>st
 71
     2
 42
-1.0
  3
SLDDIMSTYLE2
100
AcDbAlignedDimension
 13
118.3295620438
 23
162.3760948905
 33
0.0
 14
138.3295620438
 24
162.6760948905
 34
0.0
100
AcDbRotatedDimension
  0
MTEXT
  5
1D4
330
1F
100
AcDbEntity
  8
0
  6
Continuous
 62
     7
370
     0
100
AcDbMText
 10
85.7910180806
 20
145.9803688323
 30
0.0
 40
3.5
 41
0.0
 71
     1
 72
     1
  1
BF-6
  7
SLDTEXTSTYLE1
 73
     1
 44
1.0
  0
LEADER
  5
1D5
330
1F
100
AcDbEntity
  8
0
  6
Continuous
 62
     7
370
     0
100
AcDbLeader
  3
SLDDIMSTYLE1
 76
     3
 10
109.5382020497
 20
150.6672619861
 30
0.0
 10
95.2080291971
 20
141.3321167883
 30
0.0
 10
85.7664233577
 20
141.3321167883
 30
0.0
  0
LINE
  5
1D6
330
1F
100
AcDbEntity
  8
0
  6
CENTERX2
 62
     7
370
     0
100
AcDbLine
 10
94.8729314879
 20
166.1260948905
 30
0.0
 11
167.0927696013
 21
166.1260948905
 31
0.0
  0
ENDSEC
  0
SECTION
  2
OBJECTS
  0
DICTIONARY
  5
C
330
0
100
AcDbDictionary
281
     1
  3
ACAD_GROUP
350
D
  3
ACAD_LAYOUT
350
1A
  3
ACAD_MLINESTYLE
350
17
  3
ACAD_PLOTSETTINGS
350
19
  3
ACAD_PLOTSTYLENAME
350
E
  0
DICTIONARY
  5
D
102
{ACAD_REACTORS
330
C
102
}
330
C
100
AcDbDictionary
281
     1
  0
DICTIONARY
  5
1A
102
{ACAD_REACTORS
330
C
102
}
330
C
100
AcDbDictionary
281
     1
  3
Layout1
350
1E
  3
Layout2
350
26
  3
Model
350
22
  0
DICTIONARY
  5
17
102
{ACAD_REACTORS
330
C
102
}
330
C
100
AcDbDictionary
281
     1
  3
Standard
350
18
  0
DICTIONARY
  5
19
102
{ACAD_REACTORS
330
C
102
}
330
C
100
AcDbDictionary
281
     1
  0
ACDBDICTIONARYWDFLT
  5
E
102
{ACAD_REACTORS
330
C
102
}
330
C
100
AcDbDictionary
281
     1
  3
Normal
350
F
100
AcDbDictionaryWithDefault
340
F
  0
LAYOUT
  5
1E
102
{ACAD_REACTORS
330
1A
102
}
330
1A
100
AcDbPlotSettings
  1

  2
none_device
  4

  6

 40
0.0
 41
0.0
 42
0.0
 43
0.0
 44
0.0
 45
0.0
 46
0.0
 47
0.0
 48
0.0
 49
0.0
140
0.0
141
0.0
142
1.0
143
1.0
 70
   688
 72
     0
 73
     0
 74
     5
  7

 75
    16
147
1.0
148
0.0
149
0.0
100
AcDbLayout
  1
Layout1
 70
     1
 71
     1
 10
0.0
 20
0.0
 11
420.0
 21
297.0
 12
0.0
 22
0.0
 32
0.0
 14
1.0000000000E+20
 24
1.0000000000E+20
 34
1.0000000000E+20
 15
-1.0000000000E+20
 25
-1.0000000000E+20
 35
-1.0000000000E+20
146
0.0
 13
0.0
 23
0.0
 33
0.0
 16
1.0
 26
0.0
 36
0.0
 17
0.0
 27
1.0
 37
0.0
 76
     0
330
1B
  0
LAYOUT
  5
26
102
{ACAD_REACTORS
330
1A
102
}
330
1A
100
AcDbPlotSettings
  1

  2
none_device
  4

  6

 40
0.0
 41
0.0
 42
0.0
 43
0.0
 44
0.0
 45
0.0
 46
0.0
 47
0.0
 48
0.0
 49
0.0
140
0.0
141
0.0
142
1.0
143
1.0
 70
   688
 72
     0
 73
     0
 74
     5
  7

 75
    16
147
1.0
148
0.0
149
0.0
100
AcDbLayout
  1
Layout2
 70
     1
 71
     2
 10
0.0
 20
0.0
 11
0.0
 21
0.0
 12
0.0
 22
0.0
 32
0.0
 14
0.0
 24
0.0
 34
0.0
 15
0.0
 25
0.0
 35
0.0
146
0.0
 13
0.0
 23
0.0
 33
0.0
 16
1.0
 26
0.0
 36
0.0
 17
0.0
 27
1.0
 37
0.0
 76
     0
330
23
  0
LAYOUT
  5
22
102
{ACAD_REACTORS
330
1A
102
}
330
1A
100
AcDbPlotSettings
  1

  2
none_device
  4

  6

 40
0.0
 41
0.0
 42
0.0
 43
0.0
 44
0.0
 45
0.0
 46
0.0
 47
0.0
 48
0.0
 49
0.0
140
0.0
141
0.0
142
1.0
143
1.0
 70
  1712
 72
     0
 73
     0
 74
     0
  7

 75
     0
147
1.0
148
0.0
149
0.0
100
AcDbLayout
  1
Model
 70
     1
 71
     0
 10
0.0
 20
0.0
 11
210.0
 21
297.0
 12
0.0
 22
0.0
 32
0.0
 14
0.0
 24
0.0
 34
0.0
 15
210.0
 25
297.0
 35
0.0
146
0.0
 13
0.0
 23
0.0
 33
0.0
 16
1.0
 26
0.0
 36
0.0
 17
0.0
 27
1.0
 37
0.0
 76
     0
330
1F
331
29
  0
MLINESTYLE
  5
18
102
{ACAD_REACTORS
330
17
102
}
330
17
100
AcDbMlineStyle
  2
Standard
 70
     0
  3

 62
   256
 51
90.0
 52
90.0
 71
     2
 49
0.5
 62
   256
  6
BYLAYER
 49
-0.5
 62
   256
  6
BYLAYER
  0
ACDBPLACEHOLDER
  5
F
102
{ACAD_REACTORS
330
E
102
}
330
E
  0
ENDSEC
  0
EOF
