  0
SECTION
  2
HEADER
  9
$ACADVER
  1
AC1015
  9
$ACADMAINTVER
 70
     6
  9
$DWGCODEPAGE
  3
DOS932
  9
$INSBASE
 10
0.0
 20
0.0
 30
0.0
  9
$EXTMIN
 10
0.0
 20
0.0
 30
0.0
  9
$EXTMAX
 10
210.0
 20
297.0
 30
0.0
  9
$LIMMIN
 10
0.0
 20
0.0
  9
$LIMMAX
 10
210.0
 20
297.0
  9
$ORTHOMODE
 70
     0
  9
$REGENMODE
 70
     1
  9
$FILLMODE
 70
     1
  9
$QTEXTMODE
 70
     0
  9
$MIRRTEXT
 70
     1
  9
$LTSCALE
 40
1.0
  9
$ATTMODE
 70
     1
  9
$TEXTSIZE
 40
3.5
  9
$TRACEWID
 40
1.0
  9
$TEXTSTYLE
  7
Standard
  9
$CLAYER
  8
0
  9
$CELTYPE
  6
ByLayer
  9
$CECOLOR
 62
   256
  9
$CELTSCALE
 40
1.0
  9
$DISPSILH
 70
     0
  9
$DIMSCALE
 40
1.0
  9
$DIMASZ
 40
2.0
  9
$DIMEXO
 40
1.0
  9
$DIMDLI
 40
3.75
  9
$DIMRND
 40
0.0
  9
$DIMDLE
 40
0.0
  9
$DIMEXE
 40
1.0
  9
$DIMTP
 40
0.0
  9
$DIMTM
 40
0.0
  9
$DIMTXT
 40
3.5
  9
$DIMCEN
 40
2.5
  9
$DIMTSZ
 40
0.0
  9
$DIMTOL
 70
     0
  9
$DIMLIM
 70
     0
  9
$DIMTIH
 70
     1
  9
$DIMTOH
 70
     1
  9
$DIMSE1
 70
     0
  9
$DIMSE2
 70
     0
  9
$DIMTAD
 70
     1
  9
$DIMZIN
 70
     0
  9
$DIMBLK
  1

  9
$DIMASO
 70
     1
  9
$DIMSHO
 70
     1
  9
$DIMPOST
  1

  9
$DIMAPOST
  1

  9
$DIMALT
 70
     0
  9
$DIMALTD
 70
     3
  9
$DIMALTF
 40
0.0393700787
  9
$DIMLFAC
 40
1.0
  9
$DIMTOFL
 70
     1
  9
$DIMTVP
 40
0.0
  9
$DIMTIX
 70
     0
  9
$DIMSOXD
 70
     0
  9
$DIMSAH
 70
     0
  9
$DIMBLK1
  1

  9
$DIMBLK2
  1

  9
$DIMSTYLE
  2
ISO-25
  9
$DIMCLRD
 70
     0
  9
$DIMCLRE
 70
     0
  9
$DIMCLRT
 70
     0
  9
$DIMTFAC
 40
1.0
  9
$DIMGAP
 40
1.524
  9
$DIMJUST
 70
     0
  9
$DIMSD1
 70
     0
  9
$DIMSD2
 70
     0
  9
$DIMTOLJ
 70
     0
  9
$DIMTZIN
 70
     0
  9
$DIMALTZ
 70
     0
  9
$DIMALTTZ
 70
     0
  9
$DIMUPT
 70
     0
  9
$DIMDEC
 70
     2
  9
$DIMTDEC
 70
     2
  9
$DIMALTU
 70
     2
  9
$DIMALTTD
 70
     3
  9
$DIMTXSTY
  7
Standard
  9
$DIMAUNIT
 70
     0
  9
$DIMADEC
 70
     2
  9
$DIMALTRND
 40
0.0
  9
$DIMAZIN
 70
     0
  9
$DIMDSEP
 70
    44
  9
$DIMATFIT
 70
     3
  9
$DIMFRAC
 70
     0
  9
$DIMLDRBLK
  1

  9
$DIMLUNIT
 70
     2
  9
$DIMLWD
 70
    -2
  9
$DIMLWE
 70
    -2
  9
$DIMTMOVE
 70
     0
  9
$LUNITS
 70
     2
  9
$LUPREC
 70
     2
  9
$SKETCHINC
 40
1.0
  9
$FILLETRAD
 40
10.0
  9
$AUNITS
 70
     0
  9
$AUPREC
 70
     2
  9
$MENU
  1
.
  9
$ELEVATION
 40
0.0
  9
$PELEVATION
 40
0.0
  9
$THICKNESS
 40
0.0
  9
$LIMCHECK
 70
     0
  9
$CHAMFERA
 40
10.0
  9
$CHAMFERB
 40
10.0
  9
$CHAMFERC
 40
20.0
  9
$CHAMFERD
 40
0.0
  9
$SKPOLY
 70
     0
  9
$TDCREATE
 40
2456916.742743357
  9
$TDUCREATE
 40
2456916.367743357
  9
$TDUPDATE
 40
2456916.742746609
  9
$TDUUPDATE
 40
2456916.367746609
  9
$TDINDWG
 40
0.0000000116
  9
$TDUSRTIMER
 40
0.0000000116
  9
$USRTIMER
 70
     1
  9
$ANGBASE
 50
0.0
  9
$ANGDIR
 70
     0
  9
$PDMODE
 70
     0
  9
$PDSIZE
 40
-1.0
  9
$PLINEWID
 40
0.0
  9
$SPLFRAME
 70
     0
  9
$SPLINETYPE
 70
     6
  9
$SPLINESEGS
 70
     8
  9
$HANDSEED
  5
266
  9
$SURFTAB1
 70
     6
  9
$SURFTAB2
 70
     6
  9
$SURFTYPE
 70
     6
  9
$SURFU
 70
     6
  9
$SURFV
 70
     6
  9
$UCSBASE
  2

  9
$UCSNAME
  2

  9
$UCSORG
 10
0.0
 20
0.0
 30
0.0
  9
$UCSXDIR
 10
1.0
 20
0.0
 30
0.0
  9
$UCSYDIR
 10
0.0
 20
1.0
 30
0.0
  9
$UCSORTHOREF
  2

  9
$UCSORTHOVIEW
 70
     0
  9
$UCSORGTOP
 10
0.0
 20
0.0
 30
0.0
  9
$UCSORGBOTTOM
 10
0.0
 20
0.0
 30
0.0
  9
$UCSORGLEFT
 10
0.0
 20
0.0
 30
0.0
  9
$UCSORGRIGHT
 10
0.0
 20
0.0
 30
0.0
  9
$UCSORGFRONT
 10
0.0
 20
0.0
 30
0.0
  9
$UCSORGBACK
 10
0.0
 20
0.0
 30
0.0
  9
$PUCSBASE
  2

  9
$PUCSNAME
  2

  9
$PUCSORG
 10
0.0
 20
0.0
 30
0.0
  9
$PUCSXDIR
 10
1.0
 20
0.0
 30
0.0
  9
$PUCSYDIR
 10
0.0
 20
1.0
 30
0.0
  9
$PUCSORTHOREF
  2

  9
$PUCSORTHOVIEW
 70
     0
  9
$PUCSORGTOP
 10
0.0
 20
0.0
 30
0.0
  9
$PUCSORGBOTTOM
 10
0.0
 20
0.0
 30
0.0
  9
$PUCSORGLEFT
 10
0.0
 20
0.0
 30
0.0
  9
$PUCSORGRIGHT
 10
0.0
 20
0.0
 30
0.0
  9
$PUCSORGFRONT
 10
0.0
 20
0.0
 30
0.0
  9
$PUCSORGBACK
 10
0.0
 20
0.0
 30
0.0
  9
$USERI1
 70
     0
  9
$USERI2
 70
     0
  9
$USERI3
 70
     0
  9
$USERI4
 70
     0
  9
$USERI5
 70
     0
  9
$USERR1
 40
0.0
  9
$USERR2
 40
0.0
  9
$USERR3
 40
0.0
  9
$USERR4
 40
0.0
  9
$USERR5
 40
0.0
  9
$WORLDVIEW
 70
     1
  9
$SHADEDGE
 70
     3
  9
$SHADEDIF
 70
    70
  9
$TILEMODE
 70
     1
  9
$MAXACTVP
 70
    64
  9
$PINSBASE
 10
0.0
 20
0.0
 30
0.0
  9
$PLIMCHECK
 70
     0
  9
$PEXTMIN
 10
1.0000000000E+20
 20
1.0000000000E+20
 30
1.0000000000E+20
  9
$PEXTMAX
 10
-1.0000000000E+20
 20
-1.0000000000E+20
 30
-1.0000000000E+20
  9
$PLIMMIN
 10
0.0
 20
0.0
  9
$PLIMMAX
 10
420.0
 20
297.0
  9
$UNITMODE
 70
     0
  9
$VISRETAIN
 70
     1
  9
$PLINEGEN
 70
     0
  9
$PSLTSCALE
 70
     1
  9
$TREEDEPTH
 70
  3020
  9
$CMLSTYLE
  2
Standard
  9
$CMLJUST
 70
     0
  9
$CMLSCALE
 40
20.0
  9
$PROXYGRAPHICS
 70
     1
  9
$MEASUREMENT
 70
     1
  9
$CELWEIGHT
370
    -1
  9
$ENDCAPS
280
     0
  9
$JOINSTYLE
280
     0
  9
$LWDISPLAY
290
     1
  9
$INSUNITS
 70
     4
  9
$HYPERLINKBASE
  1

  9
$STYLESHEET
  1

  9
$XEDIT
290
     1
  9
$CEPSNTYPE
380
     0
  9
$PSTYLEMODE
290
     1
  9
$FINGERPRINTGUID
  2
{7B2FA687-4AC3-47C4-B3AA-2284163B6E05}
  9
$VERSIONGUID
  2
{FAEB1C32-E019-11D5-929B-00C0DF256EC4}
  9
$EXTNAMES
290
     1
  9
$PSVPSCALE
 40
0.0
  9
$OLESTARTUP
290
     0
  0
ENDSEC
  0
SECTION
  2
CLASSES
  0
CLASS
  1
ACDBDICTIONARYWDFLT
  2
AcDbDictionaryWithDefault
  3
ObjectDBX Classes
 90
        0
280
     0
281
     0
  0
CLASS
  1
VISUALSTYLE
  2
AcDbVisualStyle
  3
ObjectDBX Classes
 90
     4095
280
     0
281
     0
  0
CLASS
  1
MATERIAL
  2
AcDbMaterial
  3
ObjectDBX Classes
 90
     1153
280
     0
281
     0
  0
CLASS
  1
ACDBPLACEHOLDER
  2
AcDbPlaceHolder
  3
ObjectDBX Classes
 90
        0
280
     0
281
     0
  0
CLASS
  1
LAYOUT
  2
AcDbLayout
  3
ObjectDBX Classes
 90
        0
280
     0
281
     0
  0
ENDSEC
  0
SECTION
  2
TABLES
  0
TABLE
  2
VPORT
  5
8
330
0
100
AcDbSymbolTable
 70
     1
  0
VPORT
  5
29
330
8
100
AcDbSymbolTableRecord
100
AcDbViewportTableRecord
  2
*Active
 70
     0
 10
0.0
 20
0.0
 11
1.0
 21
1.0
 12
105.0
 22
148.5
 13
0.0
 23
0.0
 14
10.0
 24
10.0
 15
10.0
 25
10.0
 16
0.0
 26
0.0
 36
1.0
 17
0.0
 27
0.0
 37
0.0
 40
297.0
 41
0.7070707071
 42
50.0
 43
0.0
 44
0.0
 50
0.0
 51
0.0
 71
     0
 72
  2000
 73
     1
 74
     3
 75
     0
 76
     0
 77
     0
 78
     0
281
     0
 65
     1
110
0.0
120
0.0
130
0.0
111
1.0
121
0.0
131
0.0
112
0.0
122
1.0
132
0.0
 79
     0
146
0.0
  0
ENDTAB
  0
TABLE
  2
LTYPE
  5
5
330
0
100
AcDbSymbolTable
 70
     6
  0
LTYPE
  5
14
330
5
100
AcDbSymbolTableRecord
100
AcDbLinetypeTableRecord
  2
ByBlock
 70
     0
  3

 72
    65
 73
     0
 40
0.0
  0
LTYPE
  5
15
330
5
100
AcDbSymbolTableRecord
100
AcDbLinetypeTableRecord
  2
ByLayer
 70
     0
  3

 72
    65
 73
     0
 40
0.0
  0
LTYPE
  5
16
330
5
100
AcDbSymbolTableRecord
100
AcDbLinetypeTableRecord
  2
Continuous
 70
     0
  3
Solid line
 72
    65
 73
     0
 40
0.0
  0
LTYPE
  5
3F
330
5
100
AcDbSymbolTableRecord
100
AcDbLinetypeTableRecord
  2
HIDDEN
 70
     0
  3
Hidden __ __ __ __ __ __ __ __ __ __ __ __ __ __
 72
    65
 73
     2
 40
1.905
 49
1.27
 74
     0
 49
-0.635
 74
     0
  0
LTYPE
  5
40
330
5
100
AcDbSymbolTableRecord
100
AcDbLinetypeTableRecord
  2
PHANTOM
 70
     0
  3
Phantom ______  __  __  ______  __  __  ______
 72
    65
 73
     6
 40
12.7
 49
6.35
 74
     0
 49
-1.27
 74
     0
 49
1.27
 74
     0
 49
-1.27
 74
     0
 49
1.27
 74
     0
 49
-1.27
 74
     0
  0
LTYPE
  5
41
330
5
100
AcDbSymbolTableRecord
100
AcDbLinetypeTableRecord
  2
CENTER
 70
     0
  3
Center ____ _ ____ _ ____ _ ____ _ ____ _ ____
 72
    65
 73
     4
 40
10.16
 49
6.35
 74
     0
 49
-1.27
 74
     0
 49
1.27
 74
     0
 49
-1.27
 74
     0
  0
LTYPE
  5
42
330
5
100
AcDbSymbolTableRecord
100
AcDbLinetypeTableRecord
  2
CENTERX2
 70
     0
  3
Center (2x) ________  __  ________  __  _____
 72
    65
 73
     4
 40
20.32
 49
12.7
 74
     0
 49
-2.54
 74
     0
 49
2.54
 74
     0
 49
-2.54
 74
     0
  0
LTYPE
  5
43
330
5
100
AcDbSymbolTableRecord
100
AcDbLinetypeTableRecord
  2
DOT2
 70
     0
  3
Dot (.5x) ........................................
 72
    65
 73
     2
 40
0.635
 49
0.0
 74
     0
 49
-0.635
 74
     0
  0
ENDTAB
  0
TABLE
  2
LAYER
  5
2
330
0
100
AcDbSymbolTable
 70
     1
  0
LAYER
  5
10
330
2
100
AcDbSymbolTableRecord
100
AcDbLayerTableRecord
  2
0
 70
     0
 62
     7
  6
Continuous
370
    -3
390
F
  0
ENDTAB
  0
TABLE
  2
STYLE
  5
3
330
0
100
AcDbSymbolTable
 70
     3
  0
STYLE
  5
11
330
3
100
AcDbSymbolTableRecord
100
AcDbTextStyleTableRecord
  2
Standard
 70
     0
 40
0.0
 41
1.0
 50
0.0
 71
     0
 42
3.5
  3
txt
  4
bigfont
  0
STYLE
  5
4C
330
3
100
AcDbSymbolTableRecord
100
AcDbTextStyleTableRecord
  2
SLDTEXTSTYLE0
 70
     0
 40
0.0
 41
0.7
 50
0.0
 71
     0
 42
0.2
  3
TXT
  4
bigfont
  0
STYLE
  5
A9
330
3
100
AcDbSymbolTableRecord
100
AcDbTextStyleTableRecord
  2
SLDTEXTSTYLE1
 70
     0
 40
0.0
 41
0.75
 50
0.0
 71
     0
 42
0.2
  3
TXT
  4
bigfont
  0
ENDTAB
  0
TABLE
  2
VIEW
  5
6
330
0
100
AcDbSymbolTable
 70
     0
  0
ENDTAB
  0
TABLE
  2
UCS
  5
7
330
0
100
AcDbSymbolTable
 70
     0
  0
ENDTAB
  0
TABLE
  2
APPID
  5
9
330
0
100
AcDbSymbolTable
 70
     1
  0
APPID
  5
12
330
9
100
AcDbSymbolTableRecord
100
AcDbRegAppTableRecord
  2
ACAD
 70
     0
  0
ENDTAB
  0
TABLE
  2
DIMSTYLE
  5
A
330
0
100
AcDbSymbolTable
 70
     6
100
AcDbDimStyleTable
  0
DIMSTYLE
105
27
330
A
100
AcDbSymbolTableRecord
100
AcDbDimStyleTableRecord
  2
ISO-25
 70
     0
 41
2.5
 42
0.625
 43
3.75
 44
1.25
 73
     0
 74
     0
 77
     1
 78
     8
140
2.5
141
2.5
143
0.0393700787
147
0.625
171
     3
172
     1
178
     0
271
     2
272
     2
274
     3
278
    44
283
     0
284
     8
340
11
  0
DIMSTYLE
105
AA
102
{ACAD_REACTORS
330
A8
330
225
330
23D
102
}
330
A
100
AcDbSymbolTableRecord
100
AcDbDimStyleTableRecord
  2
SLDDIMSTYLE0
 70
     0
 41
2.0
 44
0.0
 45
0.000000001
 73
     0
 74
     0
 77
     3
 78
    12
 79
     3
140
3.5
147
0.875
173
     1
178
     0
271
     2
272
     2
276
     2
284
    12
340
A9
  0
DIMSTYLE
105
B5
102
{ACAD_REACTORS
330
B4
330
1ED
330
204
330
21B
102
}
330
A
100
AcDbSymbolTableRecord
100
AcDbDimStyleTableRecord
  2
SLDDIMSTYLE1
 70
     0
 41
2.0
 44
0.0
 45
0.000000001
 73
     0
 74
     0
 77
     3
 78
    12
 79
     3
140
3.5
147
0.875
173
     1
178
     0
271
     1
272
     1
276
     2
284
    12
340
A9
  0
DIMSTYLE
105
C0
330
A
100
AcDbSymbolTableRecord
100
AcDbDimStyleTableRecord
  2
SLDDIMSTYLE2
 70
     0
 41
2.0
 44
0.0
 45
0.000000001
140
0.0
146
2.0
147
0.0
173
     1
178
     0
271
     0
272
     0
276
     2
340
11
  0
DIMSTYLE
105
1F8
102
{ACAD_REACTORS
330
1F7
330
20E
330
247
102
}
330
A
100
AcDbSymbolTableRecord
100
AcDbDimStyleTableRecord
  2
SLDDIMSTYLE3
 70
     0
 41
2.0
 44
0.0
 45
0.000000001
 73
     0
 74
     0
 77
     3
 78
    12
 79
     3
140
3.5
147
0.875
172
     1
173
     1
178
     0
271
     1
272
     1
276
     2
284
    12
289
     0
340
A9
  0
DIMSTYLE
105
231
102
{ACAD_REACTORS
330
230
330
253
102
}
330
A
100
AcDbSymbolTableRecord
100
AcDbDimStyleTableRecord
  2
SLDDIMSTYLE4
 70
     0
 41
2.0
 44
0.0
 45
0.000000001
 73
     0
 74
     0
 77
     3
 78
    12
 79
     3
140
3.5
147
0.875
172
     1
173
     1
178
     0
271
     2
272
     2
276
     2
284
    12
289
     0
340
A9
  0
ENDTAB
  0
TABLE
  2
BLOCK_RECORD
  5
1
330
0
100
AcDbSymbolTable
 70
    14
  0
BLOCK_RECORD
  5
1F
330
1
100
AcDbSymbolTableRecord
100
AcDbBlockTableRecord
  2
*Model_Space
340
22
  0
BLOCK_RECORD
  5
1B
330
1
100
AcDbSymbolTableRecord
100
AcDbBlockTableRecord
  2
*Paper_Space
340
1E
  0
BLOCK_RECORD
  5
23
330
1
100
AcDbSymbolTableRecord
100
AcDbBlockTableRecord
  2
*Paper_Space0
340
26
  0
BLOCK_RECORD
  5
AB
330
1
100
AcDbSymbolTableRecord
100
AcDbBlockTableRecord
  2
_D
340
0
  0
BLOCK_RECORD
  5
B6
330
1
100
AcDbSymbolTableRecord
100
AcDbBlockTableRecord
  2
_D_1
340
0
  0
BLOCK_RECORD
  5
C2
330
1
100
AcDbSymbolTableRecord
100
AcDbBlockTableRecord
  2
SW_CENTERMARKSYMBOL_0
340
0
102
{BLKREFS
331
CD
102
}
  0
BLOCK_RECORD
  5
1EE
330
1
100
AcDbSymbolTableRecord
100
AcDbBlockTableRecord
  2
_D_2
340
0
  0
BLOCK_RECORD
  5
1F9
330
1
100
AcDbSymbolTableRecord
100
AcDbBlockTableRecord
  2
_D_3
340
0
  0
BLOCK_RECORD
  5
205
330
1
100
AcDbSymbolTableRecord
100
AcDbBlockTableRecord
  2
_D_4
340
0
  0
BLOCK_RECORD
  5
20F
330
1
100
AcDbSymbolTableRecord
100
AcDbBlockTableRecord
  2
_D_5
340
0
  0
BLOCK_RECORD
  5
21C
330
1
100
AcDbSymbolTableRecord
100
AcDbBlockTableRecord
  2
_D_6
340
0
  0
BLOCK_RECORD
  5
226
330
1
100
AcDbSymbolTableRecord
100
AcDbBlockTableRecord
  2
_D_7
340
0
  0
BLOCK_RECORD
  5
232
330
1
100
AcDbSymbolTableRecord
100
AcDbBlockTableRecord
  2
_D_8
340
0
  0
BLOCK_RECORD
  5
23E
330
1
100
AcDbSymbolTableRecord
100
AcDbBlockTableRecord
  2
_D_9
340
0
  0
BLOCK_RECORD
  5
248
330
1
100
AcDbSymbolTableRecord
100
AcDbBlockTableRecord
  2
_D_10
340
0
  0
BLOCK_RECORD
  5
254
330
1
100
AcDbSymbolTableRecord
100
AcDbBlockTableRecord
  2
_D_11
340
0
  0
ENDTAB
  0
ENDSEC
  0
SECTION
  2
BLOCKS
  0
BLOCK
  5
20
330
1F
100
AcDbEntity
  8
0
100
AcDbBlockBegin
  2
*Model_Space
 70
     0
 10
0.0
 20
0.0
 30
0.0
  3
*Model_Space
  1

  0
ENDBLK
  5
21
330
1F
100
AcDbEntity
  8
0
100
AcDbBlockEnd
  0
BLOCK
  5
1C
330
1B
100
AcDbEntity
 67
     1
  8
0
100
AcDbBlockBegin
  2
*Paper_Space
 70
     0
 10
0.0
 20
0.0
 30
0.0
  3
*Paper_Space
  1

  0
ENDBLK
  5
1D
330
1B
100
AcDbEntity
 67
     1
  8
0
100
AcDbBlockEnd
  0
BLOCK
  5
24
330
23
100
AcDbEntity
  8
0
100
AcDbBlockBegin
  2
*Paper_Space0
 70
     0
 10
0.0
 20
0.0
 30
0.0
  3
*Paper_Space0
  1

  0
ENDBLK
  5
25
330
23
100
AcDbEntity
  8
0
100
AcDbBlockEnd
  0
BLOCK
  5
AC
330
AB
100
AcDbEntity
  8
0
100
AcDbBlockBegin
  2
_D
 70
     0
 10
0.0
 20
0.0
 30
0.0
  3
_D
  1

  0
SOLID
  5
AE
330
AB
100
AcDbEntity
  8
0
  6
Continuous
 62
     7
370
     0
100
AcDbTrace
 10
42.9471050266
 20
168.9799212435
 30
0.0
 11
42.1971050266
 21
166.9799212435
 31
0.0
 12
43.6971050266
 22
166.9799212435
 32
0.0
 13
43.6971050266
 23
166.9799212435
 33
0.0
  0
SOLID
  5
AF
330
AB
100
AcDbEntity
  8
0
  6
Continuous
 62
     7
370
     0
100
AcDbTrace
 10
42.9471050266
 20
156.9799212435
 30
0.0
 11
43.6971050266
 21
158.9799212435
 31
0.0
 12
42.1971050266
 22
158.9799212435
 32
0.0
 13
42.1971050266
 23
158.9799212435
 33
0.0
  0
LINE
  5
B0
330
AB
100
AcDbEntity
  8
0
  6
Continuous
 62
     7
370
     0
100
AcDbLine
 10
51.3122487273
 20
168.9799212435
 30
0.0
 11
41.9471050266
 21
168.9799212435
 31
0.0
  0
LINE
  5
B1
330
AB
100
AcDbEntity
  8
0
  6
Continuous
 62
     7
370
     0
100
AcDbLine
 10
51.3122487273
 20
156.9799212435
 30
0.0
 11
41.9471050266
 21
156.9799212435
 31
0.0
  0
LINE
  5
B2
330
AB
100
AcDbEntity
  8
0
  6
Continuous
 62
     7
370
     0
100
AcDbLine
 10
42.9471050266
 20
168.9799212435
 30
0.0
 11
42.9471050266
 21
156.9799212435
 31
0.0
  0
MTEXT
  5
B3
330
AB
100
AcDbEntity
  8
0
  6
Continuous
 62
     7
370
     0
100
AcDbMText
 10
38.435368112
 20
160.2342321765
 30
33.85
 40
3.5
 41
0.0
 71
     1
 72
     1
  1
12
  7
SLDTEXTSTYLE1
 11
-7.044195017643634E-15
 21
1.0
 31
0.0
 73
     1
 44
1.0
  0
ENDBLK
  5
AD
330
AB
100
AcDbEntity
  8
0
100
AcDbBlockEnd
  0
BLOCK
  5
B7
330
B6
100
AcDbEntity
  8
0
100
AcDbBlockBegin
  2
_D_1
 70
     0
 10
0.0
 20
0.0
 30
0.0
  3
_D_1
  1

  0
SOLID
  5
B9
330
B6
100
AcDbEntity
  8
0
  6
Continuous
 62
     7
370
     0
100
AcDbTrace
 10
34.4453537128
 20
172.2799212435
 30
0.0
 11
33.6953537128
 21
170.2799212435
 31
0.0
 12
35.1953537128
 22
170.2799212435
 32
0.0
 13
35.1953537128
 23
170.2799212435
 33
0.0
  0
SOLID
  5
BA
330
B6
100
AcDbEntity
  8
0
  6
Continuous
 62
     7
370
     0
100
AcDbTrace
 10
34.4453537128
 20
153.6799212435
 30
0.0
 11
35.1953537128
 21
155.6799212435
 31
0.0
 12
33.6953537128
 22
155.6799212435
 32
0.0
 13
33.6953537128
 23
155.6799212435
 33
0.0
  0
LINE
  5
BB
330
B6
100
AcDbEntity
  8
0
  6
Continuous
 62
     7
370
     0
100
AcDbLine
 10
50.7263503425
 20
172.2799212435
 30
0.0
 11
33.4453537128
 21
172.2799212435
 31
0.0
  0
LINE
  5
BC
330
B6
100
AcDbEntity
  8
0
  6
Continuous
 62
     7
370
     0
100
AcDbLine
 10
50.7263503425
 20
153.6799212435
 30
0.0
 11
33.4453537128
 21
153.6799212435
 31
0.0
  0
LINE
  5
BD
330
B6
100
AcDbEntity
  8
0
  6
Continuous
 62
     7
370
     0
100
AcDbLine
 10
34.4453537128
 20
172.2799212435
 30
0.0
 11
34.4453537128
 21
153.6799212435
 31
0.0
  0
MTEXT
  5
BE
330
B6
100
AcDbEntity
  8
0
  6
Continuous
 62
     7
370
     0
100
AcDbMText
 10
29.9336167982
 20
158.2946488396
 30
33.85
 40
3.5
 41
0.0
 71
     1
 72
     1
  1
18.6
  7
SLDTEXTSTYLE1
 11
-7.044195017643634E-15
 21
1.0
 31
0.0
 73
     1
 44
1.0
  0
ENDBLK
  5
B8
330
B6
100
AcDbEntity
  8
0
100
AcDbBlockEnd
  0
BLOCK
  5
C3
330
C2
100
AcDbEntity
  8
0
100
AcDbBlockBegin
  2
SW_CENTERMARKSYMBOL_0
 70
     0
 10
0.0
 20
0.0
 30
0.0
  3
SW_CENTERMARKSYMBOL_0
  1

  0
LINE
  5
C5
330
C2
100
AcDbEntity
  8
0
  6
Continuous
 62
     0
370
     0
100
AcDbLine
 10
0.0
 20
0.0
 30
0.0
 11
0.0
 21
2.5
 31
0.0
  0
LINE
  5
C6
330
C2
100
AcDbEntity
  8
0
  6
Continuous
 62
     0
370
     0
100
AcDbLine
 10
0.0
 20
0.0
 30
0.0
 11
-2.5
 21
0.0
 31
0.0
  0
LINE
  5
C7
330
C2
100
AcDbEntity
  8
0
  6
Continuous
 62
     0
370
     0
100
AcDbLine
 10
0.0
 20
0.0
 30
0.0
 11
0.0
 21
-2.5
 31
0.0
  0
LINE
  5
C8
330
C2
100
AcDbEntity
  8
0
  6
Continuous
 62
     0
370
     0
100
AcDbLine
 10
0.0
 20
0.0
 30
0.0
 11
2.5
 21
0.0
 31
0.0
  0
LINE
  5
C9
330
C2
100
AcDbEntity
  8
0
  6
Continuous
 62
     0
370
     0
100
AcDbLine
 10
0.0
 20
5.0
 30
0.0
 11
0.0
 21
6.0
 31
0.0
  0
LINE
  5
CA
330
C2
100
AcDbEntity
  8
0
  6
Continuous
 62
     0
370
     0
100
AcDbLine
 10
-5.0
 20
0.0
 30
0.0
 11
-6.0
 21
0.0
 31
0.0
  0
LINE
  5
CB
330
C2
100
AcDbEntity
  8
0
  6
Continuous
 62
     0
370
     0
100
AcDbLine
 10
0.0
 20
-5.0
 30
0.0
 11
0.0
 21
-6.0
 31
0.0
  0
LINE
  5
CC
330
C2
100
AcDbEntity
  8
0
  6
Continuous
 62
     0
370
     0
100
AcDbLine
 10
5.0
 20
0.0
 30
0.0
 11
6.0
 21
0.0
 31
0.0
  0
ENDBLK
  5
C4
330
C2
100
AcDbEntity
  8
0
100
AcDbBlockEnd
  0
BLOCK
  5
1EF
330
1EE
100
AcDbEntity
  8
0
100
AcDbBlockBegin
  2
_D_2
 70
     0
 10
0.0
 20
0.0
 30
0.0
  3
_D_2
  1

  0
SOLID
  5
1F1
330
1EE
100
AcDbEntity
  8
0
  6
Continuous
 62
     7
370
     0
100
AcDbTrace
 10
93.0534379539
 20
129.1855951636
 30
0.0
 11
95.0534379539
 21
128.4355951636
 31
0.0
 12
95.0534379539
 22
129.9355951636
 32
0.0
 13
95.0534379539
 23
129.9355951636
 33
0.0
  0
SOLID
  5
1F2
330
1EE
100
AcDbEntity
  8
0
  6
Continuous
 62
     7
370
     0
100
AcDbTrace
 10
161.5534379539
 20
129.1855951636
 30
0.0
 11
159.5534379539
 21
129.9355951636
 31
0.0
 12
159.5534379539
 22
128.4355951636
 32
0.0
 13
159.5534379539
 23
128.4355951636
 33
0.0
  0
LINE
  5
1F3
330
1EE
100
AcDbEntity
  8
0
  6
Continuous
 62
     7
370
     0
100
AcDbLine
 10
93.0534379539
 20
158.4799212435
 30
0.0
 11
93.0534379539
 21
128.1855951636
 31
0.0
  0
LINE
  5
1F4
330
1EE
100
AcDbEntity
  8
0
  6
Continuous
 62
     7
370
     0
100
AcDbLine
 10
161.5534379539
 20
159.9799212435
 30
0.0
 11
161.5534379539
 21
128.1855951636
 31
0.0
  0
LINE
  5
1F5
330
1EE
100
AcDbEntity
  8
0
  6
Continuous
 62
     7
370
     0
100
AcDbLine
 10
93.0534379539
 20
129.1855951636
 30
0.0
 11
161.5534379539
 21
129.1855951636
 31
0.0
  0
MTEXT
  5
1F6
330
1EE
100
AcDbEntity
  8
0
  6
Continuous
 62
     7
370
     0
100
AcDbMText
 10
123.9096423093
 20
133.6973320782
 30
0.1
 40
3.5
 41
0.0
 71
     1
 72
     1
  1
68.5
  7
SLDTEXTSTYLE1
 73
     1
 44
1.0
  0
ENDBLK
  5
1F0
330
1EE
100
AcDbEntity
  8
0
100
AcDbBlockEnd
  0
BLOCK
  5
1FA
330
1F9
100
AcDbEntity
  8
0
100
AcDbBlockBegin
  2
_D_3
 70
     0
 10
0.0
 20
0.0
 30
0.0
  3
_D_3
  1

  0
SOLID
  5
1FC
330
1F9
100
AcDbEntity
  8
0
  6
Continuous
 62
     7
370
     0
100
AcDbTrace
 10
144.5534379539
 20
146.8568303842
 30
0.0
 11
142.5534379539
 21
147.6068303842
 31
0.0
 12
142.5534379539
 22
146.1068303842
 32
0.0
 13
142.5534379539
 23
146.1068303842
 33
0.0
  0
SOLID
  5
1FD
330
1F9
100
AcDbEntity
  8
0
  6
Continuous
 62
     7
370
     0
100
AcDbTrace
 10
147.5534379539
 20
146.8568303842
 30
0.0
 11
149.5534379539
 21
146.1068303842
 31
0.0
 12
149.5534379539
 22
147.6068303842
 32
0.0
 13
149.5534379539
 23
147.6068303842
 33
0.0
  0
LINE
  5
1FE
330
1F9
100
AcDbEntity
  8
0
  6
Continuous
 62
     7
370
     0
100
AcDbLine
 10
144.5534379539
 20
154.4743677441
 30
0.0
 11
144.5534379539
 21
145.8568303842
 31
0.0
  0
LINE
  5
1FF
330
1F9
100
AcDbEntity
  8
0
  6
Continuous
 62
     7
370
     0
100
AcDbLine
 10
147.5534379539
 20
154.4743677441
 30
0.0
 11
147.5534379539
 21
145.8568303842
 31
0.0
  0
LINE
  5
200
330
1F9
100
AcDbEntity
  8
0
  6
Continuous
 62
     7
370
     0
100
AcDbLine
 10
144.5534379539
 20
146.8568303842
 30
0.0
 11
138.1672743981
 21
146.8568303842
 31
0.0
  0
LINE
  5
201
330
1F9
100
AcDbEntity
  8
0
  6
Continuous
 62
     7
370
     0
100
AcDbLine
 10
144.5534379539
 20
146.8568303842
 30
0.0
 11
147.5534379539
 21
146.8568303842
 31
0.0
  0
LINE
  5
202
330
1F9
100
AcDbEntity
  8
0
  6
Continuous
 62
     7
370
     0
100
AcDbLine
 10
147.5534379539
 20
146.8568303842
 30
0.0
 11
152.5534379539
 21
146.8568303842
 31
0.0
  0
MTEXT
  5
203
330
1F9
100
AcDbEntity
  8
0
  6
Continuous
 62
     7
370
     0
100
AcDbMText
 10
138.1672743981
 20
151.3685672988
 30
0.1
 40
3.5
 41
0.0
 71
     1
 72
     1
  1
3
  7
SLDTEXTSTYLE1
 73
     1
 44
1.0
  0
ENDBLK
  5
1FB
330
1F9
100
AcDbEntity
  8
0
100
AcDbBlockEnd
  0
BLOCK
  5
206
330
205
100
AcDbEntity
  8
0
100
AcDbBlockBegin
  2
_D_4
 70
     0
 10
0.0
 20
0.0
 30
0.0
  3
_D_4
  1

  0
SOLID
  5
208
330
205
100
AcDbEntity
  8
0
  6
Continuous
 62
     7
370
     0
100
AcDbTrace
 10
180.299101907
 20
171.0628250122
 30
0.0
 11
179.549101907
 21
169.0628250122
 31
0.0
 12
181.049101907
 22
169.0628250122
 32
0.0
 13
181.049101907
 23
169.0628250122
 33
0.0
  0
SOLID
  5
209
330
205
100
AcDbEntity
  8
0
  6
Continuous
 62
     7
370
     0
100
AcDbTrace
 10
180.299101907
 20
154.8970174749
 30
0.0
 11
181.049101907
 21
156.8970174749
 31
0.0
 12
179.549101907
 22
156.8970174749
 32
0.0
 13
179.549101907
 23
156.8970174749
 33
0.0
  0
LINE
  5
20A
330
205
100
AcDbEntity
  8
0
  6
Continuous
 62
     7
370
     0
100
AcDbLine
 10
156.5063683328
 20
171.0628250122
 30
0.0
 11
181.299101907
 21
171.0628250122
 31
0.0
  0
LINE
  5
20B
330
205
100
AcDbEntity
  8
0
  6
Continuous
 62
     7
370
     0
100
AcDbLine
 10
156.5063683328
 20
154.8970174749
 30
0.0
 11
181.299101907
 21
154.8970174749
 31
0.0
  0
LINE
  5
20C
330
205
100
AcDbEntity
  8
0
  6
Continuous
 62
     7
370
     0
100
AcDbLine
 10
180.299101907
 20
171.0628250122
 30
0.0
 11
180.299101907
 21
154.8970174749
 31
0.0
  0
MTEXT
  5
20D
330
205
100
AcDbEntity
  8
0
  6
Continuous
 62
     7
370
     0
100
AcDbMText
 10
175.7873649924
 20
159.2617244567
 30
0.1
 40
3.5
 41
0.0
 71
     1
 72
     1
  1
16.2
  7
SLDTEXTSTYLE1
 11
-7.044195017643634E-15
 21
1.0
 31
0.0
 73
     1
 44
1.0
  0
ENDBLK
  5
207
330
205
100
AcDbEntity
  8
0
100
AcDbBlockEnd
  0
BLOCK
  5
210
330
20F
100
AcDbEntity
  8
0
100
AcDbBlockBegin
  2
_D_5
 70
     0
 10
0.0
 20
0.0
 30
0.0
  3
_D_5
  1

  0
SOLID
  5
212
330
20F
100
AcDbEntity
  8
0
  6
Continuous
 62
     7
370
     0
100
AcDbTrace
 10
168.2847099211
 20
165.4799212435
 30
0.0
 11
169.0347099211
 21
167.4799212435
 31
0.0
 12
167.5347099211
 22
167.4799212435
 32
0.0
 13
167.5347099211
 23
167.4799212435
 33
0.0
  0
SOLID
  5
213
330
20F
100
AcDbEntity
  8
0
  6
Continuous
 62
     7
370
     0
100
AcDbTrace
 10
168.2847099211
 20
160.4799212435
 30
0.0
 11
167.5347099211
 21
158.4799212435
 31
0.0
 12
169.0347099211
 22
158.4799212435
 32
0.0
 13
169.0347099211
 23
158.4799212435
 33
0.0
  0
LINE
  5
214
330
20F
100
AcDbEntity
  8
0
  6
Continuous
 62
     7
370
     0
100
AcDbLine
 10
162.0534379539
 20
165.4799212435
 30
0.0
 11
169.2847099211
 21
165.4799212435
 31
0.0
  0
LINE
  5
215
330
20F
100
AcDbEntity
  8
0
  6
Continuous
 62
     7
370
     0
100
AcDbLine
 10
162.0534379539
 20
160.4799212435
 30
0.0
 11
169.2847099211
 21
160.4799212435
 31
0.0
  0
LINE
  5
216
330
20F
100
AcDbEntity
  8
0
  6
Continuous
 62
     7
370
     0
100
AcDbLine
 10
168.2847099211
 20
165.4799212435
 30
0.0
 11
168.2847099211
 21
179.7678764566
 31
0.0
  0
LINE
  5
217
330
20F
100
AcDbEntity
  8
0
  6
Continuous
 62
     7
370
     0
100
AcDbLine
 10
168.2847099211
 20
165.4799212435
 30
0.0
 11
168.2847099211
 21
160.4799212435
 31
0.0
  0
LINE
  5
218
330
20F
100
AcDbEntity
  8
0
  6
Continuous
 62
     7
370
     0
100
AcDbLine
 10
168.2847099211
 20
160.4799212435
 30
0.0
 11
168.2847099211
 21
155.4799212435
 31
0.0
  0
MTEXT
  5
219
330
20F
100
AcDbEntity
  8
0
  6
Continuous
 62
     7
370
     0
100
AcDbMText
 10
163.7729728319
 20
171.9033276318
 30
0.1
 40
3.5
 41
0.0
 71
     1
 72
     1
  1
%%c
  7
SLDTEXTSTYLE1
 11
-7.044195017643634E-15
 21
1.0
 31
0.0
 73
     1
 44
1.0
  0
MTEXT
  5
21A
330
20F
100
AcDbEntity
  8
0
  6
Continuous
 62
     7
370
     0
100
AcDbMText
 10
163.7195006552
 20
177.1817650302
 30
0.1
 40
3.5
 41
0.0
 71
     1
 72
     1
  1
5
  7
SLDTEXTSTYLE1
 11
-7.044195017643634E-15
 21
1.0
 31
0.0
 73
     1
 44
1.0
  0
ENDBLK
  5
211
330
20F
100
AcDbEntity
  8
0
100
AcDbBlockEnd
  0
BLOCK
  5
21D
330
21C
100
AcDbEntity
  8
0
100
AcDbBlockBegin
  2
_D_6
 70
     0
 10
0.0
 20
0.0
 30
0.0
  3
_D_6
  1

  0
SOLID
  5
21F
330
21C
100
AcDbEntity
  8
0
  6
Continuous
 62
     7
370
     0
100
AcDbTrace
 10
147.5534379539
 20
181.7032856314
 30
0.0
 11
149.5534379539
 21
180.9532856314
 31
0.0
 12
149.5534379539
 22
182.4532856314
 32
0.0
 13
149.5534379539
 23
182.4532856314
 33
0.0
  0
SOLID
  5
220
330
21C
100
AcDbEntity
  8
0
  6
Continuous
 62
     7
370
     0
100
AcDbTrace
 10
159.5534379539
 20
181.7032856314
 30
0.0
 11
157.5534379539
 21
182.4532856314
 31
0.0
 12
157.5534379539
 22
180.9532856314
 32
0.0
 13
157.5534379539
 23
180.9532856314
 33
0.0
  0
LINE
  5
221
330
21C
100
AcDbEntity
  8
0
  6
Continuous
 62
     7
370
     0
100
AcDbLine
 10
147.5534379539
 20
171.485474743
 30
0.0
 11
147.5534379539
 21
182.7032856314
 31
0.0
  0
LINE
  5
222
330
21C
100
AcDbEntity
  8
0
  6
Continuous
 62
     7
370
     0
100
AcDbLine
 10
159.5534379539
 20
167.9799212435
 30
0.0
 11
159.5534379539
 21
182.7032856314
 31
0.0
  0
LINE
  5
223
330
21C
100
AcDbEntity
  8
0
  6
Continuous
 62
     7
370
     0
100
AcDbLine
 10
147.5534379539
 20
181.7032856314
 30
0.0
 11
159.5534379539
 21
181.7032856314
 31
0.0
  0
MTEXT
  5
224
330
21C
100
AcDbEntity
  8
0
  6
Continuous
 62
     7
370
     0
100
AcDbMText
 10
150.4784662101
 20
186.2150225459
 30
0.1
 40
3.5
 41
0.0
 71
     1
 72
     1
  1
12
  7
SLDTEXTSTYLE1
 73
     1
 44
1.0
  0
ENDBLK
  5
21E
330
21C
100
AcDbEntity
  8
0
100
AcDbBlockEnd
  0
BLOCK
  5
227
330
226
100
AcDbEntity
  8
0
100
AcDbBlockBegin
  2
_D_7
 70
     0
 10
0.0
 20
0.0
 30
0.0
  3
_D_7
  1

  0
SOLID
  5
229
330
226
100
AcDbEntity
  8
0
  6
Continuous
 62
     7
370
     0
100
AcDbTrace
 10
112.5534379539
 20
138.6744887465
 30
0.0
 11
114.5534379539
 21
137.9244887465
 31
0.0
 12
114.5534379539
 22
139.4244887465
 32
0.0
 13
114.5534379539
 23
139.4244887465
 33
0.0
  0
SOLID
  5
22A
330
226
100
AcDbEntity
  8
0
  6
Continuous
 62
     7
370
     0
100
AcDbTrace
 10
142.5534379539
 20
138.6744887465
 30
0.0
 11
140.5534379539
 21
139.4244887465
 31
0.0
 12
140.5534379539
 22
137.9244887465
 32
0.0
 13
140.5534379539
 23
137.9244887465
 33
0.0
  0
LINE
  5
22B
330
226
100
AcDbEntity
  8
0
  6
Continuous
 62
     7
370
     0
100
AcDbLine
 10
112.5534379539
 20
158.2299212435
 30
0.0
 11
112.5534379539
 21
137.6744887465
 31
0.0
  0
LINE
  5
22C
330
226
100
AcDbEntity
  8
0
  6
Continuous
 62
     7
370
     0
100
AcDbLine
 10
142.5534379539
 20
158.7299212435
 30
0.0
 11
142.5534379539
 21
137.6744887465
 31
0.0
  0
LINE
  5
22D
330
226
100
AcDbEntity
  8
0
  6
Continuous
 62
     7
370
     0
100
AcDbLine
 10
112.5534379539
 20
138.6744887465
 30
0.0
 11
142.5534379539
 21
138.6744887465
 31
0.0
  0
MTEXT
  5
22E
330
226
100
AcDbEntity
  8
0
  6
Continuous
 62
     7
370
     0
100
AcDbMText
 10
124.1526979435
 20
143.1862256611
 30
0.1
 40
3.5
 41
0.0
 71
     1
 72
     1
  1
30
  7
SLDTEXTSTYLE1
 73
     1
 44
1.0
  0
MTEXT
  5
22F
330
226
100
AcDbEntity
  8
0
  6
Continuous
 62
     7
370
     0
100
AcDbMText
 10
129.3249203306
 20
143.1862256611
 30
0.1
 40
3.5
 41
0.0
 71
     1
 72
     1
  1
st
  7
SLDTEXTSTYLE1
 73
     1
 44
1.0
  0
ENDBLK
  5
228
330
226
100
AcDbEntity
  8
0
100
AcDbBlockEnd
  0
BLOCK
  5
233
330
232
100
AcDbEntity
  8
0
100
AcDbBlockBegin
  2
_D_8
 70
     0
 10
0.0
 20
0.0
 30
0.0
  3
_D_8
  1

  0
SOLID
  5
235
330
232
100
AcDbEntity
  8
0
  6
Continuous
 62
     7
370
     0
100
AcDbTrace
 10
142.5534379539
 20
181.7032856314
 30
0.0
 11
140.5534379539
 21
182.4532856314
 31
0.0
 12
140.5534379539
 22
180.9532856314
 32
0.0
 13
140.5534379539
 23
180.9532856314
 33
0.0
  0
SOLID
  5
236
330
232
100
AcDbEntity
  8
0
  6
Continuous
 62
     7
370
     0
100
AcDbTrace
 10
147.5534379539
 20
181.7032856314
 30
0.0
 11
149.5534379539
 21
180.9532856314
 31
0.0
 12
149.5534379539
 22
182.4532856314
 32
0.0
 13
149.5534379539
 23
182.4532856314
 33
0.0
  0
LINE
  5
237
330
232
100
AcDbEntity
  8
0
  6
Continuous
 62
     7
370
     0
100
AcDbLine
 10
142.5534379539
 20
167.2299212435
 30
0.0
 11
142.5534379539
 21
182.7032856314
 31
0.0
  0
LINE
  5
238
330
232
100
AcDbEntity
  8
0
  6
Continuous
 62
     7
370
     0
100
AcDbLine
 10
147.5534379539
 20
171.485474743
 30
0.0
 11
147.5534379539
 21
182.7032856314
 31
0.0
  0
LINE
  5
239
330
232
100
AcDbEntity
  8
0
  6
Continuous
 62
     7
370
     0
100
AcDbLine
 10
142.5534379539
 20
181.7032856314
 30
0.0
 11
136.6583143462
 21
181.7032856314
 31
0.0
  0
LINE
  5
23A
330
232
100
AcDbEntity
  8
0
  6
Continuous
 62
     7
370
     0
100
AcDbLine
 10
142.5534379539
 20
181.7032856314
 30
0.0
 11
147.5534379539
 21
181.7032856314
 31
0.0
  0
LINE
  5
23B
330
232
100
AcDbEntity
  8
0
  6
Continuous
 62
     7
370
     0
100
AcDbLine
 10
147.5534379539
 20
181.7032856314
 30
0.0
 11
152.5534379539
 21
181.7032856314
 31
0.0
  0
MTEXT
  5
23C
330
232
100
AcDbEntity
  8
0
  6
Continuous
 62
     7
370
     0
100
AcDbMText
 10
136.6583143462
 20
186.2150225459
 30
0.1
 40
3.5
 41
0.0
 71
     1
 72
     1
  1
5
  7
SLDTEXTSTYLE1
 73
     1
 44
1.0
  0
ENDBLK
  5
234
330
232
100
AcDbEntity
  8
0
100
AcDbBlockEnd
  0
BLOCK
  5
23F
330
23E
100
AcDbEntity
  8
0
100
AcDbBlockBegin
  2
_D_9
 70
     0
 10
0.0
 20
0.0
 30
0.0
  3
_D_9
  1

  0
SOLID
  5
241
330
23E
100
AcDbEntity
  8
0
  6
Continuous
 62
     7
370
     0
100
AcDbTrace
 10
147.5534379539
 20
192.2438520797
 30
0.0
 11
149.5534379539
 21
191.4938520797
 31
0.0
 12
149.5534379539
 22
192.9938520797
 32
0.0
 13
149.5534379539
 23
192.9938520797
 33
0.0
  0
SOLID
  5
242
330
23E
100
AcDbEntity
  8
0
  6
Continuous
 62
     7
370
     0
100
AcDbTrace
 10
161.5534379539
 20
192.2438520797
 30
0.0
 11
159.5534379539
 21
192.9938520797
 31
0.0
 12
159.5534379539
 22
191.4938520797
 32
0.0
 13
159.5534379539
 23
191.4938520797
 33
0.0
  0
LINE
  5
243
330
23E
100
AcDbEntity
  8
0
  6
Continuous
 62
     7
370
     0
100
AcDbLine
 10
147.5534379539
 20
171.485474743
 30
0.0
 11
147.5534379539
 21
193.2438520797
 31
0.0
  0
LINE
  5
244
330
23E
100
AcDbEntity
  8
0
  6
Continuous
 62
     7
370
     0
100
AcDbLine
 10
161.5534379539
 20
165.9799212435
 30
0.0
 11
161.5534379539
 21
193.2438520797
 31
0.0
  0
LINE
  5
245
330
23E
100
AcDbEntity
  8
0
  6
Continuous
 62
     7
370
     0
100
AcDbLine
 10
147.5534379539
 20
192.2438520797
 30
0.0
 11
161.5534379539
 21
192.2438520797
 31
0.0
  0
MTEXT
  5
246
330
23E
100
AcDbEntity
  8
0
  6
Continuous
 62
     7
370
     0
100
AcDbMText
 10
151.9673267604
 20
196.7555889943
 30
0.1
 40
3.5
 41
0.0
 71
     1
 72
     1
  1
14
  7
SLDTEXTSTYLE1
 73
     1
 44
1.0
  0
ENDBLK
  5
240
330
23E
100
AcDbEntity
  8
0
100
AcDbBlockEnd
  0
BLOCK
  5
249
330
248
100
AcDbEntity
  8
0
100
AcDbBlockBegin
  2
_D_10
 70
     0
 10
0.0
 20
0.0
 30
0.0
  3
_D_10
  1

  0
SOLID
  5
24B
330
248
100
AcDbEntity
  8
0
  6
Continuous
 62
     7
370
     0
100
AcDbTrace
 10
93.0534379539
 20
183.5847546188
 30
0.0
 11
91.0534379539
 21
184.3347546188
 31
0.0
 12
91.0534379539
 22
182.8347546188
 32
0.0
 13
91.0534379539
 23
182.8347546188
 33
0.0
  0
SOLID
  5
24C
330
248
100
AcDbEntity
  8
0
  6
Continuous
 62
     7
370
     0
100
AcDbTrace
 10
98.5534379539
 20
183.5847546188
 30
0.0
 11
100.5534379539
 21
182.8347546188
 31
0.0
 12
100.5534379539
 22
184.3347546188
 32
0.0
 13
100.5534379539
 23
184.3347546188
 33
0.0
  0
LINE
  5
24D
330
248
100
AcDbEntity
  8
0
  6
Continuous
 62
     7
370
     0
100
AcDbLine
 10
93.0534379539
 20
167.4799212435
 30
0.0
 11
93.0534379539
 21
184.5847546188
 31
0.0
  0
LINE
  5
24E
330
248
100
AcDbEntity
  8
0
  6
Continuous
 62
     7
370
     0
100
AcDbLine
 10
98.5534379539
 20
169.9799212435
 30
0.0
 11
98.5534379539
 21
184.5847546188
 31
0.0
  0
LINE
  5
24F
330
248
100
AcDbEntity
  8
0
  6
Continuous
 62
     7
370
     0
100
AcDbLine
 10
93.0534379539
 20
183.5847546188
 30
0.0
 11
88.0534379539
 21
183.5847546188
 31
0.0
  0
LINE
  5
250
330
248
100
AcDbEntity
  8
0
  6
Continuous
 62
     7
370
     0
100
AcDbLine
 10
93.0534379539
 20
183.5847546188
 30
0.0
 11
98.5534379539
 21
183.5847546188
 31
0.0
  0
LINE
  5
251
330
248
100
AcDbEntity
  8
0
  6
Continuous
 62
     7
370
     0
100
AcDbLine
 10
98.5534379539
 20
183.5847546188
 30
0.0
 11
108.116283577
 21
183.5847546188
 31
0.0
  0
MTEXT
  5
252
330
248
100
AcDbEntity
  8
0
  6
Continuous
 62
     7
370
     0
100
AcDbMText
 10
101.6510059425
 20
188.0964915334
 30
0.1
 40
3.5
 41
0.0
 71
     1
 72
     1
  1
5.5
  7
SLDTEXTSTYLE1
 73
     1
 44
1.0
  0
ENDBLK
  5
24A
330
248
100
AcDbEntity
  8
0
100
AcDbBlockEnd
  0
BLOCK
  5
255
330
254
100
AcDbEntity
  8
0
100
AcDbBlockBegin
  2
_D_11
 70
     0
 10
0.0
 20
0.0
 30
0.0
  3
_D_11
  1

  0
SOLID
  5
257
330
254
100
AcDbEntity
  8
0
  6
Continuous
 62
     7
370
     0
100
AcDbTrace
 10
83.0534379539
 20
166.4799212435
 30
0.0
 11
83.8034379539
 21
168.4799212435
 31
0.0
 12
82.3034379539
 22
168.4799212435
 32
0.0
 13
82.3034379539
 23
168.4799212435
 33
0.0
  0
SOLID
  5
258
330
254
100
AcDbEntity
  8
0
  6
Continuous
 62
     7
370
     0
100
AcDbTrace
 10
83.0534379539
 20
159.4799212435
 30
0.0
 11
82.3034379539
 21
157.4799212435
 31
0.0
 12
83.8034379539
 22
157.4799212435
 32
0.0
 13
83.8034379539
 23
157.4799212435
 33
0.0
  0
LINE
  5
259
330
254
100
AcDbEntity
  8
0
  6
Continuous
 62
     7
370
     0
100
AcDbLine
 10
92.0534379539
 20
166.4799212435
 30
0.0
 11
82.0534379539
 21
166.4799212435
 31
0.0
  0
LINE
  5
25A
330
254
100
AcDbEntity
  8
0
  6
Continuous
 62
     7
370
     0
100
AcDbLine
 10
92.0534379539
 20
159.4799212435
 30
0.0
 11
82.0534379539
 21
159.4799212435
 31
0.0
  0
LINE
  5
25B
330
254
100
AcDbEntity
  8
0
  6
Continuous
 62
     7
370
     0
100
AcDbLine
 10
83.0534379539
 20
166.4799212435
 30
0.0
 11
83.0534379539
 21
171.4799212435
 31
0.0
  0
LINE
  5
25C
330
254
100
AcDbEntity
  8
0
  6
Continuous
 62
     7
370
     0
100
AcDbLine
 10
83.0534379539
 20
166.4799212435
 30
0.0
 11
83.0534379539
 21
159.4799212435
 31
0.0
  0
LINE
  5
25D
330
254
100
AcDbEntity
  8
0
  6
Continuous
 62
     7
370
     0
100
AcDbLine
 10
83.0534379539
 20
159.4799212435
 30
0.0
 11
83.0534379539
 21
154.4799212435
 31
0.0
  0
MTEXT
  5
25E
330
254
100
AcDbEntity
  8
0
  6
Continuous
 62
     7
370
     0
100
AcDbMText
 10
78.5417008647
 20
158.8614704843
 30
0.1
 40
3.5
 41
0.0
 71
     1
 72
     1
  1
%%c
  7
SLDTEXTSTYLE1
 11
-7.044195017643634E-15
 21
1.0
 31
0.0
 73
     1
 44
1.0
  0
MTEXT
  5
25F
330
254
100
AcDbEntity
  8
0
  6
Continuous
 62
     7
370
     0
100
AcDbMText
 10
78.4882286881
 20
164.1399078826
 30
0.1
 40
3.5
 41
0.0
 71
     1
 72
     1
  1
7
  7
SLDTEXTSTYLE1
 11
-7.044195017643634E-15
 21
1.0
 31
0.0
 73
     1
 44
1.0
  0
ENDBLK
  5
256
330
254
100
AcDbEntity
  8
0
100
AcDbBlockEnd
  0
ENDSEC
  0
SECTION
  2
ENTITIES
  0
LINE
  5
44
330
1F
100
AcDbEntity
  8
0
  6
Continuous
 62
     7
370
     0
100
AcDbLine
 10
20.2604743903
 20
285.0
 30
0.0
 11
196.7604743903
 21
285.0
 31
0.0
  0
LINE
  5
45
330
1F
100
AcDbEntity
  8
0
  6
Continuous
 62
     7
370
     0
100
AcDbLine
 10
20.2604743903
 20
285.0
 30
0.0
 11
20.2604743903
 21
10.0
 31
0.0
  0
LINE
  5
46
330
1F
100
AcDbEntity
  8
0
  6
Continuous
 62
     7
370
     0
100
AcDbLine
 10
20.2604743903
 20
10.0
 30
0.0
 11
196.7604743903
 21
10.0
 31
0.0
  0
LINE
  5
47
330
1F
100
AcDbEntity
  8
0
  6
Continuous
 62
     7
370
     0
100
AcDbLine
 10
196.7604743903
 20
285.0
 30
0.0
 11
196.7604743903
 21
10.0
 31
0.0
  0
LINE
  5
48
330
1F
100
AcDbEntity
  8
0
  6
Continuous
 62
     7
370
     0
100
AcDbLine
 10
127.0104743903
 20
50.75
 30
0.0
 11
196.7604743903
 21
50.75
 31
0.0
  0
LINE
  5
49
330
1F
100
AcDbEntity
  8
0
  6
Continuous
 62
     7
370
     0
100
AcDbLine
 10
127.0104743903
 20
50.75
 30
0.0
 11
127.0104743903
 21
10.0
 31
0.0
  0
LINE
  5
4A
330
1F
100
AcDbEntity
  8
0
  6
Continuous
 62
     7
370
     0
100
AcDbLine
 10
127.0104743903
 20
22.75
 30
0.0
 11
196.7604743903
 21
22.75
 31
0.0
  0
LINE
  5
4B
330
1F
100
AcDbEntity
  8
0
  6
Continuous
 62
     7
370
     0
100
AcDbLine
 10
127.0104743903
 20
36.75
 30
0.0
 11
196.7604743903
 21
36.75
 31
0.0
  0
MTEXT
  5
4D
330
1F
100
AcDbEntity
  8
0
  6
Continuous
 62
     7
370
     0
100
AcDbMText
 10
161.7193714727
 20
30.4171582345
 30
0.0
 40
4.2333333333
 41
0.0
 71
     2
 72
     1
  1
VFIL1-SS-30
  7
SLDTEXTSTYLE0
 73
     1
 44
1.0
  0
MTEXT
  5
4E
330
1F
100
AcDbEntity
  8
0
  6
Continuous
 62
     7
370
     0
100
AcDbMText
 10
161.3686533351
 20
43.9409718514
 30
0.0
 40
4.2333333333
 41
0.0
 71
     2
 72
     1
  1
吸着金具・ミニ用
  7
SLDTEXTSTYLE0
 73
     1
 44
1.0
  0
MTEXT
  5
4F
330
1F
100
AcDbEntity
  8
0
  6
Continuous
 62
     7
370
     0
100
AcDbMText
 10
162.6476213135
 20
16.8228189052
 30
0.0
 40
4.2333333333
 41
0.0
 71
     2
 72
     1
  1
211038
  7
SLDTEXTSTYLE0
 73
     1
 44
1.0
  0
LINE
  5
50
330
1F
100
AcDbEntity
  8
0
  6
Continuous
 62
     7
370
    15
100
AcDbLine
 10
53.4263503764
 20
151.1799207995
 30
0.0
 11
53.7763502475
 21
148.679921321
 31
0.0
  0
LINE
  5
51
330
1F
100
AcDbEntity
  8
0
  6
Continuous
 62
     7
370
    15
100
AcDbLine
 10
57.7763504375
 20
148.679921321
 30
0.0
 11
58.1263503086
 21
151.1799207995
 31
0.0
  0
LINE
  5
52
330
1F
100
AcDbEntity
  8
0
  6
Continuous
 62
     7
370
    15
100
AcDbLine
 10
53.4263503764
 20
148.679921321
 30
0.0
 11
53.7763502475
 21
146.1799218426
 31
0.0
  0
LINE
  5
53
330
1F
100
AcDbEntity
  8
0
  6
Continuous
 62
     7
370
    15
100
AcDbLine
 10
57.7763504375
 20
146.1799218426
 30
0.0
 11
58.1263503086
 21
148.679921321
 31
0.0
  0
LINE
  5
54
330
1F
100
AcDbEntity
  8
0
  6
Continuous
 62
     7
370
    15
100
AcDbLine
 10
57.8763502676
 20
151.1799207995
 30
0.0
 11
57.8763502676
 21
153.6799212093
 31
0.0
  0
LINE
  5
55
330
1F
100
AcDbEntity
  8
0
  6
Continuous
 62
     7
370
    15
100
AcDbLine
 10
53.6763504173
 20
153.6799212093
 30
0.0
 11
53.6763504173
 21
151.1799207995
 31
0.0
  0
LINE
  5
56
330
1F
100
AcDbEntity
  8
0
  6
Continuous
 62
     7
370
    15
100
AcDbLine
 10
51.7763501525
 20
169.7799213337
 30
0.0
 11
51.7763501525
 21
168.9799212957
 31
0.0
  0
LINE
  5
57
330
1F
100
AcDbEntity
  8
0
  6
Continuous
 62
     7
370
    15
100
AcDbLine
 10
59.7763505325
 20
168.9799212957
 30
0.0
 11
59.7763505325
 21
169.7799213337
 31
0.0
  0
LINE
  5
58
330
1F
100
AcDbEntity
  8
0
  6
Continuous
 62
     7
370
    15
100
AcDbLine
 10
51.7763501525
 20
156.9799211914
 30
0.0
 11
51.7763501525
 21
156.1799211534
 31
0.0
  0
LINE
  5
59
330
1F
100
AcDbEntity
  8
0
  6
Continuous
 62
     7
370
    15
100
AcDbLine
 10
59.7763505325
 20
156.1799211534
 30
0.0
 11
59.7763505325
 21
156.9799211914
 31
0.0
  0
LINE
  5
5A
330
1F
100
AcDbEntity
  8
0
  6
Continuous
 62
     7
370
    15
100
AcDbLine
 10
62.2763504766
 20
159.2271445891
 30
0.0
 11
59.6686551839
 21
157.7215910995
 31
0.0
  0
LINE
  5
5B
330
1F
100
AcDbEntity
  8
0
  6
Continuous
 62
     7
370
    15
100
AcDbLine
 10
49.2763502084
 20
159.2271445891
 30
0.0
 11
49.2763502084
 21
162.23825151
 31
0.0
  0
LINE
  5
5C
330
1F
100
AcDbEntity
  8
0
  6
Continuous
 62
     7
370
    15
100
AcDbLine
 10
49.2763502084
 20
163.7215909771
 30
0.0
 11
49.2763502084
 21
166.732697898
 31
0.0
  0
LINE
  5
5D
330
1F
100
AcDbEntity
  8
0
  6
Continuous
 62
     7
370
    15
100
AcDbLine
 10
49.2763502084
 20
166.732697898
 30
0.0
 11
51.884045501
 21
168.2382513875
 31
0.0
  0
LINE
  5
5E
330
1F
100
AcDbEntity
  8
0
  6
Continuous
 62
     7
370
    15
100
AcDbLine
 10
59.6686551839
 20
168.2382513875
 30
0.0
 11
62.2763504766
 21
166.732697898
 31
0.0
  0
LINE
  5
5F
330
1F
100
AcDbEntity
  8
0
  6
Continuous
 62
     7
370
    15
100
AcDbLine
 10
62.2763504766
 20
166.732697898
 30
0.0
 11
62.2763504766
 21
163.7215909771
 31
0.0
  0
LINE
  5
60
330
1F
100
AcDbEntity
  8
0
  6
Continuous
 62
     7
370
    15
100
AcDbLine
 10
62.2763504766
 20
162.23825151
 30
0.0
 11
62.2763504766
 21
159.2271445891
 31
0.0
  0
LINE
  5
61
330
1F
100
AcDbEntity
  8
0
  6
Continuous
 62
     7
370
    15
100
AcDbLine
 10
51.884045501
 20
157.7215910995
 30
0.0
 11
49.2763502084
 21
159.2271445891
 31
0.0
  0
LINE
  5
62
330
1F
100
AcDbEntity
  8
0
  6
Continuous
 62
     7
370
    15
100
AcDbLine
 10
57.801350395
 20
153.6799212093
 30
0.0
 11
57.801350395
 21
156.1799211534
 31
0.0
  0
LINE
  5
63
330
1F
100
AcDbEntity
  8
0
  6
Continuous
 62
     7
370
    15
100
AcDbLine
 10
53.7513502899
 20
153.6799212093
 30
0.0
 11
53.7513502899
 21
156.1799211534
 31
0.0
  0
LINE
  5
64
330
1F
100
AcDbEntity
  8
0
  6
Continuous
 62
     7
370
    15
100
AcDbLine
 10
53.7513502899
 20
156.1799211534
 30
0.0
 11
53.8532993782
 21
156.1799211534
 31
0.0
  0
LINE
  5
65
330
1F
100
AcDbEntity
  8
0
  6
Continuous
 62
     7
370
    15
100
AcDbLine
 10
57.6994013067
 20
156.1799211534
 30
0.0
 11
57.801350395
 21
156.1799211534
 31
0.0
  0
LINE
  5
66
330
1F
100
AcDbEntity
  8
0
  6
Continuous
 62
     7
370
    15
100
AcDbLine
 10
53.7513502899
 20
153.6799212093
 30
0.0
 11
57.801350395
 21
153.6799212093
 31
0.0
  0
LINE
  5
67
330
1F
100
AcDbEntity
  8
0
  6
Continuous
 62
     7
370
    15
100
AcDbLine
 10
51.7263502374
 20
156.1799211534
 30
0.0
 11
51.7263502374
 21
153.6799212093
 31
0.0
  0
LINE
  5
68
330
1F
100
AcDbEntity
  8
0
  6
Continuous
 62
     7
370
    15
100
AcDbLine
 10
51.7263502374
 20
156.1799211534
 30
0.0
 11
51.7773247816
 21
156.1799211534
 31
0.0
  0
LINE
  5
69
330
1F
100
AcDbEntity
  8
0
  6
Continuous
 62
     7
370
    15
100
AcDbLine
 10
53.7003757458
 20
156.1799211534
 30
0.0
 11
53.7513502899
 21
156.1799211534
 31
0.0
  0
LINE
  5
6A
330
1F
100
AcDbEntity
  8
0
  6
Continuous
 62
     7
370
    15
100
AcDbLine
 10
51.7263502374
 20
153.6799212093
 30
0.0
 11
53.7513502899
 21
153.6799212093
 31
0.0
  0
LINE
  5
6B
330
1F
100
AcDbEntity
  8
0
  6
Continuous
 62
     7
370
    15
100
AcDbLine
 10
59.8263504475
 20
153.6799212093
 30
0.0
 11
59.8263504475
 21
156.1799211534
 31
0.0
  0
LINE
  5
6C
330
1F
100
AcDbEntity
  8
0
  6
Continuous
 62
     7
370
    15
100
AcDbLine
 10
57.801350395
 20
156.1799211534
 30
0.0
 11
57.8523249391
 21
156.1799211534
 31
0.0
  0
LINE
  5
6D
330
1F
100
AcDbEntity
  8
0
  6
Continuous
 62
     7
370
    15
100
AcDbLine
 10
59.7753759034
 20
156.1799211534
 30
0.0
 11
59.8263504475
 21
156.1799211534
 31
0.0
  0
LINE
  5
6E
330
1F
100
AcDbEntity
  8
0
  6
Continuous
 62
     7
370
    15
100
AcDbLine
 10
57.801350395
 20
153.6799212093
 30
0.0
 11
59.8263504475
 21
153.6799212093
 31
0.0
  0
LINE
  5
6F
330
1F
100
AcDbEntity
  8
0
  6
Continuous
 62
     7
370
    15
100
AcDbLine
 10
58.1263503086
 20
151.1799207995
 30
0.0
 11
53.4263503764
 21
151.1799207995
 31
0.0
  0
LINE
  5
70
330
1F
100
AcDbEntity
  8
0
  6
Continuous
 62
     7
370
    15
100
AcDbLine
 10
57.7763504375
 20
146.1799218426
 30
0.0
 11
53.7763502475
 21
146.1799218426
 31
0.0
  0
LINE
  5
71
330
1F
100
AcDbEntity
  8
0
  6
Continuous
 62
     7
370
    15
100
AcDbLine
 10
58.1263503086
 20
148.679921321
 30
0.0
 11
53.4263503764
 21
148.679921321
 31
0.0
  0
ARC
  5
72
330
1F
100
AcDbEntity
  8
0
  6
Continuous
 62
     7
370
    15
100
AcDbCircle
 10
55.7763503425
 20
162.9799212435
 30
0.0
 40
7.249999999999992
100
AcDbArc
 50
135.0901851794
 51
146.2915552747
  0
ARC
  5
73
330
1F
100
AcDbEntity
  8
0
  6
Continuous
 62
     7
370
    15
100
AcDbCircle
 10
55.7763503425
 20
162.9799212435
 30
0.0
 40
7.249999999999997
100
AcDbArc
 50
153.7084447253
 51
164.9098148206
  0
SPLINE
  5
74
330
1F
100
AcDbEntity
  8
0
  6
Continuous
 62
     7
370
    15
100
AcDbSpline
210
0.0
220
0.0
230
1.0
 70
    24
 71
     3
 72
    10
 73
     6
 74
     0
 42
0.00000001
 43
0.00000001
 12
1.0
 22
0.0
 32
0.0
 13
1.0
 23
0.0
 33
0.0
 40
0.0
 40
0.0
 40
0.0
 40
0.0
 40
0.5
 40
0.5
 40
1.0
 40
1.0
 40
1.0
 40
1.0
 10
48.7763503424712
 20
167.0213731278612
 30
0.0
 10
48.7763503424712
 20
166.6689530179714
 30
0.0
 10
48.7763503424712
 20
166.3133400048815
 30
0.0
 10
48.7763503424712
 20
165.5939552267858
 30
0.0
 10
48.7763503424712
 20
165.2301601242856
 30
0.0
 10
48.7763503424712
 20
164.8673798523514
 30
0.0
  0
SPLINE
  5
75
330
1F
100
AcDbEntity
  8
0
  6
Continuous
 62
     7
370
    15
100
AcDbSpline
210
0.0
220
0.0
230
1.0
 70
    24
 71
     3
 72
     8
 73
     4
 74
     0
 42
0.00000001
 43
0.00000001
 12
1.0
 22
0.0
 32
0.0
 13
1.0
 23
0.0
 33
0.0
 40
0.0
 40
0.0
 40
0.0
 40
0.0
 40
1.0
 40
1.0
 40
1.0
 40
1.0
 10
50.64176323864348
 20
168.098369765616
 30
0.0
 10
50.0070329394494
 20
167.7319080565135
 30
0.0
 10
49.3870004528013
 20
167.3739321334409
 30
0.0
 10
48.77635034247119
 20
167.0213731278611
 30
0.0
  0
SPLINE
  5
76
330
1F
100
AcDbEntity
  8
0
  6
Continuous
 62
     7
370
    15
100
AcDbSpline
210
0.0
220
0.0
230
1.0
 70
    24
 71
     3
 72
     8
 73
     4
 74
     0
 42
0.00000001
 43
0.00000001
 12
1.0
 22
0.0
 32
0.0
 13
1.0
 23
0.0
 33
0.0
 40
0.0
 40
0.0
 40
0.0
 40
0.0
 40
1.0
 40
1.0
 40
1.0
 40
1.0
 10
62.77635034247121
 20
167.0213731278612
 30
0.0
 10
62.16345178074783
 20
167.3752302774581
 30
0.0
 10
61.53735758097487
 20
167.7367059322351
 30
0.0
 10
60.91093744629893
 20
168.098369765616
 30
0.0
  0
SPLINE
  5
77
330
1F
100
AcDbEntity
  8
0
  6
Continuous
 62
     7
370
    15
100
AcDbSpline
210
0.0
220
0.0
230
1.0
 70
    24
 71
     3
 72
    10
 73
     6
 74
     0
 42
0.00000001
 43
0.00000001
 12
1.0
 22
0.0
 32
0.0
 13
1.0
 23
0.0
 33
0.0
 40
0.0
 40
0.0
 40
0.0
 40
0.0
 40
0.5
 40
0.5
 40
1.0
 40
1.0
 40
1.0
 40
1.0
 10
62.77635034247121
 20
164.8673798523515
 30
0.0
 10
62.77635034247121
 20
165.2329121922079
 30
0.0
 10
62.77635034247121
 20
165.5970855470748
 30
0.0
 10
62.77635034247121
 20
166.3146889136304
 30
0.0
 10
62.77635034247121
 20
166.6695694793745
 30
0.0
 10
62.77635034247121
 20
167.0213731278612
 30
0.0
  0
ARC
  5
78
330
1F
100
AcDbEntity
  8
0
  6
Continuous
 62
     7
370
    15
100
AcDbCircle
 10
55.7763503425
 20
162.9799212435
 30
0.0
 40
7.250000000000009
100
AcDbArc
 50
15.0901851794
 51
26.2915552747
  0
ARC
  5
79
330
1F
100
AcDbEntity
  8
0
  6
Continuous
 62
     7
370
    15
100
AcDbCircle
 10
55.7763503425
 20
162.9799212435
 30
0.0
 40
7.249999999999997
100
AcDbArc
 50
33.7084447253
 51
44.9098148206
  0
SPLINE
  5
7A
330
1F
100
AcDbEntity
  8
0
  6
Continuous
 62
     7
370
    15
100
AcDbSpline
210
0.0
220
0.0
230
1.0
 70
    24
 71
     3
 72
     8
 73
     4
 74
     0
 42
0.00000001
 43
0.00000001
 12
1.0
 22
0.0
 32
0.0
 13
1.0
 23
0.0
 33
0.0
 40
0.0
 40
0.0
 40
0.0
 40
0.0
 40
1.0
 40
1.0
 40
1.0
 40
1.0
 10
48.7763503424712
 20
158.9384693592064
 30
0.0
 10
49.38924890419458
 20
158.5846122096094
 30
0.0
 10
50.01534310396755
 20
158.2231365548325
 30
0.0
 10
50.64176323864348
 20
157.8614727214515
 30
0.0
  0
ARC
  5
7B
330
1F
100
AcDbEntity
  8
0
  6
Continuous
 62
     7
370
    15
100
AcDbCircle
 10
55.7763503425
 20
162.9799212435
 30
0.0
 40
7.249999999999997
100
AcDbArc
 50
195.0901851794
 51
206.2915552747
  0
ARC
  5
7C
330
1F
100
AcDbEntity
  8
0
  6
Continuous
 62
     7
370
    15
100
AcDbCircle
 10
55.7763503425
 20
162.9799212435
 30
0.0
 40
7.249999999999992
100
AcDbArc
 50
213.7084447253
 51
224.9098148206
  0
SPLINE
  5
7D
330
1F
100
AcDbEntity
  8
0
  6
Continuous
 62
     7
370
    15
100
AcDbSpline
210
0.0
220
0.0
230
1.0
 70
    24
 71
     3
 72
    10
 73
     6
 74
     0
 42
0.00000001
 43
0.00000001
 12
1.0
 22
0.0
 32
0.0
 13
1.0
 23
0.0
 33
0.0
 40
0.0
 40
0.0
 40
0.0
 40
0.0
 40
0.5
 40
0.5
 40
1.0
 40
1.0
 40
1.0
 40
1.0
 10
48.7763503424712
 20
161.0924626347161
 30
0.0
 10
48.7763503424712
 20
160.7269302948596
 30
0.0
 10
48.7763503424712
 20
160.3627569399928
 30
0.0
 10
48.7763503424712
 20
159.6451535734371
 30
0.0
 10
48.7763503424712
 20
159.2902730076931
 30
0.0
 10
48.7763503424712
 20
158.9384693592064
 30
0.0
  0
SPLINE
  5
7E
330
1F
100
AcDbEntity
  8
0
  6
Continuous
 62
     7
370
    15
100
AcDbSpline
210
0.0
220
0.0
230
1.0
 70
    24
 71
     3
 72
    10
 73
     6
 74
     0
 42
0.00000001
 43
0.00000001
 12
1.0
 22
0.0
 32
0.0
 13
1.0
 23
0.0
 33
0.0
 40
0.0
 40
0.0
 40
0.0
 40
0.0
 40
0.5
 40
0.5
 40
1.0
 40
1.0
 40
1.0
 40
1.0
 10
62.77635034247121
 20
158.9384693592064
 30
0.0
 10
62.7763503424712
 20
159.2908894690962
 30
0.0
 10
62.77635034247121
 20
159.6465024821861
 30
0.0
 10
62.77635034247121
 20
160.3658872602817
 30
0.0
 10
62.77635034247121
 20
160.7296823627819
 30
0.0
 10
62.77635034247121
 20
161.0924626347161
 30
0.0
  0
SPLINE
  5
7F
330
1F
100
AcDbEntity
  8
0
  6
Continuous
 62
     7
370
    15
100
AcDbSpline
210
0.0
220
0.0
230
1.0
 70
    24
 71
     3
 72
     8
 73
     4
 74
     0
 42
0.00000001
 43
0.00000001
 12
1.0
 22
0.0
 32
0.0
 13
1.0
 23
0.0
 33
0.0
 40
0.0
 40
0.0
 40
0.0
 40
0.0
 40
1.0
 40
1.0
 40
1.0
 40
1.0
 10
60.91093744629892
 20
157.8614727214515
 30
0.0
 10
61.54566774549301
 20
158.2279344305541
 30
0.0
 10
62.16570023214111
 20
158.5859103536266
 30
0.0
 10
62.77635034247121
 20
158.9384693592064
 30
0.0
  0
ARC
  5
80
330
1F
100
AcDbEntity
  8
0
  6
Continuous
 62
     7
370
    15
100
AcDbCircle
 10
55.7763503425
 20
162.9799212435
 30
0.0
 40
7.249999999999991
100
AcDbArc
 50
315.0901851794
 51
326.2915552747
  0
ARC
  5
81
330
1F
100
AcDbEntity
  8
0
  6
Continuous
 62
     7
370
    15
100
AcDbCircle
 10
55.7763503425
 20
162.9799212435
 30
0.0
 40
7.250000000000002
100
AcDbArc
 50
333.7084447253
 51
344.9098148206
  0
LINE
  5
82
330
1F
100
AcDbEntity
  8
0
  6
Continuous
 62
     7
370
    15
100
AcDbLine
 10
62.7763505585
 20
164.867379853
 30
0.0
 11
62.7763505585
 21
161.0924626341
 31
0.0
  0
LINE
  5
83
330
1F
100
AcDbEntity
  8
0
  6
Continuous
 62
     7
370
    15
100
AcDbLine
 10
60.9109375186
 20
157.8614724906
 30
0.0
 11
59.3840455662
 21
156.9799211914
 31
0.0
  0
LINE
  5
84
330
1F
100
AcDbEntity
  8
0
  6
Continuous
 62
     7
370
    15
100
AcDbLine
 10
59.3840455662
 20
168.9799212957
 30
0.0
 11
60.9109375186
 21
168.0983699964
 31
0.0
  0
LINE
  5
85
330
1F
100
AcDbEntity
  8
0
  6
Continuous
 62
     7
370
    15
100
AcDbLine
 10
52.1686551187
 20
156.9799211914
 30
0.0
 11
50.6417631663
 21
157.8614724906
 31
0.0
  0
LINE
  5
86
330
1F
100
AcDbEntity
  8
0
  6
Continuous
 62
     7
370
    15
100
AcDbLine
 10
48.7763501264
 20
161.0924626341
 30
0.0
 11
48.7763501264
 21
164.867379853
 31
0.0
  0
LINE
  5
87
330
1F
100
AcDbEntity
  8
0
  6
Continuous
 62
     7
370
    15
100
AcDbLine
 10
50.6417631663
 20
168.0983699964
 30
0.0
 11
52.1686551187
 21
168.9799212957
 31
0.0
  0
LINE
  5
88
330
1F
100
AcDbEntity
  8
0
  6
Continuous
 62
     7
370
    15
100
AcDbLine
 10
53.7513502899
 20
169.7799213337
 30
0.0
 11
53.7513502899
 21
172.2799212778
 31
0.0
  0
LINE
  5
89
330
1F
100
AcDbEntity
  8
0
  6
Continuous
 62
     7
370
    15
100
AcDbLine
 10
51.7263502374
 20
169.7799213337
 30
0.0
 11
51.7773247816
 21
169.7799213337
 31
0.0
  0
LINE
  5
8A
330
1F
100
AcDbEntity
  8
0
  6
Continuous
 62
     7
370
    15
100
AcDbLine
 10
53.7003757458
 20
169.7799213337
 30
0.0
 11
53.7513502899
 21
169.7799213337
 31
0.0
  0
LINE
  5
8B
330
1F
100
AcDbEntity
  8
0
  6
Continuous
 62
     7
370
    15
100
AcDbLine
 10
51.7263502374
 20
169.7799213337
 30
0.0
 11
51.7263502374
 21
172.2799212778
 31
0.0
  0
LINE
  5
8C
330
1F
100
AcDbEntity
  8
0
  6
Continuous
 62
     7
370
    15
100
AcDbLine
 10
51.7263502374
 20
172.2799212778
 30
0.0
 11
53.7513502899
 21
172.2799212778
 31
0.0
  0
LINE
  5
8D
330
1F
100
AcDbEntity
  8
0
  6
Continuous
 62
     7
370
    15
100
AcDbLine
 10
57.801350395
 20
169.7799213337
 30
0.0
 11
57.801350395
 21
172.2799212778
 31
0.0
  0
LINE
  5
8E
330
1F
100
AcDbEntity
  8
0
  6
Continuous
 62
     7
370
    15
100
AcDbLine
 10
53.7513502899
 20
169.7799213337
 30
0.0
 11
53.8532993782
 21
169.7799213337
 31
0.0
  0
LINE
  5
8F
330
1F
100
AcDbEntity
  8
0
  6
Continuous
 62
     7
370
    15
100
AcDbLine
 10
57.6994013067
 20
169.7799213337
 30
0.0
 11
57.801350395
 21
169.7799213337
 31
0.0
  0
LINE
  5
90
330
1F
100
AcDbEntity
  8
0
  6
Continuous
 62
     7
370
    15
100
AcDbLine
 10
53.7513502899
 20
172.2799212778
 30
0.0
 11
57.801350395
 21
172.2799212778
 31
0.0
  0
LINE
  5
91
330
1F
100
AcDbEntity
  8
0
  6
Continuous
 62
     7
370
    15
100
AcDbLine
 10
59.8263504475
 20
169.7799213337
 30
0.0
 11
59.8263504475
 21
172.2799212778
 31
0.0
  0
LINE
  5
92
330
1F
100
AcDbEntity
  8
0
  6
Continuous
 62
     7
370
    15
100
AcDbLine
 10
57.801350395
 20
169.7799213337
 30
0.0
 11
57.8523249391
 21
169.7799213337
 31
0.0
  0
LINE
  5
93
330
1F
100
AcDbEntity
  8
0
  6
Continuous
 62
     7
370
    15
100
AcDbLine
 10
59.7753759034
 20
169.7799213337
 30
0.0
 11
59.8263504475
 21
169.7799213337
 31
0.0
  0
LINE
  5
94
330
1F
100
AcDbEntity
  8
0
  6
Continuous
 62
     7
370
    15
100
AcDbLine
 10
57.801350395
 20
172.2799212778
 30
0.0
 11
59.8263504475
 21
172.2799212778
 31
0.0
  0
CIRCLE
  5
95
330
1F
100
AcDbEntity
  8
0
  6
Continuous
 62
     7
370
    15
100
AcDbCircle
 10
55.7763503425
 20
162.9799212435
 30
0.0
 40
3.499999999999993
  0
CIRCLE
  5
96
330
1F
100
AcDbEntity
  8
0
  6
Continuous
 62
     7
370
    15
100
AcDbCircle
 10
55.7763503425
 20
162.9799212435
 30
0.0
 40
1.25
  0
LINE
  5
97
330
1F
100
AcDbEntity
  8
0
  6
Continuous
 62
     7
370
    15
100
AcDbLine
 10
59.2404519234
 20
156.9799211914
 30
0.0
 11
52.3122487616
 21
156.9799211914
 31
0.0
  0
LINE
  5
98
330
1F
100
AcDbEntity
  8
0
  6
Continuous
 62
     7
370
    15
100
AcDbLine
 10
59.2404519234
 20
168.9799212957
 30
0.0
 11
62.7045535043
 21
162.9799212435
 31
0.0
  0
LINE
  5
99
330
1F
100
AcDbEntity
  8
0
  6
Continuous
 62
     7
370
    15
100
AcDbLine
 10
62.7045535043
 20
162.9799212435
 30
0.0
 11
59.2404519234
 21
156.9799211914
 31
0.0
  0
LINE
  5
9A
330
1F
100
AcDbEntity
  8
0
  6
Continuous
 62
     7
370
    15
100
AcDbLine
 10
52.3122487616
 20
156.9799211914
 30
0.0
 11
48.8481471807
 21
162.9799212435
 31
0.0
  0
LINE
  5
9B
330
1F
100
AcDbEntity
  8
0
  6
Continuous
 62
     7
370
    15
100
AcDbLine
 10
52.3122487616
 20
168.9799212957
 30
0.0
 11
59.2404519234
 21
168.9799212957
 31
0.0
  0
LINE
  5
9C
330
1F
100
AcDbEntity
  8
0
  6
Continuous
 62
     7
370
    15
100
AcDbLine
 10
48.8481471807
 20
162.9799212435
 30
0.0
 11
52.3122487616
 21
168.9799212957
 31
0.0
  0
LINE
  5
9D
330
1F
100
AcDbEntity
  8
0
  6
Continuous
 62
     7
370
    15
100
AcDbLine
 10
59.7753759034
 20
169.7799213337
 30
0.0
 11
57.8523249391
 21
169.7799213337
 31
0.0
  0
LINE
  5
9E
330
1F
100
AcDbEntity
  8
0
  6
Continuous
 62
     7
370
    15
100
AcDbLine
 10
57.6994013067
 20
169.7799213337
 30
0.0
 11
53.8532993782
 21
169.7799213337
 31
0.0
  0
LINE
  5
9F
330
1F
100
AcDbEntity
  8
0
  6
Continuous
 62
     7
370
    15
100
AcDbLine
 10
53.7003757458
 20
169.7799213337
 30
0.0
 11
51.7773247816
 21
169.7799213337
 31
0.0
  0
LINE
  5
A0
330
1F
100
AcDbEntity
  8
0
  6
Continuous
 62
     7
370
    15
100
AcDbLine
 10
59.7763505325
 20
168.9799212957
 30
0.0
 11
59.2404519234
 21
168.9799212957
 31
0.0
  0
LINE
  5
A1
330
1F
100
AcDbEntity
  8
0
  6
Continuous
 62
     7
370
    15
100
AcDbLine
 10
52.3122487616
 20
168.9799212957
 30
0.0
 11
51.7763501525
 21
168.9799212957
 31
0.0
  0
LINE
  5
A2
330
1F
100
AcDbEntity
  8
0
  6
Continuous
 62
     7
370
    15
100
AcDbLine
 10
52.3122487616
 20
156.9799211914
 30
0.0
 11
51.7763501525
 21
156.9799211914
 31
0.0
  0
LINE
  5
A3
330
1F
100
AcDbEntity
  8
0
  6
Continuous
 62
     7
370
    15
100
AcDbLine
 10
59.7763505325
 20
156.9799211914
 30
0.0
 11
59.2404519234
 21
156.9799211914
 31
0.0
  0
LINE
  5
A4
330
1F
100
AcDbEntity
  8
0
  6
Continuous
 62
     7
370
    15
100
AcDbLine
 10
52.8113168225
 20
156.1799211534
 30
0.0
 11
51.7773247816
 21
156.1799211534
 31
0.0
  0
LINE
  5
A5
330
1F
100
AcDbEntity
  8
0
  6
Continuous
 62
     7
370
    15
100
AcDbLine
 10
59.7753759034
 20
156.1799211534
 30
0.0
 11
57.8523249391
 21
156.1799211534
 31
0.0
  0
LINE
  5
A6
330
1F
100
AcDbEntity
  8
0
  6
Continuous
 62
     7
370
    15
100
AcDbLine
 10
57.6994013067
 20
156.1799211534
 30
0.0
 11
53.8532993782
 21
156.1799211534
 31
0.0
  0
LINE
  5
A7
330
1F
100
AcDbEntity
  8
0
  6
Continuous
 62
     7
370
    15
100
AcDbLine
 10
53.7003757458
 20
156.1799211534
 30
0.0
 11
52.8113168225
 21
156.1799211534
 31
0.0
  0
DIMENSION
  5
A8
330
1F
100
AcDbEntity
  8
0
  6
Continuous
 62
     7
370
     0
100
AcDbDimension
  2
_D
 10
42.9471050266
 20
156.9799212435
 30
0.0
 11
42.9471050266
 21
162.82034337
 31
0.0
 70
   160
  1
<>
 71
     2
 42
-1.0
  3
SLDDIMSTYLE0
100
AcDbAlignedDimension
 13
52.3122487273
 23
168.9799212435
 33
0.0
 14
52.3122487273
 24
156.9799212435
 34
0.0
 50
90.0
100
AcDbRotatedDimension
  0
DIMENSION
  5
B4
330
1F
100
AcDbEntity
  8
0
  6
Continuous
 62
     7
370
     0
100
AcDbDimension
  2
_D_1
 10
34.4453537128
 20
153.6799212435
 30
0.0
 11
34.4453537128
 21
162.82034337
 31
0.0
 70
   160
  1
<>
 71
     2
 42
-1.0
  3
SLDDIMSTYLE1
100
AcDbAlignedDimension
 13
51.7263503425
 23
172.2799212435
 33
0.0
 14
51.7263503425
 24
153.6799212435
 34
0.0
 50
90.0
100
AcDbRotatedDimension
  0
MTEXT
  5
BF
330
1F
100
AcDbEntity
  8
0
  6
Continuous
 62
     7
370
     0
100
AcDbMText
 10
30.8602842725
 20
190.1867179601
 30
0.0
 40
3.5
 41
0.0
 71
     1
 72
     1
  1
Ｍ3
  7
SLDTEXTSTYLE1
 73
     1
 44
1.0
  0
LEADER
  5
C1
330
1F
100
AcDbEntity
  8
0
  6
Continuous
 62
     7
370
     0
100
AcDbLeader
  3
SLDDIMSTYLE2
 76
     3
 10
55.1568003891
 20
164.0655813447
 30
0.0
 10
38.381508079
 20
185.5475763016
 30
0.0
 10
30.7001795332
 20
185.5475763016
 30
0.0
  0
INSERT
  5
CD
330
1F
100
AcDbEntity
  8
0
  6
Continuous
 62
     7
370
     0
100
AcDbBlockReference
  2
SW_CENTERMARKSYMBOL_0
 10
55.7763503425
 20
162.9799212435
 30
0.0
  0
LINE
  5
CE
330
1F
100
AcDbEntity
  8
0
  6
Continuous
 62
     7
370
    15
100
AcDbLine
 10
158.553436583
 20
157.9799213553
 30
0.0
 11
159.5534386096
 21
158.9799210535
 31
0.0
  0
LINE
  5
CF
330
1F
100
AcDbEntity
  8
0
  6
Continuous
 62
     7
370
    15
100
AcDbLine
 10
159.5534386096
 20
166.9799214335
 30
0.0
 11
158.553436583
 21
167.9799211318
 31
0.0
  0
LINE
  5
D0
330
1F
100
AcDbEntity
  8
0
  6
Continuous
 62
     7
370
    15
100
AcDbLine
 10
149.0534396825
 20
157.9799213553
 30
0.0
 11
149.9872470257
 21
157.9799213553
 31
0.0
  0
LINE
  5
D1
330
1F
100
AcDbEntity
  8
0
  6
Continuous
 62
     7
370
    15
100
AcDbLine
 10
155.9872480092
 20
157.9799213553
 30
0.0
 11
158.553436583
 21
157.9799213553
 31
0.0
  0
LINE
  5
D2
330
1F
100
AcDbEntity
  8
0
  6
Continuous
 62
     7
370
    15
100
AcDbLine
 10
158.553436583
 20
167.9799211318
 30
0.0
 11
155.9872480092
 21
167.9799211318
 31
0.0
  0
LINE
  5
D3
330
1F
100
AcDbEntity
  8
0
  6
Continuous
 62
     7
370
    15
100
AcDbLine
 10
149.9872470257
 20
167.9799211318
 30
0.0
 11
149.0534396825
 21
167.9799211318
 31
0.0
  0
LINE
  5
D4
330
1F
100
AcDbEntity
  8
0
  6
Continuous
 62
     7
370
    15
100
AcDbLine
 10
147.5534366426
 20
158.4799214372
 30
0.0
 11
149.0534396825
 21
158.4799214372
 31
0.0
  0
LINE
  5
D5
330
1F
100
AcDbEntity
  8
0
  6
Continuous
 62
     7
370
    15
100
AcDbLine
 10
149.0534396825
 20
167.4799210498
 30
0.0
 11
147.5534366426
 21
167.4799210498
 31
0.0
  0
LINE
  5
D6
330
1F
100
AcDbEntity
  8
0
  6
Continuous
 62
     7
370
    15
100
AcDbLine
 10
143.053438699
 20
159.2299213274
 30
0.0
 11
144.5534380135
 21
159.2299213274
 31
0.0
  0
LINE
  5
D7
330
1F
100
AcDbEntity
  8
0
  6
Continuous
 62
     7
370
    15
100
AcDbLine
 10
144.5534380135
 20
166.7299211597
 30
0.0
 11
143.8536869344
 21
166.7299211597
 31
0.0
  0
LINE
  5
D8
330
1F
100
AcDbEntity
  8
0
  6
Continuous
 62
     7
370
    15
100
AcDbLine
 10
143.3390865085
 20
166.7299211597
 30
0.0
 11
143.053438699
 21
166.7299211597
 31
0.0
  0
LINE
  5
D9
330
1F
100
AcDbEntity
  8
0
  6
Continuous
 62
     7
370
    15
100
AcDbLine
 10
143.053438699
 20
166.7299211597
 30
0.0
 11
142.5534376857
 21
166.2299213106
 31
0.0
  0
LINE
  5
DA
330
1F
100
AcDbEntity
  8
0
  6
Continuous
 62
     7
370
    15
100
AcDbLine
 10
142.5534376857
 20
159.7299211765
 30
0.0
 11
143.053438699
 21
159.2299213274
 31
0.0
  0
LINE
  5
DB
330
1F
100
AcDbEntity
  8
0
  6
Continuous
 62
     7
370
    15
100
AcDbLine
 10
159.6534403023
 20
159.4799211355
 30
0.0
 11
160.2534355578
 21
159.4799211355
 31
0.0
  0
LINE
  5
DC
330
1F
100
AcDbEntity
  8
0
  6
Continuous
 62
     7
370
    15
100
AcDbLine
 10
160.2534355578
 20
165.5628522033
 30
0.0
 11
159.6534403023
 21
165.5628522033
 31
0.0
  0
LINE
  5
DD
330
1F
100
AcDbEntity
  8
0
  6
Continuous
 62
     7
370
    15
100
AcDbLine
 10
100.2034379152
 20
151.1799207995
 30
0.0
 11
100.5534377863
 21
148.679921321
 31
0.0
  0
LINE
  5
DE
330
1F
100
AcDbEntity
  8
0
  6
Continuous
 62
     7
370
    15
100
AcDbLine
 10
104.5534379763
 20
148.679921321
 30
0.0
 11
104.903438313
 21
151.1799207995
 31
0.0
  0
LINE
  5
DF
330
1F
100
AcDbEntity
  8
0
  6
Continuous
 62
     7
370
    15
100
AcDbLine
 10
100.2034379152
 20
148.679921321
 30
0.0
 11
100.5534377863
 21
146.1799218426
 31
0.0
  0
LINE
  5
E0
330
1F
100
AcDbEntity
  8
0
  6
Continuous
 62
     7
370
    15
100
AcDbLine
 10
104.5534379763
 20
146.1799218426
 30
0.0
 11
104.903438313
 21
148.679921321
 31
0.0
  0
LINE
  5
E1
330
1F
100
AcDbEntity
  8
0
  6
Continuous
 62
     7
370
    15
100
AcDbLine
 10
104.6534378064
 20
151.1799207995
 30
0.0
 11
104.6534378064
 21
153.6799212093
 31
0.0
  0
LINE
  5
E2
330
1F
100
AcDbEntity
  8
0
  6
Continuous
 62
     7
370
    15
100
AcDbLine
 10
100.4534379562
 20
153.6799212093
 30
0.0
 11
100.4534379562
 21
151.1799207995
 31
0.0
  0
SPLINE
  5
E3
330
1F
100
AcDbEntity
  8
0
  6
Continuous
 62
     7
370
    15
100
AcDbSpline
210
0.0
220
0.0
230
1.0
 70
     8
 71
     3
 72
    34
 73
    30
 74
     0
 42
0.00000001
 43
0.00000001
 12
1.0
 22
0.0
 32
0.0
 13
1.0
 23
0.0
 33
0.0
 40
0.0
 40
0.0
 40
0.0
 40
0.0
 40
0.0134003232113991
 40
0.0399806672508529
 40
0.0779546407702535
 40
0.1239706590743305
 40
0.17058818830974
 40
0.2174803667332113
 40
0.2646036832049279
 40
0.3119702288619254
 40
0.3576783394697234
 40
0.3962229433007051
 40
0.4272100172784434
 40
0.4506245100172971
 40
0.4666113529935623
 40
0.4916350447718185
 40
0.5289999381675552
 40
0.5787534656293485
 40
0.6242285646834209
 40
0.6714959719895227
 40
0.7146526346731339
 40
0.7536961783814558
 40
0.7992828726695176
 40
0.837429741050809
 40
0.8733784897747489
 40
0.9045774055047495
 40
0.9384367363701775
 40
0.9703908458823424
 40
1.0
 40
1.0
 40
1.0
 40
1.0
 10
107.2103457507801
 20
167.000786318824
 30
0.0
 10
107.2125234875075
 20
166.9982883291574
 30
0.0
 10
107.2190208955239
 20
166.9908354273074
 30
0.0
 10
107.2598322535159
 20
166.9275126513884
 30
0.0
 10
107.3187162109087
 20
166.7911068674387
 30
0.0
 10
107.3960194618725
 20
166.5547572377764
 30
0.0
 10
107.4802533785586
 20
166.2287837644336
 30
0.0
 10
107.56762944666
 20
165.8298729588319
 30
0.0
 10
107.6567812182514
 20
165.364906471815
 30
0.0
 10
107.7458933423905
 20
164.8512360130242
 30
0.0
 10
107.8298033475349
 20
164.3327324889185
 30
0.0
 10
107.9032616467951
 20
163.8592165315004
 30
0.0
 10
107.9625679214919
 20
163.4684937601504
 30
0.0
 10
108.0075009403366
 20
163.1696196440951
 30
0.0
 10
108.0486271190007
 20
162.8953044306182
 30
0.0
 10
108.0986512473163
 20
162.5615898766663
 30
0.0
 10
108.1702276716498
 20
162.0873947539425
 30
0.0
 10
108.2549188974328
 20
161.5398901868754
 30
0.0
 10
108.3460058622794
 20
160.9795916453659
 30
0.0
 10
108.4330939842194
 20
160.4814254291033
 30
0.0
 10
108.5163120978165
 20
160.0502111162825
 30
0.0
 10
108.5987101973852
 20
159.6684527052259
 30
0.0
 10
108.6787935234445
 20
159.347810993626
 30
0.0
 10
108.7574044049708
 20
159.0869246088395
 30
0.0
 10
108.8310896297013
 20
158.889668018609
 30
0.0
 10
108.9153745856145
 20
158.7233228437916
 30
0.0
 10
109.0105108134068
 20
158.6000142813964
 30
0.0
 10
109.1315313833739
 20
158.5034923749219
 30
0.0
 10
109.2398967583158
 20
158.4890422221452
 30
0.0
 10
109.2920156178188
 20
158.4820923501703
 30
0.0
  0
LWPOLYLINE
  5
E4
330
1F
100
AcDbEntity
  8
0
  6
Continuous
 62
     7
370
    15
100
AcDbPolyline
 90
       29
 70
   128
 43
0.0
 10
111.247465199
 20
166.9733714419
 10
111.2468449381
 20
166.9732987987
 10
111.2605186162
 20
166.9267033333
 10
111.3017892447
 20
166.831923799
 10
111.3682912645
 20
166.6386869377
 10
111.4343425241
 20
166.4030748991
 10
111.4978885261
 20
166.1414885068
 10
111.5573907253
 20
165.8684107581
 10
111.6120966134
 20
165.5948738674
 10
111.6643642989
 20
165.3147320369
 10
111.7636414227
 20
164.738739991
 10
111.8557473627
 20
164.1645353859
 10
111.9447818008
 20
163.5852750381
 10
112.0441930351
 20
162.9245549459
 10
112.155463731
 20
162.1863722442
 10
112.2807359305
 20
161.3831789339
 10
112.3488025722
 20
160.969594411
 10
112.4205460754
 20
160.5579132786
 10
112.4945489672
 20
160.1651803697
 10
112.5632619468
 20
159.833955496
 10
112.6450525579
 20
159.4856010391
 10
112.7157455293
 20
159.2277404027
 10
112.782368621
 20
159.0236215027
 10
112.8448920307
 20
158.8677507
 10
112.9245089349
 20
158.7176443184
 10
113.0060909298
 20
158.6131881097
 10
113.1265314278
 20
158.521869603
 10
113.290842807
 20
158.4819777975
 10
113.290842807
 20
158.4819777975
  0
SPLINE
  5
E5
330
1F
100
AcDbEntity
  8
0
  6
Continuous
 62
     7
370
    15
100
AcDbSpline
210
0.0
220
0.0
230
1.0
 70
     8
 71
     3
 72
    36
 73
    32
 74
     0
 42
0.00000001
 43
0.00000001
 12
1.0
 22
0.0
 32
0.0
 13
1.0
 23
0.0
 33
0.0
 40
0.0
 40
0.0
 40
0.0
 40
0.0
 40
0.0139562787167979
 40
0.0475624345128161
 40
0.0778827896307913
 40
0.1108802647172803
 40
0.1439241972599658
 40
0.1829695575324121
 40
0.2162108881138381
 40
0.2528288524416506
 40
0.2928154182944082
 40
0.3354414806426402
 40
0.385787068266611
 40
0.4263177142919812
 40
0.4569482396455016
 40
0.4734018486077889
 40
0.4868081906175074
 40
0.5055825511392575
 40
0.5304006670769082
 40
0.5612893537235843
 40
0.5982777804826113
 40
0.6401297710692074
 40
0.6818748543241872
 40
0.7230178360810477
 40
0.7636175617747563
 40
0.8037231749905993
 40
0.8433447454264181
 40
0.882518718111013
 40
0.9215080088239773
 40
0.9606442002826977
 40
1.0
 40
1.0
 40
1.0
 40
1.0
 10
115.2365153637838
 20
166.980338666037
 30
0.0
 10
115.2346726544165
 20
166.9799255166115
 30
0.0
 10
115.2283927752746
 20
166.9785175200463
 30
0.0
 10
115.2582764183139
 20
166.9295736736664
 30
0.0
 10
115.2989943150478
 20
166.8343341485572
 30
0.0
 10
115.3553201141794
 20
166.6809368476315
 30
0.0
 10
115.4209458701287
 20
166.4586541518183
 30
0.0
 10
115.4870701637874
 20
166.1942680793718
 30
0.0
 10
115.5561523046997
 20
165.8796360695973
 30
0.0
 10
115.6261827960452
 20
165.5266218200292
 30
0.0
 10
115.7025373383854
 20
165.1054955442447
 30
0.0
 10
115.7878856469996
 20
164.5969197330051
 30
0.0
 10
115.8735920151159
 20
164.0536847967722
 30
0.0
 10
115.951574987822
 20
163.5415600495677
 30
0.0
 10
116.0078490015152
 20
163.1668900250218
 30
0.0
 10
116.0467117348436
 20
162.9074863755581
 30
0.0
 10
116.0779681162083
 20
162.6990135682248
 30
0.0
 10
116.1146127395337
 20
162.4552421084842
 30
0.0
 10
116.1625155581944
 20
162.1389709322989
 30
0.0
 10
116.2221256468915
 20
161.7514788805742
 30
0.0
 10
116.2926816242022
 20
161.3057632497367
 30
0.0
 10
116.3702312441062
 20
160.8386818231228
 30
0.0
 10
116.4508631004163
 20
160.3862549171052
 30
0.0
 10
116.5313755538563
 20
159.9756869811627
 30
0.0
 10
116.6117514683568
 20
159.6138512473414
 30
0.0
 10
116.6925586290441
 20
159.3014710458372
 30
0.0
 10
116.7739913605352
 20
159.0415751104518
 30
0.0
 10
116.8585498122028
 20
158.8283038934522
 30
0.0
 10
116.9653360998858
 20
158.6490255332471
 30
0.0
 10
117.1038470140596
 20
158.5115986447789
 30
0.0
 10
117.2287115123974
 20
158.4914889464736
 30
0.0
 10
117.29131843719
 20
158.4814059654328
 30
0.0
  0
SPLINE
  5
E6
330
1F
100
AcDbEntity
  8
0
  6
Continuous
 62
     7
370
    15
100
AcDbSpline
210
0.0
220
0.0
230
1.0
 70
     8
 71
     3
 72
    14
 73
    10
 74
     0
 42
0.00000001
 43
0.00000001
 12
1.0
 22
0.0
 32
0.0
 13
1.0
 23
0.0
 33
0.0
 40
0.0
 40
0.0
 40
0.0
 40
0.0
 40
0.0750107003585811
 40
0.1461205906233359
 40
0.2787659557556585
 40
0.4066342958005064
 40
0.5333913749685838
 40
0.7834158294677486
 40
0.9999999999999999
 40
0.9999999999999999
 40
0.9999999999999999
 40
0.9999999999999999
 10
119.2310156283092
 20
167.4606454664919
 30
0.0
 10
119.1824265445422
 20
167.4469763632314
 30
0.0
 10
119.087775173685
 20
167.4203489963068
 30
0.0
 10
118.9532399118728
 20
167.296651036118
 30
0.0
 10
118.8612915531042
 20
167.1370999129893
 30
0.0
 10
118.7860216811131
 20
166.9508409199959
 30
0.0
 10
118.6819254530991
 20
166.6312200307304
 30
0.0
 10
118.566413048657
 20
166.1707701914396
 30
0.0
 10
118.4774243568738
 20
165.69893251128
 30
0.0
 10
118.4361187723589
 20
165.4799211876544
 30
0.0
  0
SPLINE
  5
E7
330
1F
100
AcDbEntity
  8
0
  6
Continuous
 62
     7
370
    15
100
AcDbSpline
210
0.0
220
0.0
230
1.0
 70
     8
 71
     3
 72
    11
 73
     7
 74
     0
 42
0.00000001
 43
0.00000001
 12
1.0
 22
0.0
 32
0.0
 13
1.0
 23
0.0
 33
0.0
 40
0.0
 40
0.0
 40
0.0
 40
0.0
 40
0.2849701562273409
 40
0.5890348987989565
 40
0.8883987495719156
 40
1.0
 40
1.0
 40
1.0
 40
1.0
 10
117.6331715640735
 20
160.4799212994131
 30
0.0
 10
117.5974283458829
 20
160.2954494837231
 30
0.0
 10
117.5235469149697
 20
159.9141452140943
 30
0.0
 10
117.4170798159599
 20
159.4750114381311
 30
0.0
 10
117.3289801708234
 20
159.1978019064776
 30
0.0
 10
117.2921882415044
 20
159.1114036525924
 30
0.0
 10
117.2821970638943
 20
159.0879414336833
 30
0.0
  0
SPLINE
  5
E8
330
1F
100
AcDbEntity
  8
0
  6
Continuous
 62
     7
370
    15
100
AcDbSpline
210
0.0
220
0.0
230
1.0
 70
     8
 71
     3
 72
    17
 73
    13
 74
     0
 42
0.00000001
 43
0.00000001
 12
1.0
 22
0.0
 32
0.0
 13
1.0
 23
0.0
 33
0.0
 40
0.0
 40
0.0
 40
0.0
 40
0.0
 40
0.126026273842101
 40
0.2320419050225903
 40
0.3333166082167689
 40
0.4103719221382218
 40
0.4816610561890345
 40
0.5505663151221563
 40
0.617119650994882
 40
0.7567058914675521
 40
0.885309248967064
 40
1.0
 40
1.0
 40
1.0
 40
1.0
 10
115.2906419691753
 20
167.4781124213788
 30
0.0
 10
115.2312101128902
 20
167.4689878965581
 30
0.0
 10
115.1217830804865
 20
167.4521876527893
 30
0.0
 10
114.9869799326496
 20
167.3315885765109
 30
0.0
 10
114.8919844652278
 20
167.189984788124
 30
0.0
 10
114.8297758238368
 20
167.0549182151847
 30
0.0
 10
114.7772327047397
 20
166.9191880848963
 30
0.0
 10
114.7287915334074
 20
166.7734078987969
 30
0.0
 10
114.6659999642055
 20
166.5598072665032
 30
0.0
 10
114.5921278860197
 20
166.2638538795188
 30
0.0
 10
114.5101665530912
 20
165.8820691513272
 30
0.0
 10
114.4589821226331
 20
165.6087608599132
 30
0.0
 10
114.4348533806515
 20
165.4799211876544
 30
0.0
  0
SPLINE
  5
E9
330
1F
100
AcDbEntity
  8
0
  6
Continuous
 62
     7
370
    15
100
AcDbSpline
210
0.0
220
0.0
230
1.0
 70
     8
 71
     3
 72
    12
 73
     8
 74
     0
 42
0.00000001
 43
0.00000001
 12
1.0
 22
0.0
 32
0.0
 13
1.0
 23
0.0
 33
0.0
 40
0.0
 40
0.0
 40
0.0
 40
0.0
 40
0.1078971306946656
 40
0.4596475994292964
 40
0.8061230925730126
 40
0.9783929948290375
 40
1.0
 40
1.0
 40
1.0
 40
1.0
 10
113.6318447050762
 20
160.4799212994131
 30
0.0
 10
113.6186011594039
 20
160.4063753618918
 30
0.0
 10
113.5621829401517
 20
160.0930656991434
 30
0.0
 10
113.4632507499849
 20
159.6579405092148
 30
0.0
 10
113.3674144057658
 20
159.3049165510754
 30
0.0
 10
113.3003987792745
 20
159.1284424545853
 30
0.0
 10
113.2870465491094
 20
159.0979831182453
 30
0.0
 10
113.2855584827375
 20
159.094588515729
 30
0.0
  0
SPLINE
  5
EA
330
1F
100
AcDbEntity
  8
0
  6
Continuous
 62
     7
370
    15
100
AcDbSpline
210
0.0
220
0.0
230
1.0
 70
     8
 71
     3
 72
    12
 73
     8
 74
     0
 42
0.00000001
 43
0.00000001
 12
1.0
 22
0.0
 32
0.0
 13
1.0
 23
0.0
 33
0.0
 40
0.0
 40
0.0
 40
0.0
 40
0.0
 40
0.1643487272147721
 40
0.3358599992931575
 40
0.601445580464448
 40
0.8326811062174949
 40
1.0
 40
1.0
 40
1.0
 40
1.0
 10
111.2917644885492
 20
167.4777291821393
 30
0.0
 10
111.2361297660722
 20
167.469717626522
 30
0.0
 10
111.122435682957
 20
167.4533453606117
 30
0.0
 10
110.9835135791731
 20
167.3362292071918
 30
0.0
 10
110.8798458347591
 20
167.179142479563
 30
0.0
 10
110.7858787331828
 20
166.9581344614137
 30
0.0
 10
110.7364798428185
 20
166.7973998626117
 30
0.0
 10
110.7157414761495
 20
166.7299211597147
 30
0.0
  0
SPLINE
  5
EB
330
1F
100
AcDbEntity
  8
0
  6
Continuous
 62
     7
370
    15
100
AcDbSpline
210
0.0
220
0.0
230
1.0
 70
     8
 71
     3
 72
     9
 73
     5
 74
     0
 42
0.00000001
 43
0.00000001
 12
1.0
 22
0.0
 32
0.0
 13
1.0
 23
0.0
 33
0.0
 40
0.0
 40
0.0
 40
0.0
 40
0.0
 40
0.6845559982185658
 40
1.0
 40
1.0
 40
1.0
 40
1.0
 10
109.3356275913429
 20
159.2299213273528
 30
0.0
 10
109.3216614024888
 20
159.1891334626874
 30
0.0
 10
109.3012595816145
 20
159.1295505143654
 30
0.0
 10
109.2892211634398
 20
159.1027840914743
 30
0.0
 10
109.2854237166357
 20
159.0943407839241
 30
0.0
  0
SPLINE
  5
EC
330
1F
100
AcDbEntity
  8
0
  6
Continuous
 62
     7
370
    15
100
AcDbSpline
210
0.0
220
0.0
230
1.0
 70
     8
 71
     3
 72
    13
 73
     9
 74
     0
 42
0.00000001
 43
0.00000001
 12
1.0
 22
0.0
 32
0.0
 13
1.0
 23
0.0
 33
0.0
 40
0.0
 40
0.0
 40
0.0
 40
0.0
 40
0.1586796988333374
 40
0.3479576602302403
 40
0.5668493345596018
 40
0.7500367844619907
 40
0.949365363230988
 40
1.0
 40
1.0
 40
1.0
 40
1.0
 10
107.2916548681569
 20
167.4778362842354
 30
0.0
 10
107.2472683507028
 20
167.4725984280875
 30
0.0
 10
107.149936247903
 20
167.4611126981343
 30
0.0
 10
107.0271661770977
 20
167.3695735096574
 30
0.0
 10
106.9176910605391
 20
167.2291146771493
 30
0.0
 10
106.8218509078106
 20
167.0336872788382
 30
0.0
 10
106.7583661730674
 20
166.871090880814
 30
0.0
 10
106.7251234296657
 20
166.753700696048
 30
0.0
 10
106.7183895019007
 20
166.7299211597147
 30
0.0
  0
SPLINE
  5
ED
330
1F
100
AcDbEntity
  8
0
  6
Continuous
 62
     7
370
    15
100
AcDbSpline
210
0.0
220
0.0
230
1.0
 70
     8
 71
     3
 72
    10
 73
     6
 74
     0
 42
0.00000001
 43
0.00000001
 12
1.0
 22
0.0
 32
0.0
 13
1.0
 23
0.0
 33
0.0
 40
0.0
 40
0.0
 40
0.0
 40
0.0
 40
0.1520227102435975
 40
0.930002225678352
 40
1.0
 40
1.0
 40
1.0
 40
1.0
 10
107.2311058622908
 20
166.7299211597147
 30
0.0
 10
107.2340718783191
 20
166.7394974581163
 30
0.0
 10
107.2522165456731
 20
166.7980806711963
 30
0.0
 10
107.2693955728097
 20
166.8436681970735
 30
0.0
 10
107.2794480335618
 20
166.8696641361647
 30
0.0
 10
107.2802778315854
 20
166.8718100166026
 30
0.0
  0
SPLINE
  5
EE
330
1F
100
AcDbEntity
  8
0
  6
Continuous
 62
     7
370
    15
100
AcDbSpline
210
0.0
220
0.0
230
1.0
 70
     8
 71
     3
 72
    12
 73
     8
 74
     0
 42
0.00000001
 43
0.00000001
 12
1.0
 22
0.0
 32
0.0
 13
1.0
 23
0.0
 33
0.0
 40
0.0
 40
0.0
 40
0.0
 40
0.0
 40
0.1577909816204617
 40
0.3224629068816109
 40
0.6695384795297872
 40
0.910596123030448
 40
1.0
 40
1.0
 40
1.0
 40
1.0
 10
109.2779917624903
 20
158.4821011977347
 30
0.0
 10
109.3295052157814
 20
158.4888436077495
 30
0.0
 10
109.4347785192438
 20
158.5026224505605
 30
0.0
 10
109.5924644106113
 20
158.623548910341
 30
0.0
 10
109.7103273496705
 20
158.8187870294212
 30
0.0
 10
109.801219182897
 20
159.0492786693828
 30
0.0
 10
109.8412979461467
 20
159.1914562524334
 30
0.0
 10
109.8521409538698
 20
159.2299213273528
 30
0.0
  0
SPLINE
  5
EF
330
1F
100
AcDbEntity
  8
0
  6
Continuous
 62
     7
370
    15
100
AcDbSpline
210
0.0
220
0.0
230
1.0
 70
     8
 71
     3
 72
     9
 73
     5
 74
     0
 42
0.00000001
 43
0.00000001
 12
1.0
 22
0.0
 32
0.0
 13
1.0
 23
0.0
 33
0.0
 40
0.0
 40
0.0
 40
0.0
 40
0.0
 40
0.1244071736994018
 40
1.0
 40
1.0
 40
1.0
 40
1.0
 10
111.2340299395037
 20
166.7299211597147
 30
0.0
 10
111.2364629841412
 20
166.73757298772
 30
0.0
 10
111.2560200929898
 20
166.7990793122972
 30
0.0
 10
111.2722444400453
 20
166.8353719086202
 30
0.0
 10
111.2864503619385
 20
166.8671494456085
 30
0.0
  0
SPLINE
  5
F0
330
1F
100
AcDbEntity
  8
0
  6
Continuous
 62
     7
370
    15
100
AcDbSpline
210
0.0
220
0.0
230
1.0
 70
     8
 71
     3
 72
    17
 73
    13
 74
     0
 42
0.00000001
 43
0.00000001
 12
1.0
 22
0.0
 32
0.0
 13
1.0
 23
0.0
 33
0.0
 40
0.0
 40
0.0
 40
0.0
 40
0.0
 40
0.1142804519653411
 40
0.2136862122161813
 40
0.3355169135283266
 40
0.4354128671853407
 40
0.5291744032145724
 40
0.6172440513414352
 40
0.7600110685667144
 40
0.8856392999775171
 40
0.9979455599581071
 40
1.0
 40
1.0
 40
1.0
 40
1.0
 10
113.277975654335
 20
158.4819722095582
 30
0.0
 10
113.3348211876207
 20
158.4902438876993
 30
0.0
 10
113.4411132654024
 20
158.5057106061123
 30
0.0
 10
113.5806932563157
 20
158.6230692686767
 30
0.0
 10
113.6826871471357
 20
158.7744879871592
 30
0.0
 10
113.7572201421041
 20
158.9432814525416
 30
0.0
 10
113.8251369339134
 20
159.1323217749609
 30
0.0
 10
113.8994790118969
 20
159.3820942654702
 30
0.0
 10
113.9784010076551
 20
159.6979404902062
 30
0.0
 10
114.0598673455931
 20
160.0857735142323
 30
0.0
 10
114.1103707603478
 20
160.3394482025413
 30
0.0
 10
114.1344950143869
 20
160.4774422957813
 30
0.0
 10
114.1349283960771
 20
160.4799212994131
 30
0.0
  0
SPLINE
  5
F1
330
1F
100
AcDbEntity
  8
0
  6
Continuous
 62
     7
370
    15
100
AcDbSpline
210
0.0
220
0.0
230
1.0
 70
     8
 71
     3
 72
    14
 73
    10
 74
     0
 42
0.00000001
 43
0.00000001
 12
1.0
 22
0.0
 32
0.0
 13
1.0
 23
0.0
 33
0.0
 40
0.0
 40
0.0
 40
0.0
 40
0.0
 40
0.033822878822402
 40
0.2257662042309185
 40
0.4508602804600133
 40
0.640910696407479
 40
0.8022086601522879
 40
0.9394818588562346
 40
1.0
 40
1.0
 40
1.0
 40
1.0
 10
114.936247652502
 20
165.4799211876544
 30
0.0
 10
114.9403894010476
 20
165.5027962019221
 30
0.0
 10
114.9680353874496
 20
165.6554858996284
 30
0.0
 10
115.0231202654198
 20
165.925538054634
 30
0.0
 10
115.0968713776586
 20
166.2557041830694
 30
0.0
 10
115.1660041312878
 20
166.5188992787822
 30
0.0
 10
115.2233840806048
 20
166.7033875920658
 30
0.0
 10
115.2623760526087
 20
166.8121686837752
 30
0.0
 10
115.2798108002307
 20
166.8512700901991
 30
0.0
 10
115.2851453033399
 20
166.8632339326742
 30
0.0
  0
SPLINE
  5
F2
330
1F
100
AcDbEntity
  8
0
  6
Continuous
 62
     7
370
    15
100
AcDbSpline
210
0.0
220
0.0
230
1.0
 70
     8
 71
     3
 72
    17
 73
    13
 74
     0
 42
0.00000001
 43
0.00000001
 12
1.0
 22
0.0
 32
0.0
 13
1.0
 23
0.0
 33
0.0
 40
0.0
 40
0.0
 40
0.0
 40
0.0
 40
0.0800265648949352
 40
0.165261511569026
 40
0.3002074504139648
 40
0.4202169155859828
 40
0.5262888378052217
 40
0.6510957929907448
 40
0.7474754854349981
 40
0.8543251038345232
 40
0.9715600765701233
 40
1.0
 40
1.0
 40
1.0
 40
1.0
 10
117.277788182826
 20
158.4813640559169
 30
0.0
 10
117.3247195708817
 20
158.4870386159773
 30
0.0
 10
117.4216367900614
 20
158.498757054402
 30
0.0
 10
117.5538080482233
 20
158.5918927275088
 30
0.0
 10
117.6634833440082
 20
158.7332986672492
 30
0.0
 10
117.7581112584117
 20
158.9363402582258
 30
0.0
 10
117.8351256734006
 20
159.1564332123714
 30
0.0
 10
117.9061825671588
 20
159.4060739080433
 30
0.0
 10
117.9762160350985
 20
159.6932992205118
 30
0.0
 10
118.0442078027639
 20
160.0083089037515
 30
0.0
 10
118.0975593414993
 20
160.2743039280822
 30
0.0
 10
118.1282531483524
 20
160.4463357475911
 30
0.0
 10
118.1342454609585
 20
160.4799212994131
 30
0.0
  0
SPLINE
  5
F3
330
1F
100
AcDbEntity
  8
0
  6
Continuous
 62
     7
370
    15
100
AcDbSpline
210
0.0
220
0.0
230
1.0
 70
     8
 71
     3
 72
    15
 73
    11
 74
     0
 42
0.00000001
 43
0.00000001
 12
1.0
 22
0.0
 32
0.0
 13
1.0
 23
0.0
 33
0.0
 40
0.0
 40
0.0
 40
0.0
 40
0.0
 40
0.0120181607714505
 40
0.1716599440383842
 40
0.3252605096368485
 40
0.472850508398211
 40
0.6164639493140543
 40
0.7720453124136932
 40
0.9417216144627673
 40
1.0
 40
1.0
 40
1.0
 40
1.0
 10
118.9360061642837
 20
165.4799211876544
 30
0.0
 10
118.9378390439705
 20
165.4901149483422
 30
0.0
 10
118.9640187590241
 20
165.6357162947119
 30
0.0
 10
119.0128611855607
 20
165.8775247982947
 30
0.0
 10
119.0810882590311
 20
166.1919733753497
 30
0.0
 10
119.1439268092755
 20
166.4473581360837
 30
0.0
 10
119.2060756386024
 20
166.6622770445153
 30
0.0
 10
119.248382283881
 20
166.8126467484418
 30
0.0
 10
119.262015499343
 20
166.8900501279371
 30
0.0
 10
119.247187518923
 20
166.9142007120859
 30
0.0
 10
119.2433966306162
 20
166.9203749964091
 30
0.0
  0
LINE
  5
F4
330
1F
100
AcDbEntity
  8
0
  6
Continuous
 62
     7
370
    15
100
AcDbLine
 10
119.5016076771
 20
167.4027078891
 30
0.0
 11
119.4759013114
 21
167.4146427879
 31
0.0
  0
SPLINE
  5
F5
330
1F
100
AcDbEntity
  8
0
  6
Continuous
 62
     7
370
    15
100
AcDbSpline
210
0.0
220
0.0
230
1.0
 70
     8
 71
     3
 72
     9
 73
     5
 74
     0
 42
0.00000001
 43
0.00000001
 12
1.0
 22
0.0
 32
0.0
 13
1.0
 23
0.0
 33
0.0
 40
0.0
 40
0.0
 40
0.0
 40
0.0
 40
0.50905843524789
 40
1.0
 40
1.0
 40
1.0
 40
1.0
 10
119.4246543553781
 20
167.4384343544098
 30
0.0
 10
119.4049918438896
 20
167.4502648819059
 30
0.0
 10
119.3663665896417
 20
167.473504900491
 30
0.0
 10
119.3247921271276
 20
167.466831901905
 30
0.0
 10
119.3043814954471
 20
167.4635558495375
 30
0.0
  0
LINE
  5
F6
330
1F
100
AcDbEntity
  8
0
  6
Continuous
 62
     7
370
    15
100
AcDbLine
 10
119.2387158034
 20
167.46071485
 30
0.0
 11
119.2203799245
 21
167.4599213632
 31
0.0
  0
LWPOLYLINE
  5
F7
330
1F
100
AcDbEntity
  8
0
  6
Continuous
 62
     7
370
    15
100
AcDbPolyline
 90
       25
 70
   128
 43
0.0
 10
117.301292902
 20
158.9931900719
 10
117.303796297
 20
158.994742121
 10
117.298405802
 20
159.0406213993
 10
117.2751264629
 20
159.1085825687
 10
117.2473134455
 20
159.1828343565
 10
117.1890685317
 20
159.3627577288
 10
117.1286834386
 20
159.5826306487
 10
117.0676110295
 20
159.8360407272
 10
117.0069837925
 20
160.116527147
 10
116.8905815092
 20
160.7283013048
 10
116.7847422865
 20
161.3522346936
 10
116.6900733468
 20
161.9493875526
 10
116.6040191409
 20
162.5128326462
 10
116.5100729075
 20
163.1384180703
 10
116.405634394
 20
163.8306933212
 10
116.2934007106
 20
164.5502964141
 10
116.174018195
 20
165.2628119676
 10
116.0478463379
 20
165.929849177
 10
115.9180944768
 20
166.5000979895
 10
115.7822964695
 20
166.9493330749
 10
115.7065836695
 20
167.1291435244
 10
115.6055873242
 20
167.2944011273
 10
115.4646651802
 20
167.4244067738
 10
115.2771135775
 20
167.4781124214
 10
115.2771135775
 20
167.4781124214
  0
SPLINE
  5
F8
330
1F
100
AcDbEntity
  8
0
  6
Continuous
 62
     7
370
    15
100
AcDbSpline
210
0.0
220
0.0
230
1.0
 70
     8
 71
     3
 72
    37
 73
    33
 74
     0
 42
0.00000001
 43
0.00000001
 12
1.0
 22
0.0
 32
0.0
 13
1.0
 23
0.0
 33
0.0
 40
0.0
 40
0.0
 40
0.0
 40
0.0
 40
0.0145287149516969
 40
0.0466410666403426
 40
0.0760738982839237
 40
0.1097764225983563
 40
0.1390558066208376
 40
0.1738774239322027
 40
0.2044824611790645
 40
0.2389319000879308
 40
0.2772484696748866
 40
0.3194758111613016
 40
0.361992497371011
 40
0.3987936385802148
 40
0.429754189639623
 40
0.4548607842410857
 40
0.4741078552378506
 40
0.4879323212229349
 40
0.5048475786115163
 40
0.5281176127208184
 40
0.5577603507840022
 40
0.5937869763163318
 40
0.6357465060072695
 40
0.6783761941556952
 40
0.7202230620077129
 40
0.7613311042971134
 40
0.8017056310067028
 40
0.8413428427985826
 40
0.8804363802128446
 40
0.9196910026604662
 40
0.9595247101048578
 40
0.9999999999999999
 40
0.9999999999999999
 40
0.9999999999999999
 40
0.9999999999999999
 10
113.3409759012174
 20
158.9735629143271
 30
0.0
 10
113.3427772112691
 20
158.9733386893374
 30
0.0
 10
113.3485598990317
 20
158.97261886706
 30
0.0
 10
113.3116466257921
 20
159.0282529213238
 30
0.0
 10
113.2696551546066
 20
159.1285838378873
 30
0.0
 10
113.217752985123
 20
159.2711814869475
 30
0.0
 10
113.1571621781129
 20
159.473178566457
 30
0.0
 10
113.0977239004257
 20
159.7037251212156
 30
0.0
 10
113.0344554076233
 20
159.9817221193729
 30
0.0
 10
112.9685916910914
 20
160.302457350903
 30
0.0
 10
112.8950523744271
 20
160.6967851425401
 30
0.0
 10
112.8162240754257
 20
161.1554671165943
 30
0.0
 10
112.7383286920229
 20
161.637879700383
 30
0.0
 10
112.667620496541
 20
162.0935411119615
 30
0.0
 10
112.6080185046024
 20
162.4860786232912
 30
0.0
 10
112.5596459337894
 20
162.8078470566926
 30
0.0
 10
112.5222780340744
 20
163.0571871663395
 30
0.0
 10
112.4901794520587
 20
163.2712230703274
 30
0.0
 10
112.4555028130264
 20
163.5018813451831
 30
0.0
 10
112.4106753787253
 20
163.7982041247635
 30
0.0
 10
112.3535775605393
 20
164.1703997483856
 30
0.0
 10
112.2844387307363
 20
164.6092170922965
 30
0.0
 10
112.2069027557299
 20
165.0792101052585
 30
0.0
 10
112.1252360889135
 20
165.5398999564699
 30
0.0
 10
112.0435626925056
 20
165.9582229165704
 30
0.0
 10
111.9624785580352
 20
166.3267768788114
 30
0.0
 10
111.881466040887
 20
166.6441513185054
 30
0.0
 10
111.7997881120897
 20
166.9082276282778
 30
0.0
 10
111.7161035740751
 20
167.1225807228826
 30
0.0
 10
111.6097926819157
 20
167.3033710014544
 30
0.0
 10
111.4698708816493
 20
167.4450906352608
 30
0.0
 10
111.3425428367483
 20
167.4668020939992
 30
0.0
 10
111.2783702072811
 20
167.4777445489618
 30
0.0
  0
LWPOLYLINE
  5
F9
330
1F
100
AcDbEntity
  8
0
  6
Continuous
 62
     7
370
    15
100
AcDbPolyline
 90
       26
 70
   128
 43
0.0
 10
109.3283297476
 20
158.9853050293
 10
109.3183645961
 20
159.0217448877
 10
109.276991522
 20
159.1129220663
 10
109.2288011667
 20
159.2420029095
 10
109.1238429752
 20
159.6038266191
 10
109.0110188333
 20
160.0981395798
 10
108.8904069719
 20
160.728800028
 10
108.7613778171
 20
161.4962284559
 10
108.6726274324
 20
162.0625079134
 10
108.5953472165
 20
162.5708589902
 10
108.5322557
 20
162.990925702
 10
108.4818636981
 20
163.3267634946
 10
108.4238311258
 20
163.7110166241
 10
108.3517644537
 20
164.18004505
 10
108.2884410379
 20
164.5803946642
 10
108.2171101106
 20
165.0130715327
 10
108.1389535201
 20
165.4585154368
 10
108.0621184764
 20
165.8602910223
 10
107.9636581225
 20
166.3141487273
 10
107.8690357489
 20
166.6791936489
 10
107.7772883681
 20
166.961905464
 10
107.7059034241
 20
167.1313963937
 10
107.6088968647
 20
167.2920351023
 10
107.4693279323
 20
167.4225636864
 10
107.2788668779
 20
167.4778218487
 10
107.2788668779
 20
167.4778218487
  0
SPLINE
  5
FA
330
1F
100
AcDbEntity
  8
0
  6
Continuous
 62
     7
370
    15
100
AcDbSpline
210
0.0
220
0.0
230
1.0
 70
     8
 71
     3
 72
    17
 73
    13
 74
     0
 42
0.00000001
 43
0.00000001
 12
1.0
 22
0.0
 32
0.0
 13
1.0
 23
0.0
 33
0.0
 40
0.0
 40
0.0
 40
0.0
 40
0.0
 40
0.1116874811074183
 40
0.2069466122474823
 40
0.2861661453927222
 40
0.3988516854187649
 40
0.4902378581646611
 40
0.5678726579604582
 40
0.6618757657664455
 40
0.7761678964783701
 40
0.8868230795370526
 40
1.0
 40
1.0
 40
1.0
 40
1.0
 10
121.2776342389297
 20
158.4818935128006
 30
0.0
 10
121.3379826637662
 20
158.4910266004377
 30
0.0
 10
121.44980273483
 20
158.5079493703589
 30
0.0
 10
121.5743356489251
 20
158.6163786610348
 30
0.0
 10
121.6708478428805
 20
158.7503117907102
 30
0.0
 10
121.7387328454945
 20
158.8915720124738
 30
0.0
 10
121.8057523856855
 20
159.069714279385
 30
0.0
 10
121.8628375821669
 20
159.2523025540775
 30
0.0
 10
121.9243264823395
 20
159.4773311747762
 30
0.0
 10
121.9920927042952
 20
159.7633095110108
 30
0.0
 10
122.0635984150364
 20
160.1002222081419
 30
0.0
 10
122.1107891254118
 20
160.3524078775333
 30
0.0
 10
122.1346503106069
 20
160.4799212994131
 30
0.0
  0
SPLINE
  5
FB
330
1F
100
AcDbEntity
  8
0
  6
Continuous
 62
     7
370
    15
100
AcDbSpline
210
0.0
220
0.0
230
1.0
 70
     8
 71
     3
 72
    12
 73
     8
 74
     0
 42
0.00000001
 43
0.00000001
 12
1.0
 22
0.0
 32
0.0
 13
1.0
 23
0.0
 33
0.0
 40
0.0
 40
0.0
 40
0.0
 40
0.0
 40
0.1099316655236734
 40
0.4529520291670822
 40
0.7851225929207192
 40
0.9468314227023524
 40
1.0
 40
1.0
 40
1.0
 40
1.0
 10
122.9379011300516
 20
165.4799211876544
 30
0.0
 10
122.951283937752
 20
165.5544418185931
 30
0.0
 10
123.0064251918665
 20
165.8614895726471
 30
0.0
 10
123.1021399692125
 20
166.2855725847434
 30
0.0
 10
123.1988071650652
 20
166.6349028341816
 30
0.0
 10
123.2606786879069
 20
166.8095121276409
 30
0.0
 10
123.2805694881085
 20
166.8528199621698
 30
0.0
 10
123.2854912039947
 20
166.863535914019
 30
0.0
  0
SPLINE
  5
FC
330
1F
100
AcDbEntity
  8
0
  6
Continuous
 62
     7
370
    15
100
AcDbSpline
210
0.0
220
0.0
230
1.0
 70
     8
 71
     3
 72
    18
 73
    14
 74
     0
 42
0.00000001
 43
0.00000001
 12
1.0
 22
0.0
 32
0.0
 13
1.0
 23
0.0
 33
0.0
 40
0.0
 40
0.0
 40
0.0
 40
0.0
 40
0.0607560281424884
 40
0.1121809924177327
 40
0.1542716480287487
 40
0.1938092850260669
 40
0.2616890442493897
 40
0.3616496369931138
 40
0.4927147222833037
 40
0.6341705346845073
 40
0.7761385417446105
 40
0.9186750891305782
 40
1.0
 40
1.0
 40
1.0
 40
1.0
 10
125.2780670282554
 20
158.4812099220308
 30
0.0
 10
125.3153935639099
 20
158.4844511501961
 30
0.0
 10
125.3843139318348
 20
158.4904358105393
 30
0.0
 10
125.4691677150573
 20
158.5326838216806
 30
0.0
 10
125.5338607092874
 20
158.5812592504255
 30
0.0
 10
125.5898659629922
 20
158.638716571348
 30
0.0
 10
125.6448845483689
 20
158.7129774580935
 30
0.0
 10
125.7196790740104
 20
158.8485395361428
 30
0.0
 10
125.8052154187108
 20
159.0643056454224
 30
0.0
 10
125.8980270819616
 20
159.3721745424526
 30
0.0
 10
125.9907445876464
 20
159.7550826720413
 30
0.0
 10
126.0691095654206
 20
160.125907763603
 30
0.0
 10
126.1164875648389
 20
160.3855851095994
 30
0.0
 10
126.1336991545868
 20
160.4799212994131
 30
0.0
  0
SPLINE
  5
FD
330
1F
100
AcDbEntity
  8
0
  6
Continuous
 62
     7
370
    15
100
AcDbSpline
210
0.0
220
0.0
230
1.0
 70
     8
 71
     3
 72
    14
 73
    10
 74
     0
 42
0.00000001
 43
0.00000001
 12
1.0
 22
0.0
 32
0.0
 13
1.0
 23
0.0
 33
0.0
 40
0.0
 40
0.0
 40
0.0
 40
0.0
 40
0.0348381616059199
 40
0.2465536592577397
 40
0.4363269796852809
 40
0.6043634338014612
 40
0.7507076580652334
 40
0.8861377148105272
 40
1.0
 40
1.0
 40
1.0
 40
1.0
 10
126.9363911804867
 20
165.4799211876544
 30
0.0
 10
126.9406747543022
 20
165.5037408648722
 30
0.0
 10
126.9709900967377
 20
165.6723154483077
 30
0.0
 10
127.0244447017019
 20
165.9320878369376
 30
0.0
 10
127.0938320755959
 20
166.242292882369
 30
0.0
 10
127.1547211420994
 20
166.4776077644509
 30
0.0
 10
127.2079504566007
 20
166.6565765768036
 30
0.0
 10
127.2546945645203
 20
166.7912505837856
 30
0.0
 10
127.2768152153297
 20
166.8432251462962
 30
0.0
 10
127.2869186458301
 20
166.8669641124162
 30
0.0
  0
SPLINE
  5
FE
330
1F
100
AcDbEntity
  8
0
  6
Continuous
 62
     7
370
    15
100
AcDbSpline
210
0.0
220
0.0
230
1.0
 70
     8
 71
     3
 72
    16
 73
    12
 74
     0
 42
0.00000001
 43
0.00000001
 12
1.0
 22
0.0
 32
0.0
 13
1.0
 23
0.0
 33
0.0
 40
0.0
 40
0.0
 40
0.0
 40
0.0
 40
0.1251892526549352
 40
0.2393470423567245
 40
0.3911453898483949
 40
0.5193621121970496
 40
0.6247587354579699
 40
0.7358789289878612
 40
0.8248422111628734
 40
0.9256544097837547
 40
1.0
 40
1.0
 40
1.0
 40
1.0
 10
129.2769985255909
 20
158.4804229544553
 30
0.0
 10
129.3441670522116
 20
158.4922459363055
 30
0.0
 10
129.4725853297009
 20
158.5148500790546
 30
0.0
 10
129.6257200923892
 20
158.6741716713878
 30
0.0
 10
129.728482844538
 20
158.863317109209
 30
0.0
 10
129.8213596937978
 20
159.11244485597
 30
0.0
 10
129.8970789423575
 20
159.3711565472512
 30
0.0
 10
129.962022482173
 20
159.6313935541553
 30
0.0
 10
130.0258611719655
 20
159.9201378299383
 30
0.0
 10
130.0816271136761
 20
160.1934227957245
 30
0.0
 10
130.1185208530689
 20
160.3945521134982
 30
0.0
 10
130.1341803726864
 20
160.4799212994131
 30
0.0
  0
SPLINE
  5
FF
330
1F
100
AcDbEntity
  8
0
  6
Continuous
 62
     7
370
    15
100
AcDbSpline
210
0.0
220
0.0
230
1.0
 70
     8
 71
     3
 72
    13
 73
     9
 74
     0
 42
0.00000001
 43
0.00000001
 12
1.0
 22
0.0
 32
0.0
 13
1.0
 23
0.0
 33
0.0
 40
0.0
 40
0.0
 40
0.0
 40
0.0
 40
0.1970184083447761
 40
0.4012835007388509
 40
0.5969635071850349
 40
0.7841224800647973
 40
0.9639199023194011
 40
1.0
 40
1.0
 40
1.0
 40
1.0
 10
130.936220472784
 20
165.4799211876544
 30
0.0
 10
130.9605135054861
 20
165.6071762354014
 30
0.0
 10
131.0099931114181
 20
165.8663669956741
 30
0.0
 10
131.0824205354728
 20
166.196094984237
 30
0.0
 10
131.1532139626366
 20
166.4762815533102
 30
0.0
 10
131.2159111477732
 20
166.6875446097098
 30
0.0
 10
131.2669403336427
 20
166.8239608947698
 30
0.0
 10
131.282283673086
 20
166.8592259350283
 30
0.0
 10
131.2848480400753
 20
166.8651198608878
 30
0.0
  0
SPLINE
  5
100
330
1F
100
AcDbEntity
  8
0
  6
Continuous
 62
     7
370
    15
100
AcDbSpline
210
0.0
220
0.0
230
1.0
 70
     8
 71
     3
 72
    16
 73
    12
 74
     0
 42
0.00000001
 43
0.00000001
 12
1.0
 22
0.0
 32
0.0
 13
1.0
 23
0.0
 33
0.0
 40
0.0
 40
0.0
 40
0.0
 40
0.0
 40
0.1499884542443325
 40
0.2852439046887749
 40
0.4057819529255378
 40
0.5588393160076249
 40
0.6782758106649351
 40
0.7678222903339962
 40
0.8495918245563379
 40
0.9269993186188064
 40
1.0
 40
1.0
 40
1.0
 40
1.0
 10
132.0650951919269
 20
165.8453817119899
 30
0.0
 10
132.0366086685012
 20
165.9833172325451
 30
0.0
 10
131.9824337840815
 20
166.2456392004372
 30
0.0
 10
131.9036479691302
 20
166.5637094569688
 30
0.0
 10
131.8222051043897
 20
166.8423943519952
 30
0.0
 10
131.7401480942337
 20
167.0638039099369
 30
0.0
 10
131.6576049064112
 20
167.2258398677498
 30
0.0
 10
131.5785438496299
 20
167.3354742931369
 30
0.0
 10
131.4938924524178
 20
167.4125767819897
 30
0.0
 10
131.3973819781013
 20
167.4679895633042
 30
0.0
 10
131.3175840239769
 20
167.4758906673648
 30
0.0
 10
131.278854047985
 20
167.479725472078
 30
0.0
  0
SPLINE
  5
101
330
1F
100
AcDbEntity
  8
0
  6
Continuous
 62
     7
370
    15
100
AcDbSpline
210
0.0
220
0.0
230
1.0
 70
     8
 71
     3
 72
    37
 73
    33
 74
     0
 42
0.00000001
 43
0.00000001
 12
1.0
 22
0.0
 32
0.0
 13
1.0
 23
0.0
 33
0.0
 40
0.0
 40
0.0
 40
0.0
 40
0.0
 40
0.0248109856152265
 40
0.057695792757721
 40
0.0873263182894106
 40
0.1212004296254447
 40
0.1505785512881225
 40
0.1854809826621839
 40
0.2161611074476277
 40
0.2507290077195418
 40
0.2892004057260544
 40
0.3315668633783164
 40
0.3741652108304914
 40
0.4110214048318175
 40
0.4420544990766783
 40
0.4672432674318808
 40
0.486559914599306
 40
0.5004332429737236
 40
0.5174057449059483
 40
0.5407442627581146
 40
0.5704539256730564
 40
0.6065440866593824
 40
0.6485653823357699
 40
0.6908160039054512
 40
0.7316481206634913
 40
0.7710541410526677
 40
0.8090379540567729
 40
0.8456282234933709
 40
0.8815867001921238
 40
0.919057356152232
 40
0.9585134926732279
 40
1.0
 40
1.0
 40
1.0
 40
1.0
 10
129.3341556546402
 20
158.9796109231266
 30
0.0
 10
129.3355226466664
 20
158.9820049387389
 30
0.0
 10
129.3387014679302
 20
158.9875720141774
 30
0.0
 10
129.2939402811497
 20
159.068014929164
 30
0.0
 10
129.2464847935966
 20
159.1900471152512
 30
0.0
 10
129.1927503607522
 20
159.3503358702527
 30
0.0
 10
129.131459063097
 20
159.568079652098
 30
0.0
 10
129.0715815934175
 20
159.8132921144959
 30
0.0
 10
129.0080071734751
 20
160.1068656190903
 30
0.0
 10
128.9419620394918
 20
160.4424587194425
 30
0.0
 10
128.8683294153234
 20
160.8497358197159
 30
0.0
 10
128.7894266807221
 20
161.3187902451889
 30
0.0
 10
128.7114228127327
 20
161.8088609093146
 30
0.0
 10
128.6406137873447
 20
162.2697432508993
 30
0.0
 10
128.58097949269
 20
162.6651512794835
 30
0.0
 10
128.5326042912262
 20
162.988107079682
 30
0.0
 10
128.495222340221
 20
163.2377088454209
 30
0.0
 10
128.4631196915157
 20
163.4515404062707
 30
0.0
 10
128.4284277595952
 20
163.6815227338366
 30
0.0
 10
128.3835734048782
 20
163.9761831039195
 30
0.0
 10
128.3264214561316
 20
164.3449261001115
 30
0.0
 10
128.2571842861051
 20
164.7773813984258
 30
0.0
 10
128.1798648783521
 20
165.2348085050616
 30
0.0
 10
128.0992551976102
 20
165.6765508184151
 30
0.0
 10
128.0197236308953
 20
166.0714654999304
 30
0.0
 10
127.9419815837933
 20
166.4128163918046
 30
0.0
 10
127.8655250351031
 20
166.7009897896589
 30
0.0
 10
127.789453980624
 20
166.9365763858066
 30
0.0
 10
127.7106805365971
 20
167.1310570552691
 30
0.0
 10
127.6076128997308
 20
167.304304397739
 30
0.0
 10
127.4678772239424
 20
167.4460381513832
 30
0.0
 10
127.341930941283
 20
167.4678560377963
 30
0.0
 10
127.2773781773758
 20
167.4790386216792
 30
0.0
  0
LWPOLYLINE
  5
102
330
1F
100
AcDbEntity
  8
0
  6
Continuous
 62
     7
370
    15
100
AcDbPolyline
 90
       26
 70
   128
 43
0.0
 10
125.3275090811
 20
158.9833310912
 10
125.3134647367
 20
159.0307321506
 10
125.2662243304
 20
159.1403560354
 10
125.2123305556
 20
159.2924773334
 10
125.0996703264
 20
159.700347261
 10
124.9845625815
 20
160.2273026122
 10
124.8636769113
 20
160.8817003774
 10
124.7344987449
 20
161.6654234579
 10
124.6456878242
 20
162.238129856
 10
124.5683619735
 20
162.749632121
 10
124.5052369294
 20
163.1706666424
 10
124.4549119827
 20
163.5056214048
 10
124.3980901298
 20
163.8801508573
 10
124.3287103233
 20
164.3280109031
 10
124.268373659
 20
164.7050344957
 10
124.2008695361
 20
165.1085253446
 10
124.1272000578
 20
165.5216474658
 10
124.0543333796
 20
165.8977967793
 10
123.960031381
 20
166.3296831878
 10
123.8682737556
 20
166.683104738
 10
123.7780807522
 20
166.9605680848
 10
123.7070152518
 20
167.1284343222
 10
123.6096939054
 20
167.289291426
 10
123.4691759554
 20
167.4216617005
 10
123.2771316526
 20
167.4782390812
 10
123.2771316526
 20
167.4782390812
  0
SPLINE
  5
103
330
1F
100
AcDbEntity
  8
0
  6
Continuous
 62
     7
370
    15
100
AcDbSpline
210
0.0
220
0.0
230
1.0
 70
     8
 71
     3
 72
    32
 73
    28
 74
     0
 42
0.00000001
 43
0.00000001
 12
1.0
 22
0.0
 32
0.0
 13
1.0
 23
0.0
 33
0.0
 40
0.0
 40
0.0
 40
0.0
 40
0.0
 40
0.0132551476681195
 40
0.0419462688410875
 40
0.0703871227499508
 40
0.127315430978048
 40
0.1846955449127833
 40
0.2257572542537226
 40
0.2696114980975006
 40
0.3163042058559251
 40
0.3658461551883957
 40
0.4148129545888135
 40
0.4549520574506357
 40
0.4858803449726165
 40
0.5075844509905163
 40
0.5289633134022065
 40
0.5592727126984565
 40
0.598539553464175
 40
0.6467734918803938
 40
0.6868807750618152
 40
0.7280141350475771
 40
0.7702654229998925
 40
0.8136940298438162
 40
0.858335573024403
 40
0.904223458865457
 40
0.9514198815109084
 40
1.0
 40
1.0
 40
1.0
 40
1.0
 10
121.3374065217686
 20
158.9762670094225
 30
0.0
 10
121.3393481869403
 20
158.9761945743849
 30
0.0
 10
121.3454926382384
 20
158.9759653517739
 30
0.0
 10
121.3154800472945
 20
159.02101815167
 30
0.0
 10
121.2671400818063
 20
159.1312735130961
 30
0.0
 10
121.1885753590012
 20
159.353149863435
 30
0.0
 10
121.0952213156736
 20
159.7082365347252
 30
0.0
 10
121.0089316158478
 20
160.0998680636077
 30
0.0
 10
120.9284867229475
 20
160.5116951722543
 30
0.0
 10
120.8425841194634
 20
160.9975431991934
 30
0.0
 10
120.7533883948464
 20
161.5415728192534
 30
0.0
 10
120.6681150943968
 20
162.0894405223622
 30
0.0
 10
120.5942396285697
 20
162.5771924187678
 30
0.0
 10
120.5371211089728
 20
162.9580676171686
 30
0.0
 10
120.4915756794972
 20
163.2619518696684
 30
0.0
 10
120.4464289891147
 20
163.5621853372053
 30
0.0
 10
120.3904710045787
 20
163.9311024454569
 30
0.0
 10
120.3179498011767
 20
164.3993953139193
 30
0.0
 10
120.2393185550905
 20
164.8864415064247
 30
0.0
 10
120.1592433865252
 20
165.3516417524624
 30
0.0
 10
120.0819484717282
 20
165.7654269399758
 30
0.0
 10
120.0011806575817
 20
166.1538046085905
 30
0.0
 10
119.9158044653293
 20
166.5098616153303
 30
0.0
 10
119.8245176614316
 20
166.8255711056694
 30
0.0
 10
119.725419648704
 20
167.0889874864409
 30
0.0
 10
119.6175898475248
 20
167.2943203212473
 30
0.0
 10
119.538897714292
 20
167.3674227882534
 30
0.0
 10
119.4989832100582
 20
167.404502082065
 30
0.0
  0
SPLINE
  5
104
330
1F
100
AcDbEntity
  8
0
  6
Continuous
 62
     7
370
    15
100
AcDbSpline
210
0.0
220
0.0
230
1.0
 70
     8
 71
     3
 72
    33
 73
    29
 74
     0
 42
0.00000001
 43
0.00000001
 12
1.0
 22
0.0
 32
0.0
 13
1.0
 23
0.0
 33
0.0
 40
0.0
 40
0.0
 40
0.0
 40
0.0
 40
0.0511283738493087
 40
0.0976236748127065
 40
0.1393673232305881
 40
0.1761458548885062
 40
0.2170757460698702
 40
0.2541970846084696
 40
0.2927924115272999
 40
0.3328923018506634
 40
0.3745129798173755
 40
0.4151078552174223
 40
0.4497389728789615
 40
0.4782594659789435
 40
0.5016325396922999
 40
0.5287484893533113
 40
0.5617838597247622
 40
0.6007639474004113
 40
0.6339144445914421
 40
0.6700875429827743
 40
0.7058316359827355
 40
0.7402500021721773
 40
0.8051251471676795
 40
0.8648075254681278
 40
0.8942946453454915
 40
0.9264665622740526
 40
0.9616766030428872
 40
0.9999999999999999
 40
0.9999999999999999
 40
0.9999999999999999
 40
0.9999999999999999
 10
119.213488137455
 20
166.9989157574329
 30
0.0
 10
119.2311973206209
 20
166.9788197569209
 30
0.0
 10
119.2650109432424
 20
166.9404487845759
 30
0.0
 10
119.3293213058737
 20
166.7714228257404
 30
0.0
 10
119.3961762817145
 20
166.5515309905614
 30
0.0
 10
119.4664273623241
 20
166.2810169547235
 30
0.0
 10
119.5387525915747
 20
165.9636152823067
 30
0.0
 10
119.6140657509501
 20
165.5905700211251
 30
0.0
 10
119.6888129464414
 20
165.1834537245258
 30
0.0
 10
119.7667156507713
 20
164.724870989644
 30
0.0
 10
119.845934916539
 20
164.23054223036
 30
0.0
 10
119.9216436310333
 20
163.7391297801613
 30
0.0
 10
119.9888853609357
 20
163.2935433135377
 30
0.0
 10
120.0450032523533
 20
162.9190414088728
 30
0.0
 10
120.0962505533419
 20
162.5773847845293
 30
0.0
 10
120.150424925701
 20
162.2184702027801
 30
0.0
 10
120.2147241627521
 20
161.7988360722778
 30
0.0
 10
120.2829585385398
 20
161.3662962892268
 30
0.0
 10
120.353284260413
 20
160.9395762534733
 30
0.0
 10
120.4215744955979
 20
160.5474304156584
 30
0.0
 10
120.4910575652962
 20
160.1775615525253
 30
0.0
 10
120.5798073708901
 20
159.7473893412107
 30
0.0
 10
120.6865593664606
 20
159.308849386636
 30
0.0
 10
120.7921303568625
 20
158.9848526513053
 30
0.0
 10
120.8846761415008
 20
158.7783764377674
 30
0.0
 10
120.980463867651
 20
158.6320925871497
 30
0.0
 10
121.1132655275942
 20
158.5095773427141
 30
0.0
 10
121.2300747359799
 20
158.4913835052052
 30
0.0
 10
121.2909521517467
 20
158.4819014290425
 30
0.0
  0
SPLINE
  5
105
330
1F
100
AcDbEntity
  8
0
  6
Continuous
 62
     7
370
    15
100
AcDbSpline
210
0.0
220
0.0
230
1.0
 70
     8
 71
     3
 72
    36
 73
    32
 74
     0
 42
0.00000001
 43
0.00000001
 12
1.0
 22
0.0
 32
0.0
 13
1.0
 23
0.0
 33
0.0
 40
0.0
 40
0.0
 40
0.0
 40
0.0
 40
0.0137856116124709
 40
0.0457239106571144
 40
0.0778114709142878
 40
0.1096455188507431
 40
0.1411671271496369
 40
0.2068979010072769
 40
0.2417794844783115
 40
0.2779502933357035
 40
0.31540647475969
 40
0.354174139522637
 40
0.40168046444376
 40
0.4392585514415839
 40
0.4668428503274036
 40
0.4814954599673827
 40
0.4996305631446384
 40
0.5242368159991795
 40
0.5553419143297135
 40
0.5929839684932507
 40
0.6367974059911568
 40
0.6797743147585061
 40
0.7193102548649958
 40
0.7666865490008667
 40
0.807999378022352
 40
0.8431982894833412
 40
0.8685975457702988
 40
0.9025699815315316
 40
0.9305930078464509
 40
0.963074696130657
 40
1.0
 40
1.0
 40
1.0
 40
1.0
 10
123.2359839585733
 20
166.9809407660815
 30
0.0
 10
123.2341790037458
 20
166.9805685605256
 30
0.0
 10
123.2281923565374
 20
166.9793340346979
 30
0.0
 10
123.2590854749869
 20
166.9299908698765
 30
0.0
 10
123.300195821829
 20
166.8328596669762
 30
0.0
 10
123.3534794739642
 20
166.6860273523546
 30
0.0
 10
123.4324514114326
 20
166.4217988316213
 30
0.0
 10
123.5161822048202
 20
166.0722741648106
 30
0.0
 10
123.6029817154996
 20
165.6465461477423
 30
0.0
 10
123.6723203663871
 20
165.2751480154554
 30
0.0
 10
123.7443973030537
 20
164.8589664306062
 30
0.0
 10
123.8238836506314
 20
164.3713358571632
 30
0.0
 10
123.9034705029118
 20
163.8589437997222
 30
0.0
 10
123.9758372349858
 20
163.3803954556841
 30
0.0
 10
124.0271305045963
 20
163.0381821072381
 30
0.0
 10
124.0659332299848
 20
162.779199723237
 30
0.0
 10
124.1028390603213
 20
162.5333496967694
 30
0.0
 10
124.1503545734339
 20
162.2187704350715
 30
0.0
 10
124.2104374274978
 20
161.8266058591834
 30
0.0
 10
124.2828823761148
 20
161.3663762820236
 30
0.0
 10
124.3629963517612
 20
160.8808357827834
 30
0.0
 10
124.4445177357307
 20
160.4207382296586
 30
0.0
 10
124.5287298522631
 20
159.9871857794431
 30
0.0
 10
124.6123990197552
 20
159.6081504586965
 30
0.0
 10
124.6943474240597
 20
159.2938303322754
 30
0.0
 10
124.7624468367536
 20
159.0762602465224
 30
0.0
 10
124.8294480716813
 20
158.8967496381398
 30
0.0
 10
124.9093336852377
 20
158.7358885146687
 30
0.0
 10
125.014264112781
 20
158.6008194373328
 30
0.0
 10
125.1392905990227
 20
158.5008850161567
 30
0.0
 10
125.2385657265134
 20
158.4880748832189
 30
0.0
 10
125.2913812157822
 20
158.4812597477886
 30
0.0
  0
LWPOLYLINE
  5
106
330
1F
100
AcDbEntity
  8
0
  6
Continuous
 62
     7
370
    15
100
AcDbPolyline
 90
       25
 70
   128
 43
0.0
 10
127.2578837332
 20
166.9684237907
 10
127.258368021
 20
166.9405167097
 10
127.2800343094
 20
166.8838191884
 10
127.3097993788
 20
166.8109352807
 10
127.3717844841
 20
166.6282940762
 10
127.4344028887
 20
166.4042595415
 10
127.4959707615
 20
166.1505998684
 10
127.5551879761
 20
165.8787626414
 10
127.6111865399
 20
165.5986932213
 10
127.664610928
 20
165.3123862682
 10
127.7651751396
 20
164.729626534
 10
127.8571823594
 20
164.1560091278
 10
127.9428752122
 20
163.5982760102
 10
128.0367897806
 20
162.9737605761
 10
128.1413586793
 20
162.2785010016
 10
128.2558256743
 20
161.539080121
 10
128.3801497874
 20
160.787206992
 10
128.5135077295
 20
160.0702415792
 10
128.6491194722
 20
159.4694572607
 10
128.788735902
 20
159.0089531722
 10
128.8653986511
 20
158.8269848483
 10
128.9661305008
 20
158.6617901096
 10
129.1055383143
 20
158.533060375
 10
129.2903201637
 20
158.4804215575
 10
129.2903201637
 20
158.4804215575
  0
SPLINE
  5
107
330
1F
100
AcDbEntity
  8
0
  6
Continuous
 62
     7
370
    15
100
AcDbSpline
210
0.0
220
0.0
230
1.0
 70
     8
 71
     3
 72
    14
 73
    10
 74
     0
 42
0.00000001
 43
0.00000001
 12
1.0
 22
0.0
 32
0.0
 13
1.0
 23
0.0
 33
0.0
 40
0.0
 40
0.0
 40
0.0
 40
0.0
 40
0.0769749500239866
 40
0.1820921023997329
 40
0.3249785661977483
 40
0.5085670673691888
 40
0.6538347402398342
 40
0.8175627286446574
 40
1.0
 40
1.0
 40
1.0
 40
1.0
 10
131.2304737028789
 20
166.9854269469234
 30
0.0
 10
131.2302279947784
 20
166.9832507528316
 30
0.0
 10
131.2296467471831
 20
166.9781027435468
 30
0.0
 10
131.2563598741265
 20
166.9325096561774
 30
0.0
 10
131.3028655312344
 20
166.8296151777884
 30
0.0
 10
131.3626836361756
 20
166.6609743092565
 30
0.0
 10
131.4286499980697
 20
166.4308633116162
 30
0.0
 10
131.496689220416
 20
166.15659369541
 30
0.0
 10
131.5457425476804
 20
165.9227441228431
 30
0.0
 10
131.5715948102188
 20
165.7994998725208
 30
0.0
  0
SPLINE
  5
108
330
1F
100
AcDbEntity
  8
0
  6
Continuous
 62
     7
370
    15
100
AcDbSpline
210
0.0
220
0.0
230
1.0
 70
     8
 71
     3
 72
    17
 73
    13
 74
     0
 42
0.00000001
 43
0.00000001
 12
1.0
 22
0.0
 32
0.0
 13
1.0
 23
0.0
 33
0.0
 40
0.0
 40
0.0
 40
0.0
 40
0.0
 40
0.1218110106362195
 40
0.2300168266618894
 40
0.3327643935912757
 40
0.4100763812494346
 40
0.4813516979872585
 40
0.5501954151612586
 40
0.6166500391352676
 40
0.7559710589950743
 40
0.8844029905083766
 40
1.0
 40
1.0
 40
1.0
 40
1.0
 10
131.2824005243492
 20
167.476979933128
 30
0.0
 10
131.2257870807041
 20
167.4681066260935
 30
0.0
 10
131.1188834060229
 20
167.4513510806348
 30
0.0
 10
130.986098344323
 20
167.329063469473
 30
0.0
 10
130.8905859082123
 20
167.1857331332876
 30
0.0
 10
130.8282492508865
 20
167.0501475674395
 30
0.0
 10
130.775976943771
 20
166.9152453640332
 30
0.0
 10
130.7277998940073
 20
166.7706076018671
 30
0.0
 10
130.6653607078441
 20
166.5586630460293
 30
0.0
 10
130.5918733286537
 20
166.264105883955
 30
0.0
 10
130.5102143145009
 20
165.8816430212783
 30
0.0
 10
130.4591749946878
 20
165.6090493624991
 30
0.0
 10
130.4349975642872
 20
165.4799211876544
 30
0.0
  0
SPLINE
  5
109
330
1F
100
AcDbEntity
  8
0
  6
Continuous
 62
     7
370
    15
100
AcDbSpline
210
0.0
220
0.0
230
1.0
 70
     8
 71
     3
 72
    12
 73
     8
 74
     0
 42
0.00000001
 43
0.00000001
 12
1.0
 22
0.0
 32
0.0
 13
1.0
 23
0.0
 33
0.0
 40
0.0
 40
0.0
 40
0.0
 40
0.0
 40
0.1063230519676809
 40
0.460165274553364
 40
0.8074798515422819
 40
0.9800214689685038
 40
1.0
 40
1.0
 40
1.0
 40
1.0
 10
129.6331325528335
 20
160.4799212994131
 30
0.0
 10
129.6200864759004
 20
160.4100501003551
 30
0.0
 10
129.5636231646739
 20
160.1076481385711
 30
0.0
 10
129.4639422144288
 20
159.6555365554618
 30
0.0
 10
129.3672963704714
 20
159.3043998083626
 30
0.0
 10
129.3000282201237
 20
159.1290413460066
 30
0.0
 10
129.2866833220284
 20
159.0985992949554
 30
0.0
 10
129.2852984723758
 20
159.0954402102235
 30
0.0
  0
SPLINE
  5
10A
330
1F
100
AcDbEntity
  8
0
  6
Continuous
 62
     7
370
    15
100
AcDbSpline
210
0.0
220
0.0
230
1.0
 70
     8
 71
     3
 72
    16
 73
    12
 74
     0
 42
0.00000001
 43
0.00000001
 12
1.0
 22
0.0
 32
0.0
 13
1.0
 23
0.0
 33
0.0
 40
0.0
 40
0.0
 40
0.0
 40
0.0
 40
0.090077706007052
 40
0.1930194961715132
 40
0.3068031521149395
 40
0.4096451061382046
 40
0.5219163130525052
 40
0.637434416871333
 40
0.7753826826455431
 40
0.8935591169596875
 40
1.0
 40
1.0
 40
1.0
 40
1.0
 10
127.2906402108383
 20
167.4790176669213
 30
0.0
 10
127.2382039546891
 20
167.471880397331
 30
0.0
 10
127.1258429700272
 20
167.4565865777897
 30
0.0
 10
127.002418410468
 20
167.3533810356843
 30
0.0
 10
126.9025433637123
 20
167.2153945606193
 30
0.0
 10
126.8143676584342
 20
167.0284860671267
 30
0.0
 10
126.7392509382183
 20
166.8157437083673
 30
0.0
 10
126.6610437450275
 20
166.5457812787207
 30
0.0
 10
126.5817186554899
 20
166.2177805055541
 30
0.0
 10
126.5050859950358
 20
165.8558611647022
 30
0.0
 10
126.457845166324
 20
165.600792330793
 30
0.0
 10
126.4354588446331
 20
165.4799211876544
 30
0.0
  0
SPLINE
  5
10B
330
1F
100
AcDbEntity
  8
0
  6
Continuous
 62
     7
370
    15
100
AcDbSpline
210
0.0
220
0.0
230
1.0
 70
     8
 71
     3
 72
    12
 73
     8
 74
     0
 42
0.00000001
 43
0.00000001
 12
1.0
 22
0.0
 32
0.0
 13
1.0
 23
0.0
 33
0.0
 40
0.0
 40
0.0
 40
0.0
 40
0.0
 40
0.2040647405303961
 40
0.4418215812060651
 40
0.6766634912520456
 40
0.9073007522506826
 40
1.0
 40
1.0
 40
1.0
 40
1.0
 10
125.6332436558914
 20
160.4799212994131
 30
0.0
 10
125.6083754911955
 20
160.3493581669034
 30
0.0
 10
125.554533304549
 20
160.0666752815469
 30
0.0
 10
125.4734227174367
 20
159.7028538716294
 30
0.0
 10
125.3915887320693
 20
159.3902431542849
 30
0.0
 10
125.3271979789762
 20
159.1897866738143
 30
0.0
 10
125.2940200352468
 20
159.1183913860314
 30
0.0
 10
125.2845080551815
 20
159.0979226505461
 30
0.0
  0
SPLINE
  5
10C
330
1F
100
AcDbEntity
  8
0
  6
Continuous
 62
     7
370
    15
100
AcDbSpline
210
0.0
220
0.0
230
1.0
 70
     8
 71
     3
 72
    16
 73
    12
 74
     0
 42
0.00000001
 43
0.00000001
 12
1.0
 22
0.0
 32
0.0
 13
1.0
 23
0.0
 33
0.0
 40
0.0
 40
0.0
 40
0.0
 40
0.0
 40
0.1046801294520177
 40
0.1955159880533368
 40
0.2726305819038763
 40
0.364303327711599
 40
0.4460233232725406
 40
0.6156800918050469
 40
0.7938978526225029
 40
0.982767092048944
 40
1.0
 40
1.0
 40
1.0
 40
1.0
 10
123.2904905435753
 20
167.4782367529425
 30
0.0
 10
123.2363050194782
 20
167.4709983939741
 30
0.0
 10
123.1351001744186
 20
167.457478971396
 30
0.0
 10
123.0149257707405
 20
167.3633963359117
 30
0.0
 10
122.9200716703355
 20
167.2437692594333
 30
0.0
 10
122.8526464253682
 20
167.1143165685605
 30
0.0
 10
122.7739048429011
 20
166.9219712736763
 30
0.0
 10
122.6775984611837
 20
166.6172407049787
 30
0.0
 10
122.5634406231254
 20
166.1388971025598
 30
0.0
 10
122.4822531691867
 20
165.7503278902004
 30
0.0
 10
122.4390070871133
 20
165.5007862229596
 30
0.0
 10
122.4353911337566
 20
165.4799211876544
 30
0.0
  0
SPLINE
  5
10D
330
1F
100
AcDbEntity
  8
0
  6
Continuous
 62
     7
370
    15
100
AcDbSpline
210
0.0
220
0.0
230
1.0
 70
     8
 71
     3
 72
    14
 73
    10
 74
     0
 42
0.00000001
 43
0.00000001
 12
1.0
 22
0.0
 32
0.0
 13
1.0
 23
0.0
 33
0.0
 40
0.0
 40
0.0
 40
0.0
 40
0.0
 40
0.0573027600754071
 40
0.2646234450151804
 40
0.4608921820147909
 40
0.6459248445365197
 40
0.8196345674584016
 40
0.9832140483445775
 40
1.0
 40
1.0
 40
1.0
 40
1.0
 10
121.6331908461761
 20
160.4799212994131
 30
0.0
 10
121.6261589440589
 20
160.4413027830242
 30
0.0
 10
121.5936857061064
 20
160.2629629467795
 30
0.0
 10
121.5376580901578
 20
159.9929248577422
 30
0.0
 10
121.4672052660694
 20
159.6807978178654
 30
0.0
 10
121.4011217064917
 20
159.4297404947532
 30
0.0
 10
121.344190320645
 20
159.2431115460565
 30
0.0
 10
121.2989756049826
 20
159.1251381234802
 30
0.0
 10
121.2861840163236
 20
159.0964101919996
 30
0.0
 10
121.2849935499143
 20
159.0937365884039
 30
0.0
  0
SPLINE
  5
10E
330
1F
100
AcDbEntity
  8
0
  6
Continuous
 62
     7
370
    15
100
AcDbSpline
210
0.0
220
0.0
230
1.0
 70
     8
 71
     3
 72
    16
 73
    12
 74
     0
 42
0.00000001
 43
0.00000001
 12
1.0
 22
0.0
 32
0.0
 13
1.0
 23
0.0
 33
0.0
 40
0.0
 40
0.0
 40
0.0
 40
0.0
 40
0.0842405589911095
 40
0.1662752685887502
 40
0.2854195010576452
 40
0.3996726742232229
 40
0.5121714638269239
 40
0.6489573663999931
 40
0.7575907015073573
 40
0.8800906183042843
 40
1.0
 40
1.0
 40
1.0
 40
1.0
 10
133.2782173511696
 20
158.4810515971932
 30
0.0
 10
133.3284690165887
 20
158.4876289886279
 30
0.0
 10
133.42765650139
 20
158.5006115416942
 30
0.0
 10
133.5551908557675
 20
158.5946107601576
 30
0.0
 10
133.6547411678905
 20
158.7218241193928
 30
0.0
 10
133.7458826343778
 20
158.906664774146
 30
0.0
 10
133.8270629494497
 20
159.1296252396687
 30
0.0
 10
133.9048671201978
 20
159.3989745467458
 30
0.0
 10
133.9835008028035
 20
159.7244797437105
 30
0.0
 10
134.0579502691656
 20
160.0710904166767
 30
0.0
 10
134.1090770758077
 20
160.3446187024243
 30
0.0
 10
134.1343672928524
 20
160.4799212994131
 30
0.0
  0
SPLINE
  5
10F
330
1F
100
AcDbEntity
  8
0
  6
Continuous
 62
     7
370
    15
100
AcDbSpline
210
0.0
220
0.0
230
1.0
 70
     8
 71
     3
 72
    13
 73
     9
 74
     0
 42
0.00000001
 43
0.00000001
 12
1.0
 22
0.0
 32
0.0
 13
1.0
 23
0.0
 33
0.0
 40
0.0
 40
0.0
 40
0.0
 40
0.0
 40
0.1947038009065779
 40
0.3899326238581964
 40
0.5770743594886546
 40
0.7564258105000665
 40
0.9305291825558449
 40
1.0
 40
1.0
 40
1.0
 40
1.0
 10
134.9360348639202
 20
165.4799211876544
 30
0.0
 10
134.9599037240792
 20
165.6048296698472
 30
0.0
 10
135.0077058071765
 20
165.8549834520372
 30
0.0
 10
135.0779025430904
 20
166.1750555676623
 30
0.0
 10
135.14557293211
 20
166.4466174304744
 30
0.0
 10
135.2095524958973
 20
166.6635156833721
 30
0.0
 10
135.257847536232
 20
166.8013572631548
 30
0.0
 10
135.2790102341649
 20
166.8491642416092
 30
0.0
 10
135.2850461361122
 20
166.8627994706931
 30
0.0
  0
SPLINE
  5
110
330
1F
100
AcDbEntity
  8
0
  6
Continuous
 62
     7
370
    15
100
AcDbSpline
210
0.0
220
0.0
230
1.0
 70
     8
 71
     3
 72
    18
 73
    14
 74
     0
 42
0.00000001
 43
0.00000001
 12
1.0
 22
0.0
 32
0.0
 13
1.0
 23
0.0
 33
0.0
 40
0.0
 40
0.0
 40
0.0
 40
0.0
 40
0.0878386635709387
 40
0.1658795666366019
 40
0.2645031965882774
 40
0.3425817464512637
 40
0.4089227817468208
 40
0.4675359040040303
 40
0.5541675522359203
 40
0.651979608412954
 40
0.77684588159038
 40
0.888247778795343
 40
1.0
 40
1.0
 40
1.0
 40
1.0
 10
137.2769141552162
 20
158.4802990885529
 30
0.0
 10
137.3239072922452
 20
158.4856232033875
 30
0.0
 10
137.4126518255561
 20
158.4956775669854
 30
0.0
 10
137.5358377353764
 20
158.5776314730828
 30
0.0
 10
137.6330046206432
 20
158.6913650283607
 30
0.0
 10
137.6992284002945
 20
158.8109391633228
 30
0.0
 10
137.7485364287097
 20
158.920613553471
 30
0.0
 10
137.7985803824954
 20
159.0512341298885
 30
0.0
 10
137.8525147286972
 20
159.2160800484387
 30
0.0
 10
137.9189805913528
 20
159.4539634333555
 30
0.0
 10
137.9901944910374
 20
159.7530567340369
 30
0.0
 10
138.0638264100621
 20
160.1012566807365
 30
0.0
 10
138.1108717039079
 20
160.3535677276131
 30
0.0
 10
138.1344312784385
 20
160.4799212994131
 30
0.0
  0
SPLINE
  5
111
330
1F
100
AcDbEntity
  8
0
  6
Continuous
 62
     7
370
    15
100
AcDbSpline
210
0.0
220
0.0
230
1.0
 70
     8
 71
     3
 72
    14
 73
    10
 74
     0
 42
0.00000001
 43
0.00000001
 12
1.0
 22
0.0
 32
0.0
 13
1.0
 23
0.0
 33
0.0
 40
0.0
 40
0.0
 40
0.0
 40
0.0
 40
0.1172768079828942
 40
0.2754075941328206
 40
0.4222661008894151
 40
0.5759868777240938
 40
0.7422907459187096
 40
0.9208021472391943
 40
0.9999999999999999
 40
0.9999999999999999
 40
0.9999999999999999
 40
0.9999999999999999
 10
138.9365235326004
 20
165.4799211876544
 30
0.0
 10
138.951000826198
 20
165.5572303569665
 30
0.0
 10
138.9849986529451
 20
165.7387797416305
 30
0.0
 10
139.0369788181273
 20
165.9888365747554
 30
0.0
 10
139.0933776280878
 20
166.2385826600413
 30
0.0
 10
139.1499155841682
 20
166.4606768804574
 30
0.0
 10
139.2067160265787
 20
166.6553145914757
 30
0.0
 10
139.2576865271372
 20
166.8006416115729
 30
0.0
 10
139.278834542305
 20
166.8481037575229
 30
0.0
 10
139.2853336391163
 20
166.8626895746293
 30
0.0
  0
SPLINE
  5
112
330
1F
100
AcDbEntity
  8
0
  6
Continuous
 62
     7
370
    15
100
AcDbSpline
210
0.0
220
0.0
230
1.0
 70
     8
 71
     3
 72
    16
 73
    12
 74
     0
 42
0.00000001
 43
0.00000001
 12
1.0
 22
0.0
 32
0.0
 13
1.0
 23
0.0
 33
0.0
 40
0.0
 40
0.0
 40
0.0
 40
0.0
 40
0.0867464877215301
 40
0.1795267863612121
 40
0.2781520120331042
 40
0.3791605528518478
 40
0.5164268705696466
 40
0.6580126647639298
 40
0.8072835199177366
 40
0.924706352220502
 40
1.0
 40
1.0
 40
1.0
 40
1.0
 10
141.279258018465
 20
158.4799908207807
 30
0.0
 10
141.3305074760391
 20
158.4869992279825
 30
0.0
 10
141.4365711411246
 20
158.5015035249921
 30
0.0
 10
141.5529057974815
 20
158.5941025258953
 30
0.0
 10
141.6460051424829
 20
158.7122000521171
 30
0.0
 10
141.7372400735513
 20
158.8865010685984
 30
0.0
 10
141.8261332940436
 20
159.1255268147208
 30
0.0
 10
141.918050640578
 20
159.4458970920505
 30
0.0
 10
142.0054057760575
 20
159.8202705936921
 30
0.0
 10
142.0777083666154
 20
160.1715344418444
 30
0.0
 10
142.1182283792904
 20
160.3932843815516
 30
0.0
 10
142.1340594050598
 20
160.4799212994131
 30
0.0
  0
SPLINE
  5
113
330
1F
100
AcDbEntity
  8
0
  6
Continuous
 62
     7
370
    15
100
AcDbSpline
210
0.0
220
0.0
230
1.0
 70
     8
 71
     3
 72
     9
 73
     5
 74
     0
 42
0.00000001
 43
0.00000001
 12
1.0
 22
0.0
 32
0.0
 13
1.0
 23
0.0
 33
0.0
 40
0.0
 40
0.0
 40
0.0
 40
0.0
 40
0.4792254414057936
 40
1.0
 40
1.0
 40
1.0
 40
1.0
 10
143.2341525313568
 20
166.7299211597147
 30
0.0
 10
143.2439681684719
 20
166.7580485608514
 30
0.0
 10
143.2644504639994
 20
166.8167420247339
 30
0.0
 10
143.2813869062438
 20
166.854352308336
 30
0.0
 10
143.2902069744777
 20
166.8739387871775
 30
0.0
  0
SPLINE
  5
114
330
1F
100
AcDbEntity
  8
0
  6
Continuous
 62
     7
370
    15
100
AcDbSpline
210
0.0
220
0.0
230
1.0
 70
     8
 71
     3
 72
    21
 73
    17
 74
     0
 42
0.00000001
 43
0.00000001
 12
1.0
 22
0.0
 32
0.0
 13
1.0
 23
0.0
 33
0.0
 40
0.0
 40
0.0
 40
0.0
 40
0.0
 40
0.0752242749150008
 40
0.1595200621935443
 40
0.2273378110138605
 40
0.2988991486653648
 40
0.3709557863309386
 40
0.44247825044587
 40
0.513475358003195
 40
0.5839988566861816
 40
0.6541473784184249
 40
0.7239749591457691
 40
0.7932211386446055
 40
0.8620944580033015
 40
0.9310207546315054
 40
0.9999999999999999
 40
0.9999999999999999
 40
0.9999999999999999
 40
0.9999999999999999
 10
144.5338951406193
 20
162.9803278099197
 30
0.0
 10
144.5081071733827
 20
163.1525307899247
 30
0.0
 10
144.4534213935322
 20
163.5177032041666
 30
0.0
 10
144.375348579229
 20
164.0312452919007
 30
0.0
 10
144.2985617689523
 20
164.5204493519155
 30
0.0
 10
144.2260204922767
 20
164.9637912574277
 30
0.0
 10
144.1520251140657
 20
165.3905444822044
 30
0.0
 10
144.0777766769628
 20
165.7871759093137
 30
0.0
 10
144.0032885017322
 20
166.1476227521464
 30
0.0
 10
143.9283306388634
 20
166.4671431885827
 30
0.0
 10
143.8520265213928
 20
166.7439419416145
 30
0.0
 10
143.7758072496571
 20
166.9727716885141
 30
0.0
 10
143.692087633329
 20
167.1678627622857
 30
0.0
 10
143.5872974230207
 20
167.3293263656641
 30
0.0
 10
143.4538467327705
 20
167.4530696213694
 30
0.0
 10
143.3367070242736
 20
167.4707736614327
 30
0.0
 10
143.2781146821689
 20
167.4796290801915
 30
0.0
  0
LWPOLYLINE
  5
115
330
1F
100
AcDbEntity
  8
0
  6
Continuous
 62
     7
370
    15
100
AcDbPolyline
 90
       26
 70
   128
 43
0.0
 10
141.3292663154
 20
158.9836700926
 10
141.3189100084
 20
159.0222310381
 10
141.2774139998
 20
159.113696461
 10
141.2291044352
 20
159.2419309648
 10
141.123745775
 20
159.6026717791
 10
141.0102995095
 20
160.1012732474
 10
140.8889444527
 20
160.7382326959
 10
140.7591143605
 20
161.5101900291
 10
140.6698191521
 20
162.079989653
 10
140.5920760688
 20
162.5919659321
 10
140.528608298
 20
163.0150812828
 10
140.47794435
 20
163.353103829
 10
140.4199304042
 20
163.737391563
 10
140.3482520935
 20
164.2034506997
 10
140.2854586003
 20
164.5992668685
 10
140.2148680744
 20
165.0256897895
 10
140.1376167295
 20
165.4645599531
 10
140.0615463016
 20
165.8624984896
 10
139.9638021347
 20
166.3148022829
 10
139.8695522902
 20
166.6786739709
 10
139.7778281924
 20
166.9598202327
 10
139.7062504646
 20
167.1288627306
 10
139.6089980361
 20
167.2902069161
 10
139.4691506383
 20
167.4228388922
 10
139.2783747968
 20
167.4798055658
 10
139.2783747968
 20
167.4798055658
  0
SPLINE
  5
116
330
1F
100
AcDbEntity
  8
0
  6
Continuous
 62
     7
370
    15
100
AcDbSpline
210
0.0
220
0.0
230
1.0
 70
     8
 71
     3
 72
    36
 73
    32
 74
     0
 42
0.00000001
 43
0.00000001
 12
1.0
 22
0.0
 32
0.0
 13
1.0
 23
0.0
 33
0.0
 40
0.0
 40
0.0
 40
0.0
 40
0.0
 40
0.0166204083056397
 40
0.0465517240838609
 40
0.0765286897379479
 40
0.136444806043301
 40
0.1980927175860858
 40
0.2315610574197686
 40
0.266877632964757
 40
0.3040329898530222
 40
0.3430031596360982
 40
0.3828399230841842
 40
0.4177513088640374
 40
0.4467320280980874
 40
0.4697568529807301
 40
0.4868011585268656
 40
0.5028519560014869
 40
0.5252262616058891
 40
0.5539937610585924
 40
0.5891611136288208
 40
0.6307577468249803
 40
0.6741131986673109
 40
0.7146745938652419
 40
0.764346817011363
 40
0.8089745247652026
 40
0.848572136535845
 40
0.876656359544658
 40
0.9105862760556274
 40
0.9371370414372178
 40
0.9669600699922395
 40
1.0
 40
1.0
 40
1.0
 40
1.0
 10
137.3359115776729
 20
158.9770381445142
 30
0.0
 10
137.3378348644052
 20
158.9776497791697
 30
0.0
 10
137.3432217545251
 20
158.9793628927826
 30
0.0
 10
137.3073567349578
 20
159.0375770409977
 30
0.0
 10
137.2534814710114
 20
159.1673223103384
 30
0.0
 10
137.1633044742474
 20
159.434892878732
 30
0.0
 10
137.065089609896
 20
159.8356818541608
 30
0.0
 10
136.9824145125694
 20
160.2333851491302
 30
0.0
 10
136.9148925827629
 20
160.5890950245183
 30
0.0
 10
136.8436910446912
 20
160.9938359267686
 30
0.0
 10
136.7694155017637
 20
161.4429017716378
 30
0.0
 10
136.6964153070099
 20
161.9056028648997
 30
0.0
 10
136.6298133446603
 20
162.3410615317874
 30
0.0
 10
136.5740397112849
 20
162.7114687289161
 30
0.0
 10
136.5297524807828
 20
163.0072111400418
 30
0.0
 10
136.4937637256403
 20
163.2474920333809
 30
0.0
 10
136.4582008058466
 20
163.484344072217
 30
0.0
 10
136.4150997427093
 20
163.7696867316027
 30
0.0
 10
136.3596937117526
 20
164.1316219072575
 30
0.0
 10
136.291846319396
 20
164.5635133112815
 30
0.0
 10
136.214524818509
 20
165.0336213932382
 30
0.0
 10
136.1336635142377
 20
165.4925990749263
 30
0.0
 10
136.047270864709
 20
165.9412994409626
 30
0.0
 10
135.9592903166412
 20
166.3450577733452
 30
0.0
 10
135.8704774130844
 20
166.687188381837
 30
0.0
 10
135.7940391074783
 20
166.9239706088004
 30
0.0
 10
135.722426181903
 20
167.1038043877656
 30
0.0
 10
135.6413247236594
 20
167.2539093153045
 30
0.0
 10
135.5391567244709
 20
167.3739824229
 30
0.0
 10
135.4211319906157
 20
167.4610712620403
 30
0.0
 10
135.3269629064437
 20
167.4729508602977
 30
0.0
 10
135.2774688956451
 20
167.4791946182105
 30
0.0
  0
SPLINE
  5
117
330
1F
100
AcDbEntity
  8
0
  6
Continuous
 62
     7
370
    15
100
AcDbSpline
210
0.0
220
0.0
230
1.0
 70
     8
 71
     3
 72
    31
 73
    27
 74
     0
 42
0.00000001
 43
0.00000001
 12
1.0
 22
0.0
 32
0.0
 13
1.0
 23
0.0
 33
0.0
 40
0.0
 40
0.0
 40
0.0
 40
0.0
 40
0.0076514568176433
 40
0.0543504384353975
 40
0.0912840987484837
 40
0.1180970727798928
 40
0.137176760027349
 40
0.1558128935312186
 40
0.2115297415034091
 40
0.2668975898461963
 40
0.3218055353135921
 40
0.3760592773165158
 40
0.426934078262222
 40
0.4733692434099708
 40
0.5072925665269925
 40
0.5383273893133966
 40
0.5664658878696234
 40
0.5926193786965971
 40
0.6281859254564158
 40
0.6676582905410006
 40
0.7161064991519697
 40
0.7735492853867871
 40
0.822542431801096
 40
0.8765843622578162
 40
0.9357103005897763
 40
1.0
 40
1.0
 40
1.0
 40
1.0
 10
133.2941168901634
 20
158.9923146287057
 30
0.0
 10
133.2947816628962
 20
158.9928169109134
 30
0.0
 10
133.2995037296014
 20
158.9963847619591
 30
0.0
 10
133.2965918322157
 20
159.0267675266295
 30
0.0
 10
133.2820277065509
 20
159.0819220609987
 30
0.0
 10
133.2611479745173
 20
159.143636600743
 30
0.0
 10
133.2367225172694
 20
159.2110204756678
 30
0.0
 10
133.201311403259
 20
159.3185900032545
 30
0.0
 10
133.1481936546424
 20
159.5005033613912
 30
0.0
 10
133.0762478287617
 20
159.7909075299832
 30
0.0
 10
133.0022747270392
 20
160.1325737075536
 30
0.0
 10
132.9288913989364
 20
160.5119146829006
 30
0.0
 10
132.8593202061515
 20
160.903039418274
 30
0.0
 10
132.7990239591849
 20
161.2628433510995
 30
0.0
 10
132.7478069228543
 20
161.5803967138376
 30
0.0
 10
132.7049529376059
 20
161.8527452358089
 30
0.0
 10
132.6656439008613
 20
162.1071270654996
 30
0.0
 10
132.6242221205607
 20
162.3786868100916
 30
0.0
 10
132.5775669147021
 20
162.6879296584949
 30
0.0
 10
132.5206605256133
 20
163.0677884140111
 30
0.0
 10
132.4536966436648
 20
163.5147490739768
 30
0.0
 10
132.3823294809279
 20
163.9851983699067
 30
0.0
 10
132.3083693736606
 20
164.4597958705484
 30
0.0
 10
132.2335291435941
 20
164.920432903885
 30
0.0
 10
132.1515654642653
 20
165.3976077349745
 30
0.0
 10
132.0945964262759
 20
165.692049637262
 30
0.0
 10
132.0649201032829
 20
165.8454303735944
 30
0.0
  0
SPLINE
  5
118
330
1F
100
AcDbEntity
  8
0
  6
Continuous
 62
     7
370
    15
100
AcDbSpline
210
0.0
220
0.0
230
1.0
 70
     8
 71
     3
 72
    32
 73
    28
 74
     0
 42
0.00000001
 43
0.00000001
 12
1.0
 22
0.0
 32
0.0
 13
1.0
 23
0.0
 33
0.0
 40
0.0
 40
0.0
 40
0.0
 40
0.0
 40
0.0597085964038105
 40
0.1146842774270467
 40
0.164960772820148
 40
0.2105348744432338
 40
0.2639011584725538
 40
0.3087593867994752
 40
0.3450686555588607
 40
0.3773345293923498
 40
0.401846566515205
 40
0.4288366398353424
 40
0.4586956962733544
 40
0.4914343309519107
 40
0.536407467407039
 40
0.5858834939684915
 40
0.6380819644332886
 40
0.6901956607023755
 40
0.742325798176539
 40
0.7945671828058966
 40
0.8120241529866101
 40
0.8317885936646271
 40
0.8600422434131895
 40
0.8871764673258804
 40
0.9195208743892378
 40
0.9571369641833601
 40
0.9999999999999999
 40
0.9999999999999999
 40
0.9999999999999999
 40
0.9999999999999999
 10
131.5714420733165
 20
165.7994435275051
 30
0.0
 10
131.6011311047011
 20
165.6482309007219
 30
0.0
 10
131.6581558099683
 20
165.3577918034235
 30
0.0
 10
131.7403028385118
 20
164.8834744207136
 30
0.0
 10
131.8153841532367
 20
164.4238307807464
 30
0.0
 10
131.8895995781112
 20
163.9491988767938
 30
0.0
 10
131.9611350663005
 20
163.4784885184831
 30
0.0
 10
132.0280690135492
 20
163.0319777192283
 30
0.0
 10
132.0845458218606
 20
162.6548912328742
 30
0.0
 10
132.1309171148985
 20
162.347139380498
 30
0.0
 10
132.1726326527962
 20
162.0730545616233
 30
0.0
 10
132.2131597897878
 20
161.810100920661
 30
0.0
 10
132.257780232615
 20
161.5256994229386
 30
0.0
 10
132.3113713819887
 20
161.1926437561772
 30
0.0
 10
132.3748006790572
 20
160.8135682399184
 30
0.0
 10
132.4480079190233
 20
160.402432624105
 30
0.0
 10
132.5251240153499
 20
160.0054355446213
 30
0.0
 10
132.6051672251887
 20
159.6404453111318
 30
0.0
 10
132.6875768374334
 20
159.3188441050217
 30
0.0
 10
132.7552314972228
 20
159.1037851296147
 30
0.0
 10
132.8067395743861
 20
158.9659562819331
 30
0.0
 10
132.846938470715
 20
158.8701962383941
 30
0.0
 10
132.901910582498
 20
158.7645693581765
 30
0.0
 10
132.9729166477109
 20
158.6593320100604
 30
0.0
 10
133.0591993427566
 20
158.5672975246889
 30
0.0
 10
133.1671248589122
 20
158.4942981756959
 30
0.0
 10
133.2482791230217
 20
158.485691723163
 30
0.0
 10
133.2915017363739
 20
158.4811079422089
 30
0.0
  0
LWPOLYLINE
  5
119
330
1F
100
AcDbEntity
  8
0
  6
Continuous
 62
     7
370
    15
100
AcDbPolyline
 90
       27
 70
   128
 43
0.0
 10
135.2407636103
 20
166.9751954371
 10
135.2510938403
 20
166.9372556837
 10
135.2925563214
 20
166.8463294966
 10
135.3408323583
 20
166.7183415605
 10
135.4461388645
 20
166.3565003885
 10
135.5595702288
 20
165.8576404782
 10
135.6809215603
 20
165.2214617109
 10
135.7447953877
 20
164.85179708
 10
135.8107479272
 20
164.4495409321
 10
135.9000394103
 20
163.8792552742
 10
135.9777824936
 20
163.3671171778
 10
136.0412465391
 20
162.9440249065
 10
136.0919142124
 20
162.6061114123
 10
136.1499058065
 20
162.222193588
 10
136.2215356884
 20
161.7568402192
 10
136.2842658517
 20
161.3614553692
 10
136.3547818718
 20
160.935128258
 10
136.431947535
 20
160.4961759051
 10
136.5079695341
 20
160.0980899869
 10
136.6057435033
 20
159.6460665217
 10
136.700123733
 20
159.2824146258
 10
136.792082524
 20
159.0001074703
 10
136.8638316152
 20
158.8301108325
 10
136.9609424827
 20
158.6685985433
 10
137.1002944169
 20
158.5364583055
 10
137.2902171669
 20
158.4802879127
 10
137.2902171669
 20
158.4802879127
  0
SPLINE
  5
11A
330
1F
100
AcDbEntity
  8
0
  6
Continuous
 62
     7
370
    15
100
AcDbSpline
210
0.0
220
0.0
230
1.0
 70
     8
 71
     3
 72
    36
 73
    32
 74
     0
 42
0.00000001
 43
0.00000001
 12
1.0
 22
0.0
 32
0.0
 13
1.0
 23
0.0
 33
0.0
 40
0.0
 40
0.0
 40
0.0
 40
0.0
 40
0.0169951970429451
 40
0.0469504952810698
 40
0.0769189879552243
 40
0.1367802932567483
 40
0.1984020867140594
 40
0.2318758474130132
 40
0.2671885787786076
 40
0.3043207717969366
 40
0.3432525811656112
 40
0.3830611674649747
 40
0.4179720081441968
 40
0.4469541718272185
 40
0.4699739561047678
 40
0.4870090707752207
 40
0.5030504297639364
 40
0.5254033046842708
 40
0.5541363024187852
 40
0.5892690290736932
 40
0.6308539577953651
 40
0.674194173931244
 40
0.714724848389283
 40
0.7643413754510722
 40
0.8089389495131951
 40
0.8485498332641943
 40
0.8766536381695856
 40
0.9106010143657014
 40
0.9371552364715127
 40
0.9669714196905055
 40
1.0
 40
1.0
 40
1.0
 40
1.0
 10
139.2335372028064
 20
166.9824141183945
 30
0.0
 10
139.2316459094818
 20
166.9817423261703
 30
0.0
 10
139.2264210710707
 20
166.9798864502088
 30
0.0
 10
139.2623465587949
 20
166.9219245395557
 30
0.0
 10
139.3163619415282
 20
166.7928691756873
 30
0.0
 10
139.4065718145688
 20
166.5259803583332
 30
0.0
 10
139.5047965431697
 20
166.1231112989195
 30
0.0
 10
139.5874334209991
 20
165.7255105570043
 30
0.0
 10
139.6549519204155
 20
165.3701377619294
 30
0.0
 10
139.7261590756807
 20
164.9658596475385
 30
0.0
 10
139.8004709596274
 20
164.516993819321
 30
0.0
 10
139.8734862304548
 20
164.0538313932858
 30
0.0
 10
139.9400609548072
 20
163.6181783673472
 30
0.0
 10
139.9958283246393
 20
163.2476530945886
 30
0.0
 10
140.0401109623548
 20
162.9518389620512
 30
0.0
 10
140.0761015493334
 20
162.7115352043042
 30
0.0
 10
140.1116573454296
 20
162.4747137609983
 30
0.0
 10
140.1547618623569
 20
162.1894769741578
 30
0.0
 10
140.2101710613663
 20
161.8277214619076
 30
0.0
 10
140.2780274000914
 20
161.3963369073738
 30
0.0
 10
140.3552922325924
 20
160.9266633551415
 30
0.0
 10
140.4361092987902
 20
160.4673249574454
 30
0.0
 10
140.5224816244314
 20
160.018105839436
 30
0.0
 10
140.6104866151233
 20
159.6139702559593
 30
0.0
 10
140.6993223081579
 20
159.2733062141619
 30
0.0
 10
140.7757323566446
 20
159.0368959924088
 30
0.0
 10
140.8473589368307
 20
158.8565304217735
 30
0.0
 10
140.9284629886939
 20
158.7057295671406
 30
0.0
 10
141.0306752705185
 20
158.5850478036656
 30
0.0
 10
141.1487638675476
 20
158.4976020875088
 30
0.0
 10
141.2429859588145
 20
158.4860783924366
 30
0.0
 10
141.2925051507663
 20
158.4800220200869
 30
0.0
  0
SPLINE
  5
11B
330
1F
100
AcDbEntity
  8
0
  6
Continuous
 62
     7
370
    15
100
AcDbSpline
210
0.0
220
0.0
230
1.0
 70
     8
 71
     3
 72
    22
 73
    18
 74
     0
 42
0.00000001
 43
0.00000001
 12
1.0
 22
0.0
 32
0.0
 13
1.0
 23
0.0
 33
0.0
 40
0.0
 40
0.0
 40
0.0
 40
0.0
 40
0.019154135822738
 40
0.0933223965140638
 40
0.1503763797093434
 40
0.1896245317003856
 40
0.2199149176029876
 40
0.2500250007422719
 40
0.2799443174846902
 40
0.3096629017612012
 40
0.4262134180343802
 40
0.5390990573708229
 40
0.6563124672219638
 40
0.785704795593298
 40
0.8550338140480058
 40
0.9274596971295441
 40
1.0
 40
1.0
 40
1.0
 40
1.0
 10
143.2763228175354
 20
166.966784197286
 30
0.0
 10
143.2752216655322
 20
166.9658827699263
 30
0.0
 10
143.2698566548204
 20
166.9614908536175
 30
0.0
 10
143.2744302035529
 20
166.9256013566463
 30
0.0
 10
143.2913904199514
 20
166.8655047880735
 30
0.0
 10
143.3158970726243
 20
166.7964198516616
 30
0.0
 10
143.3413608527292
 20
166.7245261362248
 30
0.0
 10
143.3642883355921
 20
166.6530337668816
 30
0.0
 10
143.3881318618056
 20
166.5738217122532
 30
0.0
 10
143.4361283951929
 20
166.4036406262692
 30
0.0
 10
143.511074779067
 20
166.0987873571326
 30
0.0
 10
143.6156591767862
 20
165.587934226226
 30
0.0
 10
143.7251235146209
 20
164.9778522786084
 30
0.0
 10
143.8215036944623
 20
164.3863351401716
 30
0.0
 10
143.9042513544529
 20
163.853584191767
 30
0.0
 10
143.9696823847845
 20
163.4224517140342
 30
0.0
 10
144.0139165374103
 20
163.1272470578136
 30
0.0
 10
144.0360510704231
 20
162.9795282292442
 30
0.0
  0
SPLINE
  5
11C
330
1F
100
AcDbEntity
  8
0
  6
Continuous
 62
     7
370
    15
100
AcDbSpline
210
0.0
220
0.0
230
1.0
 70
     8
 71
     3
 72
    14
 73
    10
 74
     0
 42
0.00000001
 43
0.00000001
 12
1.0
 22
0.0
 32
0.0
 13
1.0
 23
0.0
 33
0.0
 40
0.0
 40
0.0
 40
0.0
 40
0.0
 40
0.1117184533276026
 40
0.2212740504389144
 40
0.3815506355565468
 40
0.5351955033882402
 40
0.68620591251684
 40
0.8696138404806142
 40
1.0
 40
1.0
 40
1.0
 40
1.0
 10
143.2913171109867
 20
167.4796742493364
 30
0.0
 10
143.2412097113734
 20
167.4731137517547
 30
0.0
 10
143.1419649855546
 20
167.4601197670588
 30
0.0
 10
143.0147266058958
 20
167.365925539067
 30
0.0
 10
142.915332171882
 20
167.2382682574881
 30
0.0
 10
142.8240190666211
 20
167.0527050400731
 30
0.0
 10
142.7428106861295
 20
166.8289000653958
 30
0.0
 10
142.6673906083632
 20
166.5724444340031
 30
0.0
 10
142.617405652437
 20
166.3609851986356
 30
0.0
 10
142.5966361520004
 20
166.2731207082125
 30
0.0
  0
SPLINE
  5
11D
330
1F
100
AcDbEntity
  8
0
  6
Continuous
 62
     7
370
    15
100
AcDbSpline
210
0.0
220
0.0
230
1.0
 70
     8
 71
     3
 72
     9
 73
     5
 74
     0
 42
0.00000001
 43
0.00000001
 12
1.0
 22
0.0
 32
0.0
 13
1.0
 23
0.0
 33
0.0
 40
0.0
 40
0.0
 40
0.0
 40
0.0
 40
0.3551514693281026
 40
1.0
 40
1.0
 40
1.0
 40
1.0
 10
142.5534376856994
 20
166.0749208288345
 30
0.0
 10
142.5394066184149
 20
166.0105764344917
 30
0.0
 10
142.499899341953
 20
165.8294019219254
 30
0.0
 10
142.4607260392301
 20
165.6169320636046
 30
0.0
 10
142.4354651925277
 20
165.4799211876544
 30
0.0
  0
SPLINE
  5
11E
330
1F
100
AcDbEntity
  8
0
  6
Continuous
 62
     7
370
    15
100
AcDbSpline
210
0.0
220
0.0
230
1.0
 70
     8
 71
     3
 72
    13
 73
     9
 74
     0
 42
0.00000001
 43
0.00000001
 12
1.0
 22
0.0
 32
0.0
 13
1.0
 23
0.0
 33
0.0
 40
0.0
 40
0.0
 40
0.0
 40
0.0
 40
0.1944253996420949
 40
0.3897887908901695
 40
0.5769149663258326
 40
0.7562137947601844
 40
0.9303108068701155
 40
1.0
 40
1.0
 40
1.0
 40
1.0
 10
141.6336523351383
 20
160.4799212994131
 30
0.0
 10
141.6098397720952
 20
160.3553521881755
 30
0.0
 10
141.5620997639807
 20
160.1056129908229
 30
0.0
 10
141.4919821046495
 20
159.7850364412508
 30
0.0
 10
141.4242913218112
 20
159.5124965331077
 30
0.0
 10
141.3603026692382
 20
159.2958860234015
 30
0.0
 10
141.3120019360546
 20
159.1585886000116
 30
0.0
 10
141.2908395849221
 20
159.1110309544545
 30
0.0
 10
141.2847900745582
 20
159.0974360345009
 30
0.0
  0
SPLINE
  5
11F
330
1F
100
AcDbEntity
  8
0
  6
Continuous
 62
     7
370
    15
100
AcDbSpline
210
0.0
220
0.0
230
1.0
 70
     8
 71
     3
 72
    19
 73
    15
 74
     0
 42
0.00000001
 43
0.00000001
 12
1.0
 22
0.0
 32
0.0
 13
1.0
 23
0.0
 33
0.0
 40
0.0
 40
0.0
 40
0.0
 40
0.0
 40
0.0872174852255303
 40
0.1647877335146504
 40
0.2630339861860688
 40
0.3411068570812573
 40
0.4072407239528064
 40
0.4651444436319579
 40
0.5492769949597122
 40
0.6430662073307751
 40
0.7622988929992126
 40
0.8684386572576286
 40
0.9888740586753643
 40
1.0
 40
1.0
 40
1.0
 40
1.0
 10
139.2917001602363
 20
167.4797762291583
 30
0.0
 10
139.2448608436822
 20
167.4745356899062
 30
0.0
 10
139.1563631669334
 20
167.4646342741118
 30
0.0
 10
139.0335071340625
 20
167.3826753084787
 30
0.0
 10
138.936584102981
 20
167.2687533687593
 30
0.0
 10
138.8706236581146
 20
167.1490676122536
 30
0.0
 10
138.8215837663581
 20
167.039583892305
 30
0.0
 10
138.7723923054409
 20
166.9110182899828
 30
0.0
 10
138.7201597812759
 20
166.7519911612384
 30
0.0
 10
138.6564462078233
 20
166.5264455309143
 30
0.0
 10
138.5884534929688
 20
166.2472985104741
 30
0.0
 10
138.5153371274201
 20
165.9022156105696
 30
0.0
 10
138.4652385127523
 20
165.6498856792689
 30
0.0
 10
138.4375766182352
 20
165.4931740501876
 30
0.0
 10
138.4352372941684
 20
165.4799211876544
 30
0.0
  0
SPLINE
  5
120
330
1F
100
AcDbEntity
  8
0
  6
Continuous
 62
     7
370
    15
100
AcDbSpline
210
0.0
220
0.0
230
1.0
 70
     8
 71
     3
 72
    13
 73
     9
 74
     0
 42
0.00000001
 43
0.00000001
 12
1.0
 22
0.0
 32
0.0
 13
1.0
 23
0.0
 33
0.0
 40
0.0
 40
0.0
 40
0.0
 40
0.0
 40
0.0752454012765712
 40
0.4001258400998334
 40
0.5652131957707515
 40
0.7385096488495835
 40
0.919781165461192
 40
0.9999999999999999
 40
0.9999999999999999
 40
0.9999999999999999
 40
0.9999999999999999
 10
137.6321727392387
 20
160.4799212994131
 30
0.0
 10
137.622893783512
 20
160.4279031739992
 30
0.0
 10
137.5735518982617
 20
160.1512909720764
 30
0.0
 10
137.5040607548749
 20
159.8358125129523
 30
0.0
 10
137.4238163383358
 20
159.5121672024996
 30
0.0
 10
137.3646152125455
 20
159.3081990982624
 30
0.0
 10
137.3124444154889
 20
159.1593416770639
 30
0.0
 10
137.2910393262834
 20
159.1116381686977
 30
0.0
 10
137.2844727692318
 20
159.0970039008263
 30
0.0
  0
SPLINE
  5
121
330
1F
100
AcDbEntity
  8
0
  6
Continuous
 62
     7
370
    15
100
AcDbSpline
210
0.0
220
0.0
230
1.0
 70
     8
 71
     3
 72
    16
 73
    12
 74
     0
 42
0.00000001
 43
0.00000001
 12
1.0
 22
0.0
 32
0.0
 13
1.0
 23
0.0
 33
0.0
 40
0.0
 40
0.0
 40
0.0
 40
0.0
 40
0.086771261498517
 40
0.1795191668570818
 40
0.2780999774415412
 40
0.379079304949917
 40
0.5163491691538212
 40
0.6579638466260267
 40
0.8071828181042271
 40
0.9244938683934426
 40
1.0
 40
1.0
 40
1.0
 40
1.0
 10
135.2907197532367
 20
167.4791718008074
 30
0.0
 10
135.2394648497109
 20
167.4724666203761
 30
0.0
 10
135.1334246997881
 20
167.4585944190982
 30
0.0
 10
135.0169978477881
 20
167.3668656443758
 30
0.0
 10
134.9238600522942
 20
167.2486949890035
 30
0.0
 10
134.832589041799
 20
167.0737848732965
 30
0.0
 10
134.7437033979173
 20
166.8338521139499
 30
0.0
 10
134.6518309471899
 20
166.5131710261311
 30
0.0
 10
134.5644919068352
 20
166.1404120562242
 30
0.0
 10
134.4920952731599
 20
165.7890726194719
 30
0.0
 10
134.4515284403393
 20
165.5669163443275
 30
0.0
 10
134.4356426951599
 20
165.4799211876544
 30
0.0
  0
SPLINE
  5
122
330
1F
100
AcDbEntity
  8
0
  6
Continuous
 62
     7
370
    15
100
AcDbSpline
210
0.0
220
0.0
230
1.0
 70
     8
 71
     3
 72
    14
 73
    10
 74
     0
 42
0.00000001
 43
0.00000001
 12
1.0
 22
0.0
 32
0.0
 13
1.0
 23
0.0
 33
0.0
 40
0.0
 40
0.0
 40
0.0
 40
0.0
 40
0.0405091801532238
 40
0.2598091172190036
 40
0.4560118571736736
 40
0.6291150901810696
 40
0.7792569776293093
 40
0.9090046157743081
 40
1.0
 40
1.0
 40
1.0
 40
1.0
 10
133.6331965384197
 20
160.4799212994131
 30
0.0
 10
133.6282103032038
 20
160.45227262557
 30
0.0
 10
133.5962306540279
 20
160.2749454736434
 30
0.0
 10
133.5404897761818
 20
160.0060390963195
 30
0.0
 10
133.4690272184818
 20
159.6885994141966
 30
0.0
 10
133.4065495353663
 20
159.4497212105998
 30
0.0
 10
133.3535109579251
 20
159.2754697634628
 30
0.0
 10
133.3100604346964
 20
159.1541064236684
 30
0.0
 10
133.2886623596564
 20
159.1057515020334
 30
0.0
 10
133.2798415777397
 20
159.0858184838745
 30
0.0
  0
LINE
  5
123
330
1F
100
AcDbEntity
  8
0
  6
Continuous
 62
     7
370
    15
100
AcDbLine
 10
149.9872470257
 20
155.7299214522
 30
0.0
 11
150.4681223986
 21
154.8970173219
 31
0.0
  0
LINE
  5
124
330
1F
100
AcDbEntity
  8
0
  6
Continuous
 62
     7
370
    15
100
AcDbLine
 10
152.5063665566
 20
154.8970173219
 30
0.0
 11
152.9872456548
 21
155.7299214522
 31
0.0
  0
LINE
  5
125
330
1F
100
AcDbEntity
  8
0
  6
Continuous
 62
     7
370
    15
100
AcDbLine
 10
150.4681223986
 20
171.0628251651
 30
0.0
 11
149.9872470257
 21
170.2299210349
 31
0.0
  0
LINE
  5
126
330
1F
100
AcDbEntity
  8
0
  6
Continuous
 62
     7
370
    15
100
AcDbLine
 10
152.9872456548
 20
170.2299210349
 30
0.0
 11
152.5063665566
 21
171.0628251651
 31
0.0
  0
LINE
  5
127
330
1F
100
AcDbEntity
  8
0
  6
Continuous
 62
     7
370
    15
100
AcDbLine
 10
152.9872456548
 20
155.7299214522
 30
0.0
 11
153.4681210277
 21
154.8970173219
 31
0.0
  0
LINE
  5
128
330
1F
100
AcDbEntity
  8
0
  6
Continuous
 62
     7
370
    15
100
AcDbLine
 10
155.506368911
 20
154.8970173219
 30
0.0
 11
155.9872480092
 21
155.7299214522
 31
0.0
  0
LINE
  5
129
330
1F
100
AcDbEntity
  8
0
  6
Continuous
 62
     7
370
    15
100
AcDbLine
 10
153.4681210277
 20
171.0628251651
 30
0.0
 11
152.9872456548
 21
170.2299210349
 31
0.0
  0
LINE
  5
12A
330
1F
100
AcDbEntity
  8
0
  6
Continuous
 62
     7
370
    15
100
AcDbLine
 10
155.9872480092
 20
170.2299210349
 30
0.0
 11
155.506368911
 21
171.0628251651
 31
0.0
  0
LINE
  5
12B
330
1F
100
AcDbEntity
  8
0
  6
Continuous
 62
     7
370
    15
100
AcDbLine
 10
106.5534383041
 20
159.2299213274
 30
0.0
 11
108.7167954055
 21
159.2299213274
 31
0.0
  0
LINE
  5
12C
330
1F
100
AcDbEntity
  8
0
  6
Continuous
 62
     7
370
    15
100
AcDbLine
 10
109.2333124933
 20
159.2299213274
 30
0.0
 11
112.5534383563
 21
159.2299213274
 31
0.0
  0
LINE
  5
12D
330
1F
100
AcDbEntity
  8
0
  6
Continuous
 62
     7
370
    15
100
AcDbLine
 10
112.5534383563
 20
166.7299211597
 30
0.0
 11
111.8521003035
 21
166.7299211597
 31
0.0
  0
LINE
  5
12E
330
1F
100
AcDbEntity
  8
0
  6
Continuous
 62
     7
370
    15
100
AcDbLine
 10
111.3368945179
 20
166.7299211597
 30
0.0
 11
107.8525727597
 21
166.7299211597
 31
0.0
  0
LINE
  5
12F
330
1F
100
AcDbEntity
  8
0
  6
Continuous
 62
     7
370
    15
100
AcDbLine
 10
107.3353720811
 20
166.7299211597
 30
0.0
 11
106.5534383041
 21
166.7299211597
 31
0.0
  0
LINE
  5
130
330
1F
100
AcDbEntity
  8
0
  6
Continuous
 62
     7
370
    15
100
AcDbLine
 10
93.0534379539
 20
159.4799211355
 30
0.0
 11
95.0534380489
 21
159.4799211355
 31
0.0
  0
LINE
  5
131
330
1F
100
AcDbEntity
  8
0
  6
Continuous
 62
     7
370
    15
100
AcDbLine
 10
95.0534380489
 20
166.4799213516
 30
0.0
 11
93.0534379539
 21
166.4799213516
 31
0.0
  0
LINE
  5
132
330
1F
100
AcDbEntity
  8
0
  6
Continuous
 62
     7
370
    15
100
AcDbLine
 10
161.0534416494
 20
160.4799212994
 30
0.0
 11
161.5534352121
 21
160.9799211485
 31
0.0
  0
LINE
  5
133
330
1F
100
AcDbEntity
  8
0
  6
Continuous
 62
     7
370
    15
100
AcDbLine
 10
161.5534352121
 20
164.9799213385
 30
0.0
 11
161.0534416494
 21
165.4799211877
 31
0.0
  0
LINE
  5
134
330
1F
100
AcDbEntity
  8
0
  6
Continuous
 62
     7
370
    15
100
AcDbLine
 10
160.2534355578
 20
160.4799212994
 30
0.0
 11
161.0534416494
 21
160.4799212994
 31
0.0
  0
LINE
  5
135
330
1F
100
AcDbEntity
  8
0
  6
Continuous
 62
     7
370
    15
100
AcDbLine
 10
161.0534416494
 20
165.4799211877
 30
0.0
 11
160.2534355578
 21
165.4799211877
 31
0.0
  0
LINE
  5
136
330
1F
100
AcDbEntity
  8
0
  6
Continuous
 62
     7
370
    15
100
AcDbLine
 10
112.9365900514
 20
160.4799212994
 30
0.0
 11
116.4353659359
 21
160.4799212994
 31
0.0
  0
LINE
  5
137
330
1F
100
AcDbEntity
  8
0
  6
Continuous
 62
     7
370
    15
100
AcDbLine
 10
116.9378405419
 20
160.4799212994
 30
0.0
 11
120.4351970908
 21
160.4799212994
 31
0.0
  0
LINE
  5
138
330
1F
100
AcDbEntity
  8
0
  6
Continuous
 62
     7
370
    15
100
AcDbLine
 10
120.9360716847
 20
160.4799212994
 30
0.0
 11
124.435268527
 21
160.4799212994
 31
0.0
  0
LINE
  5
139
330
1F
100
AcDbEntity
  8
0
  6
Continuous
 62
     7
370
    15
100
AcDbLine
 10
124.9378958699
 20
160.4799212994
 30
0.0
 11
128.4373069164
 21
160.4799212994
 31
0.0
  0
LINE
  5
13A
330
1F
100
AcDbEntity
  8
0
  6
Continuous
 62
     7
370
    15
100
AcDbLine
 10
128.936220145
 20
160.4799212994
 30
0.0
 11
132.4351878819
 21
160.4799212994
 31
0.0
  0
LINE
  5
13B
330
1F
100
AcDbEntity
  8
0
  6
Continuous
 62
     7
370
    15
100
AcDbLine
 10
132.9362245259
 20
160.4799212994
 30
0.0
 11
136.4350507018
 21
160.4799212994
 31
0.0
  0
LINE
  5
13C
330
1F
100
AcDbEntity
  8
0
  6
Continuous
 62
     7
370
    15
100
AcDbLine
 10
136.9365232048
 20
160.4799212994
 30
0.0
 11
140.4351146874
 21
160.4799212994
 31
0.0
  0
LINE
  5
13D
330
1F
100
AcDbEntity
  8
0
  6
Continuous
 62
     7
370
    15
100
AcDbLine
 10
140.9381592629
 20
160.4799212994
 30
0.0
 11
142.5534376857
 21
160.4799212994
 31
0.0
  0
LINE
  5
13E
330
1F
100
AcDbEntity
  8
0
  6
Continuous
 62
     7
370
    15
100
AcDbLine
 10
142.5534376857
 20
165.4799211877
 30
0.0
 11
140.1346812007
 21
165.4799211877
 31
0.0
  0
LINE
  5
13F
330
1F
100
AcDbEntity
  8
0
  6
Continuous
 62
     7
370
    15
100
AcDbLine
 10
139.6331900713
 20
165.4799211877
 30
0.0
 11
136.1346768198
 21
165.4799211877
 31
0.0
  0
LINE
  5
140
330
1F
100
AcDbEntity
  8
0
  6
Continuous
 62
     7
370
    15
100
AcDbLine
 10
135.6316210684
 20
165.4799211877
 30
0.0
 11
132.1341210959
 21
165.4799211877
 31
0.0
  0
LINE
  5
141
330
1F
100
AcDbEntity
  8
0
  6
Continuous
 62
     7
370
    15
100
AcDbLine
 10
131.632752901
 20
165.4799211877
 30
0.0
 11
128.1339267251
 21
165.4799211877
 31
0.0
  0
LINE
  5
142
330
1F
100
AcDbEntity
  8
0
  6
Continuous
 62
     7
370
    15
100
AcDbLine
 10
127.6333482918
 20
165.4799211877
 30
0.0
 11
124.1346413252
 21
165.4799211877
 31
0.0
  0
LINE
  5
143
330
1F
100
AcDbEntity
  8
0
  6
Continuous
 62
     7
370
    15
100
AcDbLine
 10
123.6331464705
 20
165.4799211877
 30
0.0
 11
120.1341098157
 21
165.4799211877
 31
0.0
  0
LINE
  5
144
330
1F
100
AcDbEntity
  8
0
  6
Continuous
 62
     7
370
    15
100
AcDbLine
 10
119.6332743374
 20
165.4799211877
 30
0.0
 11
116.1329505948
 21
165.4799211877
 31
0.0
  0
LINE
  5
145
330
1F
100
AcDbEntity
  8
0
  6
Continuous
 62
     7
370
    15
100
AcDbLine
 10
115.6335232762
 20
165.4799211877
 30
0.0
 11
112.5534383563
 21
165.4799211877
 31
0.0
  0
LINE
  5
146
330
1F
100
AcDbEntity
  8
0
  6
Continuous
 62
     7
370
    15
100
AcDbLine
 10
95.0534380489
 20
160.4799212994
 30
0.0
 11
98.5534379241
 21
160.4799212994
 31
0.0
  0
LINE
  5
147
330
1F
100
AcDbEntity
  8
0
  6
Continuous
 62
     7
370
    15
100
AcDbLine
 10
98.5534379241
 20
165.4799211877
 30
0.0
 11
95.0534380489
 21
165.4799211877
 31
0.0
  0
LINE
  5
148
330
1F
100
AcDbEntity
  8
0
  6
Continuous
 62
     7
370
    15
100
AcDbLine
 10
159.5534386096
 20
161.4799212305
 30
0.0
 11
159.6534403023
 21
161.4799212305
 31
0.0
  0
LINE
  5
149
330
1F
100
AcDbEntity
  8
0
  6
Continuous
 62
     7
370
    15
100
AcDbLine
 10
159.6534403023
 20
164.4799212566
 30
0.0
 11
159.5534386096
 21
164.4799212566
 31
0.0
  0
LINE
  5
14A
330
1F
100
AcDbEntity
  8
0
  6
Continuous
 62
     7
370
    15
100
AcDbLine
 10
98.5534379241
 20
169.7799213337
 30
0.0
 11
98.5534379241
 21
168.9799212957
 31
0.0
  0
LINE
  5
14B
330
1F
100
AcDbEntity
  8
0
  6
Continuous
 62
     7
370
    15
100
AcDbLine
 10
106.5534383041
 20
168.9799212957
 30
0.0
 11
106.5534383041
 21
169.7799213337
 31
0.0
  0
LINE
  5
14C
330
1F
100
AcDbEntity
  8
0
  6
Continuous
 62
     7
370
    15
100
AcDbLine
 10
98.5534379241
 20
156.9799211914
 30
0.0
 11
98.5534379241
 21
156.1799211534
 31
0.0
  0
LINE
  5
14D
330
1F
100
AcDbEntity
  8
0
  6
Continuous
 62
     7
370
    15
100
AcDbLine
 10
106.5534383041
 20
156.1799211534
 30
0.0
 11
106.5534383041
 21
156.9799211914
 31
0.0
  0
LINE
  5
14E
330
1F
100
AcDbEntity
  8
0
  6
Continuous
 62
     7
370
    15
100
AcDbLine
 10
147.5534366426
 20
166.732697898
 30
0.0
 11
144.5534380135
 21
166.732697898
 31
0.0
  0
LINE
  5
14F
330
1F
100
AcDbEntity
  8
0
  6
Continuous
 62
     7
370
    15
100
AcDbLine
 10
147.5534366426
 20
159.2271445891
 30
0.0
 11
144.5534380135
 21
159.2271445891
 31
0.0
  0
LINE
  5
150
330
1F
100
AcDbEntity
  8
0
  6
Continuous
 62
     7
370
    15
100
AcDbLine
 10
144.5534380135
 20
166.732697898
 30
0.0
 11
144.5534380135
 21
159.2271445891
 31
0.0
  0
LINE
  5
151
330
1F
100
AcDbEntity
  8
0
  6
Continuous
 62
     7
370
    15
100
AcDbLine
 10
147.5534366426
 20
166.732697898
 30
0.0
 11
147.5534366426
 21
159.2271445891
 31
0.0
  0
LINE
  5
152
330
1F
100
AcDbEntity
  8
0
  6
Continuous
 62
     7
370
    15
100
AcDbLine
 10
147.5534366426
 20
170.4854745524
 30
0.0
 11
144.5534380135
 21
170.4854745524
 31
0.0
  0
LINE
  5
153
330
1F
100
AcDbEntity
  8
0
  6
Continuous
 62
     7
370
    15
100
AcDbLine
 10
144.5534380135
 20
170.4854745524
 30
0.0
 11
144.5534380135
 21
166.732697898
 31
0.0
  0
LINE
  5
154
330
1F
100
AcDbEntity
  8
0
  6
Continuous
 62
     7
370
    15
100
AcDbLine
 10
147.5534366426
 20
170.4854745524
 30
0.0
 11
147.5534366426
 21
166.732697898
 31
0.0
  0
LINE
  5
155
330
1F
100
AcDbEntity
  8
0
  6
Continuous
 62
     7
370
    15
100
AcDbLine
 10
147.5534366426
 20
155.4743679347
 30
0.0
 11
144.5534380135
 21
155.4743679347
 31
0.0
  0
LINE
  5
156
330
1F
100
AcDbEntity
  8
0
  6
Continuous
 62
     7
370
    15
100
AcDbLine
 10
144.5534380135
 20
159.2271445891
 30
0.0
 11
144.5534380135
 21
155.4743679347
 31
0.0
  0
LINE
  5
157
330
1F
100
AcDbEntity
  8
0
  6
Continuous
 62
     7
370
    15
100
AcDbLine
 10
147.5534366426
 20
159.2271445891
 30
0.0
 11
147.5534366426
 21
155.4743679347
 31
0.0
  0
LINE
  5
158
330
1F
100
AcDbEntity
  8
0
  6
Continuous
 62
     7
370
    15
100
AcDbLine
 10
159.5534386096
 20
166.9799214335
 30
0.0
 11
159.5534386096
 21
158.9799210535
 31
0.0
  0
LINE
  5
159
330
1F
100
AcDbEntity
  8
0
  6
Continuous
 62
     7
370
    15
100
AcDbLine
 10
158.553436583
 20
157.9799213553
 30
0.0
 11
158.553436583
 21
167.9799211318
 31
0.0
  0
LINE
  5
15A
330
1F
100
AcDbEntity
  8
0
  6
Continuous
 62
     7
370
    15
100
AcDbLine
 10
149.0534396825
 20
167.9799211318
 30
0.0
 11
149.0534396825
 21
157.9799213553
 31
0.0
  0
LINE
  5
15B
330
1F
100
AcDbEntity
  8
0
  6
Continuous
 62
     7
370
    15
100
AcDbLine
 10
143.053438699
 20
166.7299211597
 30
0.0
 11
143.053438699
 21
159.2299213274
 31
0.0
  0
LINE
  5
15C
330
1F
100
AcDbEntity
  8
0
  6
Continuous
 62
     7
370
    15
100
AcDbLine
 10
142.5534376857
 20
159.7299211765
 30
0.0
 11
142.5534376857
 21
166.2299213106
 31
0.0
  0
LINE
  5
15D
330
1F
100
AcDbEntity
  8
0
  6
Continuous
 62
     7
370
    15
100
AcDbLine
 10
160.2534355578
 20
165.5072720362
 30
0.0
 11
159.6534403023
 21
165.5072720362
 31
0.0
  0
LINE
  5
15E
330
1F
100
AcDbEntity
  8
0
  6
Continuous
 62
     7
370
    15
100
AcDbLine
 10
160.2534355578
 20
159.4799211355
 30
0.0
 11
160.2534355578
 21
165.5072720362
 31
0.0
  0
LINE
  5
15F
330
1F
100
AcDbEntity
  8
0
  6
Continuous
 62
     7
370
    15
100
AcDbLine
 10
159.6534403023
 20
159.4799211355
 30
0.0
 11
159.6534403023
 21
165.5072720362
 31
0.0
  0
LINE
  5
160
330
1F
100
AcDbEntity
  8
0
  6
Continuous
 62
     7
370
    15
100
AcDbLine
 10
159.6534403023
 20
165.5072720362
 30
0.0
 11
159.6534403023
 21
165.5628522033
 31
0.0
  0
LINE
  5
161
330
1F
100
AcDbEntity
  8
0
  6
Continuous
 62
     7
370
    15
100
AcDbLine
 10
160.2534355578
 20
165.5628522033
 30
0.0
 11
160.2534355578
 21
165.5072720362
 31
0.0
  0
LINE
  5
162
330
1F
100
AcDbEntity
  8
0
  6
Continuous
 62
     7
370
    15
100
AcDbLine
 10
106.060840374
 20
153.6799212093
 30
0.0
 11
106.060840374
 21
156.1799211534
 31
0.0
  0
LINE
  5
163
330
1F
100
AcDbEntity
  8
0
  6
Continuous
 62
     7
370
    15
100
AcDbLine
 10
102.5534376484
 20
153.6799212093
 30
0.0
 11
102.5534376484
 21
156.1799211534
 31
0.0
  0
LINE
  5
164
330
1F
100
AcDbEntity
  8
0
  6
Continuous
 62
     7
370
    15
100
AcDbLine
 10
102.5534376484
 20
156.1799211534
 30
0.0
 11
102.6417279598
 21
156.1799211534
 31
0.0
  0
LINE
  5
165
330
1F
100
AcDbEntity
  8
0
  6
Continuous
 62
     7
370
    15
100
AcDbLine
 10
105.9725500626
 20
156.1799211534
 30
0.0
 11
106.060840374
 21
156.1799211534
 31
0.0
  0
LINE
  5
166
330
1F
100
AcDbEntity
  8
0
  6
Continuous
 62
     7
370
    15
100
AcDbLine
 10
102.5534376484
 20
153.6799212093
 30
0.0
 11
106.060840374
 21
153.6799212093
 31
0.0
  0
LINE
  5
167
330
1F
100
AcDbEntity
  8
0
  6
Continuous
 62
     7
370
    15
100
AcDbLine
 10
99.0460349229
 20
153.6799212093
 30
0.0
 11
99.0460349229
 21
156.1799211534
 31
0.0
  0
LINE
  5
168
330
1F
100
AcDbEntity
  8
0
  6
Continuous
 62
     7
370
    15
100
AcDbLine
 10
99.0460349229
 20
156.1799211534
 30
0.0
 11
99.1343257
 21
156.1799211534
 31
0.0
  0
LINE
  5
169
330
1F
100
AcDbEntity
  8
0
  6
Continuous
 62
     7
370
    15
100
AcDbLine
 10
102.4651473371
 20
156.1799211534
 30
0.0
 11
102.5534376484
 21
156.1799211534
 31
0.0
  0
LINE
  5
16A
330
1F
100
AcDbEntity
  8
0
  6
Continuous
 62
     7
370
    15
100
AcDbLine
 10
99.0460349229
 20
153.6799212093
 30
0.0
 11
102.5534376484
 21
153.6799212093
 31
0.0
  0
LINE
  5
16B
330
1F
100
AcDbEntity
  8
0
  6
Continuous
 62
     7
370
    15
100
AcDbLine
 10
104.903438313
 20
151.1799207995
 30
0.0
 11
100.2034379152
 21
151.1799207995
 31
0.0
  0
LINE
  5
16C
330
1F
100
AcDbEntity
  8
0
  6
Continuous
 62
     7
370
    15
100
AcDbLine
 10
104.285489021
 20
146.1799218426
 30
0.0
 11
100.5534377863
 21
146.1799218426
 31
0.0
  0
LINE
  5
16D
330
1F
100
AcDbEntity
  8
0
  6
Continuous
 62
     7
370
    15
100
AcDbLine
 10
104.5534379763
 20
146.1799218426
 30
0.0
 11
104.285489021
 21
146.1799218426
 31
0.0
  0
LINE
  5
16E
330
1F
100
AcDbEntity
  8
0
  6
Continuous
 62
     7
370
    15
100
AcDbLine
 10
104.5885972661
 20
148.679921321
 30
0.0
 11
100.2034379152
 21
148.679921321
 31
0.0
  0
LINE
  5
16F
330
1F
100
AcDbEntity
  8
0
  6
Continuous
 62
     7
370
    15
100
AcDbLine
 10
104.903438313
 20
148.679921321
 30
0.0
 11
104.5885972661
 21
148.679921321
 31
0.0
  0
LINE
  5
170
330
1F
100
AcDbEntity
  8
0
  6
Continuous
 62
     7
370
    15
100
AcDbLine
 10
107.2829935682
 20
167.4737067999
 30
0.0
 11
107.2744794172
 21
167.4772011222
 31
0.0
  0
SPLINE
  5
171
330
1F
100
AcDbEntity
  8
0
  6
Continuous
 62
     7
370
    15
100
AcDbSpline
210
0.0
220
0.0
230
1.0
 70
    24
 71
     3
 72
    12
 73
     8
 74
     0
 42
0.00000001
 43
0.00000001
 12
1.0
 22
0.0
 32
0.0
 13
1.0
 23
0.0
 33
0.0
 40
0.0
 40
0.0
 40
0.0
 40
0.0
 40
0.2126292647240138
 40
0.4246114407561046
 40
0.651250974581091
 40
0.8627628587912027
 40
1.0
 40
1.0
 40
1.0
 40
1.0
 10
144.2848967370701
 20
162.9799212435338
 30
0.0
 10
144.3126791704538
 20
162.9799212435338
 30
0.0
 10
144.3681594877192
 20
162.9799212435338
 30
0.0
 10
144.4437885111664
 20
162.9799212435338
 30
0.0
 10
144.5016220263487
 20
162.9799212435338
 30
0.0
 10
144.5315057509357
 20
162.9799212435338
 30
0.0
 10
144.5313063137961
 20
162.9799212435338
 30
0.0
 10
144.5312278327656
 20
162.9799212435338
 30
0.0
  0
SPLINE
  5
172
330
1F
100
AcDbEntity
  8
0
  6
Continuous
 62
     7
370
    15
100
AcDbSpline
210
0.0
220
0.0
230
1.0
 70
    24
 71
     3
 72
    12
 73
     8
 74
     0
 42
0.00000001
 43
0.00000001
 12
1.0
 22
0.0
 32
0.0
 13
1.0
 23
0.0
 33
0.0
 40
0.0
 40
0.0
 40
0.0
 40
0.0
 40
0.2124725364175246
 40
0.4243048160137096
 40
0.6507363562581532
 40
0.8619712334756882
 40
1.0
 40
1.0
 40
1.0
 40
1.0
 10
144.2848967370701
 20
162.9799212435338
 30
0.0
 10
144.2571103181173
 20
162.9799212435338
 30
0.0
 10
144.2016212107709
 20
162.9799212435338
 30
0.0
 10
144.1260117017258
 20
162.9799212435338
 30
0.0
 10
144.0682230129606
 20
162.9799212435338
 30
0.0
 10
144.0383812834943
 20
162.9799212435338
 30
0.0
 10
144.0386202238946
 20
162.9799212435338
 30
0.0
 10
144.0387146529865
 20
162.9799212435338
 30
0.0
  0
SPLINE
  5
173
330
1F
100
AcDbEntity
  8
0
  6
Continuous
 62
     7
370
    15
100
AcDbSpline
210
0.0
220
0.0
230
1.0
 70
     8
 71
     3
 72
     8
 73
     4
 74
     0
 42
0.00000001
 43
0.00000001
 12
1.0
 22
0.0
 32
0.0
 13
1.0
 23
0.0
 33
0.0
 40
0.0
 40
0.0
 40
0.0
 40
0.0
 40
1.0
 40
1.0
 40
1.0
 40
1.0
 10
150.4681227628877
 20
167.0213731278612
 30
0.0
 10
150.2638232423132
 20
167.3752302774581
 30
0.0
 10
150.0959666582763
 20
167.7367059322351
 30
0.0
 10
149.9872455478458
 20
168.098369765616
 30
0.0
  0
LINE
  5
174
330
1F
100
AcDbEntity
  8
0
  6
Continuous
 62
     7
370
    15
100
AcDbLine
 10
149.9872470257
 20
169.985828373
 30
0.0
 11
149.9872470257
 21
168.0983699964
 31
0.0
  0
SPLINE
  5
175
330
1F
100
AcDbEntity
  8
0
  6
Continuous
 62
     7
370
    15
100
AcDbSpline
210
0.0
220
0.0
230
1.0
 70
     8
 71
     3
 72
     8
 73
     4
 74
     0
 42
0.00000001
 43
0.00000001
 12
1.0
 22
0.0
 32
0.0
 13
1.0
 23
0.0
 33
0.0
 40
0.0
 40
0.0
 40
0.0
 40
0.0
 40
1.0
 40
1.0
 40
1.0
 40
1.0
 10
149.9872455478458
 20
169.9858283744337
 30
0.0
 10
150.0974089655462
 20
170.3522900835362
 30
0.0
 10
150.264572726111
 20
170.7102660066088
 30
0.0
 10
150.4681227628877
 20
171.0628250121886
 30
0.0
  0
LINE
  5
176
330
1F
100
AcDbEntity
  8
0
  6
Continuous
 62
     7
370
    15
100
AcDbLine
 10
150.4681223986
 20
171.0628251651
 30
0.0
 11
152.5063665566
 21
171.0628251651
 31
0.0
  0
SPLINE
  5
177
330
1F
100
AcDbEntity
  8
0
  6
Continuous
 62
     7
370
    15
100
AcDbSpline
210
0.0
220
0.0
230
1.0
 70
     8
 71
     3
 72
     8
 73
     4
 74
     0
 42
0.00000001
 43
0.00000001
 12
1.0
 22
0.0
 32
0.0
 13
1.0
 23
0.0
 33
0.0
 40
0.0
 40
0.0
 40
0.0
 40
0.0
 40
1.0
 40
1.0
 40
1.0
 40
1.0
 10
152.506368332804
 20
171.0628250121885
 30
0.0
 10
152.7106678533784
 20
170.7089678625916
 30
0.0
 10
152.8785244374154
 20
170.3474922078146
 30
0.0
 10
152.9872455478458
 20
169.9858283744337
 30
0.0
  0
LINE
  5
178
330
1F
100
AcDbEntity
  8
0
  6
Continuous
 62
     7
370
    15
100
AcDbLine
 10
152.9872456548
 20
169.985828373
 30
0.0
 11
152.9872456548
 21
168.0983699964
 31
0.0
  0
SPLINE
  5
179
330
1F
100
AcDbEntity
  8
0
  6
Continuous
 62
     7
370
    15
100
AcDbSpline
210
0.0
220
0.0
230
1.0
 70
     8
 71
     3
 72
     8
 73
     4
 74
     0
 42
0.00000001
 43
0.00000001
 12
1.0
 22
0.0
 32
0.0
 13
1.0
 23
0.0
 33
0.0
 40
0.0
 40
0.0
 40
0.0
 40
0.0
 40
1.0
 40
1.0
 40
1.0
 40
1.0
 10
152.9872455478458
 20
168.098369765616
 30
0.0
 10
152.8770821301455
 20
167.7319080565135
 30
0.0
 10
152.7099183695807
 20
167.3739321334409
 30
0.0
 10
152.506368332804
 20
167.0213731278611
 30
0.0
  0
LINE
  5
17A
330
1F
100
AcDbEntity
  8
0
  6
Continuous
 62
     7
370
    15
100
AcDbLine
 10
150.4681223986
 20
167.0213732043
 30
0.0
 11
152.5063665566
 21
167.0213732043
 31
0.0
  0
LINE
  5
17B
330
1F
100
AcDbEntity
  8
0
  6
Continuous
 62
     7
370
    15
100
AcDbLine
 10
152.9872456548
 20
168.0983699964
 30
0.0
 11
152.9872456548
 21
164.867379853
 31
0.0
  0
SPLINE
  5
17C
330
1F
100
AcDbEntity
  8
0
  6
Continuous
 62
     7
370
    15
100
AcDbSpline
210
0.0
220
0.0
230
1.0
 70
     8
 71
     3
 72
    10
 73
     6
 74
     0
 42
0.00000001
 43
0.00000001
 12
1.0
 22
0.0
 32
0.0
 13
1.0
 23
0.0
 33
0.0
 40
0.0
 40
0.0
 40
0.0
 40
0.0
 40
0.5
 40
0.5
 40
1.0
 40
1.0
 40
1.0
 40
1.0
 10
152.506368332804
 20
167.0213731278612
 30
0.0
 10
152.6081032554603
 20
166.6689530179714
 30
0.0
 10
152.7008214746891
 20
166.3133400048815
 30
0.0
 10
152.8632177388122
 20
165.5939552267859
 30
0.0
 10
152.9327171842572
 20
165.2301601242857
 30
0.0
 10
152.9872455478458
 20
164.8673798523515
 30
0.0
  0
SPLINE
  5
17D
330
1F
100
AcDbEntity
  8
0
  6
Continuous
 62
     7
370
    15
100
AcDbSpline
210
0.0
220
0.0
230
1.0
 70
     8
 71
     3
 72
    10
 73
     6
 74
     0
 42
0.00000001
 43
0.00000001
 12
1.0
 22
0.0
 32
0.0
 13
1.0
 23
0.0
 33
0.0
 40
0.0
 40
0.0
 40
0.0
 40
0.0
 40
0.5
 40
0.5
 40
1.0
 40
1.0
 40
1.0
 40
1.0
 10
150.4681227628877
 20
158.9384693592064
 30
0.0
 10
150.3663878402313
 20
159.2908894690962
 30
0.0
 10
150.2736696210026
 20
159.6465024821861
 30
0.0
 10
150.1112733568795
 20
160.3658872602817
 30
0.0
 10
150.0417739114345
 20
160.7296823627819
 30
0.0
 10
149.9872455478458
 20
161.0924626347161
 30
0.0
  0
LINE
  5
17E
330
1F
100
AcDbEntity
  8
0
  6
Continuous
 62
     7
370
    15
100
AcDbLine
 10
149.9872470257
 20
164.867379853
 30
0.0
 11
149.9872470257
 21
161.0924626341
 31
0.0
  0
SPLINE
  5
17F
330
1F
100
AcDbEntity
  8
0
  6
Continuous
 62
     7
370
    15
100
AcDbSpline
210
0.0
220
0.0
230
1.0
 70
     8
 71
     3
 72
    10
 73
     6
 74
     0
 42
0.00000001
 43
0.00000001
 12
1.0
 22
0.0
 32
0.0
 13
1.0
 23
0.0
 33
0.0
 40
0.0
 40
0.0
 40
0.0
 40
0.0
 40
0.5
 40
0.5
 40
1.0
 40
1.0
 40
1.0
 40
1.0
 10
149.9872455478458
 20
164.8673798523515
 30
0.0
 10
150.0421875661227
 20
165.2329121922079
 30
0.0
 10
150.1119285000591
 20
165.5970855470748
 30
0.0
 10
150.2740259561018
 20
166.3146889136304
 30
0.0
 10
150.3665657973098
 20
166.6695694793745
 30
0.0
 10
150.4681227628877
 20
167.0213731278612
 30
0.0
  0
LINE
  5
180
330
1F
100
AcDbEntity
  8
0
  6
Continuous
 62
     7
370
    15
100
AcDbLine
 10
152.9872456548
 20
164.867379853
 30
0.0
 11
152.9872456548
 21
161.0924626341
 31
0.0
  0
SPLINE
  5
181
330
1F
100
AcDbEntity
  8
0
  6
Continuous
 62
     7
370
    15
100
AcDbSpline
210
0.0
220
0.0
230
1.0
 70
     8
 71
     3
 72
    10
 73
     6
 74
     0
 42
0.00000001
 43
0.00000001
 12
1.0
 22
0.0
 32
0.0
 13
1.0
 23
0.0
 33
0.0
 40
0.0
 40
0.0
 40
0.0
 40
0.0
 40
0.5
 40
0.5
 40
1.0
 40
1.0
 40
1.0
 40
1.0
 10
152.9872455478458
 20
161.0924626347161
 30
0.0
 10
152.9323035295689
 20
160.7269302948596
 30
0.0
 10
152.8625625956326
 20
160.3627569399928
 30
0.0
 10
152.7004651395899
 20
159.6451535734371
 30
0.0
 10
152.6079252983818
 20
159.2902730076931
 30
0.0
 10
152.506368332804
 20
158.9384693592064
 30
0.0
  0
LINE
  5
182
330
1F
100
AcDbEntity
  8
0
  6
Continuous
 62
     7
370
    15
100
AcDbLine
 10
150.4681223986
 20
158.9384692827
 30
0.0
 11
152.5063665566
 21
158.9384692827
 31
0.0
  0
LINE
  5
183
330
1F
100
AcDbEntity
  8
0
  6
Continuous
 62
     7
370
    15
100
AcDbLine
 10
152.9872456548
 20
161.0924626341
 30
0.0
 11
152.9872456548
 21
157.8614724906
 31
0.0
  0
SPLINE
  5
184
330
1F
100
AcDbEntity
  8
0
  6
Continuous
 62
     7
370
    15
100
AcDbSpline
210
0.0
220
0.0
230
1.0
 70
     8
 71
     3
 72
     8
 73
     4
 74
     0
 42
0.00000001
 43
0.00000001
 12
1.0
 22
0.0
 32
0.0
 13
1.0
 23
0.0
 33
0.0
 40
0.0
 40
0.0
 40
0.0
 40
0.0
 40
1.0
 40
1.0
 40
1.0
 40
1.0
 10
152.506368332804
 20
158.9384693592064
 30
0.0
 10
152.7106678533784
 20
158.5846122096094
 30
0.0
 10
152.8785244374154
 20
158.2231365548325
 30
0.0
 10
152.9872455478458
 20
157.8614727214515
 30
0.0
  0
SPLINE
  5
185
330
1F
100
AcDbEntity
  8
0
  6
Continuous
 62
     7
370
    15
100
AcDbSpline
210
0.0
220
0.0
230
1.0
 70
     8
 71
     3
 72
     8
 73
     4
 74
     0
 42
0.00000001
 43
0.00000001
 12
1.0
 22
0.0
 32
0.0
 13
1.0
 23
0.0
 33
0.0
 40
0.0
 40
0.0
 40
0.0
 40
0.0
 40
1.0
 40
1.0
 40
1.0
 40
1.0
 10
150.4681227628877
 20
154.897017474879
 30
0.0
 10
150.2638232423132
 20
155.2508746244759
 30
0.0
 10
150.0959666582763
 20
155.6123502792529
 30
0.0
 10
149.9872455478458
 20
155.9740141126339
 30
0.0
  0
LINE
  5
186
330
1F
100
AcDbEntity
  8
0
  6
Continuous
 62
     7
370
    15
100
AcDbLine
 10
149.9872470257
 20
157.8614724906
 30
0.0
 11
149.9872470257
 21
155.974014114
 31
0.0
  0
SPLINE
  5
187
330
1F
100
AcDbEntity
  8
0
  6
Continuous
 62
     7
370
    15
100
AcDbSpline
210
0.0
220
0.0
230
1.0
 70
     8
 71
     3
 72
     8
 73
     4
 74
     0
 42
0.00000001
 43
0.00000001
 12
1.0
 22
0.0
 32
0.0
 13
1.0
 23
0.0
 33
0.0
 40
0.0
 40
0.0
 40
0.0
 40
0.0
 40
1.0
 40
1.0
 40
1.0
 40
1.0
 10
149.9872455478458
 20
157.8614727214515
 30
0.0
 10
150.0974089655462
 20
158.2279344305541
 30
0.0
 10
150.264572726111
 20
158.5859103536266
 30
0.0
 10
150.4681227628877
 20
158.9384693592064
 30
0.0
  0
SPLINE
  5
188
330
1F
100
AcDbEntity
  8
0
  6
Continuous
 62
     7
370
    15
100
AcDbSpline
210
0.0
220
0.0
230
1.0
 70
     8
 71
     3
 72
     8
 73
     4
 74
     0
 42
0.00000001
 43
0.00000001
 12
1.0
 22
0.0
 32
0.0
 13
1.0
 23
0.0
 33
0.0
 40
0.0
 40
0.0
 40
0.0
 40
0.0
 40
1.0
 40
1.0
 40
1.0
 40
1.0
 10
152.9872455478458
 20
155.9740141126339
 30
0.0
 10
152.8770821301455
 20
155.6075524035313
 30
0.0
 10
152.7099183695807
 20
155.2495764804588
 30
0.0
 10
152.506368332804
 20
154.897017474879
 30
0.0
  0
LINE
  5
189
330
1F
100
AcDbEntity
  8
0
  6
Continuous
 62
     7
370
    15
100
AcDbLine
 10
150.4681223986
 20
154.8970173219
 30
0.0
 11
152.5063665566
 21
154.8970173219
 31
0.0
  0
LINE
  5
18A
330
1F
100
AcDbEntity
  8
0
  6
Continuous
 62
     7
370
    15
100
AcDbLine
 10
152.9872456548
 20
157.8614724906
 30
0.0
 11
152.9872456548
 21
155.974014114
 31
0.0
  0
LINE
  5
18B
330
1F
100
AcDbEntity
  8
0
  6
Continuous
 62
     7
370
    15
100
AcDbLine
 10
149.9872470257
 20
164.867379853
 30
0.0
 11
149.9872470257
 21
168.0983699964
 31
0.0
  0
LINE
  5
18C
330
1F
100
AcDbEntity
  8
0
  6
Continuous
 62
     7
370
    15
100
AcDbLine
 10
149.9872470257
 20
157.8614724906
 30
0.0
 11
149.9872470257
 21
161.0924626341
 31
0.0
  0
LINE
  5
18D
330
1F
100
AcDbEntity
  8
0
  6
Continuous
 62
     7
370
    15
100
AcDbLine
 10
149.9872470257
 20
155.7299214522
 30
0.0
 11
149.9872470257
 21
155.974014114
 31
0.0
  0
LINE
  5
18E
330
1F
100
AcDbEntity
  8
0
  6
Continuous
 62
     7
370
    15
100
AcDbLine
 10
152.9872456548
 20
155.974014114
 30
0.0
 11
152.9872456548
 21
155.7299214522
 31
0.0
  0
LINE
  5
18F
330
1F
100
AcDbEntity
  8
0
  6
Continuous
 62
     7
370
    15
100
AcDbLine
 10
149.9872470257
 20
169.985828373
 30
0.0
 11
149.9872470257
 21
170.2299210349
 31
0.0
  0
LINE
  5
190
330
1F
100
AcDbEntity
  8
0
  6
Continuous
 62
     7
370
    15
100
AcDbLine
 10
152.9872456548
 20
170.2299210349
 30
0.0
 11
152.9872456548
 21
169.985828373
 31
0.0
  0
SPLINE
  5
191
330
1F
100
AcDbEntity
  8
0
  6
Continuous
 62
     7
370
    15
100
AcDbSpline
210
0.0
220
0.0
230
1.0
 70
     8
 71
     3
 72
    10
 73
     6
 74
     0
 42
0.00000001
 43
0.00000001
 12
1.0
 22
0.0
 32
0.0
 13
1.0
 23
0.0
 33
0.0
 40
0.0
 40
0.0
 40
0.0
 40
0.0
 40
0.5
 40
0.5
 40
1.0
 40
1.0
 40
1.0
 40
1.0
 10
153.4681227628877
 20
158.9384693592064
 30
0.0
 10
153.3663878402313
 20
159.2908894690962
 30
0.0
 10
153.2736696210026
 20
159.6465024821861
 30
0.0
 10
153.1112733568795
 20
160.3658872602817
 30
0.0
 10
153.0417739114345
 20
160.7296823627819
 30
0.0
 10
152.9872455478458
 20
161.0924626347161
 30
0.0
  0
SPLINE
  5
192
330
1F
100
AcDbEntity
  8
0
  6
Continuous
 62
     7
370
    15
100
AcDbSpline
210
0.0
220
0.0
230
1.0
 70
     8
 71
     3
 72
    10
 73
     6
 74
     0
 42
0.00000001
 43
0.00000001
 12
1.0
 22
0.0
 32
0.0
 13
1.0
 23
0.0
 33
0.0
 40
0.0
 40
0.0
 40
0.0
 40
0.0
 40
0.5
 40
0.5
 40
1.0
 40
1.0
 40
1.0
 40
1.0
 10
152.9872455478458
 20
164.8673798523515
 30
0.0
 10
153.0421875661227
 20
165.2329121922079
 30
0.0
 10
153.1119285000591
 20
165.5970855470748
 30
0.0
 10
153.2740259561018
 20
166.3146889136304
 30
0.0
 10
153.3665657973098
 20
166.6695694793745
 30
0.0
 10
153.4681227628877
 20
167.0213731278612
 30
0.0
  0
LINE
  5
193
330
1F
100
AcDbEntity
  8
0
  6
Continuous
 62
     7
370
    15
100
AcDbLine
 10
153.4681210277
 20
167.0213732043
 30
0.0
 11
155.506368911
 21
167.0213732043
 31
0.0
  0
SPLINE
  5
194
330
1F
100
AcDbEntity
  8
0
  6
Continuous
 62
     7
370
    15
100
AcDbSpline
210
0.0
220
0.0
230
1.0
 70
     8
 71
     3
 72
    10
 73
     6
 74
     0
 42
0.00000001
 43
0.00000001
 12
1.0
 22
0.0
 32
0.0
 13
1.0
 23
0.0
 33
0.0
 40
0.0
 40
0.0
 40
0.0
 40
0.0
 40
0.5
 40
0.5
 40
1.0
 40
1.0
 40
1.0
 40
1.0
 10
155.506368332804
 20
167.0213731278612
 30
0.0
 10
155.6081032554603
 20
166.6689530179714
 30
0.0
 10
155.7008214746891
 20
166.3133400048815
 30
0.0
 10
155.8632177388122
 20
165.5939552267859
 30
0.0
 10
155.9327171842572
 20
165.2301601242857
 30
0.0
 10
155.9872455478458
 20
164.8673798523515
 30
0.0
  0
LINE
  5
195
330
1F
100
AcDbEntity
  8
0
  6
Continuous
 62
     7
370
    15
100
AcDbLine
 10
155.9872480092
 20
164.867379853
 30
0.0
 11
155.9872480092
 21
161.0924626341
 31
0.0
  0
SPLINE
  5
196
330
1F
100
AcDbEntity
  8
0
  6
Continuous
 62
     7
370
    15
100
AcDbSpline
210
0.0
220
0.0
230
1.0
 70
     8
 71
     3
 72
    10
 73
     6
 74
     0
 42
0.00000001
 43
0.00000001
 12
1.0
 22
0.0
 32
0.0
 13
1.0
 23
0.0
 33
0.0
 40
0.0
 40
0.0
 40
0.0
 40
0.0
 40
0.5
 40
0.5
 40
1.0
 40
1.0
 40
1.0
 40
1.0
 10
155.9872455478458
 20
161.0924626347161
 30
0.0
 10
155.9323035295689
 20
160.7269302948596
 30
0.0
 10
155.8625625956326
 20
160.3627569399928
 30
0.0
 10
155.7004651395899
 20
159.6451535734371
 30
0.0
 10
155.6079252983818
 20
159.2902730076931
 30
0.0
 10
155.506368332804
 20
158.9384693592064
 30
0.0
  0
LINE
  5
197
330
1F
100
AcDbEntity
  8
0
  6
Continuous
 62
     7
370
    15
100
AcDbLine
 10
153.4681210277
 20
158.9384692827
 30
0.0
 11
155.506368911
 21
158.9384692827
 31
0.0
  0
SPLINE
  5
198
330
1F
100
AcDbEntity
  8
0
  6
Continuous
 62
     7
370
    15
100
AcDbSpline
210
0.0
220
0.0
230
1.0
 70
     8
 71
     3
 72
     8
 73
     4
 74
     0
 42
0.00000001
 43
0.00000001
 12
1.0
 22
0.0
 32
0.0
 13
1.0
 23
0.0
 33
0.0
 40
0.0
 40
0.0
 40
0.0
 40
0.0
 40
1.0
 40
1.0
 40
1.0
 40
1.0
 10
153.4681227628877
 20
167.0213731278612
 30
0.0
 10
153.2638232423132
 20
167.3752302774581
 30
0.0
 10
153.0959666582763
 20
167.7367059322351
 30
0.0
 10
152.9872455478458
 20
168.098369765616
 30
0.0
  0
SPLINE
  5
199
330
1F
100
AcDbEntity
  8
0
  6
Continuous
 62
     7
370
    15
100
AcDbSpline
210
0.0
220
0.0
230
1.0
 70
     8
 71
     3
 72
     8
 73
     4
 74
     0
 42
0.00000001
 43
0.00000001
 12
1.0
 22
0.0
 32
0.0
 13
1.0
 23
0.0
 33
0.0
 40
0.0
 40
0.0
 40
0.0
 40
0.0
 40
1.0
 40
1.0
 40
1.0
 40
1.0
 10
152.9872455478458
 20
169.9858283744337
 30
0.0
 10
153.0974089655462
 20
170.3522900835362
 30
0.0
 10
153.264572726111
 20
170.7102660066088
 30
0.0
 10
153.4681227628877
 20
171.0628250121886
 30
0.0
  0
LINE
  5
19A
330
1F
100
AcDbEntity
  8
0
  6
Continuous
 62
     7
370
    15
100
AcDbLine
 10
153.4681210277
 20
171.0628251651
 30
0.0
 11
155.506368911
 21
171.0628251651
 31
0.0
  0
SPLINE
  5
19B
330
1F
100
AcDbEntity
  8
0
  6
Continuous
 62
     7
370
    15
100
AcDbSpline
210
0.0
220
0.0
230
1.0
 70
     8
 71
     3
 72
     8
 73
     4
 74
     0
 42
0.00000001
 43
0.00000001
 12
1.0
 22
0.0
 32
0.0
 13
1.0
 23
0.0
 33
0.0
 40
0.0
 40
0.0
 40
0.0
 40
0.0
 40
1.0
 40
1.0
 40
1.0
 40
1.0
 10
155.506368332804
 20
171.0628250121885
 30
0.0
 10
155.7106678533784
 20
170.7089678625916
 30
0.0
 10
155.8785244374154
 20
170.3474922078146
 30
0.0
 10
155.9872455478458
 20
169.9858283744337
 30
0.0
  0
LINE
  5
19C
330
1F
100
AcDbEntity
  8
0
  6
Continuous
 62
     7
370
    15
100
AcDbLine
 10
155.9872480092
 20
169.985828373
 30
0.0
 11
155.9872480092
 21
168.0983699964
 31
0.0
  0
SPLINE
  5
19D
330
1F
100
AcDbEntity
  8
0
  6
Continuous
 62
     7
370
    15
100
AcDbSpline
210
0.0
220
0.0
230
1.0
 70
     8
 71
     3
 72
     8
 73
     4
 74
     0
 42
0.00000001
 43
0.00000001
 12
1.0
 22
0.0
 32
0.0
 13
1.0
 23
0.0
 33
0.0
 40
0.0
 40
0.0
 40
0.0
 40
0.0
 40
1.0
 40
1.0
 40
1.0
 40
1.0
 10
155.9872455478458
 20
168.098369765616
 30
0.0
 10
155.8770821301455
 20
167.7319080565135
 30
0.0
 10
155.7099183695807
 20
167.3739321334409
 30
0.0
 10
155.506368332804
 20
167.0213731278612
 30
0.0
  0
LINE
  5
19E
330
1F
100
AcDbEntity
  8
0
  6
Continuous
 62
     7
370
    15
100
AcDbLine
 10
155.9872480092
 20
168.0983699964
 30
0.0
 11
155.9872480092
 21
164.867379853
 31
0.0
  0
LINE
  5
19F
330
1F
100
AcDbEntity
  8
0
  6
Continuous
 62
     7
370
    15
100
AcDbLine
 10
155.9872480092
 20
161.0924626341
 30
0.0
 11
155.9872480092
 21
157.8614724906
 31
0.0
  0
SPLINE
  5
1A0
330
1F
100
AcDbEntity
  8
0
  6
Continuous
 62
     7
370
    15
100
AcDbSpline
210
0.0
220
0.0
230
1.0
 70
     8
 71
     3
 72
     8
 73
     4
 74
     0
 42
0.00000001
 43
0.00000001
 12
1.0
 22
0.0
 32
0.0
 13
1.0
 23
0.0
 33
0.0
 40
0.0
 40
0.0
 40
0.0
 40
0.0
 40
1.0
 40
1.0
 40
1.0
 40
1.0
 10
155.506368332804
 20
158.9384693592064
 30
0.0
 10
155.7106678533784
 20
158.5846122096094
 30
0.0
 10
155.8785244374154
 20
158.2231365548325
 30
0.0
 10
155.9872455478458
 20
157.8614727214515
 30
0.0
  0
SPLINE
  5
1A1
330
1F
100
AcDbEntity
  8
0
  6
Continuous
 62
     7
370
    15
100
AcDbSpline
210
0.0
220
0.0
230
1.0
 70
     8
 71
     3
 72
     8
 73
     4
 74
     0
 42
0.00000001
 43
0.00000001
 12
1.0
 22
0.0
 32
0.0
 13
1.0
 23
0.0
 33
0.0
 40
0.0
 40
0.0
 40
0.0
 40
0.0
 40
1.0
 40
1.0
 40
1.0
 40
1.0
 10
153.4681227628877
 20
154.897017474879
 30
0.0
 10
153.2638232423132
 20
155.2508746244759
 30
0.0
 10
153.0959666582763
 20
155.6123502792529
 30
0.0
 10
152.9872455478458
 20
155.9740141126339
 30
0.0
  0
SPLINE
  5
1A2
330
1F
100
AcDbEntity
  8
0
  6
Continuous
 62
     7
370
    15
100
AcDbSpline
210
0.0
220
0.0
230
1.0
 70
     8
 71
     3
 72
     8
 73
     4
 74
     0
 42
0.00000001
 43
0.00000001
 12
1.0
 22
0.0
 32
0.0
 13
1.0
 23
0.0
 33
0.0
 40
0.0
 40
0.0
 40
0.0
 40
0.0
 40
1.0
 40
1.0
 40
1.0
 40
1.0
 10
152.9872455478458
 20
157.8614727214515
 30
0.0
 10
153.0974089655462
 20
158.2279344305541
 30
0.0
 10
153.264572726111
 20
158.5859103536266
 30
0.0
 10
153.4681227628877
 20
158.9384693592064
 30
0.0
  0
SPLINE
  5
1A3
330
1F
100
AcDbEntity
  8
0
  6
Continuous
 62
     7
370
    15
100
AcDbSpline
210
0.0
220
0.0
230
1.0
 70
     8
 71
     3
 72
     8
 73
     4
 74
     0
 42
0.00000001
 43
0.00000001
 12
1.0
 22
0.0
 32
0.0
 13
1.0
 23
0.0
 33
0.0
 40
0.0
 40
0.0
 40
0.0
 40
0.0
 40
1.0
 40
1.0
 40
1.0
 40
1.0
 10
155.9872455478458
 20
155.9740141126339
 30
0.0
 10
155.8770821301455
 20
155.6075524035313
 30
0.0
 10
155.7099183695807
 20
155.2495764804588
 30
0.0
 10
155.506368332804
 20
154.897017474879
 30
0.0
  0
LINE
  5
1A4
330
1F
100
AcDbEntity
  8
0
  6
Continuous
 62
     7
370
    15
100
AcDbLine
 10
153.4681210277
 20
154.8970173219
 30
0.0
 11
155.506368911
 21
154.8970173219
 31
0.0
  0
LINE
  5
1A5
330
1F
100
AcDbEntity
  8
0
  6
Continuous
 62
     7
370
    15
100
AcDbLine
 10
155.9872480092
 20
157.8614724906
 30
0.0
 11
155.9872480092
 21
155.974014114
 31
0.0
  0
LINE
  5
1A6
330
1F
100
AcDbEntity
  8
0
  6
Continuous
 62
     7
370
    15
100
AcDbLine
 10
155.9872480092
 20
155.974014114
 30
0.0
 11
155.9872480092
 21
155.7299214522
 31
0.0
  0
LINE
  5
1A7
330
1F
100
AcDbEntity
  8
0
  6
Continuous
 62
     7
370
    15
100
AcDbLine
 10
155.9872480092
 20
170.2299210349
 30
0.0
 11
155.9872480092
 21
169.985828373
 31
0.0
  0
LINE
  5
1A8
330
1F
100
AcDbEntity
  8
0
  6
Continuous
 62
     7
370
    15
100
AcDbLine
 10
106.060840374
 20
169.7799213337
 30
0.0
 11
106.060840374
 21
172.2799212778
 31
0.0
  0
LINE
  5
1A9
330
1F
100
AcDbEntity
  8
0
  6
Continuous
 62
     7
370
    15
100
AcDbLine
 10
102.5534376484
 20
169.7799213337
 30
0.0
 11
102.5534376484
 21
172.2799212778
 31
0.0
  0
LINE
  5
1AA
330
1F
100
AcDbEntity
  8
0
  6
Continuous
 62
     7
370
    15
100
AcDbLine
 10
102.5534376484
 20
172.2799212778
 30
0.0
 11
106.060840374
 21
172.2799212778
 31
0.0
  0
LINE
  5
1AB
330
1F
100
AcDbEntity
  8
0
  6
Continuous
 62
     7
370
    15
100
AcDbLine
 10
102.5534376484
 20
169.7799213337
 30
0.0
 11
102.6417279598
 21
169.7799213337
 31
0.0
  0
LINE
  5
1AC
330
1F
100
AcDbEntity
  8
0
  6
Continuous
 62
     7
370
    15
100
AcDbLine
 10
105.9725500626
 20
169.7799213337
 30
0.0
 11
106.060840374
 21
169.7799213337
 31
0.0
  0
LINE
  5
1AD
330
1F
100
AcDbEntity
  8
0
  6
Continuous
 62
     7
370
    15
100
AcDbLine
 10
99.0460349229
 20
169.7799213337
 30
0.0
 11
99.0460349229
 21
172.2799212778
 31
0.0
  0
LINE
  5
1AE
330
1F
100
AcDbEntity
  8
0
  6
Continuous
 62
     7
370
    15
100
AcDbLine
 10
99.0460349229
 20
172.2799212778
 30
0.0
 11
102.5534376484
 21
172.2799212778
 31
0.0
  0
LINE
  5
1AF
330
1F
100
AcDbEntity
  8
0
  6
Continuous
 62
     7
370
    15
100
AcDbLine
 10
99.0460349229
 20
169.7799213337
 30
0.0
 11
99.1343257
 21
169.7799213337
 31
0.0
  0
LINE
  5
1B0
330
1F
100
AcDbEntity
  8
0
  6
Continuous
 62
     7
370
    15
100
AcDbLine
 10
102.4651473371
 20
169.7799213337
 30
0.0
 11
102.5534376484
 21
169.7799213337
 31
0.0
  0
LINE
  5
1B1
330
1F
100
AcDbEntity
  8
0
  6
Continuous
 62
     7
370
    15
100
AcDbLine
 10
106.5534383041
 20
168.9799212957
 30
0.0
 11
104.5534379763
 21
168.9799212957
 31
0.0
  0
LINE
  5
1B2
330
1F
100
AcDbEntity
  8
0
  6
Continuous
 62
     7
370
    15
100
AcDbLine
 10
100.5534377863
 20
168.9799212957
 30
0.0
 11
98.5534379241
 21
168.9799212957
 31
0.0
  0
LINE
  5
1B3
330
1F
100
AcDbEntity
  8
0
  6
Continuous
 62
     7
370
    15
100
AcDbLine
 10
106.5534383041
 20
168.9799212957
 30
0.0
 11
106.5534383041
 21
162.9799212435
 31
0.0
  0
LINE
  5
1B4
330
1F
100
AcDbEntity
  8
0
  6
Continuous
 62
     7
370
    15
100
AcDbLine
 10
106.5534383041
 20
162.9799212435
 30
0.0
 11
98.5534379241
 21
162.9799212435
 31
0.0
  0
LINE
  5
1B5
330
1F
100
AcDbEntity
  8
0
  6
Continuous
 62
     7
370
    15
100
AcDbLine
 10
98.5534379241
 20
168.9799212957
 30
0.0
 11
98.5534379241
 21
162.9799212435
 31
0.0
  0
LINE
  5
1B6
330
1F
100
AcDbEntity
  8
0
  6
Continuous
 62
     7
370
    15
100
AcDbLine
 10
106.5534383041
 20
162.9799212435
 30
0.0
 11
106.5534383041
 21
156.9799211914
 31
0.0
  0
LINE
  5
1B7
330
1F
100
AcDbEntity
  8
0
  6
Continuous
 62
     7
370
    15
100
AcDbLine
 10
106.5534383041
 20
156.9799211914
 30
0.0
 11
104.5534379763
 21
156.9799211914
 31
0.0
  0
LINE
  5
1B8
330
1F
100
AcDbEntity
  8
0
  6
Continuous
 62
     7
370
    15
100
AcDbLine
 10
100.5534377863
 20
156.9799211914
 30
0.0
 11
98.5534379241
 21
156.9799211914
 31
0.0
  0
LINE
  5
1B9
330
1F
100
AcDbEntity
  8
0
  6
Continuous
 62
     7
370
    15
100
AcDbLine
 10
98.5534379241
 20
162.9799212435
 30
0.0
 11
98.5534379241
 21
156.9799211914
 31
0.0
  0
LINE
  5
1BA
330
1F
100
AcDbEntity
  8
0
  6
Continuous
 62
     7
370
    15
100
AcDbLine
 10
112.5534383563
 20
166.7299211597
 30
0.0
 11
112.5534383563
 21
162.8489832267
 31
0.0
  0
LINE
  5
1BB
330
1F
100
AcDbEntity
  8
0
  6
Continuous
 62
     7
370
    15
100
AcDbLine
 10
112.5534383563
 20
159.8631601421
 30
0.0
 11
112.5534383563
 21
159.2299213274
 31
0.0
  0
LINE
  5
1BC
330
1F
100
AcDbEntity
  8
0
  6
Continuous
 62
     7
370
    15
100
AcDbLine
 10
93.0534379539
 20
166.4799213516
 30
0.0
 11
93.0534379539
 21
159.4799211355
 31
0.0
  0
LINE
  5
1BD
330
1F
100
AcDbEntity
  8
0
  6
Continuous
 62
     7
370
    15
100
AcDbLine
 10
95.0534380489
 20
166.4799213516
 30
0.0
 11
95.0534380489
 21
159.4799211355
 31
0.0
  0
LINE
  5
1BE
330
1F
100
AcDbEntity
  8
0
  6
Continuous
 62
     7
370
    15
100
AcDbLine
 10
161.5534352121
 20
164.9799213385
 30
0.0
 11
161.5534352121
 21
160.9799211485
 31
0.0
  0
LINE
  5
1BF
330
1F
100
AcDbEntity
  8
0
  6
Continuous
 62
     7
370
    15
100
AcDbLine
 10
161.0534416494
 20
160.4799212994
 30
0.0
 11
161.0534416494
 21
165.4799211877
 31
0.0
  0
LINE
  5
1C0
330
1F
100
AcDbEntity
  8
0
  6
Continuous
 62
     7
370
    15
100
AcDbLine
 10
106.5534383041
 20
169.7799213337
 30
0.0
 11
106.060840374
 21
169.7799213337
 31
0.0
  0
LINE
  5
1C1
330
1F
100
AcDbEntity
  8
0
  6
Continuous
 62
     7
370
    15
100
AcDbLine
 10
105.9725500626
 20
169.7799213337
 30
0.0
 11
102.6417279598
 21
169.7799213337
 31
0.0
  0
LINE
  5
1C2
330
1F
100
AcDbEntity
  8
0
  6
Continuous
 62
     7
370
    15
100
AcDbLine
 10
102.4651473371
 20
169.7799213337
 30
0.0
 11
99.1343257
 21
169.7799213337
 31
0.0
  0
LINE
  5
1C3
330
1F
100
AcDbEntity
  8
0
  6
Continuous
 62
     7
370
    15
100
AcDbLine
 10
99.0460349229
 20
169.7799213337
 30
0.0
 11
98.5534379241
 21
169.7799213337
 31
0.0
  0
LINE
  5
1C4
330
1F
100
AcDbEntity
  8
0
  6
Continuous
 62
     7
370
    15
100
AcDbLine
 10
104.5534379763
 20
168.9799212957
 30
0.0
 11
100.5534377863
 21
168.9799212957
 31
0.0
  0
LINE
  5
1C5
330
1F
100
AcDbEntity
  8
0
  6
Continuous
 62
     7
370
    15
100
AcDbLine
 10
104.5534379763
 20
156.9799211914
 30
0.0
 11
100.5534377863
 21
156.9799211914
 31
0.0
  0
LINE
  5
1C6
330
1F
100
AcDbEntity
  8
0
  6
Continuous
 62
     7
370
    15
100
AcDbLine
 10
106.5534383041
 20
156.1799211534
 30
0.0
 11
106.060840374
 21
156.1799211534
 31
0.0
  0
LINE
  5
1C7
330
1F
100
AcDbEntity
  8
0
  6
Continuous
 62
     7
370
    15
100
AcDbLine
 10
105.9725500626
 20
156.1799211534
 30
0.0
 11
102.6417279598
 21
156.1799211534
 31
0.0
  0
LINE
  5
1C8
330
1F
100
AcDbEntity
  8
0
  6
Continuous
 62
     7
370
    15
100
AcDbLine
 10
102.4651473371
 20
156.1799211534
 30
0.0
 11
99.1343257
 21
156.1799211534
 31
0.0
  0
LINE
  5
1C9
330
1F
100
AcDbEntity
  8
0
  6
Continuous
 62
     7
370
    15
100
AcDbLine
 10
99.0460349229
 20
156.1799211534
 30
0.0
 11
98.5534379241
 21
156.1799211534
 31
0.0
  0
SPLINE
  5
1CA
330
1F
100
AcDbEntity
  8
0
  6
Continuous
 62
     8
370
    15
100
AcDbSpline
210
0.0
220
0.0
230
1.0
 70
     8
 71
     3
 72
     9
 73
     5
 74
     0
 42
0.00000001
 43
0.00000001
 12
1.0
 22
0.0
 32
0.0
 13
1.0
 23
0.0
 33
0.0
 40
0.0
 40
0.0
 40
0.0
 40
0.0
 40
0.8124020522453427
 40
1.0
 40
1.0
 40
1.0
 40
1.0
 10
119.3515641597223
 20
167.453514329538
 30
0.0
 10
119.3191082122421
 20
167.4747819644559
 30
0.0
 10
119.2791576146401
 20
167.5009606709954
 30
0.0
 10
119.2391645778098
 20
167.4618733484988
 30
0.0
 10
119.231661966176
 20
167.4545406470152
 30
0.0
  0
SPLINE
  5
1CB
330
1F
100
AcDbEntity
  8
0
  6
Continuous
 62
     8
370
    15
100
AcDbSpline
210
0.0
220
0.0
230
1.0
 70
     8
 71
     3
 72
    28
 73
    24
 74
     0
 42
0.00000001
 43
0.00000001
 12
1.0
 22
0.0
 32
0.0
 13
1.0
 23
0.0
 33
0.0
 40
0.0
 40
0.0
 40
0.0
 40
0.0
 40
0.0385362007566341
 40
0.0870604382361112
 40
0.1356206128307177
 40
0.1842052157313388
 40
0.2327636814296889
 40
0.2812876542819265
 40
0.3298406868657514
 40
0.3784247375476282
 40
0.4269900244626014
 40
0.4755159747864944
 40
0.5240617686385648
 40
0.5726438154006954
 40
0.6212152078470262
 40
0.6697452006779585
 40
0.7182840320461202
 40
0.7668627142742068
 40
0.815439264487452
 40
0.8639749081003932
 40
0.9125075348706057
 40
0.9610816165348361
 40
1.0
 40
1.0
 40
1.0
 40
1.0
 10
117.2861607727718
 20
158.4899336205873
 30
0.0
 10
117.2603967026138
 20
158.492044921945
 30
0.0
 10
117.2021908806939
 20
158.4968147440302
 30
0.0
 10
117.1114147189079
 20
158.6310622305826
 30
0.0
 10
117.0140376141554
 20
158.8663190946535
 30
0.0
 10
116.9166962284703
 20
159.1990408927313
 30
0.0
 10
116.8193136117174
 20
159.6176809538316
 30
0.0
 10
116.7218408709876
 20
160.116483034225
 30
0.0
 10
116.624446070946
 20
160.6834706124286
 30
0.0
 10
116.5271046186236
 20
161.303107989836
 30
0.0
 10
116.4297354695748
 20
161.9612196980156
 30
0.0
 10
116.3322684897387
 20
162.6435191156042
 30
0.0
 10
116.2348561692433
 20
163.3338007011266
 30
0.0
 10
116.1375123808802
 20
164.0157627328732
 30
0.0
 10
116.0401538087648
 20
164.6740377624483
 30
0.0
 10
115.9426984910113
 20
165.2929401159492
 30
0.0
 10
115.8452678723198
 20
165.8560045271381
 30
0.0
 10
115.7479199149447
 20
166.3524297367346
 30
0.0
 10
115.6505689149496
 20
166.7714169754607
 30
0.0
 10
115.5531299770255
 20
167.1033807704553
 30
0.0
 10
115.4556804774137
 20
167.3327068199569
 30
0.0
 10
115.3647884688305
 20
167.4630102655977
 30
0.0
 10
115.3063184848617
 20
167.4677456589412
 30
0.0
 10
115.2803098765325
 20
167.4698520558032
 30
0.0
  0
SPLINE
  5
1CC
330
1F
100
AcDbEntity
  8
0
  6
Continuous
 62
     8
370
    15
100
AcDbSpline
210
0.0
220
0.0
230
1.0
 70
     8
 71
     3
 72
    28
 73
    24
 74
     0
 42
0.00000001
 43
0.00000001
 12
1.0
 22
0.0
 32
0.0
 13
1.0
 23
0.0
 33
0.0
 40
0.0
 40
0.0
 40
0.0
 40
0.0
 40
0.0361819090167324
 40
0.0847502761643409
 40
0.1333186578690174
 40
0.1819283120674213
 40
0.2305422731778267
 40
0.279117094831737
 40
0.3276801729707288
 40
0.3762844094781547
 40
0.4249014089894199
 40
0.4734833053061402
 40
0.5220428251074526
 40
0.570640742454317
 40
0.6192593702173185
 40
0.6678485274199056
 40
0.7164066148486992
 40
0.7649975865268441
 40
0.8136164156172772
 40
0.8622126198980503
 40
0.91077156374039
 40
0.9593552909545886
 40
1.0
 40
1.0
 40
1.0
 40
1.0
 10
113.2881214824629
 20
158.4918637866232
 30
0.0
 10
113.2639605232893
 20
158.4924267251655
 30
0.0
 10
113.2073673799754
 20
158.49374531775
 30
0.0
 10
113.1182286835128
 20
158.6178700917795
 30
0.0
 10
113.0207861774393
 20
158.8459003921987
 30
0.0
 10
112.9234332806672
 20
159.1733894376223
 30
0.0
 10
112.8260866260798
 20
159.5870966096358
 30
0.0
 10
112.7286605920388
 20
160.0795847180557
 30
0.0
 10
112.6312018623017
 20
160.641947995125
 30
0.0
 10
112.533840896549
 20
161.2588692487208
 30
0.0
 10
112.4364978747797
 20
161.9151600938569
 30
0.0
 10
112.339090087018
 20
162.5961144966328
 30
0.0
 10
112.241621077101
 20
163.2863871677047
 30
0.0
 10
112.1442487797728
 20
163.9692306426445
 30
0.0
 10
112.0469075980694
 20
164.629328693679
 30
0.0
 10
111.9495170022656
 20
165.2516803696559
 30
0.0
 10
111.852043826716
 20
165.8200172029449
 30
0.0
 10
111.7546572255391
 20
166.3207271639971
 30
0.0
 10
111.6573162987909
 20
166.74449853353
 30
0.0
 10
111.5599406444833
 20
167.0828030181377
 30
0.0
 10
111.4624698931125
 20
167.3212972000047
 30
0.0
 10
111.3703946894539
 20
167.4585771577465
 30
0.0
 10
111.3108183866087
 20
167.466914727013
 30
0.0
 10
111.2836806086016
 20
167.4707125978622
 30
0.0
  0
SPLINE
  5
1CD
330
1F
100
AcDbEntity
  8
0
  6
Continuous
 62
     8
370
    15
100
AcDbSpline
210
0.0
220
0.0
230
1.0
 70
     8
 71
     3
 72
    28
 73
    24
 74
     0
 42
0.00000001
 43
0.00000001
 12
1.0
 22
0.0
 32
0.0
 13
1.0
 23
0.0
 33
0.0
 40
0.0
 40
0.0
 40
0.0
 40
0.0
 40
0.0306719820806478
 40
0.0793564696445106
 40
0.1280049251604484
 40
0.1766804652222315
 40
0.2253885172627861
 40
0.2740797076277035
 40
0.3227307267010205
 40
0.371399141949751
 40
0.4201049274074483
 40
0.4688019965410923
 40
0.5174573412719323
 40
0.5661185976637881
 40
0.6148204557751322
 40
0.6635224682108084
 40
0.712184103047495
 40
0.7608399209064687
 40
0.8095371868370655
 40
0.8582428770523143
 40
0.9069114247547276
 40
0.9555636980783618
 40
1.0
 40
1.0
 40
1.0
 40
1.0
 10
109.2837268469047
 20
158.4940929072055
 30
0.0
 10
109.2632841815293
 20
158.4936458743146
 30
0.0
 10
109.2103936395989
 20
158.4924892828707
 30
0.0
 10
109.1250433807683
 20
158.6071324648977
 30
0.0
 10
109.0275708450983
 20
158.8255433743275
 30
0.0
 10
108.9301720527668
 20
159.1475419546086
 30
0.0
 10
108.8328302316328
 20
159.5563927911014
 30
0.0
 10
108.7354635345886
 20
160.0440119834849
 30
0.0
 10
108.6380004572855
 20
160.6007031927817
 30
0.0
 10
108.5405833479424
 20
161.2145672645983
 30
0.0
 10
108.4432389081738
 20
161.8689683726366
 30
0.0
 10
108.3458824546946
 20
162.5488359104321
 30
0.0
 10
108.2484306941696
 20
163.2389690892724
 30
0.0
 10
108.150995543408
 20
163.9228209616955
 30
0.0
 10
108.0536460719836
 20
164.5846276210701
 30
0.0
 10
107.9562967086146
 20
165.2096977844984
 30
0.0
 10
107.8588616563412
 20
165.7832758459588
 30
0.0
 10
107.7614103024602
 20
166.2892848645307
 30
0.0
 10
107.6640539547108
 20
166.7178063797452
 30
0.0
 10
107.5667086573863
 20
167.0613684535669
 30
0.0
 10
107.4692918602264
 20
167.3084267221016
 30
0.0
 10
107.3746656903514
 20
167.4560549436054
 30
0.0
 10
107.3126141734522
 20
167.4680032266392
 30
0.0
 10
107.282993568213
 20
167.4737067999395
 30
0.0
  0
SPLINE
  5
1CE
330
1F
100
AcDbEntity
  8
0
  6
Continuous
 62
     8
370
    15
100
AcDbSpline
210
0.0
220
0.0
230
1.0
 70
     8
 71
     3
 72
    16
 73
    12
 74
     0
 42
0.00000001
 43
0.00000001
 12
1.0
 22
0.0
 32
0.0
 13
1.0
 23
0.0
 33
0.0
 40
0.0
 40
0.0
 40
0.0
 40
0.0
 40
0.153659593326342
 40
0.3082048636289531
 40
0.3853169704684057
 40
0.4622201900600003
 40
0.6163756474513108
 40
0.7705318240107546
 40
0.8474350436023492
 40
0.9245465854220367
 40
1.0
 40
1.0
 40
1.0
 40
1.0
 10
119.3515622970772
 20
167.4535138638767
 30
0.0
 10
119.3190301888924
 20
167.4494685692493
 30
0.0
 10
119.2537784610333
 20
167.4413546633617
 30
0.0
 10
119.1844045310238
 20
167.3934923336619
 30
0.0
 10
119.1421946259429
 20
167.3440120116479
 30
0.0
 10
119.1115418924218
 20
167.2864258412943
 30
0.0
 10
119.0965110998852
 20
167.2050614851811
 30
0.0
 10
119.1114047417592
 20
167.1232924050703
 30
0.0
 10
119.1424409372267
 20
167.0663529523908
 30
0.0
 10
119.172646097938
 20
167.0276256460106
 30
0.0
 10
119.2007832050274
 20
167.0115380559119
 30
0.0
 10
119.214698856802
 20
167.0035816835317
 30
0.0
  0
SPLINE
  5
1CF
330
1F
100
AcDbEntity
  8
0
  6
Continuous
 62
     8
370
    15
100
AcDbSpline
210
0.0
220
0.0
230
1.0
 70
     8
 71
     3
 72
    11
 73
     7
 74
     0
 42
0.00000001
 43
0.00000001
 12
1.0
 22
0.0
 32
0.0
 13
1.0
 23
0.0
 33
0.0
 40
0.0
 40
0.0
 40
0.0
 40
0.0
 40
0.0800667453415402
 40
0.5172013663695486
 40
0.9546627044463869
 40
1.0
 40
1.0
 40
1.0
 40
1.0
 10
107.0618370530319
 20
166.7299211597147
 30
0.0
 10
107.0677878103627
 20
166.7448298671174
 30
0.0
 10
107.1062274872756
 20
166.8411345664848
 30
0.0
 10
107.1771279244385
 20
166.9246735841936
 30
0.0
 10
107.2453684029158
 20
166.9897945838323
 30
0.0
 10
107.2812118612829
 20
166.9751912065388
 30
0.0
 10
107.2845777479124
 20
166.973819873676
 30
0.0
  0
SPLINE
  5
1D0
330
1F
100
AcDbEntity
  8
0
  6
Continuous
 62
     8
370
    15
100
AcDbSpline
210
0.0
220
0.0
230
1.0
 70
     8
 71
     3
 72
    10
 73
     6
 74
     0
 42
0.00000001
 43
0.00000001
 12
1.0
 22
0.0
 32
0.0
 13
1.0
 23
0.0
 33
0.0
 40
0.0
 40
0.0
 40
0.0
 40
0.0
 40
0.1474582853626828
 40
0.5835454534198569
 40
1.0
 40
1.0
 40
1.0
 40
1.0
 10
109.2868765798521
 20
158.9920869203362
 30
0.0
 10
109.2978482983909
 20
158.9895062052771
 30
0.0
 10
109.3412673335017
 20
158.9792933878991
 30
0.0
 10
109.4157134183086
 20
159.0485854956577
 30
0.0
 10
109.4792357274014
 20
159.1704111980677
 30
0.0
 10
109.5102654752445
 20
159.2299213273528
 30
0.0
  0
SPLINE
  5
1D1
330
1F
100
AcDbEntity
  8
0
  6
Continuous
 62
     8
370
    15
100
AcDbSpline
210
0.0
220
0.0
230
1.0
 70
     8
 71
     3
 72
    11
 73
     7
 74
     0
 42
0.00000001
 43
0.00000001
 12
1.0
 22
0.0
 32
0.0
 13
1.0
 23
0.0
 33
0.0
 40
0.0
 40
0.0
 40
0.0
 40
0.0
 40
0.0536222281267005
 40
0.4871099221408784
 40
0.920959144758647
 40
1.0
 40
1.0
 40
1.0
 40
1.0
 10
111.0608728584957
 20
166.7299211597147
 30
0.0
 10
111.0648873450701
 20
166.7401884143083
 30
0.0
 10
111.1013553604996
 20
166.8334572276414
 30
0.0
 10
111.1703669733401
 20
166.9188158427441
 30
0.0
 10
111.2411640319036
 20
166.9878558793347
 30
0.0
 10
111.2795349622528
 20
166.9734188780762
 30
0.0
 10
111.2854482588482
 20
166.9711940096769
 30
0.0
  0
SPLINE
  5
1D2
330
1F
100
AcDbEntity
  8
0
  6
Continuous
 62
     8
370
    15
100
AcDbSpline
210
0.0
220
0.0
230
1.0
 70
     8
 71
     3
 72
    14
 73
    10
 74
     0
 42
0.00000001
 43
0.00000001
 12
1.0
 22
0.0
 32
0.0
 13
1.0
 23
0.0
 33
0.0
 40
0.0
 40
0.0
 40
0.0
 40
0.0
 40
0.0475145312356246
 40
0.2192415694049397
 40
0.3908310495827154
 40
0.562379259074226
 40
0.7340721415846424
 40
0.9058097787215564
 40
1.0
 40
1.0
 40
1.0
 40
1.0
 10
113.2860707101536
 20
158.9909344086501
 30
0.0
 10
113.2950545489547
 20
158.9883805543452
 30
0.0
 10
113.3365077816145
 20
158.9765965587701
 30
0.0
 10
113.4103700986416
 20
159.0478483275747
 30
0.0
 10
113.5077996222575
 20
159.2065042708077
 30
0.0
 10
113.6052562536453
 20
159.4624033746114
 30
0.0
 10
113.7026208755135
 20
159.8015088650957
 30
0.0
 10
113.785320616676
 20
160.1428446396689
 30
0.0
 10
113.8356354078137
 20
160.3917576471019
 30
0.0
 10
113.8534566369963
 20
160.4799212994131
 30
0.0
  0
SPLINE
  5
1D3
330
1F
100
AcDbEntity
  8
0
  6
Continuous
 62
     8
370
    15
100
AcDbSpline
210
0.0
220
0.0
230
1.0
 70
     8
 71
     3
 72
    14
 73
    10
 74
     0
 42
0.00000001
 43
0.00000001
 12
1.0
 22
0.0
 32
0.0
 13
1.0
 23
0.0
 33
0.0
 40
0.0
 40
0.0
 40
0.0
 40
0.0
 40
0.1018135487745819
 40
0.2734819519204501
 40
0.4452692261754011
 40
0.6170043432607987
 40
0.7885963798444356
 40
0.9602396001353194
 40
1.0
 40
1.0
 40
1.0
 40
1.0
 10
114.7161649522495
 20
165.4799211876544
 30
0.0
 10
114.7354309790897
 20
165.5750391147881
 30
0.0
 10
114.7871815632648
 20
165.8305359193711
 30
0.0
 10
114.8713930686968
 20
166.1747848398937
 30
0.0
 10
114.9687346442986
 20
166.5088300380916
 30
0.0
 10
115.0660996350914
 20
166.7614412371366
 30
0.0
 10
115.1635571903483
 20
166.9185351021707
 30
0.0
 10
115.2360164061925
 20
166.9858005170316
 30
0.0
 10
115.275967949272
 20
166.9726498860005
 30
0.0
 10
115.2834819612217
 20
166.9701765397641
 30
0.0
  0
SPLINE
  5
1D4
330
1F
100
AcDbEntity
  8
0
  6
Continuous
 62
     8
370
    15
100
AcDbSpline
210
0.0
220
0.0
230
1.0
 70
     8
 71
     3
 72
    14
 73
    10
 74
     0
 42
0.00000001
 43
0.00000001
 12
1.0
 22
0.0
 32
0.0
 13
1.0
 23
0.0
 33
0.0
 40
0.0
 40
0.0
 40
0.0
 40
0.0
 40
0.0348623621299414
 40
0.206742643687622
 40
0.3785636773860035
 40
0.5502438506230773
 40
0.7219849273466399
 40
0.8938572732306543
 40
0.9999999999999999
 40
0.9999999999999999
 40
0.9999999999999999
 40
0.9999999999999999
 10
117.2864830103826
 20
158.9887383500191
 30
0.0
 10
117.2930721950863
 20
158.9865801143913
 30
0.0
 10
117.3321477304821
 20
158.973781230089
 30
0.0
 10
117.4036234757344
 20
159.0411242572657
 30
0.0
 10
117.5009949815722
 20
159.1929794258231
 30
0.0
 10
117.5984571531087
 20
159.4413252164956
 30
0.0
 10
117.6958769435404
 20
159.7750698062315
 30
0.0
 10
117.7808052182008
 20
160.1230447927526
 30
0.0
 10
117.8333336624475
 20
160.3813163886348
 30
0.0
 10
117.8533883747768
 20
160.4799212994131
 30
0.0
  0
SPLINE
  5
1D5
330
1F
100
AcDbEntity
  8
0
  6
Continuous
 62
     8
370
    15
100
AcDbSpline
210
0.0
220
0.0
230
1.0
 70
     8
 71
     3
 72
    13
 73
     9
 74
     0
 42
0.00000001
 43
0.00000001
 12
1.0
 22
0.0
 32
0.0
 13
1.0
 23
0.0
 33
0.0
 40
0.0
 40
0.0
 40
0.0
 40
0.0
 40
0.0992098745879098
 40
0.2885301329196839
 40
0.4780087521941797
 40
0.6675481492803202
 40
0.8569459751394115
 40
1.0
 40
1.0
 40
1.0
 40
1.0
 10
118.7161656079006
 20
165.4799211876544
 30
0.0
 10
118.7331711236509
 20
165.5645874531359
 30
0.0
 10
118.7826279316568
 20
165.8108206928678
 30
0.0
 10
118.8646336410848
 20
166.1494447017253
 30
0.0
 10
118.9619952300948
 20
166.4892818237671
 30
0.0
 10
119.0593345223817
 20
166.7426367253255
 30
0.0
 10
119.148811714261
 20
166.9074045420705
 30
0.0
 10
119.2058447430687
 20
166.9416380664165
 30
0.0
 10
119.2303860542488
 20
166.9563687512728
 30
0.0
  0
SPLINE
  5
1D6
330
1F
100
AcDbEntity
  8
0
  6
Continuous
 62
     8
370
    15
100
AcDbSpline
210
0.0
220
0.0
230
1.0
 70
     8
 71
     3
 72
     9
 73
     5
 74
     0
 42
0.00000001
 43
0.00000001
 12
1.0
 22
0.0
 32
0.0
 13
1.0
 23
0.0
 33
0.0
 40
0.0
 40
0.0
 40
0.0
 40
0.0
 40
0.6071112812969394
 40
1.0
 40
1.0
 40
1.0
 40
1.0
 10
119.3515641597223
 20
167.453514329538
 30
0.0
 10
119.3847202056033
 20
167.4503879495195
 30
0.0
 10
119.4393330037879
 20
167.4452383499076
 30
0.0
 10
119.4822795121311
 20
167.4122635305811
 30
0.0
 10
119.4991527107668
 20
167.3993080960664
 30
0.0
  0
SPLINE
  5
1D7
330
1F
100
AcDbEntity
  8
0
  6
Continuous
 62
     8
370
    15
100
AcDbSpline
210
0.0
220
0.0
230
1.0
 70
     8
 71
     3
 72
    14
 73
    10
 74
     0
 42
0.00000001
 43
0.00000001
 12
1.0
 22
0.0
 32
0.0
 13
1.0
 23
0.0
 33
0.0
 40
0.0
 40
0.0
 40
0.0
 40
0.0
 40
0.089007641439688
 40
0.2603147827299119
 40
0.431752158114284
 40
0.6031598342420369
 40
0.7744224079835949
 40
0.9457055638856685
 40
0.9999999999999999
 40
0.9999999999999999
 40
0.9999999999999999
 40
0.9999999999999999
 10
131.2844755110454
 20
166.9678575465533
 30
0.0
 10
131.2676005897698
 20
166.9700383313909
 30
0.0
 10
131.2182476196834
 20
166.9764163290775
 30
0.0
 10
131.1364173599916
 20
166.8826200952963
 30
0.0
 10
131.0390689013848
 20
166.6986536070224
 30
0.0
 10
130.9417142396211
 20
166.4257830757278
 30
0.0
 10
130.8442694055252
 20
166.0697166026382
 30
0.0
 10
130.7690269883695
 20
165.7486221288978
 30
0.0
 10
130.7263080632498
 20
165.5320484623436
 30
0.0
 10
130.7160260138225
 20
165.4799211876544
 30
0.0
  0
SPLINE
  5
1D8
330
1F
100
AcDbEntity
  8
0
  6
Continuous
 62
     8
370
    15
100
AcDbSpline
210
0.0
220
0.0
230
1.0
 70
     8
 71
     3
 72
    13
 73
     9
 74
     0
 42
0.00000001
 43
0.00000001
 12
1.0
 22
0.0
 32
0.0
 13
1.0
 23
0.0
 33
0.0
 40
0.0
 40
0.0
 40
0.0
 40
0.0
 40
0.1541059352586289
 40
0.3392531500549729
 40
0.524298082832611
 40
0.709479113154049
 40
0.8947530333547226
 40
1.0
 40
1.0
 40
1.0
 40
1.0
 10
129.8539305088234
 20
160.4799212994131
 30
0.0
 10
129.8269287339731
 20
160.3497995679101
 30
0.0
 10
129.7674862656499
 20
160.0633459201065
 30
0.0
 10
129.675556886844
 20
159.6980617587318
 30
0.0
 10
129.5780809713699
 20
159.382177696699
 30
0.0
 10
129.4807032878588
 20
159.1575834875582
 30
0.0
 10
129.3973723358812
 20
159.0261134617609
 30
0.0
 10
129.346430199602
 20
159.008019014798
 30
0.0
 10
129.327975398035
 20
159.0014639416787
 30
0.0
  0
SPLINE
  5
1D9
330
1F
100
AcDbEntity
  8
0
  6
Continuous
 62
     8
370
    15
100
AcDbSpline
210
0.0
220
0.0
230
1.0
 70
     8
 71
     3
 72
    14
 73
    10
 74
     0
 42
0.00000001
 43
0.00000001
 12
1.0
 22
0.0
 32
0.0
 13
1.0
 23
0.0
 33
0.0
 40
0.0
 40
0.0
 40
0.0
 40
0.0
 40
0.0760029841232425
 40
0.2474936717431105
 40
0.4191154634573496
 40
0.5908164785232526
 40
0.7624198644287429
 40
0.9339075629130803
 40
1.0
 40
1.0
 40
1.0
 40
1.0
 10
127.2837670502376
 20
166.9676279755386
 30
0.0
 10
127.269387767852
 20
166.9703139631758
 30
0.0
 10
127.2225635354126
 20
166.9790605268831
 30
0.0
 10
127.143184435927
 20
166.8929325463052
 30
0.0
 10
127.0458078178359
 20
166.7146778288283
 30
0.0
 10
126.9484696397663
 20
166.4464034129458
 30
0.0
 10
126.8510823841358
 20
166.0963020811866
 30
0.0
 10
126.7735812338386
 20
165.7696082915982
 30
0.0
 10
126.7286365553311
 20
165.5429697749032
 30
0.0
 10
126.7161333915901
 20
165.4799211876544
 30
0.0
  0
SPLINE
  5
1DA
330
1F
100
AcDbEntity
  8
0
  6
Continuous
 62
     8
370
    15
100
AcDbSpline
210
0.0
220
0.0
230
1.0
 70
     8
 71
     3
 72
    14
 73
    10
 74
     0
 42
0.00000001
 43
0.00000001
 12
1.0
 22
0.0
 32
0.0
 13
1.0
 23
0.0
 33
0.0
 40
0.0
 40
0.0
 40
0.0
 40
0.0
 40
0.1300864039049075
 40
0.3011544881743193
 40
0.4720778373310447
 40
0.643001369385862
 40
0.814069281453487
 40
0.9851524369462548
 40
1.0
 40
1.0
 40
1.0
 40
1.0
 10
125.8537435886574
 20
160.4799212994131
 30
0.0
 10
125.829058186317
 20
160.360246933552
 30
0.0
 10
125.7719106329677
 20
160.0831966706755
 30
0.0
 10
125.6823381490124
 20
159.7234651638649
 30
0.0
 10
125.5848981549999
 20
159.4016264464871
 30
0.0
 10
125.4874500833224
 20
159.165422902701
 30
0.0
 10
125.3901014397045
 20
159.027357049206
 30
0.0
 10
125.3223693499564
 20
158.9685174730057
 30
0.0
 10
125.2870698631128
 20
158.9835396496721
 30
0.0
 10
125.2842510101509
 20
158.9847392508837
 30
0.0
  0
SPLINE
  5
1DB
330
1F
100
AcDbEntity
  8
0
  6
Continuous
 62
     8
370
    15
100
AcDbSpline
210
0.0
220
0.0
230
1.0
 70
     8
 71
     3
 72
    14
 73
    10
 74
     0
 42
0.00000001
 43
0.00000001
 12
1.0
 22
0.0
 32
0.0
 13
1.0
 23
0.0
 33
0.0
 40
0.0
 40
0.0
 40
0.0
 40
0.0
 40
0.0617164633681513
 40
0.2337003703742831
 40
0.4056948649988926
 40
0.5778336404483557
 40
0.7499799086787783
 40
0.9219857014279973
 40
1.0
 40
1.0
 40
1.0
 40
1.0
 10
123.2823172566604
 20
166.9678426453921
 30
0.0
 10
123.2706783478226
 20
166.9705147419145
 30
0.0
 10
123.22660554848
 20
166.9806331108693
 30
0.0
 10
123.1499936916743
 20
166.9023989847881
 30
0.0
 10
123.0525586291729
 20
166.7309508523024
 30
0.0
 10
122.9552059102346
 20
166.4672732321436
 30
0.0
 10
122.8578600928204
 20
166.1220391509125
 30
0.0
 10
122.7781601534361
 20
165.7899972021266
 30
0.0
 10
122.7309623972404
 20
165.5536645618809
 30
0.0
 10
122.7162351814222
 20
165.4799211876544
 30
0.0
  0
SPLINE
  5
1DC
330
1F
100
AcDbEntity
  8
0
  6
Continuous
 62
     8
370
    15
100
AcDbSpline
210
0.0
220
0.0
230
1.0
 70
     8
 71
     3
 72
    14
 73
    10
 74
     0
 42
0.00000001
 43
0.00000001
 12
1.0
 22
0.0
 32
0.0
 13
1.0
 23
0.0
 33
0.0
 40
0.0
 40
0.0
 40
0.0
 40
0.0
 40
0.1181434846198146
 40
0.2894031020646889
 40
0.4605771368380129
 40
0.6316251065844974
 40
0.8027678284778136
 40
0.9740242683714969
 40
1.0
 40
1.0
 40
1.0
 40
1.0
 10
121.8536833283615
 20
160.4799212994131
 30
0.0
 10
121.831272043123
 20
160.3705946576343
 30
0.0
 10
121.7763735822374
 20
160.1027892058913
 30
0.0
 10
121.6890913648758
 20
159.7493553479796
 30
0.0
 10
121.591709103681
 20
159.42158668684
 30
0.0
 10
121.4942393010836
 20
159.1779234054436
 30
0.0
 10
121.3968364512556
 20
159.0333842063588
 30
0.0
 10
121.3270282871368
 20
158.9714299507298
 30
0.0
 10
121.2896285685008
 20
158.9856892444844
 30
0.0
 10
121.2847029772711
 20
158.9875672118816
 30
0.0
  0
SPLINE
  5
1DD
330
1F
100
AcDbEntity
  8
0
  6
Continuous
 62
     8
370
    15
100
AcDbSpline
210
0.0
220
0.0
230
1.0
 70
     8
 71
     3
 72
    12
 73
     8
 74
     0
 42
0.00000001
 43
0.00000001
 12
1.0
 22
0.0
 32
0.0
 13
1.0
 23
0.0
 33
0.0
 40
0.0
 40
0.0
 40
0.0
 40
0.0
 40
0.1788769402396916
 40
0.3154909654340023
 40
0.4524732389072904
 40
0.7270201216734009
 40
1.0
 40
1.0
 40
1.0
 40
1.0
 10
132.0607962069225
 20
165.8448285063806
 30
0.0
 10
132.0583764740804
 20
165.8590964478512
 30
0.0
 10
132.0541087140807
 20
165.8842612713511
 30
0.0
 10
132.0271568638578
 20
165.9160799419987
 30
0.0
 10
131.9854692396407
 20
165.9494244604593
 30
0.0
 10
131.9159072617393
 20
165.9816002129784
 30
0.0
 10
131.8507253406599
 20
165.9870893862885
 30
0.0
 10
131.8182276544285
 20
165.9898261180225
 30
0.0
  0
SPLINE
  5
1DE
330
1F
100
AcDbEntity
  8
0
  6
Continuous
 62
     8
370
    15
100
AcDbSpline
210
0.0
220
0.0
230
1.0
 70
     8
 71
     3
 72
    27
 73
    23
 74
     0
 42
0.00000001
 43
0.00000001
 12
1.0
 22
0.0
 32
0.0
 13
1.0
 23
0.0
 33
0.0
 40
0.0
 40
0.0
 40
0.0
 40
0.0
 40
0.0503341033259377
 40
0.100634805915962
 40
0.1509710030163586
 40
0.2013450064284202
 40
0.2517027824756392
 40
0.3020182402497177
 40
0.3523505333554626
 40
0.4027212460341552
 40
0.4530832390122432
 40
0.5034023741190105
 40
0.5537275295831416
 40
0.6040944302225656
 40
0.6544611812094046
 40
0.7047859391412014
 40
0.7551045714218387
 40
0.8054663838949054
 40
0.855837173596665
 40
0.906169330477755
 40
0.9564835238440419
 40
1.0
 40
1.0
 40
1.0
 40
1.0
 10
119.3515622970772
 20
167.4535138638767
 30
0.0
 10
119.3840206416454
 20
167.4199385899567
 30
0.0
 10
119.4489157920533
 20
167.3528103220179
 30
0.0
 10
119.5463954809031
 20
167.1209659541161
 30
0.0
 10
119.6437894461676
 20
166.7975690712712
 30
0.0
 10
119.7411288941037
 20
166.3845556451786
 30
0.0
 10
119.8384930888079
 20
165.8940559220034
 30
0.0
 10
119.9359574339638
 20
165.3347658337371
 30
0.0
 10
120.0333751483539
 20
164.718929082954
 30
0.0
 10
120.1307201811283
 20
164.0631410781302
 30
0.0
 10
120.2280766136076
 20
163.3825242774964
 30
0.0
 10
120.3255279475678
 20
162.6923064285562
 30
0.0
 10
120.4229629814046
 20
162.0090596146044
 30
0.0
 10
120.5203123734454
 20
161.3485080054676
 30
0.0
 10
120.6176618313245
 20
160.7253069026245
 30
0.0
 10
120.7150969567199
 20
160.1541781411549
 30
0.0
 10
120.8125488117262
 20
159.6511608686301
 30
0.0
 10
120.909905050691
 20
159.2261087943682
 30
0.0
 10
121.0072500141159
 20
158.8862965530682
 30
0.0
 10
121.1046654443927
 20
158.643526767863
 30
0.0
 10
121.1977201555139
 20
158.5015917911585
 30
0.0
 10
121.2582011573216
 20
158.4922759577192
 30
0.0
 10
121.2862508353901
 20
158.4879554914388
 30
0.0
  0
SPLINE
  5
1DF
330
1F
100
AcDbEntity
  8
0
  6
Continuous
 62
     8
370
    15
100
AcDbSpline
210
0.0
220
0.0
230
1.0
 70
     8
 71
     3
 72
    28
 73
    24
 74
     0
 42
0.00000001
 43
0.00000001
 12
1.0
 22
0.0
 32
0.0
 13
1.0
 23
0.0
 33
0.0
 40
0.0
 40
0.0
 40
0.0
 40
0.0
 40
0.0320126688503415
 40
0.0806219764862145
 40
0.1291930018391529
 40
0.1777494520474106
 40
0.2263466248290572
 40
0.2749586225899833
 40
0.3235368054339678
 40
0.3720902096717539
 40
0.4206808818117903
 40
0.4692941507496225
 40
0.5178795583180258
 40
0.5664321252842747
 40
0.6150157223782317
 40
0.6636288124880346
 40
0.7122211656674996
 40
0.7607751689384441
 40
0.8093515035240455
 40
0.8579629796314137
 40
0.9065616431540687
 40
0.9551191984352371
 40
1.0
 40
1.0
 40
1.0
 40
1.0
 10
123.2806408760261
 20
167.4665579678568
 30
0.0
 10
123.3020261448473
 20
167.4675536390828
 30
0.0
 10
123.3558836550758
 20
167.4700611770373
 30
0.0
 10
123.4421426570983
 20
167.3561825024377
 30
0.0
 10
123.5395666506281
 20
167.141963818149
 30
0.0
 10
123.6370278170125
 20
166.8233978690822
 30
0.0
 10
123.7343915268801
 20
166.4159020019754
 30
0.0
 10
123.8317338797332
 20
165.9294493365955
 30
0.0
 10
123.9291371637371
 20
165.3751259862625
 30
0.0
 10
124.0266079302431
 20
164.763303879954
 30
0.0
 10
124.1239832438788
 20
164.1094974827855
 30
0.0
 10
124.22132536373
 20
163.4298817289939
 30
0.0
 10
124.3187076284092
 20
162.7398285270809
 30
0.0
 10
124.416185960457
 20
162.055319763986
 30
0.0
 10
124.5135711561413
 20
161.3929980853135
 30
0.0
 10
124.6109178088348
 20
160.7672192537045
 30
0.0
 10
124.7082846364413
 20
160.1920886083831
 30
0.0
 10
124.8057591208996
 20
159.682537620969
 30
0.0
 10
124.9031613546797
 20
159.2523363916621
 30
0.0
 10
125.0005102214194
 20
158.9073767771426
 30
0.0
 10
125.0978642266458
 20
158.6580755696806
 30
0.0
 10
125.1928670440224
 20
158.504855952832
 30
0.0
 10
125.2553166132837
 20
158.4913577420771
 30
0.0
 10
125.285312717886
 20
158.4848742107007
 30
0.0
  0
SPLINE
  5
1E0
330
1F
100
AcDbEntity
  8
0
  6
Continuous
 62
     8
370
    15
100
AcDbSpline
210
0.0
220
0.0
230
1.0
 70
     8
 71
     3
 72
    28
 73
    24
 74
     0
 42
0.00000001
 43
0.00000001
 12
1.0
 22
0.0
 32
0.0
 13
1.0
 23
0.0
 33
0.0
 40
0.0
 40
0.0
 40
0.0
 40
0.0
 40
0.0281651782711479
 40
0.0768331163378726
 40
0.1254862582877079
 40
0.1740985936043771
 40
0.2227255441834741
 40
0.2713908041933411
 40
0.3200496078702197
 40
0.3686668515219984
 40
0.4172871557911132
 40
0.4659483990665036
 40
0.5146118255280645
 40
0.5632352895433175
 40
0.6118499405802649
 40
0.6605060249683641
 40
0.7091728221567961
 40
0.7578032522503014
 40
0.8064138610328112
 40
0.8550638170954586
 40
0.9037326055862052
 40
0.9523703002950884
 40
1.0
 40
1.0
 40
1.0
 40
1.0
 10
127.2816175577354
 20
167.4662278140041
 30
0.0
 10
127.3004219360601
 20
167.4682166056022
 30
0.0
 10
127.3517192853462
 20
167.4736419238715
 30
0.0
 10
127.4353962409072
 20
167.3664249987538
 30
0.0
 10
127.5327681280504
 20
167.159264862936
 30
0.0
 10
127.6302237306559
 20
166.849179253992
 30
0.0
 10
127.7276508320971
 20
166.4472604460864
 30
0.0
 10
127.8249908743074
 20
165.9650786180334
 30
0.0
 10
127.9223508086387
 20
165.4146230669531
 30
0.0
 10
128.0197931865882
 20
164.8072862343088
 30
0.0
 10
128.1172380253101
 20
164.155861241995
 30
0.0
 10
128.214583459771
 20
163.4773498657127
 30
0.0
 10
128.3119368912139
 20
162.7874580005753
 30
0.0
 10
128.4093620533851
 20
162.1018191584417
 30
0.0
 10
128.5068228252957
 20
161.4373179513797
 30
0.0
 10
128.6041759458729
 20
160.8090519991866
 30
0.0
 10
128.7015251606035
 20
160.2305409939337
 30
0.0
 10
128.798932106892
 20
159.7151903290174
 30
0.0
 10
128.8964043494682
 20
159.2783546482342
 30
0.0
 10
128.9937685921502
 20
158.9282170336851
 30
0.0
 10
129.0911135531243
 20
158.6730976743943
 30
0.0
 10
129.1878568135458
 20
158.5098986863605
 30
0.0
 10
129.2521607047605
 20
158.4908410587115
 30
0.0
 10
129.2839759943199
 20
158.4814120190295
 30
0.0
  0
SPLINE
  5
1E1
330
1F
100
AcDbEntity
  8
0
  6
Continuous
 62
     8
370
    15
100
AcDbSpline
210
0.0
220
0.0
230
1.0
 70
     8
 71
     3
 72
    13
 73
     9
 74
     0
 42
0.00000001
 43
0.00000001
 12
1.0
 22
0.0
 32
0.0
 13
1.0
 23
0.0
 33
0.0
 40
0.0
 40
0.0
 40
0.0
 40
0.0
 40
0.0938647533572268
 40
0.2751538415944272
 40
0.456501267705355
 40
0.6377126408333693
 40
0.8187961341086791
 40
1.0
 40
1.0
 40
1.0
 40
1.0
 10
131.2807800230694
 20
167.466282762036
 30
0.0
 10
131.2976055788317
 20
167.4692987295977
 30
0.0
 10
131.3469277806101
 20
167.4781396952533
 30
0.0
 10
131.4286653548149
 20
167.3768546324507
 30
0.0
 10
131.5260009012555
 20
167.1761902595851
 30
0.0
 10
131.6233997940201
 20
166.872352833768
 30
0.0
 10
131.7208747273284
 20
166.4818568757226
 30
0.0
 10
131.7857719747275
 20
166.1538750236827
 30
0.0
 10
131.8182313797188
 20
165.9898296104821
 30
0.0
  0
SPLINE
  5
1E2
330
1F
100
AcDbEntity
  8
0
  6
Continuous
 62
     8
370
    15
100
AcDbSpline
210
0.0
220
0.0
230
1.0
 70
     8
 71
     3
 72
    13
 73
     9
 74
     0
 42
0.00000001
 43
0.00000001
 12
1.0
 22
0.0
 32
0.0
 13
1.0
 23
0.0
 33
0.0
 40
0.0
 40
0.0
 40
0.0
 40
0.0
 40
0.0844918708751563
 40
0.3134610970477442
 40
0.4276837843053861
 40
0.542214082470224
 40
0.7717621298478652
 40
0.9999999999999999
 40
0.9999999999999999
 40
0.9999999999999999
 40
0.9999999999999999
 10
131.5760688838672
 20
165.7989720454517
 30
0.0
 10
131.573286289631
 20
165.8068199452537
 30
0.0
 10
131.5629629883133
 20
165.835935305773
 30
0.0
 10
131.5790886347239
 20
165.8774815136513
 30
0.0
 10
131.6088597010029
 20
165.9161027148606
 30
0.0
 10
131.6512455066515
 20
165.9494164930998
 30
0.0
 10
131.7204715104764
 20
165.9816069396586
 30
0.0
 10
131.7857069909981
 20
165.9870939547958
 30
0.0
 10
131.8182313797188
 20
165.9898296104821
 30
0.0
  0
SPLINE
  5
1E3
330
1F
100
AcDbEntity
  8
0
  6
Continuous
 62
     8
370
    15
100
AcDbSpline
210
0.0
220
0.0
230
1.0
 70
     8
 71
     3
 72
    13
 73
     9
 74
     0
 42
0.00000001
 43
0.00000001
 12
1.0
 22
0.0
 32
0.0
 13
1.0
 23
0.0
 33
0.0
 40
0.0
 40
0.0
 40
0.0
 40
0.0
 40
0.1644617082188174
 40
0.3348485844709799
 40
0.5051055562086216
 40
0.6753019361615753
 40
0.8456381530185726
 40
1.0
 40
1.0
 40
1.0
 40
1.0
 10
133.2825386879158
 20
158.9824328305277
 30
0.0
 10
133.3138839598355
 20
158.9898588273238
 30
0.0
 10
133.3777038000029
 20
159.0049783620921
 30
0.0
 10
133.473914115411
 20
159.1427325245733
 30
0.0
 10
133.571337497718
 20
159.3629576433316
 30
0.0
 10
133.6687972091492
 20
159.673559790567
 30
0.0
 10
133.7631087919106
 20
160.0440015749685
 30
0.0
 10
133.8249695304133
 20
160.3394600078687
 30
0.0
 10
133.8543781993103
 20
160.4799212994131
 30
0.0
  0
SPLINE
  5
1E4
330
1F
100
AcDbEntity
  8
0
  6
Continuous
 62
     8
370
    15
100
AcDbSpline
210
0.0
220
0.0
230
1.0
 70
     8
 71
     3
 72
    14
 73
    10
 74
     0
 42
0.00000001
 43
0.00000001
 12
1.0
 22
0.0
 32
0.0
 13
1.0
 23
0.0
 33
0.0
 40
0.0
 40
0.0
 40
0.0
 40
0.0
 40
0.0426080324569379
 40
0.2138311576384162
 40
0.3851240502761731
 40
0.5565440986416393
 40
0.7279267143967986
 40
0.8991641747548557
 40
1.0
 40
1.0
 40
1.0
 40
1.0
 10
134.7158888337326
 20
165.4799211876544
 30
0.0
 10
134.7239608324647
 20
165.5210936476407
 30
0.0
 10
134.7644706784682
 20
165.7277202922903
 30
0.0
 10
134.8375275757892
 20
166.0413351392964
 30
0.0
 10
134.9349392412502
 20
166.402832037428
 30
0.0
 10
135.0322821198152
 20
166.6819917434455
 30
0.0
 10
135.1296350854001
 20
166.8733764018891
 30
0.0
 10
135.2137446798845
 20
166.9734070944607
 30
0.0
 10
135.2653148112583
 20
166.9693968931176
 30
0.0
 10
135.2844277379226
 20
166.96791063194
 30
0.0
  0
SPLINE
  5
1E5
330
1F
100
AcDbEntity
  8
0
  6
Continuous
 62
     8
370
    15
100
AcDbSpline
210
0.0
220
0.0
230
1.0
 70
     8
 71
     3
 72
    13
 73
     9
 74
     0
 42
0.00000001
 43
0.00000001
 12
1.0
 22
0.0
 32
0.0
 13
1.0
 23
0.0
 33
0.0
 40
0.0
 40
0.0
 40
0.0
 40
0.0
 40
0.1521441730522041
 40
0.3225096739877319
 40
0.4928308275784671
 40
0.6630083991666506
 40
0.8332270351360528
 40
0.9999999999999999
 40
0.9999999999999999
 40
0.9999999999999999
 40
0.9999999999999999
 10
137.2827516851139
 20
158.9846666077229
 30
0.0
 10
137.3117710771812
 20
158.9898508291452
 30
0.0
 10
137.3732853270351
 20
159.0008401528059
 30
0.0
 10
137.467170837412
 20
159.1313747022276
 30
0.0
 10
137.5645385090012
 20
159.3457493712194
 30
0.0
 10
137.6619916213698
 20
159.648785084822
 30
0.0
 10
137.7587378838464
 20
160.0244446617155
 30
0.0
 10
137.8229483455923
 20
160.3291342165822
 30
0.0
 10
137.8547253069591
 20
160.4799212994131
 30
0.0
  0
SPLINE
  5
1E6
330
1F
100
AcDbEntity
  8
0
  6
Continuous
 62
     8
370
    15
100
AcDbSpline
210
0.0
220
0.0
230
1.0
 70
     8
 71
     3
 72
    14
 73
    10
 74
     0
 42
0.00000001
 43
0.00000001
 12
1.0
 22
0.0
 32
0.0
 13
1.0
 23
0.0
 33
0.0
 40
0.0
 40
0.0
 40
0.0
 40
0.0
 40
0.031028117005641
 40
0.2021959926715939
 40
0.3732855911084188
 40
0.5445095815235527
 40
0.7158063458418107
 40
0.8869996577360284
 40
1.0
 40
1.0
 40
1.0
 40
1.0
 10
138.7156920489979
 20
165.4799211876544
 30
0.0
 10
138.7215727895358
 20
165.5100540194228
 30
0.0
 10
138.7598948756132
 20
165.7064158492527
 30
0.0
 10
138.8307025236026
 20
166.0135210749983
 30
0.0
 10
138.9281734209523
 20
166.3816112798243
 30
0.0
 10
139.0255415583891
 20
166.6653747323977
 30
0.0
 10
139.1228870786618
 20
166.8622432382989
 30
0.0
 10
139.2092620628214
 20
166.9699136862618
 30
0.0
 10
139.2631957589984
 20
166.9693384383391
 30
0.0
 10
139.2846407351207
 20
166.9691097097549
 30
0.0
  0
SPLINE
  5
1E7
330
1F
100
AcDbEntity
  8
0
  6
Continuous
 62
     8
370
    15
100
AcDbSpline
210
0.0
220
0.0
230
1.0
 70
     8
 71
     3
 72
    14
 73
    10
 74
     0
 42
0.00000001
 43
0.00000001
 12
1.0
 22
0.0
 32
0.0
 13
1.0
 23
0.0
 33
0.0
 40
0.0
 40
0.0
 40
0.0
 40
0.0
 40
0.1388130746729851
 40
0.3094623806968605
 40
0.4801770991479451
 40
0.6507834785539784
 40
0.8212883306278665
 40
0.9919136478567193
 40
1.0
 40
1.0
 40
1.0
 40
1.0
 10
141.2837320921135
 20
158.9872007364484
 30
0.0
 10
141.31016586603
 20
158.9901188397097
 30
0.0
 10
141.3690958956853
 20
158.9966243017094
 30
0.0
 10
141.4604402230904
 20
159.1196787926476
 30
0.0
 10
141.557779230194
 20
159.3292884536582
 30
0.0
 10
141.655168981068
 20
159.6239470146453
 30
0.0
 10
141.7526530609328
 20
160.0041869557729
 30
0.0
 10
141.819072998706
 20
160.2962297153788
 30
0.0
 10
141.8530756506636
 20
160.4719694227165
 30
0.0
 10
141.8546142039013
 20
160.4799212994131
 30
0.0
  0
SPLINE
  5
1E8
330
1F
100
AcDbEntity
  8
0
  6
Continuous
 62
     8
370
    15
100
AcDbSpline
210
0.0
220
0.0
230
1.0
 70
     8
 71
     3
 72
    10
 73
     6
 74
     0
 42
0.00000001
 43
0.00000001
 12
1.0
 22
0.0
 32
0.0
 13
1.0
 23
0.0
 33
0.0
 40
0.0
 40
0.0
 40
0.0
 40
0.0
 40
0.2346034055669494
 40
0.6755177513103567
 40
0.9999999999999999
 40
0.9999999999999999
 40
0.9999999999999999
 40
0.9999999999999999
 10
143.0643239972305
 20
166.7299211597147
 30
0.0
 10
143.081599050353
 20
166.7682241817308
 30
0.0
 10
143.1313408902504
 20
166.8785140184794
 30
0.0
 10
143.2049435479211
 20
166.9640569623479
 30
0.0
 10
143.2613608592401
 20
166.9686188340829
 30
0.0
 10
143.2852784154129
 20
166.9705527940842
 30
0.0
  0
SPLINE
  5
1E9
330
1F
100
AcDbEntity
  8
0
  6
Continuous
 62
     8
370
    15
100
AcDbSpline
210
0.0
220
0.0
230
1.0
 70
     8
 71
     3
 72
    18
 73
    14
 74
     0
 42
0.00000001
 43
0.00000001
 12
1.0
 22
0.0
 32
0.0
 13
1.0
 23
0.0
 33
0.0
 40
0.0
 40
0.0
 40
0.0
 40
0.0
 40
0.0972460430539271
 40
0.1944274897106046
 40
0.2916774021996267
 40
0.3890004878414514
 40
0.4862921004062158
 40
0.5835020473670726
 40
0.6807444483095068
 40
0.7780611487968763
 40
0.875360901261078
 40
0.9725779507185935
 40
1.0
 40
1.0
 40
1.0
 40
1.0
 10
144.2848967370701
 20
162.9799224371426
 30
0.0
 10
144.2524394702814
 20
163.2093283636968
 30
0.0
 10
144.1875464966814
 20
163.6679878322361
 30
0.0
 10
144.0900619015537
 20
164.3401513008081
 30
0.0
 10
143.9926731780397
 20
164.9797203153854
 30
0.0
 10
143.8953283803092
 20
165.5732960570496
 30
0.0
 10
143.7979696004651
 20
166.1075178464832
 30
0.0
 10
143.7004997599093
 20
166.568552304978
 30
0.0
 10
143.6030877076765
 20
166.9426042515255
 30
0.0
 10
143.5057364704676
 20
167.2273474259862
 30
0.0
 10
143.4083883043174
 20
167.4067153158489
 30
0.0
 10
143.3342421711729
 20
167.4876900238465
 30
0.0
 10
143.2926243322423
 20
167.4722940552828
 30
0.0
 10
143.2834679243278
 20
167.46890676339
 30
0.0
  0
SPLINE
  5
1EA
330
1F
100
AcDbEntity
  8
0
  6
Continuous
 62
     8
370
    15
100
AcDbSpline
210
0.0
220
0.0
230
1.0
 70
     8
 71
     3
 72
    29
 73
    25
 74
     0
 42
0.00000001
 43
0.00000001
 12
1.0
 22
0.0
 32
0.0
 13
1.0
 23
0.0
 33
0.0
 40
0.0
 40
0.0
 40
0.0
 40
0.0
 40
0.010566463664386
 40
0.0591631566524885
 40
0.1077961131780907
 40
0.1564184333182763
 40
0.2049992851020733
 40
0.2535890092516259
 40
0.3022186014132615
 40
0.3508460873399242
 40
0.399432575482257
 40
0.4480161001555059
 40
0.4966410781029456
 40
0.5452725651067282
 40
0.5938657139881812
 40
0.6424443194344045
 40
0.6910636194972919
 40
0.7396977994289454
 40
0.7882981040252088
 40
0.8368736632411466
 40
0.8854864542645284
 40
0.9341219082120811
 40
0.9827294606384639
 40
1.0
 40
1.0
 40
1.0
 40
1.0
 10
141.2868129071903
 20
158.4891331488344
 30
0.0
 10
141.2797508695261
 20
158.486169922749
 30
0.0
 10
141.2402095003522
 20
158.4695783917832
 30
0.0
 10
141.1681866726606
 20
158.5453304555572
 30
0.0
 10
141.0708487055806
 20
158.716021929763
 30
0.0
 10
140.9734845487098
 20
158.9934543327726
 30
0.0
 10
140.8760347540886
 20
159.3616830058204
 30
0.0
 10
140.7785986354236
 20
159.8177999693246
 30
0.0
 10
140.6812561430804
 20
160.3467662860347
 30
0.0
 10
140.58389980004
 20
160.9360737683465
 30
0.0
 10
140.4864658423141
 20
161.5729778208793
 30
0.0
 10
140.3890125664668
 20
162.2438589384592
 30
0.0
 10
140.2916635946328
 20
162.9316630429273
 30
0.0
 10
140.1943125164415
 20
163.6205500205148
 30
0.0
 10
140.0968965944206
 20
164.2948344409152
 30
0.0
 10
139.9994292828048
 20
164.9375235386419
 30
0.0
 10
139.902071194133
 20
165.5341211177492
 30
0.0
 10
139.8047233562418
 20
166.0721387296393
 30
0.0
 10
139.7073255232536
 20
166.5392881750973
 30
0.0
 10
139.6098493211864
 20
166.9207405415048
 30
0.0
 10
139.5124794513006
 20
167.2108463311005
 30
0.0
 10
139.4151317801715
 20
167.3967594999359
 30
0.0
 10
139.3386601654773
 20
167.4842429852521
 30
0.0
 10
139.2946242525279
 20
167.4709650890851
 30
0.0
 10
139.2830798384857
 20
167.4674841681573
 30
0.0
  0
SPLINE
  5
1EB
330
1F
100
AcDbEntity
  8
0
  6
Continuous
 62
     8
370
    15
100
AcDbSpline
210
0.0
220
0.0
230
1.0
 70
     8
 71
     3
 72
    29
 73
    25
 74
     0
 42
0.00000001
 43
0.00000001
 12
1.0
 22
0.0
 32
0.0
 13
1.0
 23
0.0
 33
0.0
 40
0.0
 40
0.0
 40
0.0
 40
0.0
 40
0.0060423735290551
 40
0.0546554730877658
 40
0.1033070426392374
 40
0.1519793204549366
 40
0.2006221344946967
 40
0.2492338082669679
 40
0.2978784204725076
 40
0.3465508746552573
 40
0.3952007500164607
 40
0.4438132756080663
 40
0.4924506454789867
 40
0.5411218351117273
 40
0.5897782086246639
 40
0.6383937913754348
 40
0.6870239818843188
 40
0.7356924920099612
 40
0.7843545500238845
 40
0.8329750294140217
 40
0.8815985742667064
 40
0.9302630623021271
 40
0.9789297344517326
 40
1.0
 40
1.0
 40
1.0
 40
1.0
 10
137.2844951209736
 20
158.4859843472096
 30
0.0
 10
137.2804620363436
 20
158.4840902465221
 30
0.0
 10
137.2439813144229
 20
158.4669574147539
 30
0.0
 10
137.1749516542498
 20
158.5365208538039
 30
0.0
 10
137.0775810612423
 20
158.7001273052
 30
0.0
 10
136.9802434319751
 20
158.9723596712506
 30
0.0
 10
136.882847884921
 20
159.3338115276291
 30
0.0
 10
136.7853800591916
 20
159.7830035838263
 30
0.0
 10
136.687988022074
 20
160.307911833877
 30
0.0
 10
136.5906524985582
 20
160.894094545762
 30
0.0
 10
136.4932714228945
 20
161.5281454326285
 30
0.0
 10
136.3958062009921
 20
162.1967102492622
 30
0.0
 10
136.2983974381029
 20
162.8839100831189
 30
0.0
 10
136.201060526819
 20
163.5731693602393
 30
0.0
 10
136.1036914925429
 20
164.2488907627919
 30
0.0
 10
136.0062351531719
 20
164.8950538632352
 30
0.0
 10
135.9088082390705
 20
165.4950467622714
 30
0.0
 10
135.8114681291344
 20
166.0368009744884
 30
0.0
 10
135.7141082950069
 20
166.5086945990893
 30
0.0
 10
135.6166656681485
 20
166.8981339401932
 30
0.0
 10
135.5192216452276
 20
167.1946554658755
 30
0.0
 10
135.4218731956534
 20
167.3870717783242
 30
0.0
 10
135.3429089480156
 20
167.4801980371439
 30
0.0
 10
135.2963465677384
 20
167.4694622141946
 30
0.0
 10
135.2822782454204
 20
167.4662185007784
 30
0.0
  0
SPLINE
  5
1EC
330
1F
100
AcDbEntity
  8
0
  6
Continuous
 62
     8
370
    15
100
AcDbSpline
210
0.0
220
0.0
230
1.0
 70
     8
 71
     3
 72
    23
 73
    19
 74
     0
 42
0.00000001
 43
0.00000001
 12
1.0
 22
0.0
 32
0.0
 13
1.0
 23
0.0
 33
0.0
 40
0.0
 40
0.0
 40
0.0
 40
0.0
 40
0.0042268358103343
 40
0.0705831675341099
 40
0.1369475176231332
 40
0.203367294672357
 40
0.2697872128617508
 40
0.3361521299966772
 40
0.4025090696990882
 40
0.4689225746642031
 40
0.5353475118112758
 40
0.6017218397848257
 40
0.6680739389713267
 40
0.7344818738698873
 40
0.8009111662699159
 40
0.8672906452455987
 40
0.9336232729314871
 40
1.0
 40
1.0
 40
1.0
 40
1.0
 10
133.2853661832523
 20
158.4841230990442
 30
0.0
 10
133.2832999482751
 20
158.4830578686405
 30
0.0
 10
133.2487962636973
 20
158.4652697785835
 30
0.0
 10
133.1817548381775
 20
158.5281801037447
 30
0.0
 10
133.0843323759616
 20
158.6840861060335
 30
0.0
 10
132.9869755253135
 20
158.9509780196394
 30
0.0
 10
132.8896321135801
 20
159.3070272275651
 30
0.0
 10
132.7921914645294
 20
159.7491166232405
 30
0.0
 10
132.6947456444608
 20
160.2689620534868
 30
0.0
 10
132.5973837484765
 20
160.8519075582387
 30
0.0
 10
132.5000441669401
 20
161.483551153596
 30
0.0
 10
132.4026209691565
 20
162.1498749229871
 30
0.0
 10
132.305162129538
 20
162.8362835594466
 30
0.0
 10
132.2077924472277
 20
163.525754054597
 30
0.0
 10
132.1104584420986
 20
164.202999091185
 30
0.0
 10
132.0130591619373
 20
164.8508986599254
 30
0.0
 10
131.9155843224065
 20
165.4591303337276
 30
0.0
 10
131.8506870655511
 20
165.8128883386056
 30
0.0
 10
131.8182276544285
 20
165.9898261180225
 30
0.0
  0
DIMENSION
  5
1ED
330
1F
100
AcDbEntity
  8
0
  6
Continuous
 62
     7
370
     0
100
AcDbDimension
  2
_D_2
 10
161.5534379539
 20
129.1855951636
 30
0.0
 11
128.4353368398
 21
129.1855951636
 31
0.0
 70
   160
  1
<>
 71
     2
 42
-1.0
  3
SLDDIMSTYLE1
100
AcDbAlignedDimension
 13
93.0534379539
 23
159.4799212435
 33
0.0
 14
161.5534379539
 24
160.9799212435
 34
0.0
100
AcDbRotatedDimension
  0
DIMENSION
  5
1F7
330
1F
100
AcDbEntity
  8
0
  6
Continuous
 62
     7
370
     0
100
AcDbDimension
  2
_D_3
 10
147.5534379539
 20
146.8568303842
 30
0.0
 11
139.4603299949
 21
146.8568303842
 31
0.0
 70
   160
  1
<>
 71
     2
 42
-1.0
  3
SLDDIMSTYLE3
100
AcDbAlignedDimension
 13
144.5534379539
 23
155.4743677441
 33
0.0
 14
147.5534379539
 24
155.4743677441
 34
0.0
 50
0.0
100
AcDbRotatedDimension
  0
DIMENSION
  5
204
330
1F
100
AcDbEntity
  8
0
  6
Continuous
 62
     7
370
     0
100
AcDbDimension
  2
_D_4
 10
180.299101907
 20
154.8970174749
 30
0.0
 11
180.299101907
 21
163.7874189872
 31
0.0
 70
   160
  1
<>
 71
     2
 42
-1.0
  3
SLDDIMSTYLE1
100
AcDbAlignedDimension
 13
155.5063683328
 23
171.0628250122
 33
0.0
 14
155.5063683328
 24
154.8970174749
 34
0.0
 50
90.0
100
AcDbRotatedDimension
  0
DIMENSION
  5
20E
330
1F
100
AcDbEntity
  8
0
  6
Continuous
 62
     7
370
     0
100
AcDbDimension
  2
_D_5
 10
168.2847099211
 20
160.4799212435
 30
0.0
 11
168.2847099211
 21
175.8356020442
 31
0.0
 70
   160
  1
%%c<>
 71
     2
 42
-1.0
  3
SLDDIMSTYLE3
100
AcDbAlignedDimension
 13
161.0534379539
 23
165.4799212435
 33
0.0
 14
161.0534379539
 24
160.4799212435
 34
0.0
 50
90.0
100
AcDbRotatedDimension
  0
DIMENSION
  5
21B
330
1F
100
AcDbEntity
  8
0
  6
Continuous
 62
     7
370
     0
100
AcDbDimension
  2
_D_6
 10
159.5534379539
 20
181.7032856314
 30
0.0
 11
153.0645774036
 21
181.7032856314
 31
0.0
 70
   160
  1
<>
 71
     2
 42
-1.0
  3
SLDDIMSTYLE1
100
AcDbAlignedDimension
 13
147.5534379539
 23
170.485474743
 33
0.0
 14
159.5534379539
 24
166.9799212435
 34
0.0
 50
0.0
100
AcDbRotatedDimension
  0
DIMENSION
  5
225
330
1F
100
AcDbEntity
  8
0
  6
Continuous
 62
     7
370
     0
100
AcDbDimension
  2
_D_7
 10
142.5534379539
 20
138.6744887465
 30
0.0
 11
128.4353368398
 21
138.6744887465
 31
0.0
 70
   160
  1
<>st
 71
     2
 42
-1.0
  3
SLDDIMSTYLE0
100
AcDbAlignedDimension
 13
112.5534379539
 23
159.2299212435
 33
0.0
 14
142.5534379539
 24
159.7299212435
 34
0.0
100
AcDbRotatedDimension
  0
DIMENSION
  5
230
330
1F
100
AcDbEntity
  8
0
  6
Continuous
 62
     7
370
     0
100
AcDbDimension
  2
_D_8
 10
147.5534379539
 20
181.7032856314
 30
0.0
 11
137.951369943
 21
181.7032856314
 31
0.0
 70
   160
  1
<>
 71
     2
 42
-1.0
  3
SLDDIMSTYLE4
100
AcDbAlignedDimension
 13
142.5534379539
 23
166.2299212435
 33
0.0
 14
147.5534379539
 24
170.485474743
 34
0.0
100
AcDbRotatedDimension
  0
DIMENSION
  5
23D
330
1F
100
AcDbEntity
  8
0
  6
Continuous
 62
     7
370
     0
100
AcDbDimension
  2
_D_9
 10
161.5534379539
 20
192.2438520797
 30
0.0
 11
154.5534379539
 21
192.2438520797
 31
0.0
 70
   160
  1
<>
 71
     2
 42
-1.0
  3
SLDDIMSTYLE0
100
AcDbAlignedDimension
 13
147.5534379539
 23
170.485474743
 33
0.0
 14
161.5534379539
 24
164.9799212435
 34
0.0
100
AcDbRotatedDimension
  0
DIMENSION
  5
247
330
1F
100
AcDbEntity
  8
0
  6
Continuous
 62
     7
370
     0
100
AcDbDimension
  2
_D_10
 10
98.5534379539
 20
183.5847546188
 30
0.0
 11
104.8836447597
 21
183.5847546188
 31
0.0
 70
   160
  1
<>
 71
     2
 42
-1.0
  3
SLDDIMSTYLE3
100
AcDbAlignedDimension
 13
93.0534379539
 23
166.4799212435
 33
0.0
 14
98.5534379539
 24
168.9799212435
 34
0.0
100
AcDbRotatedDimension
  0
DIMENSION
  5
253
330
1F
100
AcDbEntity
  8
0
  6
Continuous
 62
     7
370
     0
100
AcDbDimension
  2
_D_11
 10
83.0534379539
 20
159.4799212435
 30
0.0
 11
83.0534379539
 21
162.7937448966
 31
0.0
 70
   160
  1
%%c<>
 71
     2
 42
-1.0
  3
SLDDIMSTYLE4
100
AcDbAlignedDimension
 13
93.0534379539
 23
166.4799212435
 33
0.0
 14
93.0534379539
 24
159.4799212435
 34
0.0
 50
90.0
100
AcDbRotatedDimension
  0
MTEXT
  5
260
330
1F
100
AcDbEntity
  8
0
  6
Continuous
 62
     7
370
     0
100
AcDbMText
 10
78.5155905952
 20
142.936018735
 30
0.0
 40
3.5
 41
0.0
 71
     1
 72
     1
  1
BF-6
  7
SLDTEXTSTYLE1
 73
     1
 44
1.0
  0
LEADER
  5
261
330
1F
100
AcDbEntity
  8
0
  6
Continuous
 62
     7
370
     0
100
AcDbLeader
  3
SLDDIMSTYLE2
 76
     3
 10
102.048513086
 20
149.6198645086
 30
0.0
 10
87.9326750449
 20
138.3303411131
 30
0.0
 10
78.4560143627
 20
138.3303411131
 30
0.0
  0
MTEXT
  5
262
330
1F
100
AcDbEntity
  8
0
  6
Continuous
 62
     7
370
     0
100
AcDbMText
 10
170.0863580704
 20
133.6659639103
 30
0.0
 40
3.5
 41
0.0
 71
     1
 72
     1
  1
M10 P=1.0
  7
SLDTEXTSTYLE1
 73
     1
 44
1.0
  0
LEADER
  5
263
330
1F
100
AcDbEntity
  8
0
  6
Continuous
 62
     7
370
     0
100
AcDbLeader
  3
SLDDIMSTYLE2
 76
     3
 10
156.8737121142
 20
157.9799212435
 30
0.0
 10
169.5179533214
 20
128.9946140036
 30
0.0
 10
192.8186714542
 20
128.9946140036
 30
0.0
  0
MTEXT
  5
264
330
1F
100
AcDbEntity
  8
0
  6
Continuous
 62
     7
370
     0
100
AcDbMText
 10
115.4031487104
 20
187.0707972856
 30
0.0
 40
3.5
 41
0.0
 71
     1
 72
     1
  1
PF
  7
SLDTEXTSTYLE1
 73
     1
 44
1.0
  0
LEADER
  5
265
330
1F
100
AcDbEntity
  8
0
  6
Continuous
 62
     7
370
     0
100
AcDbLeader
  3
SLDDIMSTYLE2
 76
     3
 10
105.0294851778
 20
171.8543534071
 30
0.0
 10
114.7603231598
 20
182.4955116697
 30
0.0
 10
120.2872531418
 20
182.4955116697
 30
0.0
  0
ENDSEC
  0
SECTION
  2
OBJECTS
  0
DICTIONARY
  5
C
330
0
100
AcDbDictionary
281
     1
  3
ACAD_GROUP
350
D
  3
ACAD_LAYOUT
350
1A
  3
ACAD_MLINESTYLE
350
17
  3
ACAD_PLOTSETTINGS
350
19
  3
ACAD_PLOTSTYLENAME
350
E
  0
DICTIONARY
  5
D
102
{ACAD_REACTORS
330
C
102
}
330
C
100
AcDbDictionary
281
     1
  0
DICTIONARY
  5
1A
102
{ACAD_REACTORS
330
C
102
}
330
C
100
AcDbDictionary
281
     1
  3
Layout1
350
1E
  3
Layout2
350
26
  3
Model
350
22
  0
DICTIONARY
  5
17
102
{ACAD_REACTORS
330
C
102
}
330
C
100
AcDbDictionary
281
     1
  3
Standard
350
18
  0
DICTIONARY
  5
19
102
{ACAD_REACTORS
330
C
102
}
330
C
100
AcDbDictionary
281
     1
  0
ACDBDICTIONARYWDFLT
  5
E
102
{ACAD_REACTORS
330
C
102
}
330
C
100
AcDbDictionary
281
     1
  3
Normal
350
F
100
AcDbDictionaryWithDefault
340
F
  0
LAYOUT
  5
1E
102
{ACAD_REACTORS
330
1A
102
}
330
1A
100
AcDbPlotSettings
  1

  2
none_device
  4

  6

 40
0.0
 41
0.0
 42
0.0
 43
0.0
 44
0.0
 45
0.0
 46
0.0
 47
0.0
 48
0.0
 49
0.0
140
0.0
141
0.0
142
1.0
143
1.0
 70
   688
 72
     0
 73
     0
 74
     5
  7

 75
    16
147
1.0
148
0.0
149
0.0
100
AcDbLayout
  1
Layout1
 70
     1
 71
     1
 10
0.0
 20
0.0
 11
420.0
 21
297.0
 12
0.0
 22
0.0
 32
0.0
 14
1.0000000000E+20
 24
1.0000000000E+20
 34
1.0000000000E+20
 15
-1.0000000000E+20
 25
-1.0000000000E+20
 35
-1.0000000000E+20
146
0.0
 13
0.0
 23
0.0
 33
0.0
 16
1.0
 26
0.0
 36
0.0
 17
0.0
 27
1.0
 37
0.0
 76
     0
330
1B
  0
LAYOUT
  5
26
102
{ACAD_REACTORS
330
1A
102
}
330
1A
100
AcDbPlotSettings
  1

  2
none_device
  4

  6

 40
0.0
 41
0.0
 42
0.0
 43
0.0
 44
0.0
 45
0.0
 46
0.0
 47
0.0
 48
0.0
 49
0.0
140
0.0
141
0.0
142
1.0
143
1.0
 70
   688
 72
     0
 73
     0
 74
     5
  7

 75
    16
147
1.0
148
0.0
149
0.0
100
AcDbLayout
  1
Layout2
 70
     1
 71
     2
 10
0.0
 20
0.0
 11
0.0
 21
0.0
 12
0.0
 22
0.0
 32
0.0
 14
0.0
 24
0.0
 34
0.0
 15
0.0
 25
0.0
 35
0.0
146
0.0
 13
0.0
 23
0.0
 33
0.0
 16
1.0
 26
0.0
 36
0.0
 17
0.0
 27
1.0
 37
0.0
 76
     0
330
23
  0
LAYOUT
  5
22
102
{ACAD_REACTORS
330
1A
102
}
330
1A
100
AcDbPlotSettings
  1

  2
none_device
  4

  6

 40
0.0
 41
0.0
 42
0.0
 43
0.0
 44
0.0
 45
0.0
 46
0.0
 47
0.0
 48
0.0
 49
0.0
140
0.0
141
0.0
142
1.0
143
1.0
 70
  1712
 72
     0
 73
     0
 74
     0
  7

 75
     0
147
1.0
148
0.0
149
0.0
100
AcDbLayout
  1
Model
 70
     1
 71
     0
 10
0.0
 20
0.0
 11
210.0
 21
297.0
 12
0.0
 22
0.0
 32
0.0
 14
0.0
 24
0.0
 34
0.0
 15
210.0
 25
297.0
 35
0.0
146
0.0
 13
0.0
 23
0.0
 33
0.0
 16
1.0
 26
0.0
 36
0.0
 17
0.0
 27
1.0
 37
0.0
 76
     0
330
1F
331
29
  0
MLINESTYLE
  5
18
102
{ACAD_REACTORS
330
17
102
}
330
17
100
AcDbMlineStyle
  2
Standard
 70
     0
  3

 62
   256
 51
90.0
 52
90.0
 71
     2
 49
0.5
 62
   256
  6
BYLAYER
 49
-0.5
 62
   256
  6
BYLAYER
  0
ACDBPLACEHOLDER
  5
F
102
{ACAD_REACTORS
330
E
102
}
330
E
  0
ENDSEC
  0
EOF
