  0
SECTION
  2
HEADER
  9
$ACADVER
  1
AC1015
  9
$ACADMAINTVER
 70
     6
  9
$DWGCODEPAGE
  3
DOS932
  9
$INSBASE
 10
0.0
 20
0.0
 30
0.0
  9
$EXTMIN
 10
0.0
 20
0.0
 30
0.0
  9
$EXTMAX
 10
210.0
 20
297.0
 30
0.0
  9
$LIMMIN
 10
0.0
 20
0.0
  9
$LIMMAX
 10
210.0
 20
297.0
  9
$ORTHOMODE
 70
     0
  9
$REGENMODE
 70
     1
  9
$FILLMODE
 70
     1
  9
$QTEXTMODE
 70
     0
  9
$MIRRTEXT
 70
     1
  9
$LTSCALE
 40
1.0
  9
$ATTMODE
 70
     1
  9
$TEXTSIZE
 40
3.5
  9
$TRACEWID
 40
1.0
  9
$TEXTSTYLE
  7
Standard
  9
$CLAYER
  8
0
  9
$CELTYPE
  6
ByLayer
  9
$CECOLOR
 62
   256
  9
$CELTSCALE
 40
1.0
  9
$DISPSILH
 70
     0
  9
$DIMSCALE
 40
1.0
  9
$DIMASZ
 40
3.302
  9
$DIMEXO
 40
1.0
  9
$DIMDLI
 40
3.75
  9
$DIMRND
 40
0.0
  9
$DIMDLE
 40
0.0
  9
$DIMEXE
 40
1.0
  9
$DIMTP
 40
0.0
  9
$DIMTM
 40
0.0
  9
$DIMTXT
 40
3.5
  9
$DIMCEN
 40
2.5
  9
$DIMTSZ
 40
0.0
  9
$DIMTOL
 70
     0
  9
$DIMLIM
 70
     0
  9
$DIMTIH
 70
     1
  9
$DIMTOH
 70
     1
  9
$DIMSE1
 70
     0
  9
$DIMSE2
 70
     0
  9
$DIMTAD
 70
     1
  9
$DIMZIN
 70
     0
  9
$DIMBLK
  1

  9
$DIMASO
 70
     1
  9
$DIMSHO
 70
     1
  9
$DIMPOST
  1

  9
$DIMAPOST
  1

  9
$DIMALT
 70
     0
  9
$DIMALTD
 70
     3
  9
$DIMALTF
 40
0.0393700787
  9
$DIMLFAC
 40
1.0
  9
$DIMTOFL
 70
     1
  9
$DIMTVP
 40
0.0
  9
$DIMTIX
 70
     0
  9
$DIMSOXD
 70
     0
  9
$DIMSAH
 70
     0
  9
$DIMBLK1
  1

  9
$DIMBLK2
  1

  9
$DIMSTYLE
  2
ISO-25
  9
$DIMCLRD
 70
     0
  9
$DIMCLRE
 70
     0
  9
$DIMCLRT
 70
     0
  9
$DIMTFAC
 40
1.0
  9
$DIMGAP
 40
1.524
  9
$DIMJUST
 70
     0
  9
$DIMSD1
 70
     0
  9
$DIMSD2
 70
     0
  9
$DIMTOLJ
 70
     0
  9
$DIMTZIN
 70
     0
  9
$DIMALTZ
 70
     0
  9
$DIMALTTZ
 70
     0
  9
$DIMUPT
 70
     0
  9
$DIMDEC
 70
     2
  9
$DIMTDEC
 70
     2
  9
$DIMALTU
 70
     2
  9
$DIMALTTD
 70
     3
  9
$DIMTXSTY
  7
Standard
  9
$DIMAUNIT
 70
     0
  9
$DIMADEC
 70
     2
  9
$DIMALTRND
 40
0.0
  9
$DIMAZIN
 70
     0
  9
$DIMDSEP
 70
    44
  9
$DIMATFIT
 70
     3
  9
$DIMFRAC
 70
     0
  9
$DIMLDRBLK
  1

  9
$DIMLUNIT
 70
     2
  9
$DIMLWD
 70
    -2
  9
$DIMLWE
 70
    -2
  9
$DIMTMOVE
 70
     0
  9
$LUNITS
 70
     2
  9
$LUPREC
 70
     2
  9
$SKETCHINC
 40
1.0
  9
$FILLETRAD
 40
10.0
  9
$AUNITS
 70
     0
  9
$AUPREC
 70
     2
  9
$MENU
  1
.
  9
$ELEVATION
 40
0.0
  9
$PELEVATION
 40
0.0
  9
$THICKNESS
 40
0.0
  9
$LIMCHECK
 70
     0
  9
$CHAMFERA
 40
10.0
  9
$CHAMFERB
 40
10.0
  9
$CHAMFERC
 40
20.0
  9
$CHAMFERD
 40
0.0
  9
$SKPOLY
 70
     0
  9
$TDCREATE
 40
2456909.805561794
  9
$TDUCREATE
 40
2456909.430561794
  9
$TDUPDATE
 40
2456909.805564676
  9
$TDUUPDATE
 40
2456909.430564676
  9
$TDINDWG
 40
0.0000000116
  9
$TDUSRTIMER
 40
0.0000000116
  9
$USRTIMER
 70
     1
  9
$ANGBASE
 50
0.0
  9
$ANGDIR
 70
     0
  9
$PDMODE
 70
     0
  9
$PDSIZE
 40
-1.0
  9
$PLINEWID
 40
0.0
  9
$SPLFRAME
 70
     0
  9
$SPLINETYPE
 70
     6
  9
$SPLINESEGS
 70
     8
  9
$HANDSEED
  5
1F2
  9
$SURFTAB1
 70
     6
  9
$SURFTAB2
 70
     6
  9
$SURFTYPE
 70
     6
  9
$SURFU
 70
     6
  9
$SURFV
 70
     6
  9
$UCSBASE
  2

  9
$UCSNAME
  2

  9
$UCSORG
 10
0.0
 20
0.0
 30
0.0
  9
$UCSXDIR
 10
1.0
 20
0.0
 30
0.0
  9
$UCSYDIR
 10
0.0
 20
1.0
 30
0.0
  9
$UCSORTHOREF
  2

  9
$UCSORTHOVIEW
 70
     0
  9
$UCSORGTOP
 10
0.0
 20
0.0
 30
0.0
  9
$UCSORGBOTTOM
 10
0.0
 20
0.0
 30
0.0
  9
$UCSORGLEFT
 10
0.0
 20
0.0
 30
0.0
  9
$UCSORGRIGHT
 10
0.0
 20
0.0
 30
0.0
  9
$UCSORGFRONT
 10
0.0
 20
0.0
 30
0.0
  9
$UCSORGBACK
 10
0.0
 20
0.0
 30
0.0
  9
$PUCSBASE
  2

  9
$PUCSNAME
  2

  9
$PUCSORG
 10
0.0
 20
0.0
 30
0.0
  9
$PUCSXDIR
 10
1.0
 20
0.0
 30
0.0
  9
$PUCSYDIR
 10
0.0
 20
1.0
 30
0.0
  9
$PUCSORTHOREF
  2

  9
$PUCSORTHOVIEW
 70
     0
  9
$PUCSORGTOP
 10
0.0
 20
0.0
 30
0.0
  9
$PUCSORGBOTTOM
 10
0.0
 20
0.0
 30
0.0
  9
$PUCSORGLEFT
 10
0.0
 20
0.0
 30
0.0
  9
$PUCSORGRIGHT
 10
0.0
 20
0.0
 30
0.0
  9
$PUCSORGFRONT
 10
0.0
 20
0.0
 30
0.0
  9
$PUCSORGBACK
 10
0.0
 20
0.0
 30
0.0
  9
$USERI1
 70
     0
  9
$USERI2
 70
     0
  9
$USERI3
 70
     0
  9
$USERI4
 70
     0
  9
$USERI5
 70
     0
  9
$USERR1
 40
0.0
  9
$USERR2
 40
0.0
  9
$USERR3
 40
0.0
  9
$USERR4
 40
0.0
  9
$USERR5
 40
0.0
  9
$WORLDVIEW
 70
     1
  9
$SHADEDGE
 70
     3
  9
$SHADEDIF
 70
    70
  9
$TILEMODE
 70
     1
  9
$MAXACTVP
 70
    64
  9
$PINSBASE
 10
0.0
 20
0.0
 30
0.0
  9
$PLIMCHECK
 70
     0
  9
$PEXTMIN
 10
1.0000000000E+20
 20
1.0000000000E+20
 30
1.0000000000E+20
  9
$PEXTMAX
 10
-1.0000000000E+20
 20
-1.0000000000E+20
 30
-1.0000000000E+20
  9
$PLIMMIN
 10
0.0
 20
0.0
  9
$PLIMMAX
 10
420.0
 20
297.0
  9
$UNITMODE
 70
     0
  9
$VISRETAIN
 70
     1
  9
$PLINEGEN
 70
     0
  9
$PSLTSCALE
 70
     1
  9
$TREEDEPTH
 70
  3020
  9
$CMLSTYLE
  2
Standard
  9
$CMLJUST
 70
     0
  9
$CMLSCALE
 40
20.0
  9
$PROXYGRAPHICS
 70
     1
  9
$MEASUREMENT
 70
     1
  9
$CELWEIGHT
370
    -1
  9
$ENDCAPS
280
     0
  9
$JOINSTYLE
280
     0
  9
$LWDISPLAY
290
     1
  9
$INSUNITS
 70
     4
  9
$HYPERLINKBASE
  1

  9
$STYLESHEET
  1

  9
$XEDIT
290
     1
  9
$CEPSNTYPE
380
     0
  9
$PSTYLEMODE
290
     1
  9
$FINGERPRINTGUID
  2
{06F0DF4D-A529-4F38-89E1-4ACA5887D505}
  9
$VERSIONGUID
  2
{FAEB1C32-E019-11D5-929B-00C0DF256EC4}
  9
$EXTNAMES
290
     1
  9
$PSVPSCALE
 40
0.0
  9
$OLESTARTUP
290
     0
  0
ENDSEC
  0
SECTION
  2
CLASSES
  0
CLASS
  1
ACDBDICTIONARYWDFLT
  2
AcDbDictionaryWithDefault
  3
ObjectDBX Classes
 90
        0
280
     0
281
     0
  0
CLASS
  1
VISUALSTYLE
  2
AcDbVisualStyle
  3
ObjectDBX Classes
 90
     4095
280
     0
281
     0
  0
CLASS
  1
MATERIAL
  2
AcDbMaterial
  3
ObjectDBX Classes
 90
     1153
280
     0
281
     0
  0
CLASS
  1
ACDBPLACEHOLDER
  2
AcDbPlaceHolder
  3
ObjectDBX Classes
 90
        0
280
     0
281
     0
  0
CLASS
  1
LAYOUT
  2
AcDbLayout
  3
ObjectDBX Classes
 90
        0
280
     0
281
     0
  0
ENDSEC
  0
SECTION
  2
TABLES
  0
TABLE
  2
VPORT
  5
8
330
0
100
AcDbSymbolTable
 70
     1
  0
VPORT
  5
29
330
8
100
AcDbSymbolTableRecord
100
AcDbViewportTableRecord
  2
*Active
 70
     0
 10
0.0
 20
0.0
 11
1.0
 21
1.0
 12
105.0
 22
148.5
 13
0.0
 23
0.0
 14
10.0
 24
10.0
 15
10.0
 25
10.0
 16
0.0
 26
0.0
 36
1.0
 17
0.0
 27
0.0
 37
0.0
 40
297.0
 41
0.7070707071
 42
50.0
 43
0.0
 44
0.0
 50
0.0
 51
0.0
 71
     0
 72
  2000
 73
     1
 74
     3
 75
     0
 76
     0
 77
     0
 78
     0
281
     0
 65
     1
110
0.0
120
0.0
130
0.0
111
1.0
121
0.0
131
0.0
112
0.0
122
1.0
132
0.0
 79
     0
146
0.0
  0
ENDTAB
  0
TABLE
  2
LTYPE
  5
5
330
0
100
AcDbSymbolTable
 70
     6
  0
LTYPE
  5
14
330
5
100
AcDbSymbolTableRecord
100
AcDbLinetypeTableRecord
  2
ByBlock
 70
     0
  3

 72
    65
 73
     0
 40
0.0
  0
LTYPE
  5
15
330
5
100
AcDbSymbolTableRecord
100
AcDbLinetypeTableRecord
  2
ByLayer
 70
     0
  3

 72
    65
 73
     0
 40
0.0
  0
LTYPE
  5
16
330
5
100
AcDbSymbolTableRecord
100
AcDbLinetypeTableRecord
  2
Continuous
 70
     0
  3
Solid line
 72
    65
 73
     0
 40
0.0
  0
LTYPE
  5
3F
330
5
100
AcDbSymbolTableRecord
100
AcDbLinetypeTableRecord
  2
HIDDEN
 70
     0
  3
Hidden __ __ __ __ __ __ __ __ __ __ __ __ __ __
 72
    65
 73
     2
 40
1.905
 49
1.27
 74
     0
 49
-0.635
 74
     0
  0
LTYPE
  5
40
330
5
100
AcDbSymbolTableRecord
100
AcDbLinetypeTableRecord
  2
PHANTOM
 70
     0
  3
Phantom ______  __  __  ______  __  __  ______
 72
    65
 73
     6
 40
12.7
 49
6.35
 74
     0
 49
-1.27
 74
     0
 49
1.27
 74
     0
 49
-1.27
 74
     0
 49
1.27
 74
     0
 49
-1.27
 74
     0
  0
LTYPE
  5
41
330
5
100
AcDbSymbolTableRecord
100
AcDbLinetypeTableRecord
  2
CENTER
 70
     0
  3
Center ____ _ ____ _ ____ _ ____ _ ____ _ ____
 72
    65
 73
     4
 40
10.16
 49
6.35
 74
     0
 49
-1.27
 74
     0
 49
1.27
 74
     0
 49
-1.27
 74
     0
  0
LTYPE
  5
42
330
5
100
AcDbSymbolTableRecord
100
AcDbLinetypeTableRecord
  2
CENTERX2
 70
     0
  3
Center (2x) ________  __  ________  __  _____
 72
    65
 73
     4
 40
20.32
 49
12.7
 74
     0
 49
-2.54
 74
     0
 49
2.54
 74
     0
 49
-2.54
 74
     0
  0
LTYPE
  5
43
330
5
100
AcDbSymbolTableRecord
100
AcDbLinetypeTableRecord
  2
DOT2
 70
     0
  3
Dot (.5x) ........................................
 72
    65
 73
     2
 40
0.635
 49
0.0
 74
     0
 49
-0.635
 74
     0
  0
ENDTAB
  0
TABLE
  2
LAYER
  5
2
330
0
100
AcDbSymbolTable
 70
     1
  0
LAYER
  5
10
330
2
100
AcDbSymbolTableRecord
100
AcDbLayerTableRecord
  2
0
 70
     0
 62
     7
  6
Continuous
370
    -3
390
F
  0
ENDTAB
  0
TABLE
  2
STYLE
  5
3
330
0
100
AcDbSymbolTable
 70
     3
  0
STYLE
  5
11
330
3
100
AcDbSymbolTableRecord
100
AcDbTextStyleTableRecord
  2
Standard
 70
     0
 40
0.0
 41
1.0
 50
0.0
 71
     0
 42
3.5
  3
txt
  4
bigfont
  0
STYLE
  5
55
330
3
100
AcDbSymbolTableRecord
100
AcDbTextStyleTableRecord
  2
SLDTEXTSTYLE0
 70
     0
 40
0.0
 41
0.75
 50
0.0
 71
     0
 42
0.2
  3
TXT
  4
bigfont
  0
STYLE
  5
58
330
3
100
AcDbSymbolTableRecord
100
AcDbTextStyleTableRecord
  2
SLDTEXTSTYLE1
 70
     0
 40
0.0
 41
0.7
 50
0.0
 71
     0
 42
0.2
  3
TXT
  4
bigfont
  0
ENDTAB
  0
TABLE
  2
VIEW
  5
6
330
0
100
AcDbSymbolTable
 70
     0
  0
ENDTAB
  0
TABLE
  2
UCS
  5
7
330
0
100
AcDbSymbolTable
 70
     0
  0
ENDTAB
  0
TABLE
  2
APPID
  5
9
330
0
100
AcDbSymbolTable
 70
     1
  0
APPID
  5
12
330
9
100
AcDbSymbolTableRecord
100
AcDbRegAppTableRecord
  2
ACAD
 70
     0
  0
ENDTAB
  0
TABLE
  2
DIMSTYLE
  5
A
330
0
100
AcDbSymbolTable
 70
     6
100
AcDbDimStyleTable
  0
DIMSTYLE
105
27
330
A
100
AcDbSymbolTableRecord
100
AcDbDimStyleTableRecord
  2
ISO-25
 70
     0
 41
2.5
 42
0.625
 43
3.75
 44
1.25
 73
     0
 74
     0
 77
     1
 78
     8
140
2.5
141
2.5
143
0.0393700787
147
0.625
171
     3
172
     1
178
     0
271
     2
272
     2
274
     3
278
    44
283
     0
284
     8
340
11
  0
DIMSTYLE
105
99
102
{ACAD_REACTORS
330
98
330
1A0
102
}
330
A
100
AcDbSymbolTableRecord
100
AcDbDimStyleTableRecord
  2
SLDDIMSTYLE0
 70
     0
 41
3.302
 44
0.0
 45
0.000000001
 73
     0
 74
     0
 77
     3
 78
    12
 79
     3
140
3.5
147
0.875
173
     1
178
     0
271
     1
272
     1
276
     2
284
    12
340
55
  0
DIMSTYLE
105
A4
102
{ACAD_REACTORS
330
A3
102
}
330
A
100
AcDbSymbolTableRecord
100
AcDbDimStyleTableRecord
  2
SLDDIMSTYLE1
 70
     0
  3
<>
 41
3.302
 44
0.0
 45
0.000000001
 73
     0
 74
     0
 77
     3
 78
    12
 79
     3
140
3.5
141
0.0
147
0.875
173
     1
178
     0
271
     2
272
     2
276
     2
284
    12
340
55
  0
DIMSTYLE
105
AC
102
{ACAD_REACTORS
330
AB
330
1C5
330
1D0
330
1E7
102
}
330
A
100
AcDbSymbolTableRecord
100
AcDbDimStyleTableRecord
  2
SLDDIMSTYLE2
 70
     0
 41
3.302
 44
0.0
 45
0.000000001
 73
     0
 74
     0
 77
     3
 78
    12
 79
     3
140
3.5
147
0.875
173
     1
178
     0
271
     2
272
     2
276
     2
284
    12
340
55
  0
DIMSTYLE
105
1AB
102
{ACAD_REACTORS
330
1AA
330
1DA
102
}
330
A
100
AcDbSymbolTableRecord
100
AcDbDimStyleTableRecord
  2
SLDDIMSTYLE3
 70
     0
 41
3.302
 44
0.0
 45
0.000000001
 73
     0
 74
     0
 77
     3
 78
    12
 79
     3
140
3.5
147
0.875
172
     1
173
     1
178
     0
271
     2
272
     2
276
     2
284
    12
289
     0
340
55
  0
DIMSTYLE
105
1B9
102
{ACAD_REACTORS
330
1B8
102
}
330
A
100
AcDbSymbolTableRecord
100
AcDbDimStyleTableRecord
  2
SLDDIMSTYLE4
 70
     0
 41
3.302
 44
0.0
 45
0.000000001
 73
     0
 74
     0
 77
     3
 78
    12
 79
     3
140
3.5
147
0.875
172
     1
173
     1
178
     0
271
     1
272
     1
276
     2
284
    12
289
     0
340
55
  0
ENDTAB
  0
TABLE
  2
BLOCK_RECORD
  5
1
330
0
100
AcDbSymbolTable
 70
    13
  0
BLOCK_RECORD
  5
1F
330
1
100
AcDbSymbolTableRecord
100
AcDbBlockTableRecord
  2
*Model_Space
340
22
  0
BLOCK_RECORD
  5
1B
330
1
100
AcDbSymbolTableRecord
100
AcDbBlockTableRecord
  2
*Paper_Space
340
1E
  0
BLOCK_RECORD
  5
23
330
1
100
AcDbSymbolTableRecord
100
AcDbBlockTableRecord
  2
*Paper_Space0
340
26
  0
BLOCK_RECORD
  5
4C
330
1
100
AcDbSymbolTableRecord
100
AcDbBlockTableRecord
  2
SW_NOTE_0
340
0
102
{BLKREFS
331
57
102
}
  0
BLOCK_RECORD
  5
9A
330
1
100
AcDbSymbolTableRecord
100
AcDbBlockTableRecord
  2
_D
340
0
  0
BLOCK_RECORD
  5
A5
330
1
100
AcDbSymbolTableRecord
100
AcDbBlockTableRecord
  2
_D_1
340
0
  0
BLOCK_RECORD
  5
AD
330
1
100
AcDbSymbolTableRecord
100
AcDbBlockTableRecord
  2
_D_2
340
0
  0
BLOCK_RECORD
  5
B6
330
1
100
AcDbSymbolTableRecord
100
AcDbBlockTableRecord
  2
SW_CENTERMARKSYMBOL_0
340
0
102
{BLKREFS
331
C1
102
}
  0
BLOCK_RECORD
  5
1A1
330
1
100
AcDbSymbolTableRecord
100
AcDbBlockTableRecord
  2
_D_3
340
0
  0
BLOCK_RECORD
  5
1AC
330
1
100
AcDbSymbolTableRecord
100
AcDbBlockTableRecord
  2
_D_4
340
0
  0
BLOCK_RECORD
  5
1BA
330
1
100
AcDbSymbolTableRecord
100
AcDbBlockTableRecord
  2
_D_5
340
0
  0
BLOCK_RECORD
  5
1C6
330
1
100
AcDbSymbolTableRecord
100
AcDbBlockTableRecord
  2
_D_6
340
0
  0
BLOCK_RECORD
  5
1D1
330
1
100
AcDbSymbolTableRecord
100
AcDbBlockTableRecord
  2
_D_7
340
0
  0
BLOCK_RECORD
  5
1DB
330
1
100
AcDbSymbolTableRecord
100
AcDbBlockTableRecord
  2
_D_8
340
0
  0
BLOCK_RECORD
  5
1E8
330
1
100
AcDbSymbolTableRecord
100
AcDbBlockTableRecord
  2
_D_9
340
0
  0
ENDTAB
  0
ENDSEC
  0
SECTION
  2
BLOCKS
  0
BLOCK
  5
20
330
1F
100
AcDbEntity
  8
0
100
AcDbBlockBegin
  2
*Model_Space
 70
     0
 10
0.0
 20
0.0
 30
0.0
  3
*Model_Space
  1

  0
ENDBLK
  5
21
330
1F
100
AcDbEntity
  8
0
100
AcDbBlockEnd
  0
BLOCK
  5
1C
330
1B
100
AcDbEntity
 67
     1
  8
0
100
AcDbBlockBegin
  2
*Paper_Space
 70
     0
 10
0.0
 20
0.0
 30
0.0
  3
*Paper_Space
  1

  0
ENDBLK
  5
1D
330
1B
100
AcDbEntity
 67
     1
  8
0
100
AcDbBlockEnd
  0
BLOCK
  5
24
330
23
100
AcDbEntity
  8
0
100
AcDbBlockBegin
  2
*Paper_Space0
 70
     0
 10
0.0
 20
0.0
 30
0.0
  3
*Paper_Space0
  1

  0
ENDBLK
  5
25
330
23
100
AcDbEntity
  8
0
100
AcDbBlockEnd
  0
BLOCK
  5
4D
330
4C
100
AcDbEntity
  8
0
100
AcDbBlockBegin
  2
SW_NOTE_0
 70
     0
 10
0.0
 20
0.0
 30
0.0
  3
SW_NOTE_0
  1

  0
LINE
  5
4F
330
4C
100
AcDbEntity
  8
0
  6
Continuous
 62
     0
370
     0
100
AcDbLine
 10
-0.1541747219
 20
0.5472174227
 30
0.0
 11
9.6998398766
 21
0.5472174227
 31
0.0
  0
LINE
  5
50
330
4C
100
AcDbEntity
  8
0
  6
Continuous
 62
     0
370
     0
100
AcDbLine
 10
9.6998398766
 20
0.5472174227
 30
0.0
 11
-0.1541747219
 21
0.5472174227
 31
0.0
  0
LINE
  5
51
330
4C
100
AcDbEntity
  8
0
  6
Continuous
 62
     0
370
     0
100
AcDbLine
 10
-0.1541747219
 20
0.5472174227
 30
0.0
 11
9.6998398766
 21
0.5472174227
 31
0.0
  0
LINE
  5
52
330
4C
100
AcDbEntity
  8
0
  6
Continuous
 62
     0
370
     0
100
AcDbLine
 10
9.6998398766
 20
0.5472174227
 30
0.0
 11
-0.1541747219
 21
0.5472174227
 31
0.0
  0
LINE
  5
53
330
4C
100
AcDbEntity
  8
0
  6
Continuous
 62
     0
370
     0
100
AcDbLine
 10
-0.1541747219
 20
0.5472174227
 30
0.0
 11
9.6998398766
 21
0.5472174227
 31
0.0
  0
LINE
  5
54
330
4C
100
AcDbEntity
  8
0
  6
Continuous
 62
     0
370
     0
100
AcDbLine
 10
9.6998398766
 20
0.5472174227
 30
0.0
 11
-0.1541747219
 21
0.5472174227
 31
0.0
  0
MTEXT
  5
56
330
4C
100
AcDbEntity
  8
0
  6
Continuous
 62
     0
370
     0
100
AcDbMText
 10
0.0
 20
4.5117370892
 30
0.0
 40
3.5
 41
0.0
 71
     1
 72
     1
  1
BF-６
  7
SLDTEXTSTYLE0
 73
     1
 44
1.0
  0
ENDBLK
  5
4E
330
4C
100
AcDbEntity
  8
0
100
AcDbBlockEnd
  0
BLOCK
  5
9B
330
9A
100
AcDbEntity
  8
0
100
AcDbBlockBegin
  2
_D
 70
     0
 10
0.0
 20
0.0
 30
0.0
  3
_D
  1

  0
SOLID
  5
9D
330
9A
100
AcDbEntity
  8
0
  6
Continuous
 62
     7
370
     0
100
AcDbTrace
 10
38.8855779507
 20
142.7440804608
 30
0.0
 11
38.1355779507
 21
140.7440804608
 31
0.0
 12
39.6355779507
 22
140.7440804608
 32
0.0
 13
39.6355779507
 23
140.7440804608
 33
0.0
  0
SOLID
  5
9E
330
9A
100
AcDbEntity
  8
0
  6
Continuous
 62
     7
370
     0
100
AcDbTrace
 10
38.8855779507
 20
124.1440804608
 30
0.0
 11
39.6355779507
 21
126.1440804608
 31
0.0
 12
38.1355779507
 22
126.1440804608
 32
0.0
 13
38.1355779507
 23
126.1440804608
 33
0.0
  0
LINE
  5
9F
330
9A
100
AcDbEntity
  8
0
  6
Continuous
 62
     7
370
     0
100
AcDbLine
 10
56.7637811811
 20
142.7440804608
 30
0.0
 11
37.8855779507
 21
142.7440804608
 31
0.0
  0
LINE
  5
A0
330
9A
100
AcDbEntity
  8
0
  6
Continuous
 62
     7
370
     0
100
AcDbLine
 10
56.763781181
 20
124.1440804608
 30
0.0
 11
37.8855779507
 21
124.1440804608
 31
0.0
  0
LINE
  5
A1
330
9A
100
AcDbEntity
  8
0
  6
Continuous
 62
     7
370
     0
100
AcDbLine
 10
38.8855779507
 20
142.7440804608
 30
0.0
 11
38.8855779507
 21
124.1440804608
 31
0.0
  0
MTEXT
  5
A2
330
9A
100
AcDbEntity
  8
0
  6
Continuous
 62
     7
370
     0
100
AcDbMText
 10
34.3738410362
 20
130.0853769297
 30
36.85
 40
3.5
 41
0.0
 71
     1
 72
     1
  1
18.6
  7
SLDTEXTSTYLE0
 11
-7.044195017643634E-15
 21
1.0
 31
0.0
 73
     1
 44
1.0
  0
ENDBLK
  5
9C
330
9A
100
AcDbEntity
  8
0
100
AcDbBlockEnd
  0
BLOCK
  5
A6
330
A5
100
AcDbEntity
  8
0
100
AcDbBlockBegin
  2
_D_1
 70
     0
 10
0.0
 20
0.0
 30
0.0
  3
_D_1
  1

  0
SOLID
  5
A8
330
A5
100
AcDbEntity
  8
0
  6
Continuous
 62
     7
370
     0
100
AcDbTrace
 10
60.9298977045
 20
134.3279639373
 30
0.0
 11
60.046014228
 21
136.2725075855
 31
0.0
 12
58.9853540563
 22
135.2118474137
 32
0.0
 13
58.9853540563
 23
135.2118474137
 33
0.0
  0
LINE
  5
A9
330
A5
100
AcDbEntity
  8
0
  6
Continuous
 62
     7
370
     0
100
AcDbLine
 10
60.9298977045
 20
134.3279639373
 30
0.0
 11
42.3583999688
 21
152.899461673
 31
0.0
  0
MTEXT
  5
AA
330
A5
100
AcDbEntity
  8
0
  6
Continuous
 62
     7
370
     0
100
AcDbMText
 10
45.5358985291
 20
156.0769602334
 30
36.85
 40
3.5
 41
0.0
 71
     1
 72
     1
  1
M3
  7
SLDTEXTSTYLE0
 11
0.7071067811865457
 21
-0.7071067811865493
 31
0.0
 73
     1
 44
1.0
  0
ENDBLK
  5
A7
330
A5
100
AcDbEntity
  8
0
100
AcDbBlockEnd
  0
BLOCK
  5
AE
330
AD
100
AcDbEntity
  8
0
100
AcDbBlockBegin
  2
_D_2
 70
     0
 10
0.0
 20
0.0
 30
0.0
  3
_D_2
  1

  0
SOLID
  5
B0
330
AD
100
AcDbEntity
  8
0
  6
Continuous
 62
     7
370
     0
100
AcDbTrace
 10
49.9082097028
 20
139.4440804608
 30
0.0
 11
49.1582097028
 21
137.4440804608
 31
0.0
 12
50.6582097028
 22
137.4440804608
 32
0.0
 13
50.6582097028
 23
137.4440804608
 33
0.0
  0
SOLID
  5
B1
330
AD
100
AcDbEntity
  8
0
  6
Continuous
 62
     7
370
     0
100
AcDbTrace
 10
49.9082097028
 20
127.4440804608
 30
0.0
 11
50.6582097028
 21
129.4440804608
 31
0.0
 12
49.1582097028
 22
129.4440804608
 32
0.0
 13
49.1582097028
 23
129.4440804608
 33
0.0
  0
LINE
  5
B2
330
AD
100
AcDbEntity
  8
0
  6
Continuous
 62
     7
370
     0
100
AcDbLine
 10
57.3496795659
 20
139.4440804608
 30
0.0
 11
48.9082097028
 21
139.4440804608
 31
0.0
  0
LINE
  5
B3
330
AD
100
AcDbEntity
  8
0
  6
Continuous
 62
     7
370
     0
100
AcDbLine
 10
57.3496795659
 20
127.4440804608
 30
0.0
 11
48.9082097028
 21
127.4440804608
 31
0.0
  0
LINE
  5
B4
330
AD
100
AcDbEntity
  8
0
  6
Continuous
 62
     7
370
     0
100
AcDbLine
 10
49.9082097028
 20
139.4440804608
 30
0.0
 11
49.9082097028
 21
127.4440804608
 31
0.0
  0
MTEXT
  5
B5
330
AD
100
AcDbEntity
  8
0
  6
Continuous
 62
     7
370
     0
100
AcDbMText
 10
45.3964727882
 20
130.6556575711
 30
36.85
 40
3.5
 41
0.0
 71
     1
 72
     1
  1
12
  7
SLDTEXTSTYLE0
 11
-7.044195017643634E-15
 21
1.0
 31
0.0
 73
     1
 44
1.0
  0
ENDBLK
  5
AF
330
AD
100
AcDbEntity
  8
0
100
AcDbBlockEnd
  0
BLOCK
  5
B7
330
B6
100
AcDbEntity
  8
0
100
AcDbBlockBegin
  2
SW_CENTERMARKSYMBOL_0
 70
     0
 10
0.0
 20
0.0
 30
0.0
  3
SW_CENTERMARKSYMBOL_0
  1

  0
LINE
  5
B9
330
B6
100
AcDbEntity
  8
0
  6
Continuous
 62
     0
370
     0
100
AcDbLine
 10
0.0
 20
0.0
 30
0.0
 11
0.0
 21
2.5
 31
0.0
  0
LINE
  5
BA
330
B6
100
AcDbEntity
  8
0
  6
Continuous
 62
     0
370
     0
100
AcDbLine
 10
0.0
 20
0.0
 30
0.0
 11
-2.5
 21
0.0
 31
0.0
  0
LINE
  5
BB
330
B6
100
AcDbEntity
  8
0
  6
Continuous
 62
     0
370
     0
100
AcDbLine
 10
0.0
 20
0.0
 30
0.0
 11
0.0
 21
-2.5
 31
0.0
  0
LINE
  5
BC
330
B6
100
AcDbEntity
  8
0
  6
Continuous
 62
     0
370
     0
100
AcDbLine
 10
0.0
 20
0.0
 30
0.0
 11
2.5
 21
0.0
 31
0.0
  0
LINE
  5
BD
330
B6
100
AcDbEntity
  8
0
  6
Continuous
 62
     0
370
     0
100
AcDbLine
 10
0.0
 20
5.0
 30
0.0
 11
0.0
 21
13.8114800684
 31
0.0
  0
LINE
  5
BE
330
B6
100
AcDbEntity
  8
0
  6
Continuous
 62
     0
370
     0
100
AcDbLine
 10
-5.0
 20
0.0
 30
0.0
 11
-9.3187572284
 21
0.0
 31
0.0
  0
LINE
  5
BF
330
B6
100
AcDbEntity
  8
0
  6
Continuous
 62
     0
370
     0
100
AcDbLine
 10
0.0
 20
-5.0
 30
0.0
 11
0.0
 21
-21.6371692621
 31
0.0
  0
LINE
  5
C0
330
B6
100
AcDbEntity
  8
0
  6
Continuous
 62
     0
370
     0
100
AcDbLine
 10
5.0
 20
0.0
 30
0.0
 11
9.3526687548
 21
0.0
 31
0.0
  0
ENDBLK
  5
B8
330
B6
100
AcDbEntity
  8
0
100
AcDbBlockEnd
  0
BLOCK
  5
1A2
330
1A1
100
AcDbEntity
  8
0
100
AcDbBlockBegin
  2
_D_3
 70
     0
 10
0.0
 20
0.0
 30
0.0
  3
_D_3
  1

  0
SOLID
  5
1A4
330
1A1
100
AcDbEntity
  8
0
  6
Continuous
 62
     7
370
     0
100
AcDbTrace
 10
102.1276175135
 20
161.7079280472
 30
0.0
 11
104.1276175135
 21
160.9579280472
 31
0.0
 12
104.1276175135
 22
162.4579280472
 32
0.0
 13
104.1276175135
 23
162.4579280472
 33
0.0
  0
SOLID
  5
1A5
330
1A1
100
AcDbEntity
  8
0
  6
Continuous
 62
     7
370
     0
100
AcDbTrace
 10
175.6276175135
 20
161.7079280472
 30
0.0
 11
173.6276175135
 21
162.4579280472
 31
0.0
 12
173.6276175135
 22
160.9579280472
 32
0.0
 13
173.6276175135
 23
160.9579280472
 33
0.0
  0
LINE
  5
1A6
330
1A1
100
AcDbEntity
  8
0
  6
Continuous
 62
     7
370
     0
100
AcDbLine
 10
102.1276175135
 20
137.9440804608
 30
0.0
 11
102.1276175135
 21
162.7079280472
 31
0.0
  0
LINE
  5
1A7
330
1A1
100
AcDbEntity
  8
0
  6
Continuous
 62
     7
370
     0
100
AcDbLine
 10
175.6276175135
 20
136.4440804608
 30
0.0
 11
175.6276175135
 21
162.7079280472
 31
0.0
  0
LINE
  5
1A8
330
1A1
100
AcDbEntity
  8
0
  6
Continuous
 62
     7
370
     0
100
AcDbLine
 10
102.1276175135
 20
161.7079280472
 30
0.0
 11
175.6276175135
 21
161.7079280472
 31
0.0
  0
MTEXT
  5
1A9
330
1A1
100
AcDbEntity
  8
0
  6
Continuous
 62
     7
370
     0
100
AcDbMText
 10
134.3519229831
 20
166.2196649618
 30
0.1
 40
3.5
 41
0.0
 71
     1
 72
     1
  1
73.5
  7
SLDTEXTSTYLE0
 73
     1
 44
1.0
  0
ENDBLK
  5
1A3
330
1A1
100
AcDbEntity
  8
0
100
AcDbBlockEnd
  0
BLOCK
  5
1AD
330
1AC
100
AcDbEntity
  8
0
100
AcDbBlockBegin
  2
_D_4
 70
     0
 10
0.0
 20
0.0
 30
0.0
  3
_D_4
  1

  0
SOLID
  5
1AF
330
1AC
100
AcDbEntity
  8
0
  6
Continuous
 62
     7
370
     0
100
AcDbTrace
 10
93.2315340723
 20
136.9440804608
 30
0.0
 11
93.9815340723
 21
138.9440804608
 31
0.0
 12
92.4815340723
 22
138.9440804608
 32
0.0
 13
92.4815340723
 23
138.9440804608
 33
0.0
  0
SOLID
  5
1B0
330
1AC
100
AcDbEntity
  8
0
  6
Continuous
 62
     7
370
     0
100
AcDbTrace
 10
93.2315340723
 20
129.9440804608
 30
0.0
 11
92.4815340723
 21
127.9440804608
 31
0.0
 12
93.9815340723
 22
127.9440804608
 32
0.0
 13
93.9815340723
 23
127.9440804608
 33
0.0
  0
LINE
  5
1B1
330
1AC
100
AcDbEntity
  8
0
  6
Continuous
 62
     7
370
     0
100
AcDbLine
 10
101.1276175135
 20
136.9440804608
 30
0.0
 11
92.2315340723
 21
136.9440804608
 31
0.0
  0
LINE
  5
1B2
330
1AC
100
AcDbEntity
  8
0
  6
Continuous
 62
     7
370
     0
100
AcDbLine
 10
101.1276175135
 20
129.9440804608
 30
0.0
 11
92.2315340723
 21
129.9440804608
 31
0.0
  0
LINE
  5
1B3
330
1AC
100
AcDbEntity
  8
0
  6
Continuous
 62
     7
370
     0
100
AcDbLine
 10
93.2315340723
 20
136.9440804608
 30
0.0
 11
93.2315340723
 21
141.9440804608
 31
0.0
  0
LINE
  5
1B4
330
1AC
100
AcDbEntity
  8
0
  6
Continuous
 62
     7
370
     0
100
AcDbLine
 10
93.2315340723
 20
136.9440804608
 30
0.0
 11
93.2315340723
 21
129.9440804608
 31
0.0
  0
LINE
  5
1B5
330
1AC
100
AcDbEntity
  8
0
  6
Continuous
 62
     7
370
     0
100
AcDbLine
 10
93.2315340723
 20
129.9440804608
 30
0.0
 11
93.2315340723
 21
124.9440804608
 31
0.0
  0
MTEXT
  5
1B6
330
1AC
100
AcDbEntity
  8
0
  6
Continuous
 62
     7
370
     0
100
AcDbMText
 10
88.7197969831
 20
129.5058337295
 30
0.1
 40
3.5
 41
0.0
 71
     1
 72
     1
  1
%%c
  7
SLDTEXTSTYLE0
 11
-7.044195017643634E-15
 21
1.0
 31
0.0
 73
     1
 44
1.0
  0
MTEXT
  5
1B7
330
1AC
100
AcDbEntity
  8
0
  6
Continuous
 62
     7
370
     0
100
AcDbMText
 10
88.6663248064
 20
134.7842711279
 30
0.1
 40
3.5
 41
0.0
 71
     1
 72
     1
  1
7
  7
SLDTEXTSTYLE0
 11
-7.044195017643634E-15
 21
1.0
 31
0.0
 73
     1
 44
1.0
  0
ENDBLK
  5
1AE
330
1AC
100
AcDbEntity
  8
0
100
AcDbBlockEnd
  0
BLOCK
  5
1BB
330
1BA
100
AcDbEntity
  8
0
100
AcDbBlockBegin
  2
_D_5
 70
     0
 10
0.0
 20
0.0
 30
0.0
  3
_D_5
  1

  0
SOLID
  5
1BD
330
1BA
100
AcDbEntity
  8
0
  6
Continuous
 62
     7
370
     0
100
AcDbTrace
 10
102.1276175135
 20
151.1191499339
 30
0.0
 11
100.1276175135
 21
151.8691499339
 31
0.0
 12
100.1276175135
 22
150.3691499339
 32
0.0
 13
100.1276175135
 23
150.3691499339
 33
0.0
  0
SOLID
  5
1BE
330
1BA
100
AcDbEntity
  8
0
  6
Continuous
 62
     7
370
     0
100
AcDbTrace
 10
107.6276175135
 20
151.1191499339
 30
0.0
 11
109.6276175135
 21
150.3691499339
 31
0.0
 12
109.6276175135
 22
151.8691499339
 32
0.0
 13
109.6276175135
 23
151.8691499339
 33
0.0
  0
LINE
  5
1BF
330
1BA
100
AcDbEntity
  8
0
  6
Continuous
 62
     7
370
     0
100
AcDbLine
 10
102.1276175135
 20
137.9440804608
 30
0.0
 11
102.1276175135
 21
152.1191499339
 31
0.0
  0
LINE
  5
1C0
330
1BA
100
AcDbEntity
  8
0
  6
Continuous
 62
     7
370
     0
100
AcDbLine
 10
107.6276175135
 20
141.2440804608
 30
0.0
 11
107.6276175135
 21
152.1191499339
 31
0.0
  0
LINE
  5
1C1
330
1BA
100
AcDbEntity
  8
0
  6
Continuous
 62
     7
370
     0
100
AcDbLine
 10
102.1276175135
 20
151.1191499339
 30
0.0
 11
97.1276175135
 21
151.1191499339
 31
0.0
  0
LINE
  5
1C2
330
1BA
100
AcDbEntity
  8
0
  6
Continuous
 62
     7
370
     0
100
AcDbLine
 10
102.1276175135
 20
151.1191499339
 30
0.0
 11
107.6276175135
 21
151.1191499339
 31
0.0
  0
LINE
  5
1C3
330
1BA
100
AcDbEntity
  8
0
  6
Continuous
 62
     7
370
     0
100
AcDbLine
 10
107.6276175135
 20
151.1191499339
 30
0.0
 11
116.8874947192
 21
151.1191499339
 31
0.0
  0
MTEXT
  5
1C4
330
1BA
100
AcDbEntity
  8
0
  6
Continuous
 62
     7
370
     0
100
AcDbMText
 10
110.4222170847
 20
155.6308868485
 30
0.1
 40
3.5
 41
0.0
 71
     1
 72
     1
  1
5.5
  7
SLDTEXTSTYLE0
 73
     1
 44
1.0
  0
ENDBLK
  5
1BC
330
1BA
100
AcDbEntity
  8
0
100
AcDbBlockEnd
  0
BLOCK
  5
1C7
330
1C6
100
AcDbEntity
  8
0
100
AcDbBlockBegin
  2
_D_6
 70
     0
 10
0.0
 20
0.0
 30
0.0
  3
_D_6
  1

  0
SOLID
  5
1C9
330
1C6
100
AcDbEntity
  8
0
  6
Continuous
 62
     7
370
     0
100
AcDbTrace
 10
121.6276175135
 20
108.9601620901
 30
0.0
 11
123.6276175135
 21
108.2101620901
 31
0.0
 12
123.6276175135
 22
109.7101620901
 32
0.0
 13
123.6276175135
 23
109.7101620901
 33
0.0
  0
SOLID
  5
1CA
330
1C6
100
AcDbEntity
  8
0
  6
Continuous
 62
     7
370
     0
100
AcDbTrace
 10
151.6276175135
 20
108.9601620901
 30
0.0
 11
149.6276175135
 21
109.7101620901
 31
0.0
 12
149.6276175135
 22
108.2101620901
 32
0.0
 13
149.6276175135
 23
108.2101620901
 33
0.0
  0
LINE
  5
1CB
330
1C6
100
AcDbEntity
  8
0
  6
Continuous
 62
     7
370
     0
100
AcDbLine
 10
121.6276175135
 20
128.6940804608
 30
0.0
 11
121.6276175135
 21
107.9601620901
 31
0.0
  0
LINE
  5
1CC
330
1C6
100
AcDbEntity
  8
0
  6
Continuous
 62
     7
370
     0
100
AcDbLine
 10
151.6276175135
 20
128.9940804608
 30
0.0
 11
151.6276175135
 21
107.9601620901
 31
0.0
  0
LINE
  5
1CD
330
1C6
100
AcDbEntity
  8
0
  6
Continuous
 62
     7
370
     0
100
AcDbLine
 10
121.6276175135
 20
108.9601620901
 30
0.0
 11
151.6276175135
 21
108.9601620901
 31
0.0
  0
MTEXT
  5
1CE
330
1C6
100
AcDbEntity
  8
0
  6
Continuous
 62
     7
370
     0
100
AcDbMText
 10
132.3449786173
 20
113.4718990047
 30
0.1
 40
3.5
 41
0.0
 71
     1
 72
     1
  1
30
  7
SLDTEXTSTYLE0
 73
     1
 44
1.0
  0
MTEXT
  5
1CF
330
1C6
100
AcDbEntity
  8
0
  6
Continuous
 62
     7
370
     0
100
AcDbMText
 10
137.5172010043
 20
113.4718990047
 30
0.1
 40
3.5
 41
0.0
 71
     1
 72
     1
  1
st
  7
SLDTEXTSTYLE0
 73
     1
 44
1.0
  0
ENDBLK
  5
1C8
330
1C6
100
AcDbEntity
  8
0
100
AcDbBlockEnd
  0
BLOCK
  5
1D2
330
1D1
100
AcDbEntity
  8
0
100
AcDbBlockBegin
  2
_D_7
 70
     0
 10
0.0
 20
0.0
 30
0.0
  3
_D_7
  1

  0
SOLID
  5
1D4
330
1D1
100
AcDbEntity
  8
0
  6
Continuous
 62
     7
370
     0
100
AcDbTrace
 10
155.6276175135
 20
108.9601620901
 30
0.0
 11
157.6276175135
 21
108.2101620901
 31
0.0
 12
157.6276175135
 22
109.7101620901
 32
0.0
 13
157.6276175135
 23
109.7101620901
 33
0.0
  0
SOLID
  5
1D5
330
1D1
100
AcDbEntity
  8
0
  6
Continuous
 62
     7
370
     0
100
AcDbTrace
 10
173.6276175135
 20
108.9601620901
 30
0.0
 11
171.6276175135
 21
109.7101620901
 31
0.0
 12
171.6276175135
 22
108.2101620901
 32
0.0
 13
171.6276175135
 23
108.2101620901
 33
0.0
  0
LINE
  5
1D6
330
1D1
100
AcDbEntity
  8
0
  6
Continuous
 62
     7
370
     0
100
AcDbLine
 10
155.6276175135
 20
126.7440804608
 30
0.0
 11
155.6276175135
 21
107.9601620901
 31
0.0
  0
LINE
  5
1D7
330
1D1
100
AcDbEntity
  8
0
  6
Continuous
 62
     7
370
     0
100
AcDbLine
 10
173.6276175135
 20
128.7440804608
 30
0.0
 11
173.6276175135
 21
107.9601620901
 31
0.0
  0
LINE
  5
1D8
330
1D1
100
AcDbEntity
  8
0
  6
Continuous
 62
     7
370
     0
100
AcDbLine
 10
155.6276175135
 20
108.9601620901
 30
0.0
 11
173.6276175135
 21
108.9601620901
 31
0.0
  0
MTEXT
  5
1D9
330
1D1
100
AcDbEntity
  8
0
  6
Continuous
 62
     7
370
     0
100
AcDbMText
 10
162.04150632
 20
113.4718990047
 30
0.1
 40
3.5
 41
0.0
 71
     1
 72
     1
  1
18
  7
SLDTEXTSTYLE0
 73
     1
 44
1.0
  0
ENDBLK
  5
1D3
330
1D1
100
AcDbEntity
  8
0
100
AcDbBlockEnd
  0
BLOCK
  5
1DC
330
1DB
100
AcDbEntity
  8
0
100
AcDbBlockBegin
  2
_D_8
 70
     0
 10
0.0
 20
0.0
 30
0.0
  3
_D_8
  1

  0
SOLID
  5
1DE
330
1DB
100
AcDbEntity
  8
0
  6
Continuous
 62
     7
370
     0
100
AcDbTrace
 10
184.367217045
 20
135.9440804608
 30
0.0
 11
185.117217045
 21
137.9440804608
 31
0.0
 12
183.617217045
 22
137.9440804608
 32
0.0
 13
183.617217045
 23
137.9440804608
 33
0.0
  0
SOLID
  5
1DF
330
1DB
100
AcDbEntity
  8
0
  6
Continuous
 62
     7
370
     0
100
AcDbTrace
 10
184.367217045
 20
130.9440804608
 30
0.0
 11
183.617217045
 21
128.9440804608
 31
0.0
 12
185.117217045
 22
128.9440804608
 32
0.0
 13
185.117217045
 23
128.9440804608
 33
0.0
  0
LINE
  5
1E0
330
1DB
100
AcDbEntity
  8
0
  6
Continuous
 62
     7
370
     0
100
AcDbLine
 10
176.1276175135
 20
135.9440804608
 30
0.0
 11
185.367217045
 21
135.9440804608
 31
0.0
  0
LINE
  5
1E1
330
1DB
100
AcDbEntity
  8
0
  6
Continuous
 62
     7
370
     0
100
AcDbLine
 10
176.1276175135
 20
130.9440804608
 30
0.0
 11
185.367217045
 21
130.9440804608
 31
0.0
  0
LINE
  5
1E2
330
1DB
100
AcDbEntity
  8
0
  6
Continuous
 62
     7
370
     0
100
AcDbLine
 10
184.367217045
 20
135.9440804608
 30
0.0
 11
184.367217045
 21
140.9440804608
 31
0.0
  0
LINE
  5
1E3
330
1DB
100
AcDbEntity
  8
0
  6
Continuous
 62
     7
370
     0
100
AcDbLine
 10
184.367217045
 20
135.9440804608
 30
0.0
 11
184.367217045
 21
130.9440804608
 31
0.0
  0
LINE
  5
1E4
330
1DB
100
AcDbEntity
  8
0
  6
Continuous
 62
     7
370
     0
100
AcDbLine
 10
184.367217045
 20
130.9440804608
 30
0.0
 11
184.367217045
 21
118.7356615328
 31
0.0
  0
MTEXT
  5
1E5
330
1DB
100
AcDbEntity
  8
0
  6
Continuous
 62
     7
370
     0
100
AcDbMText
 10
179.8554799558
 20
118.7356615328
 30
0.1
 40
3.5
 41
0.0
 71
     1
 72
     1
  1
%%c
  7
SLDTEXTSTYLE0
 11
-7.044195017643634E-15
 21
1.0
 31
0.0
 73
     1
 44
1.0
  0
MTEXT
  5
1E6
330
1DB
100
AcDbEntity
  8
0
  6
Continuous
 62
     7
370
     0
100
AcDbMText
 10
179.8020077791
 20
124.0140989312
 30
0.1
 40
3.5
 41
0.0
 71
     1
 72
     1
  1
5
  7
SLDTEXTSTYLE0
 11
-7.044195017643634E-15
 21
1.0
 31
0.0
 73
     1
 44
1.0
  0
ENDBLK
  5
1DD
330
1DB
100
AcDbEntity
  8
0
100
AcDbBlockEnd
  0
BLOCK
  5
1E9
330
1E8
100
AcDbEntity
  8
0
100
AcDbBlockBegin
  2
_D_9
 70
     0
 10
0.0
 20
0.0
 30
0.0
  3
_D_9
  1

  0
SOLID
  5
1EB
330
1E8
100
AcDbEntity
  8
0
  6
Continuous
 62
     7
370
     0
100
AcDbTrace
 10
193.4333884487
 20
137.4440804608
 30
0.0
 11
192.6833884487
 21
135.4440804608
 31
0.0
 12
194.1833884487
 22
135.4440804608
 32
0.0
 13
194.1833884487
 23
135.4440804608
 33
0.0
  0
SOLID
  5
1EC
330
1E8
100
AcDbEntity
  8
0
  6
Continuous
 62
     7
370
     0
100
AcDbTrace
 10
193.4333884487
 20
129.4440804608
 30
0.0
 11
194.1833884487
 21
131.4440804608
 31
0.0
 12
192.6833884487
 22
131.4440804608
 32
0.0
 13
192.6833884487
 23
131.4440804608
 33
0.0
  0
LINE
  5
1ED
330
1E8
100
AcDbEntity
  8
0
  6
Continuous
 62
     7
370
     0
100
AcDbLine
 10
174.3276175135
 20
137.4440804608
 30
0.0
 11
194.4333884487
 21
137.4440804608
 31
0.0
  0
LINE
  5
1EE
330
1E8
100
AcDbEntity
  8
0
  6
Continuous
 62
     7
370
     0
100
AcDbLine
 10
174.3276175135
 20
129.4440804608
 30
0.0
 11
194.4333884487
 21
129.4440804608
 31
0.0
  0
LINE
  5
1EF
330
1E8
100
AcDbEntity
  8
0
  6
Continuous
 62
     7
370
     0
100
AcDbLine
 10
193.4333884487
 20
137.4440804608
 30
0.0
 11
193.4333884487
 21
129.4440804608
 31
0.0
  0
MTEXT
  5
1F0
330
1E8
100
AcDbEntity
  8
0
  6
Continuous
 62
     7
370
     0
100
AcDbMText
 10
188.9216513595
 20
129.5118060484
 30
0.1
 40
3.5
 41
0.0
 71
     1
 72
     1
  1
%%c
  7
SLDTEXTSTYLE0
 11
-7.044195017643634E-15
 21
1.0
 31
0.0
 73
     1
 44
1.0
  0
MTEXT
  5
1F1
330
1E8
100
AcDbEntity
  8
0
  6
Continuous
 62
     7
370
     0
100
AcDbMText
 10
188.8681791828
 20
134.7902434468
 30
0.1
 40
3.5
 41
0.0
 71
     1
 72
     1
  1
8
  7
SLDTEXTSTYLE0
 11
-7.044195017643634E-15
 21
1.0
 31
0.0
 73
     1
 44
1.0
  0
ENDBLK
  5
1EA
330
1E8
100
AcDbEntity
  8
0
100
AcDbBlockEnd
  0
ENDSEC
  0
SECTION
  2
ENTITIES
  0
LINE
  5
44
330
1F
100
AcDbEntity
  8
0
  6
Continuous
 62
     7
370
     0
100
AcDbLine
 10
20.2604743903
 20
285.0
 30
0.0
 11
196.7604743903
 21
285.0
 31
0.0
  0
LINE
  5
45
330
1F
100
AcDbEntity
  8
0
  6
Continuous
 62
     7
370
     0
100
AcDbLine
 10
20.2604743903
 20
285.0
 30
0.0
 11
20.2604743903
 21
10.0
 31
0.0
  0
LINE
  5
46
330
1F
100
AcDbEntity
  8
0
  6
Continuous
 62
     7
370
     0
100
AcDbLine
 10
20.2604743903
 20
10.0
 30
0.0
 11
196.7604743903
 21
10.0
 31
0.0
  0
LINE
  5
47
330
1F
100
AcDbEntity
  8
0
  6
Continuous
 62
     7
370
     0
100
AcDbLine
 10
196.7604743903
 20
285.0
 30
0.0
 11
196.7604743903
 21
10.0
 31
0.0
  0
LINE
  5
48
330
1F
100
AcDbEntity
  8
0
  6
Continuous
 62
     7
370
     0
100
AcDbLine
 10
127.0104743903
 20
50.75
 30
0.0
 11
196.7604743903
 21
50.75
 31
0.0
  0
LINE
  5
49
330
1F
100
AcDbEntity
  8
0
  6
Continuous
 62
     7
370
     0
100
AcDbLine
 10
127.0104743903
 20
50.75
 30
0.0
 11
127.0104743903
 21
10.0
 31
0.0
  0
LINE
  5
4A
330
1F
100
AcDbEntity
  8
0
  6
Continuous
 62
     7
370
     0
100
AcDbLine
 10
127.0104743903
 20
22.75
 30
0.0
 11
196.7604743903
 21
22.75
 31
0.0
  0
LINE
  5
4B
330
1F
100
AcDbEntity
  8
0
  6
Continuous
 62
     7
370
     0
100
AcDbLine
 10
127.0104743903
 20
36.75
 30
0.0
 11
196.7604743903
 21
36.75
 31
0.0
  0
INSERT
  5
57
330
1F
100
AcDbEntity
  8
0
  6
Continuous
 62
     7
370
     0
100
AcDbBlockReference
  2
SW_NOTE_0
 10
90.8476053789
 20
107.1287132343
 30
0.0
  0
MTEXT
  5
59
330
1F
100
AcDbEntity
  8
0
  6
Continuous
 62
     7
370
     0
100
AcDbMText
 10
161.0740818817
 20
30.4171582345
 30
0.0
 40
4.2333333333
 41
0.0
 71
     2
 72
     1
  1
VFIL2-SS-30-P8
  7
SLDTEXTSTYLE1
 73
     1
 44
1.0
  0
MTEXT
  5
5A
330
1F
100
AcDbEntity
  8
0
  6
Continuous
 62
     7
370
     0
100
AcDbMText
 10
161.3686533351
 20
43.9409718514
 30
0.0
 40
4.2333333333
 41
0.0
 71
     2
 72
     1
  1
吸着金具・ミニ用
  7
SLDTEXTSTYLE1
 73
     1
 44
1.0
  0
MTEXT
  5
5B
330
1F
100
AcDbEntity
  8
0
  6
Continuous
 62
     7
370
     0
100
AcDbMText
 10
162.6530108773
 20
16.8228189052
 30
0.0
 40
4.2333333333
 41
0.0
 71
     2
 72
     1
  1
211039
  7
SLDTEXTSTYLE1
 73
     1
 44
1.0
  0
SOLID
  5
5C
330
1F
100
AcDbEntity
  8
0
  6
Continuous
 62
     7
370
     0
100
AcDbTrace
 10
110.6059102706
 20
120.4241897966
 30
0.0
 11
108.7782774965
 21
119.3186318184
 31
0.0
 12
109.9558689059
 22
118.3895040164
 32
0.0
 13
109.9558689059
 23
118.3895040164
 33
0.0
  0
LINE
  5
5D
330
1F
100
AcDbEntity
  8
0
  6
Continuous
 62
     7
370
     0
100
AcDbLine
 10
110.6059102706
 20
120.4241897966
 30
0.0
 11
100.5474452555
 21
107.6759306569
 31
0.0
  0
LINE
  5
5E
330
1F
100
AcDbEntity
  8
0
  6
Continuous
 62
     7
370
    15
100
AcDbLine
 10
59.463781181
 20
121.6440804608
 30
0.0
 11
59.813781181
 21
119.1440804608
 31
0.0
  0
LINE
  5
5F
330
1F
100
AcDbEntity
  8
0
  6
Continuous
 62
     7
370
    15
100
AcDbLine
 10
63.813781181
 20
119.1440804608
 30
0.0
 11
64.163781181
 21
121.6440804608
 31
0.0
  0
LINE
  5
60
330
1F
100
AcDbEntity
  8
0
  6
Continuous
 62
     7
370
    15
100
AcDbLine
 10
59.463781181
 20
119.1440804608
 30
0.0
 11
59.813781181
 21
116.6440804608
 31
0.0
  0
LINE
  5
61
330
1F
100
AcDbEntity
  8
0
  6
Continuous
 62
     7
370
    15
100
AcDbLine
 10
63.813781181
 20
116.6440804608
 30
0.0
 11
64.163781181
 21
119.1440804608
 31
0.0
  0
LINE
  5
62
330
1F
100
AcDbEntity
  8
0
  6
Continuous
 62
     7
370
    15
100
AcDbLine
 10
63.913781181
 20
121.6440804608
 30
0.0
 11
63.913781181
 21
124.1440804608
 31
0.0
  0
LINE
  5
63
330
1F
100
AcDbEntity
  8
0
  6
Continuous
 62
     7
370
    15
100
AcDbLine
 10
59.713781181
 20
124.1440804608
 30
0.0
 11
59.713781181
 21
121.6440804608
 31
0.0
  0
LINE
  5
64
330
1F
100
AcDbEntity
  8
0
  6
Continuous
 62
     7
370
    15
100
AcDbLine
 10
57.813781181
 20
140.2440804608
 30
0.0
 11
57.813781181
 21
139.4440804608
 31
0.0
  0
LINE
  5
65
330
1F
100
AcDbEntity
  8
0
  6
Continuous
 62
     7
370
    15
100
AcDbLine
 10
65.813781181
 20
139.4440804608
 30
0.0
 11
65.813781181
 21
140.2440804608
 31
0.0
  0
LINE
  5
66
330
1F
100
AcDbEntity
  8
0
  6
Continuous
 62
     7
370
    15
100
AcDbLine
 10
57.813781181
 20
127.4440804608
 30
0.0
 11
57.813781181
 21
126.6440804608
 31
0.0
  0
LINE
  5
67
330
1F
100
AcDbEntity
  8
0
  6
Continuous
 62
     7
370
    15
100
AcDbLine
 10
65.813781181
 20
126.6440804608
 30
0.0
 11
65.813781181
 21
127.4440804608
 31
0.0
  0
LINE
  5
68
330
1F
100
AcDbEntity
  8
0
  6
Continuous
 62
     7
370
    15
100
AcDbLine
 10
59.788781181
 20
124.1440804608
 30
0.0
 11
59.7887811809
 21
126.6440804608
 31
0.0
  0
LINE
  5
69
330
1F
100
AcDbEntity
  8
0
  6
Continuous
 62
     7
370
    15
100
AcDbLine
 10
57.763781181
 20
124.1440804608
 30
0.0
 11
59.788781181
 21
124.1440804608
 31
0.0
  0
LINE
  5
6A
330
1F
100
AcDbEntity
  8
0
  6
Continuous
 62
     7
370
    15
100
AcDbLine
 10
57.763781181
 20
126.6440804608
 30
0.0
 11
57.763781181
 21
124.1440804608
 31
0.0
  0
LINE
  5
6B
330
1F
100
AcDbEntity
  8
0
  6
Continuous
 62
     7
370
    15
100
AcDbLine
 10
57.763781181
 20
126.6440804608
 30
0.0
 11
57.8147557003
 21
126.6440804608
 31
0.0
  0
LINE
  5
6C
330
1F
100
AcDbEntity
  8
0
  6
Continuous
 62
     7
370
    15
100
AcDbLine
 10
59.7378066617
 20
126.6440804608
 30
0.0
 11
59.7887811809
 21
126.6440804608
 31
0.0
  0
LINE
  5
6D
330
1F
100
AcDbEntity
  8
0
  6
Continuous
 62
     7
370
    15
100
AcDbLine
 10
63.838781181
 20
124.1440804608
 30
0.0
 11
63.838781181
 21
126.6440804608
 31
0.0
  0
LINE
  5
6E
330
1F
100
AcDbEntity
  8
0
  6
Continuous
 62
     7
370
    15
100
AcDbLine
 10
59.788781181
 20
124.1440804608
 30
0.0
 11
63.838781181
 21
124.1440804608
 31
0.0
  0
LINE
  5
6F
330
1F
100
AcDbEntity
  8
0
  6
Continuous
 62
     7
370
    15
100
AcDbLine
 10
59.7887811809
 20
126.6440804608
 30
0.0
 11
59.8907302196
 21
126.6440804608
 31
0.0
  0
LINE
  5
70
330
1F
100
AcDbEntity
  8
0
  6
Continuous
 62
     7
370
    15
100
AcDbLine
 10
63.7368321424
 20
126.6440804608
 30
0.0
 11
63.838781181
 21
126.6440804608
 31
0.0
  0
LINE
  5
71
330
1F
100
AcDbEntity
  8
0
  6
Continuous
 62
     7
370
    15
100
AcDbLine
 10
65.863781181
 20
124.1440804608
 30
0.0
 11
65.863781181
 21
126.6440804608
 31
0.0
  0
LINE
  5
72
330
1F
100
AcDbEntity
  8
0
  6
Continuous
 62
     7
370
    15
100
AcDbLine
 10
63.838781181
 20
126.6440804608
 30
0.0
 11
63.8897557003
 21
126.6440804608
 31
0.0
  0
LINE
  5
73
330
1F
100
AcDbEntity
  8
0
  6
Continuous
 62
     7
370
    15
100
AcDbLine
 10
65.8128066617
 20
126.6440804608
 30
0.0
 11
65.863781181
 21
126.6440804608
 31
0.0
  0
LINE
  5
74
330
1F
100
AcDbEntity
  8
0
  6
Continuous
 62
     7
370
    15
100
AcDbLine
 10
63.838781181
 20
124.1440804608
 30
0.0
 11
65.863781181
 21
124.1440804608
 31
0.0
  0
LINE
  5
75
330
1F
100
AcDbEntity
  8
0
  6
Continuous
 62
     7
370
    15
100
AcDbLine
 10
64.163781181
 20
121.6440804608
 30
0.0
 11
59.463781181
 21
121.6440804608
 31
0.0
  0
LINE
  5
76
330
1F
100
AcDbEntity
  8
0
  6
Continuous
 62
     7
370
    15
100
AcDbLine
 10
64.163781181
 20
119.1440804608
 30
0.0
 11
59.463781181
 21
119.1440804608
 31
0.0
  0
LINE
  5
77
330
1F
100
AcDbEntity
  8
0
  6
Continuous
 62
     7
370
    15
100
AcDbLine
 10
63.813781181
 20
116.6440804608
 30
0.0
 11
59.813781181
 21
116.6440804608
 31
0.0
  0
LINE
  5
78
330
1F
100
AcDbEntity
  8
0
  6
Continuous
 62
     7
370
    15
100
AcDbLine
 10
63.838781181
 20
140.2440804608
 30
0.0
 11
63.838781181
 21
142.7440804608
 31
0.0
  0
LINE
  5
79
330
1F
100
AcDbEntity
  8
0
  6
Continuous
 62
     7
370
    15
100
AcDbLine
 10
59.788781181
 20
140.2440804608
 30
0.0
 11
59.8907302196
 21
140.2440804608
 31
0.0
  0
LINE
  5
7A
330
1F
100
AcDbEntity
  8
0
  6
Continuous
 62
     7
370
    15
100
AcDbLine
 10
63.7368321424
 20
140.2440804608
 30
0.0
 11
63.838781181
 21
140.2440804608
 31
0.0
  0
LINE
  5
7B
330
1F
100
AcDbEntity
  8
0
  6
Continuous
 62
     7
370
    15
100
AcDbLine
 10
59.788781181
 20
140.2440804608
 30
0.0
 11
59.788781181
 21
142.7440804608
 31
0.0
  0
LINE
  5
7C
330
1F
100
AcDbEntity
  8
0
  6
Continuous
 62
     7
370
    15
100
AcDbLine
 10
59.788781181
 20
142.7440804608
 30
0.0
 11
63.838781181
 21
142.7440804608
 31
0.0
  0
LINE
  5
7D
330
1F
100
AcDbEntity
  8
0
  6
Continuous
 62
     7
370
    15
100
AcDbLine
 10
57.763781181
 20
140.2440804608
 30
0.0
 11
57.8147557003
 21
140.2440804608
 31
0.0
  0
LINE
  5
7E
330
1F
100
AcDbEntity
  8
0
  6
Continuous
 62
     7
370
    15
100
AcDbLine
 10
59.7378066617
 20
140.2440804608
 30
0.0
 11
59.788781181
 21
140.2440804608
 31
0.0
  0
LINE
  5
7F
330
1F
100
AcDbEntity
  8
0
  6
Continuous
 62
     7
370
    15
100
AcDbLine
 10
57.763781181
 20
140.2440804608
 30
0.0
 11
57.7637811811
 21
142.7440804608
 31
0.0
  0
LINE
  5
80
330
1F
100
AcDbEntity
  8
0
  6
Continuous
 62
     7
370
    15
100
AcDbLine
 10
57.7637811811
 20
142.7440804608
 30
0.0
 11
59.788781181
 21
142.7440804608
 31
0.0
  0
LINE
  5
81
330
1F
100
AcDbEntity
  8
0
  6
Continuous
 62
     7
370
    15
100
AcDbLine
 10
65.863781181
 20
140.2440804608
 30
0.0
 11
65.8637811809
 21
142.7440804608
 31
0.0
  0
LINE
  5
82
330
1F
100
AcDbEntity
  8
0
  6
Continuous
 62
     7
370
    15
100
AcDbLine
 10
63.838781181
 20
140.2440804608
 30
0.0
 11
63.8897557003
 21
140.2440804608
 31
0.0
  0
LINE
  5
83
330
1F
100
AcDbEntity
  8
0
  6
Continuous
 62
     7
370
    15
100
AcDbLine
 10
65.8128066617
 20
140.2440804608
 30
0.0
 11
65.863781181
 21
140.2440804608
 31
0.0
  0
LINE
  5
84
330
1F
100
AcDbEntity
  8
0
  6
Continuous
 62
     7
370
    15
100
AcDbLine
 10
63.838781181
 20
142.7440804608
 30
0.0
 11
65.8637811809
 21
142.7440804608
 31
0.0
  0
CIRCLE
  5
85
330
1F
100
AcDbEntity
  8
0
  6
Continuous
 62
     7
370
    15
100
AcDbCircle
 10
61.813781181
 20
133.4440804608
 30
0.0
 40
3.500000000000007
  0
CIRCLE
  5
86
330
1F
100
AcDbEntity
  8
0
  6
Continuous
 62
     7
370
    15
100
AcDbCircle
 10
61.813781181
 20
133.4440804608
 30
0.0
 40
1.249999999999993
  0
LINE
  5
87
330
1F
100
AcDbEntity
  8
0
  6
Continuous
 62
     7
370
    15
100
AcDbLine
 10
65.2778827961
 20
139.4440804608
 30
0.0
 11
68.7419844113
 21
133.4440804608
 31
0.0
  0
LINE
  5
88
330
1F
100
AcDbEntity
  8
0
  6
Continuous
 62
     7
370
    15
100
AcDbLine
 10
68.7419844113
 20
133.4440804608
 30
0.0
 11
65.2778827961
 21
127.4440804608
 31
0.0
  0
LINE
  5
89
330
1F
100
AcDbEntity
  8
0
  6
Continuous
 62
     7
370
    15
100
AcDbLine
 10
65.2778827961
 20
127.4440804608
 30
0.0
 11
58.3496795659
 21
127.4440804608
 31
0.0
  0
LINE
  5
8A
330
1F
100
AcDbEntity
  8
0
  6
Continuous
 62
     7
370
    15
100
AcDbLine
 10
54.8855779507
 20
133.4440804608
 30
0.0
 11
58.3496795659
 21
139.4440804608
 31
0.0
  0
LINE
  5
8B
330
1F
100
AcDbEntity
  8
0
  6
Continuous
 62
     7
370
    15
100
AcDbLine
 10
58.3496795659
 20
139.4440804608
 30
0.0
 11
65.2778827961
 21
139.4440804608
 31
0.0
  0
LINE
  5
8C
330
1F
100
AcDbEntity
  8
0
  6
Continuous
 62
     7
370
    15
100
AcDbLine
 10
58.3496795659
 20
127.4440804608
 30
0.0
 11
54.8855779507
 21
133.4440804608
 31
0.0
  0
LINE
  5
8D
330
1F
100
AcDbEntity
  8
0
  6
Continuous
 62
     7
370
    15
100
AcDbLine
 10
65.8128066617
 20
140.2440804608
 30
0.0
 11
63.8897557003
 21
140.2440804608
 31
0.0
  0
LINE
  5
8E
330
1F
100
AcDbEntity
  8
0
  6
Continuous
 62
     7
370
    15
100
AcDbLine
 10
63.7368321424
 20
140.2440804608
 30
0.0
 11
59.8907302196
 21
140.2440804608
 31
0.0
  0
LINE
  5
8F
330
1F
100
AcDbEntity
  8
0
  6
Continuous
 62
     7
370
    15
100
AcDbLine
 10
59.7378066617
 20
140.2440804608
 30
0.0
 11
57.8147557003
 21
140.2440804608
 31
0.0
  0
LINE
  5
90
330
1F
100
AcDbEntity
  8
0
  6
Continuous
 62
     7
370
    15
100
AcDbLine
 10
65.813781181
 20
139.4440804608
 30
0.0
 11
65.2778827961
 21
139.4440804608
 31
0.0
  0
LINE
  5
91
330
1F
100
AcDbEntity
  8
0
  6
Continuous
 62
     7
370
    15
100
AcDbLine
 10
58.3496795659
 20
139.4440804608
 30
0.0
 11
57.813781181
 21
139.4440804608
 31
0.0
  0
LINE
  5
92
330
1F
100
AcDbEntity
  8
0
  6
Continuous
 62
     7
370
    15
100
AcDbLine
 10
58.8487475663
 20
126.6440804608
 30
0.0
 11
57.8147557003
 21
126.6440804608
 31
0.0
  0
LINE
  5
93
330
1F
100
AcDbEntity
  8
0
  6
Continuous
 62
     7
370
    15
100
AcDbLine
 10
65.8128066617
 20
126.6440804608
 30
0.0
 11
63.8897557003
 21
126.6440804608
 31
0.0
  0
LINE
  5
94
330
1F
100
AcDbEntity
  8
0
  6
Continuous
 62
     7
370
    15
100
AcDbLine
 10
63.7368321424
 20
126.6440804608
 30
0.0
 11
59.8907302196
 21
126.6440804608
 31
0.0
  0
LINE
  5
95
330
1F
100
AcDbEntity
  8
0
  6
Continuous
 62
     7
370
    15
100
AcDbLine
 10
59.7378066617
 20
126.6440804608
 30
0.0
 11
58.8487475663
 21
126.6440804608
 31
0.0
  0
LINE
  5
96
330
1F
100
AcDbEntity
  8
0
  6
Continuous
 62
     7
370
    15
100
AcDbLine
 10
58.3496795659
 20
127.4440804608
 30
0.0
 11
57.813781181
 21
127.4440804608
 31
0.0
  0
LINE
  5
97
330
1F
100
AcDbEntity
  8
0
  6
Continuous
 62
     7
370
    15
100
AcDbLine
 10
65.813781181
 20
127.4440804608
 30
0.0
 11
65.2778827961
 21
127.4440804608
 31
0.0
  0
DIMENSION
  5
98
330
1F
100
AcDbEntity
  8
0
  6
Continuous
 62
     7
370
     0
100
AcDbDimension
  2
_D
 10
38.8855779507
 20
124.1440804608
 30
0.0
 11
38.8855779507
 21
134.6110714602
 31
0.0
 70
   160
  1
<>
 71
     2
 42
-1.0
  3
SLDDIMSTYLE0
100
AcDbAlignedDimension
 13
57.7637811811
 23
142.7440804608
 33
0.0
 14
57.763781181
 24
124.1440804608
 34
0.0
 50
90.0
100
AcDbRotatedDimension
  0
DIMENSION
  5
A3
330
1F
100
AcDbEntity
  8
0
  6
Continuous
 62
     7
370
     0
100
AcDbDimension
  2
_D_1
 10
62.6976646575
 20
132.5601969843
 30
0.0
 11
44.6771018737
 21
150.5807797681
 31
0.0
 70
   163
  1
M3
 71
     1
 42
-1.0
  3
SLDDIMSTYLE1
100
AcDbDiametricDimension
 15
60.9298977045
 25
134.3279639373
 35
0.0
 40
0.0
  0
DIMENSION
  5
AB
330
1F
100
AcDbEntity
  8
0
  6
Continuous
 62
     7
370
     0
100
AcDbDimension
  2
_D_2
 10
49.9082097028
 20
127.4440804608
 30
0.0
 11
49.9082097028
 21
133.2417687646
 31
0.0
 70
   160
  1
<>
 71
     2
 42
-1.0
  3
SLDDIMSTYLE2
100
AcDbAlignedDimension
 13
58.3496795659
 23
139.4440804608
 33
0.0
 14
58.3496795659
 24
127.4440804608
 34
0.0
 50
90.0
100
AcDbRotatedDimension
  0
INSERT
  5
C1
330
1F
100
AcDbEntity
  8
0
  6
Continuous
 62
     7
370
     0
100
AcDbBlockReference
  2
SW_CENTERMARKSYMBOL_0
 10
61.813781181
 20
133.4440804608
 30
0.0
  0
LINE
  5
C2
330
1F
100
AcDbEntity
  8
0
  6
Continuous
 62
     7
370
    15
100
AcDbLine
 10
173.7276175135
 20
129.9440804608
 30
0.0
 11
174.3276175135
 21
129.9440804608
 31
0.0
  0
LINE
  5
C3
330
1F
100
AcDbEntity
  8
0
  6
Continuous
 62
     7
370
    15
100
AcDbLine
 10
174.3276175135
 20
136.0270113086
 30
0.0
 11
173.7276175135
 21
136.0270113086
 31
0.0
  0
LINE
  5
C4
330
1F
100
AcDbEntity
  8
0
  6
Continuous
 62
     7
370
    15
100
AcDbLine
 10
109.2776175135
 20
121.6440804608
 30
0.0
 11
109.6276175135
 21
119.1440804608
 31
0.0
  0
LINE
  5
C5
330
1F
100
AcDbEntity
  8
0
  6
Continuous
 62
     7
370
    15
100
AcDbLine
 10
113.6276175135
 20
119.1440804608
 30
0.0
 11
113.9776175135
 21
121.6440804608
 31
0.0
  0
LINE
  5
C6
330
1F
100
AcDbEntity
  8
0
  6
Continuous
 62
     7
370
    15
100
AcDbLine
 10
109.2776175135
 20
119.1440804608
 30
0.0
 11
109.6276175135
 21
116.6440804608
 31
0.0
  0
LINE
  5
C7
330
1F
100
AcDbEntity
  8
0
  6
Continuous
 62
     7
370
    15
100
AcDbLine
 10
113.6276175135
 20
116.6440804608
 30
0.0
 11
113.9776175135
 21
119.1440804608
 31
0.0
  0
LINE
  5
C8
330
1F
100
AcDbEntity
  8
0
  6
Continuous
 62
     7
370
    15
100
AcDbLine
 10
113.7276175135
 20
121.6440804608
 30
0.0
 11
113.7276175135
 21
124.1440804608
 31
0.0
  0
LINE
  5
C9
330
1F
100
AcDbEntity
  8
0
  6
Continuous
 62
     7
370
    15
100
AcDbLine
 10
109.5276175135
 20
124.1440804608
 30
0.0
 11
109.5276175135
 21
121.6440804608
 31
0.0
  0
SPLINE
  5
CA
330
1F
100
AcDbEntity
  8
0
  6
Continuous
 62
     7
370
    15
100
AcDbSpline
210
0.0
220
0.0
230
1.0
 70
     8
 71
     3
 72
    14
 73
    10
 74
     0
 42
0.00000001
 43
0.00000001
 12
1.0
 22
0.0
 32
0.0
 13
1.0
 23
0.0
 33
0.0
 40
0.0
 40
0.0
 40
0.0
 40
0.0
 40
0.0955498385281198
 40
0.1911935849535957
 40
0.3824694613117068
 40
0.5704400698613457
 40
0.7587383431568269
 40
0.9586553439087873
 40
1.0
 40
1.0
 40
1.0
 40
1.0
 10
142.0766818959134
 20
128.9461370823257
 30
0.0
 10
142.1321248716386
 20
128.954020738695
 30
0.0
 10
142.243065313325
 20
128.9697957996162
 30
0.0
 10
142.3995167605084
 20
129.0996593433045
 30
0.0
 10
142.5258364067608
 20
129.3124456313309
 30
0.0
 10
142.6594871434082
 20
129.6927664302945
 30
0.0
 10
142.7809779875607
 20
130.1782013899447
 30
0.0
 10
142.8723966220573
 20
130.603594510929
 30
0.0
 10
142.9230750952297
 20
130.894268146415
 30
0.0
 10
142.9317597908086
 20
130.9440804607761
 30
0.0
  0
SPLINE
  5
CB
330
1F
100
AcDbEntity
  8
0
  6
Continuous
 62
     7
370
    15
100
AcDbSpline
210
0.0
220
0.0
230
1.0
 70
     8
 71
     3
 72
    12
 73
     8
 74
     0
 42
0.00000001
 43
0.00000001
 12
1.0
 22
0.0
 32
0.0
 13
1.0
 23
0.0
 33
0.0
 40
0.0
 40
0.0
 40
0.0
 40
0.0
 40
0.1535196827898639
 40
0.4709350886730008
 40
0.7878699952453994
 40
0.9459046605486404
 40
1.0
 40
1.0
 40
1.0
 40
1.0
 10
143.7360937884965
 20
135.9440804607761
 30
0.0
 10
143.7548047761197
 20
136.0458749803375
 30
0.0
 10
143.8122023713685
 20
136.3581385951713
 30
0.0
 10
143.9081036454751
 20
136.7792007130547
 30
0.0
 10
143.9979281706058
 20
137.1034460975831
 30
0.0
 10
144.0593741602072
 20
137.2757177343521
 30
0.0
 10
144.0778213322807
 20
137.3161889840097
 30
0.0
 10
144.0825255514523
 20
137.3265095701558
 30
0.0
  0
SPLINE
  5
CC
330
1F
100
AcDbEntity
  8
0
  6
Continuous
 62
     7
370
    15
100
AcDbSpline
210
0.0
220
0.0
230
1.0
 70
     8
 71
     3
 72
    17
 73
    13
 74
     0
 42
0.00000001
 43
0.00000001
 12
1.0
 22
0.0
 32
0.0
 13
1.0
 23
0.0
 33
0.0
 40
0.0
 40
0.0
 40
0.0
 40
0.0
 40
0.1046201313835843
 40
0.2334831062355833
 40
0.3306104301166909
 40
0.3975836399156936
 40
0.4536165068488787
 40
0.5091023019616617
 40
0.5640578933875977
 40
0.6184980973784543
 40
0.831131003174227
 40
1.0
 40
1.0
 40
1.0
 40
1.0
 10
146.1444371075411
 20
128.9681691380761
 30
0.0
 10
146.1871895528674
 20
128.9769635072907
 30
0.0
 10
146.2826011491054
 20
128.9965900993669
 30
0.0
 10
146.4015440646958
 20
129.124980254084
 30
0.0
 10
146.4932302329999
 20
129.2718248342042
 30
0.0
 10
146.5490530410345
 20
129.3963374274943
 30
0.0
 10
146.5896752155252
 20
129.5032880303301
 30
0.0
 10
146.6272422811739
 20
129.613734960751
 30
0.0
 10
146.6633620360574
 20
129.7314969212891
 30
0.0
 10
146.7324861172224
 20
129.9783662215499
 30
0.0
 10
146.8222243399522
 20
130.3577659627786
 30
0.0
 10
146.89828729072
 20
130.7641829749158
 30
0.0
 10
146.9319559935587
 20
130.9440804607761
 30
0.0
  0
SPLINE
  5
CD
330
1F
100
AcDbEntity
  8
0
  6
Continuous
 62
     7
370
    15
100
AcDbSpline
210
0.0
220
0.0
230
1.0
 70
     8
 71
     3
 72
    14
 73
    10
 74
     0
 42
0.00000001
 43
0.00000001
 12
1.0
 22
0.0
 32
0.0
 13
1.0
 23
0.0
 33
0.0
 40
0.0
 40
0.0
 40
0.0
 40
0.0
 40
0.0059584756086832
 40
0.1909554914684024
 40
0.3601926906412752
 40
0.5613146351619335
 40
0.7344500595168129
 40
0.9049793715033669
 40
1.0
 40
1.0
 40
1.0
 40
1.0
 10
147.7340458434486
 20
135.9440804607761
 30
0.0
 10
147.7347836297347
 20
135.9481854026547
 30
0.0
 10
147.7584279898213
 20
136.0797393848043
 30
0.0
 10
147.8028797778542
 20
136.2992850615588
 30
0.0
 10
147.8711024309238
 20
136.6168881090169
 30
0.0
 10
147.9373488941147
 20
136.8856034176296
 30
0.0
 10
148.0027251597813
 20
137.1122807815061
 30
0.0
 10
148.0543308065829
 20
137.2606901385928
 30
0.0
 10
148.0767281530442
 20
137.3132198578965
 30
0.0
 10
148.0847425021852
 20
137.3320163484319
 30
0.0
  0
LINE
  5
CE
330
1F
100
AcDbEntity
  8
0
  6
Continuous
 62
     7
370
    15
100
AcDbLine
 10
146.0765051964
 20
128.9462484677
 30
0.0
 11
146.0929834701
 21
128.9515657744
 31
0.0
  0
SPLINE
  5
CF
330
1F
100
AcDbEntity
  8
0
  6
Continuous
 62
     7
370
    15
100
AcDbSpline
210
0.0
220
0.0
230
1.0
 70
     8
 71
     3
 72
    17
 73
    13
 74
     0
 42
0.00000001
 43
0.00000001
 12
1.0
 22
0.0
 32
0.0
 13
1.0
 23
0.0
 33
0.0
 40
0.0
 40
0.0
 40
0.0
 40
0.0
 40
0.1317512191780383
 40
0.2507066986774018
 40
0.3577023980011161
 40
0.4530264596167286
 40
0.562218202110495
 40
0.6541338206431917
 40
0.7574668774905852
 40
0.8477558038919076
 40
0.9489192863387876
 40
1.0
 40
1.0
 40
1.0
 40
1.0
 10
150.0753975774056
 20
128.9458441869318
 30
0.0
 10
150.1452592795729
 20
128.958603888165
 30
0.0
 10
150.2781976829035
 20
128.9828840625137
 30
0.0
 10
150.4155939558997
 20
129.1318018289297
 30
0.0
 10
150.5037489510251
 20
129.2839199528147
 30
0.0
 10
150.5809919516872
 20
129.4668376317825
 30
0.0
 10
150.6497097217482
 20
129.6756399636591
 30
0.0
 10
150.715281073959
 20
129.9138957893733
 30
0.0
 10
150.7760119270443
 20
130.1650146634702
 30
0.0
 10
150.8383969063086
 20
130.4536382014689
 30
0.0
 10
150.8895835419507
 20
130.7078467596116
 30
0.0
 10
150.9216578661078
 20
130.8847321691182
 30
0.0
 10
150.9324193887801
 20
130.9440804607761
 30
0.0
  0
SPLINE
  5
D0
330
1F
100
AcDbEntity
  8
0
  6
Continuous
 62
     7
370
    15
100
AcDbSpline
210
0.0
220
0.0
230
1.0
 70
     8
 71
     3
 72
     9
 73
     5
 74
     0
 42
0.00000001
 43
0.00000001
 12
1.0
 22
0.0
 32
0.0
 13
1.0
 23
0.0
 33
0.0
 40
0.0
 40
0.0
 40
0.0
 40
0.0
 40
0.6135646530930207
 40
1.0
 40
1.0
 40
1.0
 40
1.0
 10
152.0313869088586
 20
137.1940804607761
 30
0.0
 10
152.0428146202548
 20
137.2290500840444
 30
0.0
 10
152.061439733906
 20
137.2860442786935
 30
0.0
 10
152.0760715987789
 20
137.3186267160994
 30
0.0
 10
152.081725868557
 20
137.3312177216015
 30
0.0
  0
SPLINE
  5
D1
330
1F
100
AcDbEntity
  8
0
  6
Continuous
 62
     7
370
    15
100
AcDbSpline
210
0.0
220
0.0
230
1.0
 70
     8
 71
     3
 72
    22
 73
    18
 74
     0
 42
0.00000001
 43
0.00000001
 12
1.0
 22
0.0
 32
0.0
 13
1.0
 23
0.0
 33
0.0
 40
0.0
 40
0.0
 40
0.0
 40
0.0
 40
0.0292816283074966
 40
0.1143259023206844
 40
0.1974246200982808
 40
0.278656386611178
 40
0.3579347502464397
 40
0.4351802251365925
 40
0.5079044168609397
 40
0.5734409031050931
 40
0.6495020544331239
 40
0.7125504027109925
 40
0.7699169361224074
 40
0.822237277382136
 40
0.8834128861043296
 40
0.9441773591655269
 40
1.0
 40
1.0
 40
1.0
 40
1.0
 10
153.5914025143452
 20
131.7709788093865
 30
0.0
 10
153.5788336387839
 20
131.8459223537753
 30
0.0
 10
153.5297602735797
 20
132.1385286339108
 30
0.0
 10
153.4449015309037
 20
132.6937778390568
 30
0.0
 10
153.3377091545734
 20
133.4049787437668
 30
0.0
 10
153.2331253409209
 20
134.104835056364
 30
0.0
 10
153.1310156280918
 20
134.7713092910722
 30
0.0
 10
153.0323871088943
 20
135.3835725812144
 30
0.0
 10
152.9395570288336
 20
135.9164146989228
 30
0.0
 10
152.8471184035492
 20
136.3982375240877
 30
0.0
 10
152.7583304180169
 20
136.8052565535552
 30
0.0
 10
152.6723997935698
 20
137.1373691591862
 30
0.0
 10
152.5946945574904
 20
137.3850253186811
 30
0.0
 10
152.5076004552588
 20
137.5996874702272
 30
0.0
 10
152.4106866758563
 20
137.7628079815225
 30
0.0
 10
152.2843033339859
 20
137.9032661514667
 30
0.0
 10
152.1429794228837
 20
137.9299165252023
 30
0.0
 10
152.0753126485106
 20
137.9426768911761
 30
0.0
  0
SPLINE
  5
D2
330
1F
100
AcDbEntity
  8
0
  6
Continuous
 62
     7
370
    15
100
AcDbSpline
210
0.0
220
0.0
230
1.0
 70
     8
 71
     3
 72
    35
 73
    31
 74
     0
 42
0.00000001
 43
0.00000001
 12
1.0
 22
0.0
 32
0.0
 13
1.0
 23
0.0
 33
0.0
 40
0.0
 40
0.0
 40
0.0
 40
0.0
 40
0.0258393935221303
 40
0.0595660947515118
 40
0.0896978716971044
 40
0.1236911156594881
 40
0.1535551438365348
 40
0.1889773910255161
 40
0.2196573136319927
 40
0.2538755002394418
 40
0.2916673669011117
 40
0.3330490392467727
 40
0.3745010584486435
 40
0.4124454590836931
 40
0.4468721946164146
 40
0.477792557953046
 40
0.5135483579154295
 40
0.5430242055556325
 40
0.5704741975226598
 40
0.6165284368774384
 40
0.6684773828042264
 40
0.706508015170035
 40
0.7483712533918302
 40
0.7946426362890312
 40
0.8323345913304052
 40
0.8726587983053291
 40
0.8952815683684288
 40
0.92378684523793
 40
0.9586655612131105
 40
0.9999999999999999
 40
0.9999999999999999
 40
0.9999999999999999
 40
0.9999999999999999
 10
150.1330682663241
 20
129.4436272010515
 30
0.0
 10
150.1340553883902
 20
129.4460071713118
 30
0.0
 10
150.1363309451471
 20
129.4514935823575
 30
0.0
 10
150.0892716004574
 20
129.5372261396105
 30
0.0
 10
150.0407893199908
 20
129.6644373725748
 30
0.0
 10
149.9858919121104
 20
129.8313355546323
 30
0.0
 10
149.9237177936262
 20
130.056053457228
 30
0.0
 10
149.8632970326287
 20
130.3068040437516
 30
0.0
 10
149.7996230388409
 20
130.6030175683629
 30
0.0
 10
149.7342068505081
 20
130.9377123063132
 30
0.0
 10
149.6618331700394
 20
131.340484978639
 30
0.0
 10
149.5847578481548
 20
131.8006383372625
 30
0.0
 10
149.507529807112
 20
132.2868705607071
 30
0.0
 10
149.4346817177316
 20
132.7614124390782
 30
0.0
 10
149.3685074113684
 20
133.2004450525017
 30
0.0
 10
149.3037479248378
 20
133.6329133603938
 30
0.0
 10
149.2421714848024
 20
134.0430184896666
 30
0.0
 10
149.1828627562827
 20
134.4328514008126
 30
0.0
 10
149.1169645656041
 20
134.8576656199975
 30
0.0
 10
149.0365394661642
 20
135.3582814844772
 30
0.0
 10
148.9489783209641
 20
135.8649205583261
 30
0.0
 10
148.8643326222895
 20
136.310558087953
 30
0.0
 10
148.7820768354867
 20
136.7006920975219
 30
0.0
 10
148.6975443290458
 20
137.0445459378173
 30
0.0
 10
148.6100839694521
 20
137.3353209134665
 30
0.0
 10
148.5367546551271
 20
137.5270845795732
 30
0.0
 10
148.4642363697959
 20
137.6728749899362
 30
0.0
 10
148.3759477754512
 20
137.7990426749852
 30
0.0
 10
148.2469693119446
 20
137.915179320418
 30
0.0
 10
148.1363110538064
 20
137.9326071445381
 30
0.0
 10
148.076295207309
 20
137.942059178528
 30
0.0
  0
SPLINE
  5
D3
330
1F
100
AcDbEntity
  8
0
  6
Continuous
 62
     7
370
    15
100
AcDbSpline
210
0.0
220
0.0
230
1.0
 70
     8
 71
     3
 72
    33
 73
    29
 74
     0
 42
0.00000001
 43
0.00000001
 12
1.0
 22
0.0
 32
0.0
 13
1.0
 23
0.0
 33
0.0
 40
0.0
 40
0.0
 40
0.0
 40
0.0
 40
0.0203325065612257
 40
0.0513398054458105
 40
0.0809095138528222
 40
0.1098155258119505
 40
0.143623207402969
 40
0.1833227212009743
 40
0.2289052772548069
 40
0.2803736687670221
 40
0.3358267451051661
 40
0.3859701605190505
 40
0.4295274313907808
 40
0.4772701179625504
 40
0.5148589997779283
 40
0.5540915068686851
 40
0.5861472291708756
 40
0.6204491346420762
 40
0.656993919742055
 40
0.6941514502514075
 40
0.7649200084533545
 40
0.8311516406786713
 40
0.8726420791347075
 40
0.9073770058574506
 40
0.9332167080292766
 40
0.9502745145957823
 40
0.9700854878347513
 40
1.0
 40
1.0
 40
1.0
 40
1.0
 10
146.1369090455967
 20
129.4405378687988
 30
0.0
 10
146.1380125336693
 20
129.4417135202145
 30
0.0
 10
146.1407988533387
 20
129.4446820531286
 30
0.0
 10
146.1063897301151
 20
129.5028578755889
 30
0.0
 10
146.0630765885442
 20
129.6044851248936
 30
0.0
 10
146.0071599460614
 20
129.7616181335998
 30
0.0
 10
145.9444357373512
 20
129.9755850669065
 30
0.0
 10
145.8697505175132
 20
130.2752787031687
 30
0.0
 10
145.7831159702438
 20
130.6795345540119
 30
0.0
 10
145.6856963900034
 20
131.1987430070887
 30
0.0
 10
145.5851131767155
 20
131.7954041917525
 30
0.0
 10
145.4896253959388
 20
132.401342562801
 30
0.0
 10
145.3989826711344
 20
132.9972556723155
 30
0.0
 10
145.3162025472968
 20
133.5501948780403
 30
0.0
 10
145.2362884659456
 20
134.0822944635789
 30
0.0
 10
145.1664561097209
 20
134.5399972912601
 30
0.0
 10
145.0987346177735
 20
134.9717576324342
 30
0.0
 10
145.0326540741774
 20
135.3779162757133
 30
0.0
 10
144.9631903639411
 20
135.783031961275
 30
0.0
 10
144.8699957074486
 20
136.2883323222669
 30
0.0
 10
144.7564798469429
 20
136.8250821637057
 30
0.0
 10
144.6367946114704
 20
137.2634165341956
 30
0.0
 10
144.5374732609062
 20
137.5327522858497
 30
0.0
 10
144.4612863050594
 20
137.6846599532602
 30
0.0
 10
144.3966306897787
 20
137.7771196082905
 30
0.0
 10
144.3303676223793
 20
137.8463889480993
 30
0.0
 10
144.2240659467286
 20
137.923420014571
 30
0.0
 10
144.1317278910708
 20
137.93495331068
 30
0.0
 10
144.076177947881
 20
137.9418916627936
 30
0.0
  0
SPLINE
  5
D4
330
1F
100
AcDbEntity
  8
0
  6
Continuous
 62
     7
370
    15
100
AcDbSpline
210
0.0
220
0.0
230
1.0
 70
     8
 71
     3
 72
    21
 73
    17
 74
     0
 42
0.00000001
 43
0.00000001
 12
1.0
 22
0.0
 32
0.0
 13
1.0
 23
0.0
 33
0.0
 40
0.0
 40
0.0
 40
0.0
 40
0.0
 40
0.0480170468360906
 40
0.0982123395961163
 40
0.1434573028945586
 40
0.2019551865721907
 40
0.2582852925704878
 40
0.3135336276585291
 40
0.3635310918122681
 40
0.4236779396391872
 40
0.4939844030834263
 40
0.5745330967823474
 40
0.6654304630760954
 40
0.7666535382691613
 40
0.8781156908587554
 40
1.0
 40
1.0
 40
1.0
 40
1.0
 10
142.1293220053076
 20
129.4481881358711
 30
0.0
 10
142.1309363010097
 20
129.4511002701655
 30
0.0
 10
142.1342381233448
 20
129.4570566448515
 30
0.0
 10
142.0946092329133
 20
129.5281034959306
 30
0.0
 10
142.046864464563
 20
129.6454705096133
 30
0.0
 10
141.994083737606
 20
129.8029070777888
 30
0.0
 10
141.9351275729624
 20
130.012242619079
 30
0.0
 10
141.8772086210772
 20
130.2478540683423
 30
0.0
 10
141.8174940512589
 20
130.5182559278753
 30
0.0
 10
141.7520701712984
 20
130.8434374730831
 30
0.0
 10
141.6753006205105
 20
131.2613891971575
 30
0.0
 10
141.587190449642
 20
131.7830223408019
 30
0.0
 10
141.4877968376457
 20
132.4116555509194
 30
0.0
 10
141.3770529733132
 20
133.1421838430665
 30
0.0
 10
141.2546902600617
 20
133.9648577270404
 30
0.0
 10
141.1693743535679
 20
134.5163918172937
 30
0.0
 10
141.1248111309476
 20
134.8044756864886
 30
0.0
  0
SPLINE
  5
D5
330
1F
100
AcDbEntity
  8
0
  6
Continuous
 62
     7
370
    15
100
AcDbSpline
210
0.0
220
0.0
230
1.0
 70
     8
 71
     3
 72
    21
 73
    17
 74
     0
 42
0.00000001
 43
0.00000001
 12
1.0
 22
0.0
 32
0.0
 13
1.0
 23
0.0
 33
0.0
 40
0.0
 40
0.0
 40
0.0
 40
0.0
 40
0.0798941037720163
 40
0.1565804282505653
 40
0.2301501437839719
 40
0.3005992647970752
 40
0.3678575488187694
 40
0.4318749983564643
 40
0.4926917183180243
 40
0.55126404542999
 40
0.6629249651451171
 40
0.7675005207440798
 40
0.8183952772941127
 40
0.8735250136622261
 40
0.934004444750825
 40
1.0
 40
1.0
 40
1.0
 40
1.0
 10
140.6274828847839
 20
134.7961879535815
 30
0.0
 10
140.6603712289213
 20
134.5857287545226
 30
0.0
 10
140.7248274374067
 20
134.1732603749791
 30
0.0
 10
140.8196740913394
 20
133.5408300895126
 30
0.0
 10
140.9105424146619
 20
132.9339594727591
 30
0.0
 10
140.9974719340206
 20
132.3615756268295
 30
0.0
 10
141.0805143269138
 20
131.8328311601162
 30
0.0
 10
141.1597336434804
 20
131.3532972561277
 30
0.0
 10
141.2354394455857
 20
130.9252753686566
 30
0.0
 10
141.3311738174635
 20
130.4276275296141
 30
0.0
 10
141.4465182551488
 20
129.9109315008857
 30
0.0
 10
141.5633985226195
 20
129.5215010501334
 30
0.0
 10
141.6601431814234
 20
129.2865151799976
 30
0.0
 10
141.7586274247118
 20
129.1210561622244
 30
0.0
 10
141.8979460799461
 20
128.9794878292678
 30
0.0
 10
142.0241482278572
 20
128.9575610421859
 30
0.0
 10
142.090001414058
 20
128.9461194873757
 30
0.0
  0
SPLINE
  5
D6
330
1F
100
AcDbEntity
  8
0
  6
Continuous
 62
     7
370
    15
100
AcDbSpline
210
0.0
220
0.0
230
1.0
 70
     8
 71
     3
 72
    30
 73
    26
 74
     0
 42
0.00000001
 43
0.00000001
 12
1.0
 22
0.0
 32
0.0
 13
1.0
 23
0.0
 33
0.0
 40
0.0
 40
0.0
 40
0.0
 40
0.0
 40
0.012910267202482
 40
0.0399832348245688
 40
0.0790324473701816
 40
0.1260779874980286
 40
0.1720821795939605
 40
0.2166254022760128
 40
0.2596311891102485
 40
0.3010819815679081
 40
0.3410095556367821
 40
0.379538309519845
 40
0.4166472950270437
 40
0.4523191697869068
 40
0.4865615117304301
 40
0.5508288276397518
 40
0.6129312483916269
 40
0.6745416132096905
 40
0.7359073184727998
 40
0.797909217183954
 40
0.8607949989989447
 40
0.8933133976250006
 40
0.9272385356745131
 40
0.9628052650197019
 40
1.0
 40
1.0
 40
1.0
 40
1.0
 10
144.007850100953
 20
137.4651880271757
 30
0.0
 10
144.0099075088704
 20
137.4629092657374
 30
0.0
 10
144.0162793230708
 20
137.4558519173287
 30
0.0
 10
144.0582525751495
 20
137.3917497515505
 30
0.0
 10
144.1186276117876
 20
137.2516567141842
 30
0.0
 10
144.1970243091536
 20
137.0096204090709
 30
0.0
 10
144.2799584599485
 20
136.6856761519337
 30
0.0
 10
144.3627470225303
 20
136.3071617374709
 30
0.0
 10
144.4439234981502
 20
135.8878288406353
 30
0.0
 10
144.522929230602
 20
135.4397498444453
 30
0.0
 10
144.5993690892448
 20
134.9762472158909
 30
0.0
 10
144.6729860777918
 20
134.5086280760925
 30
0.0
 10
144.743950365447
 20
134.0442625028834
 30
0.0
 10
144.8122512711922
 20
133.5901027610323
 30
0.0
 10
144.8979007621936
 20
133.0181196773579
 30
0.0
 10
145.0005268125314
 20
132.3387543505767
 30
0.0
 10
145.1204587307225
 20
131.5818883134148
 30
0.0
 10
145.239093155663
 20
130.8961286841992
 30
0.0
 10
145.3575711184539
 20
130.2979583457563
 30
0.0
 10
145.480788980544
 20
129.7876458023566
 30
0.0
 10
145.5862276452798
 20
129.4562838661809
 30
0.0
 10
145.6880612323621
 20
129.2326179392553
 30
0.0
 10
145.7890153881445
 20
129.0859315981274
 30
0.0
 10
145.9206126478813
 20
128.970871355308
 30
0.0
 10
146.0326234854084
 20
128.9545875007021
 30
0.0
 10
146.0898820006867
 20
128.9462634013709
 30
0.0
  0
SPLINE
  5
D7
330
1F
100
AcDbEntity
  8
0
  6
Continuous
 62
     7
370
    15
100
AcDbSpline
210
0.0
220
0.0
230
1.0
 70
     8
 71
     3
 72
    36
 73
    32
 74
     0
 42
0.00000001
 43
0.00000001
 12
1.0
 22
0.0
 32
0.0
 13
1.0
 23
0.0
 33
0.0
 40
0.0
 40
0.0
 40
0.0
 40
0.0
 40
0.0265977081317645
 40
0.0529941158459059
 40
0.0741855873421478
 40
0.114040883660248
 40
0.1513060020909044
 40
0.1858754414072279
 40
0.2176431589676405
 40
0.2466253932004265
 40
0.2738970362560672
 40
0.3242160137030802
 40
0.3689647469980554
 40
0.396163907326755
 40
0.4277141140832663
 40
0.465591896629941
 40
0.4981683820392715
 40
0.5343424180062877
 40
0.5741498126022995
 40
0.6168726182846651
 40
0.6571282197203857
 40
0.6938109846105246
 40
0.72692639601957
 40
0.7564854610525583
 40
0.7903400578514871
 40
0.8204738636441874
 40
0.856291894867806
 40
0.8875582602432899
 40
0.922293889331293
 40
0.9596907693089397
 40
0.9999999999999999
 40
0.9999999999999999
 40
0.9999999999999999
 40
0.9999999999999999
 10
148.0529899000653
 20
137.4327770339029
 30
0.0
 10
148.0511518534906
 20
137.4277116180284
 30
0.0
 10
148.0474896712969
 20
137.4176191230533
 30
0.0
 10
148.0698330598549
 20
137.3677810870637
 30
0.0
 10
148.115759756156
 20
137.2607566409223
 30
0.0
 10
148.1684557423356
 20
137.1034647535113
 30
0.0
 10
148.2334699696475
 20
136.8698183577432
 30
0.0
 10
148.2962405655682
 20
136.6097268399243
 30
0.0
 10
148.3557001328537
 20
136.3357244313738
 30
0.0
 10
148.4117596929265
 20
136.0542703798194
 30
0.0
 10
148.4797628122278
 20
135.6885717980985
 30
0.0
 10
148.5580865851137
 20
135.2320170023971
 30
0.0
 10
148.6363589960483
 20
134.7433403214687
 30
0.0
 10
148.702612526969
 20
134.3155186819506
 30
0.0
 10
148.7644788151221
 20
133.9081632107216
 30
0.0
 10
148.8298514556221
 20
133.4722296269192
 30
0.0
 10
148.8982284121229
 20
133.0159434062701
 30
0.0
 10
148.9678649119857
 20
132.555605919707
 30
0.0
 10
149.0439781023367
 20
132.063642756405
 30
0.0
 10
149.1227028604434
 20
131.574660008239
 30
0.0
 10
149.1995233251744
 20
131.1247291301977
 30
0.0
 10
149.2703472917627
 20
130.7393262399301
 30
0.0
 10
149.3344625502621
 20
130.4193922309593
 30
0.0
 10
149.3969409880057
 20
130.1354417070797
 30
0.0
 10
149.4577623776546
 20
129.8881045592589
 30
0.0
 10
149.5234744526051
 20
129.6541138704091
 30
0.0
 10
149.5924797327359
 20
129.4485235504667
 30
0.0
 10
149.6700329583778
 20
129.2680566494739
 30
0.0
 10
149.7572316527837
 20
129.1211034072242
 30
0.0
 10
149.890976815349
 20
128.9806443772302
 30
0.0
 10
150.0211788722962
 20
128.9577315913114
 30
0.0
 10
150.0887198250574
 20
128.9458458237002
 30
0.0
  0
SPLINE
  5
D8
330
1F
100
AcDbEntity
  8
0
  6
Continuous
 62
     7
370
    15
100
AcDbSpline
210
0.0
220
0.0
230
1.0
 70
     8
 71
     3
 72
    22
 73
    18
 74
     0
 42
0.00000001
 43
0.00000001
 12
1.0
 22
0.0
 32
0.0
 13
1.0
 23
0.0
 33
0.0
 40
0.0
 40
0.0
 40
0.0
 40
0.0
 40
0.0546330276739009
 40
0.1241364454126111
 40
0.1791492070830659
 40
0.2257489375279482
 40
0.2782090916085104
 40
0.3370382577875479
 40
0.4022304406888787
 40
0.4737522024275225
 40
0.5511737800729574
 40
0.6314090343568693
 40
0.7138277284688088
 40
0.7983521331304896
 40
0.8849288958526698
 40
0.9736628927693832
 40
1.0
 40
1.0
 40
1.0
 40
1.0
 10
152.0363440425631
 20
137.4422749422708
 30
0.0
 10
152.0369278013903
 20
137.4368971524479
 30
0.0
 10
152.0382542105035
 20
137.4246778092921
 30
0.0
 10
152.0882890583734
 20
137.3237770523843
 30
0.0
 10
152.1427387335205
 20
137.1757785723017
 30
0.0
 10
152.2014327528836
 20
136.9855559206048
 30
0.0
 10
152.2606550640376
 20
136.7604400700587
 30
0.0
 10
152.3280378405377
 20
136.4687128352124
 30
0.0
 10
152.4030074737153
 20
136.1029985335024
 30
0.0
 10
152.4855691201803
 20
135.6569507217573
 30
0.0
 10
152.5742482546816
 20
135.1341752381838
 30
0.0
 10
152.6671293542719
 20
134.5488125373278
 30
0.0
 10
152.7627373140205
 20
133.9209735575124
 30
0.0
 10
152.8608806614436
 20
133.263784229306
 30
0.0
 10
152.9616463140714
 20
132.5962496592152
 30
0.0
 10
153.0398482002436
 20
132.084749529338
 30
0.0
 10
153.0844219002327
 20
131.8169007377426
 30
0.0
 10
153.0946237864923
 20
131.7555963607826
 30
0.0
  0
SPLINE
  5
D9
330
1F
100
AcDbEntity
  8
0
  6
Continuous
 62
     7
370
    15
100
AcDbSpline
210
0.0
220
0.0
230
1.0
 70
     8
 71
     3
 72
    16
 73
    12
 74
     0
 42
0.00000001
 43
0.00000001
 12
1.0
 22
0.0
 32
0.0
 13
1.0
 23
0.0
 33
0.0
 40
0.0
 40
0.0
 40
0.0
 40
0.0
 40
0.1203601924651842
 40
0.2232056564162244
 40
0.3454641065113489
 40
0.4423729989556868
 40
0.5338410262240383
 40
0.6203401588054474
 40
0.7620703441809986
 40
0.8889920325157595
 40
1.0
 40
1.0
 40
1.0
 40
1.0
 10
152.0886702725331
 20
137.9426674329799
 30
0.0
 10
152.0301797861673
 20
137.9339648692399
 30
0.0
 10
151.9217103068819
 20
137.9178261325671
 30
0.0
 10
151.7797752244199
 20
137.7931687537502
 30
0.0
 10
151.6776332303451
 20
137.6340852934487
 30
0.0
 10
151.6046185239766
 20
137.4631062279343
 30
0.0
 10
151.5387404022704
 20
137.2772318384666
 30
0.0
 10
151.4658646715202
 20
137.0317055210275
 30
0.0
 10
151.3874780475128
 20
136.7163020674305
 30
0.0
 10
151.3063884781745
 20
136.3361247527591
 30
0.0
 10
151.2563862965175
 20
136.0688020072945
 30
0.0
 10
151.2330573821944
 20
135.9440804607761
 30
0.0
  0
SPLINE
  5
DA
330
1F
100
AcDbEntity
  8
0
  6
Continuous
 62
     7
370
    15
100
AcDbSpline
210
0.0
220
0.0
230
1.0
 70
     8
 71
     3
 72
    14
 73
    10
 74
     0
 42
0.00000001
 43
0.00000001
 12
1.0
 22
0.0
 32
0.0
 13
1.0
 23
0.0
 33
0.0
 40
0.0
 40
0.0
 40
0.0
 40
0.0
 40
0.1664646225434215
 40
0.3262047901105803
 40
0.5105277806908608
 40
0.6658130158224338
 40
0.8425203579791353
 40
0.9992517126353138
 40
1.0
 40
1.0
 40
1.0
 40
1.0
 10
150.4318962245957
 20
130.9440804607761
 30
0.0
 10
150.4115099166595
 20
130.8373469981962
 30
0.0
 10
150.3715608199692
 20
130.6281916459857
 30
0.0
 10
150.3092742968159
 20
130.3363931102707
 30
0.0
 10
150.24892576825
 20
130.0809206518275
 30
0.0
 10
150.1861594272996
 20
129.8498529027381
 30
0.0
 10
150.1327829713638
 20
129.6839085007047
 30
0.0
 10
150.096234522958
 20
129.585213906804
 30
0.0
 10
150.0834692512473
 20
129.5584739772235
 30
0.0
 10
150.0834085952069
 20
129.5583469185689
 30
0.0
  0
SPLINE
  5
DB
330
1F
100
AcDbEntity
  8
0
  6
Continuous
 62
     7
370
    15
100
AcDbSpline
210
0.0
220
0.0
230
1.0
 70
     8
 71
     3
 72
    17
 73
    13
 74
     0
 42
0.00000001
 43
0.00000001
 12
1.0
 22
0.0
 32
0.0
 13
1.0
 23
0.0
 33
0.0
 40
0.0
 40
0.0
 40
0.0
 40
0.0
 40
0.0859716702341838
 40
0.1847438312946094
 40
0.29569264256681
 40
0.3994433704092433
 40
0.5113721809914864
 40
0.6105875030501847
 40
0.7261194478439499
 40
0.8237843501805211
 40
0.9308201496817077
 40
1.0
 40
1.0
 40
1.0
 40
1.0
 10
148.0896188812516
 20
137.9420356485118
 30
0.0
 10
148.0400969792611
 20
137.9357926290382
 30
0.0
 10
147.9336797620335
 20
137.9223770546603
 30
0.0
 10
147.8127306455385
 20
137.8287754430989
 30
0.0
 10
147.7119249148367
 20
137.6987777922861
 30
0.0
 10
147.622389079232
 20
137.5180927392493
 30
0.0
 10
147.5476974494557
 20
137.3116609042855
 30
0.0
 10
147.4781231504621
 20
137.0770201639946
 30
0.0
 10
147.4110906626856
 20
136.8138473849149
 30
0.0
 10
147.3432653868232
 20
136.5099080416919
 30
0.0
 10
147.2853605371157
 20
136.2273054251247
 30
0.0
 10
147.2482616562543
 20
136.0239248777644
 30
0.0
 10
147.2336971438083
 20
135.9440804607761
 30
0.0
  0
SPLINE
  5
DC
330
1F
100
AcDbEntity
  8
0
  6
Continuous
 62
     7
370
    15
100
AcDbSpline
210
0.0
220
0.0
230
1.0
 70
     8
 71
     3
 72
    12
 73
     8
 74
     0
 42
0.00000001
 43
0.00000001
 12
1.0
 22
0.0
 32
0.0
 13
1.0
 23
0.0
 33
0.0
 40
0.0
 40
0.0
 40
0.0
 40
0.0
 40
0.1738258056412068
 40
0.5010563235800225
 40
0.8436283328218391
 40
0.9357345868758902
 40
0.9999999999999999
 40
0.9999999999999999
 40
0.9999999999999999
 40
0.9999999999999999
 10
146.4300587201045
 20
130.9440804607761
 30
0.0
 10
146.4077695950533
 20
130.8239967084105
 30
0.0
 10
146.3435207511444
 20
130.4778529165834
 30
0.0
 10
146.2378040928432
 20
130.0256980056892
 30
0.0
 10
146.1531728104671
 20
129.7294543513089
 30
0.0
 10
146.0985594112348
 20
129.5865564925654
 30
0.0
 10
146.0905666139147
 20
129.5619145223505
 30
0.0
 10
146.0872817450439
 20
129.5517871992579
 30
0.0
  0
SPLINE
  5
DD
330
1F
100
AcDbEntity
  8
0
  6
Continuous
 62
     7
370
    15
100
AcDbSpline
210
0.0
220
0.0
230
1.0
 70
     8
 71
     3
 72
    15
 73
    11
 74
     0
 42
0.00000001
 43
0.00000001
 12
1.0
 22
0.0
 32
0.0
 13
1.0
 23
0.0
 33
0.0
 40
0.0
 40
0.0
 40
0.0
 40
0.0
 40
0.1086600880922851
 40
0.2049757171219109
 40
0.2890153116176984
 40
0.3940154657943378
 40
0.4895759635122753
 40
0.6775995040652903
 40
0.8621455730412544
 40
1.0
 40
1.0
 40
1.0
 40
1.0
 10
144.0895455168333
 20
137.9419105964283
 30
0.0
 10
144.0338726438469
 20
137.9340708141231
 30
0.0
 10
143.9288516810908
 20
137.9192818973434
 30
0.0
 10
143.8050301664617
 20
137.8184286226352
 30
0.0
 10
143.7049040683398
 20
137.6865660598697
 30
0.0
 10
143.631901748042
 20
137.5378358462203
 30
0.0
 10
143.5431634269102
 20
137.3042530671381
 30
0.0
 10
143.4393298167694
 20
136.9407821814592
 30
0.0
 10
143.3312206154499
 20
136.4658802178948
 30
0.0
 10
143.2634092421847
 20
136.1003686457076
 30
0.0
 10
143.2344139455874
 20
135.9440804607761
 30
0.0
  0
SPLINE
  5
DE
330
1F
100
AcDbEntity
  8
0
  6
Continuous
 62
     7
370
    15
100
AcDbSpline
210
0.0
220
0.0
230
1.0
 70
     8
 71
     3
 72
    11
 73
     7
 74
     0
 42
0.00000001
 43
0.00000001
 12
1.0
 22
0.0
 32
0.0
 13
1.0
 23
0.0
 33
0.0
 40
0.0
 40
0.0
 40
0.0
 40
0.0
 40
0.3077769121116755
 40
0.6261060629299976
 40
0.9394620793307178
 40
0.9999999999999999
 40
0.9999999999999999
 40
0.9999999999999999
 40
0.9999999999999999
 10
142.4313081846672
 20
130.9440804607761
 30
0.0
 10
142.393276633367
 20
130.7473905762906
 30
0.0
 10
142.3159096057746
 20
130.347267226074
 30
0.0
 10
142.2017779236908
 20
129.8927121598914
 30
0.0
 10
142.1202244444197
 20
129.6434022743669
 30
0.0
 10
142.0886963370595
 20
129.570777807052
 30
0.0
 10
142.0835915576743
 20
129.5590190332259
 30
0.0
  0
SPLINE
  5
DF
330
1F
100
AcDbEntity
  8
0
  6
Continuous
 62
     7
370
    15
100
AcDbSpline
210
0.0
220
0.0
230
1.0
 70
     8
 71
     3
 72
    17
 73
    13
 74
     0
 42
0.00000001
 43
0.00000001
 12
1.0
 22
0.0
 32
0.0
 13
1.0
 23
0.0
 33
0.0
 40
0.0
 40
0.0
 40
0.0
 40
0.0
 40
0.1520896886856486
 40
0.2737945164851395
 40
0.3655959201541762
 40
0.4294817834898126
 40
0.4849644618118081
 40
0.5396538311867106
 40
0.5935632648778989
 40
0.6467080814206051
 40
0.8517803814229257
 40
1.0
 40
1.0
 40
1.0
 40
1.0
 10
130.0766958403312
 20
128.9453814658412
 30
0.0
 10
130.1433330139435
 20
128.9570903320393
 30
0.0
 10
130.2632944188671
 20
128.9781688376698
 30
0.0
 10
130.4033873279185
 20
129.1248801099457
 30
0.0
 10
130.4942647465523
 20
129.2742920293433
 30
0.0
 10
130.5494642774209
 20
129.3986066104495
 30
0.0
 10
130.5912961034934
 20
129.5088259012309
 30
0.0
 10
130.6301774794347
 20
129.6236871443967
 30
0.0
 10
130.6674610094225
 20
129.7458891842342
 30
0.0
 10
130.7379618431729
 20
129.9994500193416
 30
0.0
 10
130.8262178760568
 20
130.3748870094018
 30
0.0
 10
130.9004834556566
 20
130.7758577380495
 30
0.0
 10
130.9316407375043
 20
130.9440804607761
 30
0.0
  0
SPLINE
  5
E0
330
1F
100
AcDbEntity
  8
0
  6
Continuous
 62
     7
370
    15
100
AcDbSpline
210
0.0
220
0.0
230
1.0
 70
     8
 71
     3
 72
    14
 73
    10
 74
     0
 42
0.00000001
 43
0.00000001
 12
1.0
 22
0.0
 32
0.0
 13
1.0
 23
0.0
 33
0.0
 40
0.0
 40
0.0
 40
0.0
 40
0.0
 40
0.0787062115571624
 40
0.2555959487473567
 40
0.4141610571332132
 40
0.5970220403749759
 40
0.7509892377860351
 40
0.9261166284212095
 40
1.0
 40
1.0
 40
1.0
 40
1.0
 10
131.734855406995
 20
135.9440804607761
 30
0.0
 10
131.7445085847007
 20
135.9964729568879
 30
0.0
 10
131.7758569759557
 20
136.1666159416156
 30
0.0
 10
131.8263981442107
 20
136.4112111923267
 30
0.0
 10
131.8893980985447
 20
136.6935075960866
 30
0.0
 10
131.9490914307469
 20
136.92932372394
 30
0.0
 10
132.010169296936
 20
137.1357917033207
 30
0.0
 10
132.054711978552
 20
137.263529991698
 30
0.0
 10
132.0769475374722
 20
137.313556188824
 30
0.0
 10
132.0835449955393
 20
137.3283993388874
 30
0.0
  0
SPLINE
  5
E1
330
1F
100
AcDbEntity
  8
0
  6
Continuous
 62
     7
370
    15
100
AcDbSpline
210
0.0
220
0.0
230
1.0
 70
     8
 71
     3
 72
    16
 73
    12
 74
     0
 42
0.00000001
 43
0.00000001
 12
1.0
 22
0.0
 32
0.0
 13
1.0
 23
0.0
 33
0.0
 40
0.0
 40
0.0
 40
0.0
 40
0.0
 40
0.1016862865189737
 40
0.2042497346191268
 40
0.3569347489250452
 40
0.4868608120724838
 40
0.5924916961090705
 40
0.70706805274746
 40
0.7970468042319284
 40
0.8978165945508783
 40
1.0
 40
1.0
 40
1.0
 40
1.0
 10
134.0769258454896
 20
128.9460434201271
 30
0.0
 10
134.1371440409317
 20
128.9554973781017
 30
0.0
 10
134.2580998832518
 20
128.9744868453498
 30
0.0
 10
134.4011219508518
 20
129.1064325863307
 30
0.0
 10
134.5036103069301
 20
129.2750374745534
 30
0.0
 10
134.5992506833446
 20
129.5167826306346
 30
0.0
 10
134.675948662945
 20
129.7669927923478
 30
0.0
 10
134.7420528502694
 20
130.0207890217221
 30
0.0
 10
134.8068384848171
 20
130.3035561502127
 30
0.0
 10
134.8687351459826
 20
130.5993906400363
 30
0.0
 10
134.9114780984595
 20
130.8286515690393
 30
0.0
 10
134.9329984318867
 20
130.9440804607761
 30
0.0
  0
SPLINE
  5
E2
330
1F
100
AcDbEntity
  8
0
  6
Continuous
 62
     7
370
    15
100
AcDbSpline
210
0.0
220
0.0
230
1.0
 70
     8
 71
     3
 72
    13
 73
     9
 74
     0
 42
0.00000001
 43
0.00000001
 12
1.0
 22
0.0
 32
0.0
 13
1.0
 23
0.0
 33
0.0
 40
0.0
 40
0.0
 40
0.0
 40
0.0
 40
0.1618105020818159
 40
0.4956074480453709
 40
0.6724386688502868
 40
0.8551778631179787
 40
0.951228730586494
 40
1.0
 40
1.0
 40
1.0
 40
1.0
 10
135.7360931692931
 20
135.9440804607761
 30
0.0
 10
135.7567236947631
 20
136.0555457602511
 30
0.0
 10
135.8199126840342
 20
136.3969514904583
 30
0.0
 10
135.9028426046697
 20
136.7554637681297
 30
0.0
 10
135.9843314457817
 20
137.0575228250023
 30
0.0
 10
136.0321065865727
 20
137.2095312342474
 30
0.0
 10
136.0692560225462
 20
137.30465778562
 30
0.0
 10
136.0770285809789
 20
137.3272448923372
 30
0.0
 10
136.0796461196337
 20
137.3348514771501
 30
0.0
  0
SPLINE
  5
E3
330
1F
100
AcDbEntity
  8
0
  6
Continuous
 62
     7
370
    15
100
AcDbSpline
210
0.0
220
0.0
230
1.0
 70
     8
 71
     3
 72
    15
 73
    11
 74
     0
 42
0.00000001
 43
0.00000001
 12
1.0
 22
0.0
 32
0.0
 13
1.0
 23
0.0
 33
0.0
 40
0.0
 40
0.0
 40
0.0
 40
0.0
 40
0.1082184963470812
 40
0.2036800903925658
 40
0.2864644589605779
 40
0.3888453672284412
 40
0.4817590108299771
 40
0.6659620327109509
 40
0.8485872447570388
 40
1.0
 40
1.0
 40
1.0
 40
1.0
 10
138.0767312341914
 20
128.9462657793611
 30
0.0
 10
138.1322803400833
 20
128.9540413987447
 30
0.0
 10
138.2368303688787
 20
128.9686760398861
 30
0.0
 10
138.3601567211554
 20
129.0686067197665
 30
0.0
 10
138.4592807181099
 20
129.198315552109
 30
0.0
 10
138.5310749991044
 20
129.3431929555987
 30
0.0
 10
138.6178990440239
 20
129.5688324317548
 30
0.0
 10
138.7200756209484
 20
129.9208161377753
 30
0.0
 10
138.8299512420213
 20
130.3980159580229
 30
0.0
 10
138.9002600264845
 20
130.7737621832154
 30
0.0
 10
138.9321295976586
 20
130.9440804607761
 30
0.0
  0
SPLINE
  5
E4
330
1F
100
AcDbEntity
  8
0
  6
Continuous
 62
     7
370
    15
100
AcDbSpline
210
0.0
220
0.0
230
1.0
 70
     8
 71
     3
 72
    11
 73
     7
 74
     0
 42
0.00000001
 43
0.00000001
 12
1.0
 22
0.0
 32
0.0
 13
1.0
 23
0.0
 33
0.0
 40
0.0
 40
0.0
 40
0.0
 40
0.0
 40
0.2697950278431408
 40
0.5882213483458018
 40
0.9019984455970659
 40
1.0
 40
1.0
 40
1.0
 40
1.0
 10
139.7356346302789
 20
135.9440804607761
 30
0.0
 10
139.768808937988
 20
136.1182497408716
 30
0.0
 10
139.8411373132255
 20
136.4979827907991
 30
0.0
 10
139.9507168033988
 20
136.945260389103
 30
0.0
 10
140.0362688148339
 20
137.2192281512935
 30
0.0
 10
140.0743803627598
 20
137.3083996317206
 30
0.0
 10
140.0834507478378
 20
137.329622061915
 30
0.0
  0
SPLINE
  5
E5
330
1F
100
AcDbEntity
  8
0
  6
Continuous
 62
     7
370
    15
100
AcDbSpline
210
0.0
220
0.0
230
1.0
 70
     8
 71
     3
 72
    20
 73
    16
 74
     0
 42
0.00000001
 43
0.00000001
 12
1.0
 22
0.0
 32
0.0
 13
1.0
 23
0.0
 33
0.0
 40
0.0
 40
0.0
 40
0.0
 40
0.0
 40
0.1047867982671996
 40
0.2026129698772481
 40
0.2935335755263049
 40
0.3775581202574849
 40
0.4787199590114507
 40
0.5673430788493236
 40
0.6433132953376264
 40
0.7065672079178088
 40
0.75705478614974
 40
0.8014695132914533
 40
0.8560483821424445
 40
0.9221607161494374
 40
1.0
 40
1.0
 40
1.0
 40
1.0
 10
141.1249769785875
 20
134.8044759611335
 30
0.0
 10
141.0961757537771
 20
134.9850041312564
 30
0.0
 10
141.040486470476
 20
135.3340686059802
 30
0.0
 10
140.9593892494041
 20
135.8045541224414
 30
0.0
 10
140.8837188028986
 20
136.210135275958
 30
0.0
 10
140.8067366463939
 20
136.5853084283848
 30
0.0
 10
140.729732904914
 20
136.9173532832261
 30
0.0
 10
140.6538711751222
 20
137.1956273797308
 30
0.0
 10
140.5875342983133
 20
137.3990140996264
 30
0.0
 10
140.530313266291
 20
137.5430992449119
 30
0.0
 10
140.4812287093171
 20
137.6443413637138
 30
0.0
 10
140.4285082611946
 20
137.7333456199052
 30
0.0
 10
140.3500988275815
 20
137.829506987595
 30
0.0
 10
140.2334248329172
 20
137.920581434394
 30
0.0
 10
140.1313120864204
 20
137.9344898396136
 30
0.0
 10
140.0760964300935
 20
137.9420105630199
 30
0.0
  0
SPLINE
  5
E6
330
1F
100
AcDbEntity
  8
0
  6
Continuous
 62
     7
370
    15
100
AcDbSpline
210
0.0
220
0.0
230
1.0
 70
     8
 71
     3
 72
    29
 73
    25
 74
     0
 42
0.00000001
 43
0.00000001
 12
1.0
 22
0.0
 32
0.0
 13
1.0
 23
0.0
 33
0.0
 40
0.0
 40
0.0
 40
0.0
 40
0.0
 40
0.0127680848785169
 40
0.0399473454523857
 40
0.0792395658855957
 40
0.1265737554789617
 40
0.1727619935258854
 40
0.217381667207283
 40
0.2603513225510866
 40
0.3016486977252317
 40
0.3413378025560277
 40
0.3796327671183544
 40
0.4165189838100265
 40
0.4859141673367889
 40
0.5497860046283233
 40
0.6115137559969721
 40
0.6727572332416082
 40
0.733844754237589
 40
0.7960984526801269
 40
0.8598229365075392
 40
0.8927796891546325
 40
0.9270128496013846
 40
0.9627570213230725
 40
1.0
 40
1.0
 40
1.0
 40
1.0
 10
138.158623580009
 20
129.4228105703063
 30
0.0
 10
138.156603047235
 20
129.4250203660467
 30
0.0
 10
138.1502814319348
 20
129.4319341259925
 30
0.0
 10
138.1080409043565
 20
129.4961440540668
 30
0.0
 10
138.0473004308498
 20
129.6369093701457
 30
0.0
 10
137.9684071812153
 20
129.8809083580326
 30
0.0
 10
137.8851221771302
 20
130.2070860141312
 30
0.0
 10
137.8021903116129
 20
130.5871571343296
 30
0.0
 10
137.7210897782266
 20
131.0067033635099
 30
0.0
 10
137.6423496080702
 20
131.4536624306503
 30
0.0
 10
137.566307018846
 20
131.9149953176915
 30
0.0
 10
137.4931265237719
 20
132.3799379549843
 30
0.0
 10
137.4010004241138
 20
132.9827931298289
 30
0.0
 10
137.2921209981146
 20
133.7121288199309
 30
0.0
 10
137.1676060060615
 20
134.5365705433821
 30
0.0
 10
137.0483859892583
 20
135.2897770071191
 30
0.0
 10
136.9304530201791
 20
135.9735269140336
 30
0.0
 10
136.8122297273202
 20
136.5735186373597
 30
0.0
 10
136.688525649346
 20
137.0892672421343
 30
0.0
 10
136.5821238718857
 20
137.4260479035501
 30
0.0
 10
136.4793528029454
 20
137.6533523239127
 30
0.0
 10
136.3778301382306
 20
137.8016582337966
 30
0.0
 10
136.2459324719557
 20
137.9173041961368
 30
0.0
 10
136.1336125782685
 20
137.9336071880881
 30
0.0
 10
136.0762993747425
 20
137.9419260768007
 30
0.0
  0
LWPOLYLINE
  5
E7
330
1F
100
AcDbEntity
  8
0
  6
Continuous
 62
     7
370
    15
100
AcDbPolyline
 90
       30
 70
   128
 43
0.0
 10
134.1248194359
 20
129.4490503514
 10
134.1113675304
 20
129.4935099931
 10
134.0660054554
 20
129.5981989471
 10
134.0179630946
 20
129.7329873214
 10
133.9583752356
 20
129.9312580778
 10
133.9026735707
 20
130.1455001029
 10
133.8358139683
 20
130.4369133879
 10
133.7776076196
 20
130.7183163558
 10
133.7124961395
 20
131.060638479
 10
133.6404838523
 20
131.4693691406
 10
133.5615750435
 20
131.9475308221
 10
133.4824748485
 20
132.4507537934
 10
133.4100094534
 20
132.9258160116
 10
133.3442152452
 20
133.3633580936
 10
133.2851246547
 20
133.7573849598
 10
133.2168138628
 20
134.2096030201
 10
133.1605279599
 20
134.5762256765
 10
133.1084828427
 20
134.907876987
 10
133.0223796127
 20
135.4351802039
 10
132.9264908834
 20
135.980748344
 10
132.8568329029
 20
136.3423259698
 10
132.776980623
 20
136.7139543026
 10
132.6828482948
 20
137.0868411984
 10
132.6009594417
 20
137.3509350062
 10
132.5073379149
 20
137.5847063704
 10
132.4498025955
 20
137.6922402679
 10
132.3645917028
 20
137.8054391872
 10
132.2419563486
 20
137.9014574097
 10
132.0775850472
 20
137.9424265895
 10
132.0775850472
 20
137.9424265895
  0
SPLINE
  5
E8
330
1F
100
AcDbEntity
  8
0
  6
Continuous
 62
     7
370
    15
100
AcDbSpline
210
0.0
220
0.0
230
1.0
 70
     8
 71
     3
 72
    27
 73
    23
 74
     0
 42
0.00000001
 43
0.00000001
 12
1.0
 22
0.0
 32
0.0
 13
1.0
 23
0.0
 33
0.0
 40
0.0
 40
0.0
 40
0.0
 40
0.0
 40
0.0409514521841277
 40
0.0855951713743045
 40
0.12707032286977
 40
0.1744453659176303
 40
0.2321050557792307
 40
0.3000874750805799
 40
0.3782744813870667
 40
0.4303423044995102
 40
0.4774060671329414
 40
0.5194227995788779
 40
0.5563451292769088
 40
0.5881425643748488
 40
0.6154745858484971
 40
0.6501268244977286
 40
0.6964507014194077
 40
0.7545362421327702
 40
0.8058781601460853
 40
0.863870977207579
 40
0.9285327806749337
 40
0.9999999999999999
 40
0.9999999999999999
 40
0.9999999999999999
 40
0.9999999999999999
 10
130.1394316180009
 20
129.4395534623995
 30
0.0
 10
130.1369501206066
 20
129.4459295291481
 30
0.0
 10
130.1317633889184
 20
129.4592565419139
 30
0.0
 10
130.0821997539088
 20
129.5554094106123
 30
0.0
 10
130.0197199374753
 20
129.7206770535013
 30
0.0
 10
129.9452972813929
 20
129.9679240197803
 30
0.0
 10
129.8565661587108
 20
130.3296672501202
 30
0.0
 10
129.7505419288152
 20
130.8431529258669
 30
0.0
 10
129.6466259541928
 20
131.4245773015614
 30
0.0
 10
129.5536176896811
 20
131.9931620456911
 30
0.0
 10
129.4795949693214
 20
132.4671082462764
 30
0.0
 10
129.413518201755
 20
132.9015489903932
 30
0.0
 10
129.3554252915035
 20
133.2883986624784
 30
0.0
 10
129.3050048095025
 20
133.6252325090716
 30
0.0
 10
129.255762157438
 20
133.9532143504165
 30
0.0
 10
129.1988377608383
 20
134.329161205323
 30
0.0
 10
129.1256846943149
 20
134.8027639008844
 30
0.0
 10
129.043674815666
 20
135.3125831089351
 30
0.0
 10
128.9554455763539
 20
135.8275794361933
 30
0.0
 10
128.8634957591989
 20
136.3184547230503
 30
0.0
 10
128.7605564787643
 20
136.8055149633213
 30
0.0
 10
128.6882086267339
 20
137.0660227766862
 30
0.0
 10
128.650226279526
 20
137.202788388102
 30
0.0
  0
SPLINE
  5
E9
330
1F
100
AcDbEntity
  8
0
  6
Continuous
 62
     7
370
    15
100
AcDbSpline
210
0.0
220
0.0
230
1.0
 70
     8
 71
     3
 72
    27
 73
    23
 74
     0
 42
0.00000001
 43
0.00000001
 12
1.0
 22
0.0
 32
0.0
 13
1.0
 23
0.0
 33
0.0
 40
0.0
 40
0.0
 40
0.0
 40
0.0
 40
0.0671052903066961
 40
0.1278588123318575
 40
0.1822853459699998
 40
0.2303034476497773
 40
0.2841898721786844
 40
0.3264318661988124
 40
0.3569912587413535
 40
0.3989995693090957
 40
0.4522260257131162
 40
0.4939810951744109
 40
0.5407360868046888
 40
0.5922167596902441
 40
0.6650139103741161
 40
0.7276438109729167
 40
0.7799779896490447
 40
0.8219816213287614
 40
0.8615988390127904
 40
0.9057312817363107
 40
0.9530315879339031
 40
1.0
 40
1.0
 40
1.0
 40
1.0
 10
128.1692413774755
 20
137.0873540735246
 30
0.0
 10
128.2067216179668
 20
136.9555945981928
 30
0.0
 10
128.278134453128
 20
136.7045471777526
 30
0.0
 10
128.3804350117962
 20
136.2224384173606
 30
0.0
 10
128.4720872789391
 20
135.7330340935479
 30
0.0
 10
128.5599863644678
 20
135.2190229981119
 30
0.0
 10
128.6412615087246
 20
134.7129673007257
 30
0.0
 10
128.7128363935326
 20
134.2492907095348
 30
0.0
 10
128.777758080257
 20
133.8206130038002
 30
0.0
 10
128.8488846753499
 20
133.3457802922115
 30
0.0
 10
128.9263359997796
 20
132.8287586102601
 30
0.0
 10
129.0064631270488
 20
132.3035871899257
 30
0.0
 10
129.0857405309657
 20
131.7998361560111
 30
0.0
 10
129.1827108247551
 20
131.2160230140991
 30
0.0
 10
129.2889934431764
 20
130.6350331908571
 30
0.0
 10
129.3961187866028
 20
130.1313152181292
 30
0.0
 10
129.4870619764311
 20
129.7740067750744
 30
0.0
 10
129.5652537369886
 20
129.5225450709177
 30
0.0
 10
129.6448744818186
 20
129.3170603812145
 30
0.0
 10
129.7442657338894
 20
129.1405544019836
 30
0.0
 10
129.8705876065657
 20
128.9909181490976
 30
0.0
 10
130.0170523407419
 20
128.9604940491854
 30
0.0
 10
130.0900268768833
 20
128.9453355566574
 30
0.0
  0
LWPOLYLINE
  5
EA
330
1F
100
AcDbEntity
  8
0
  6
Continuous
 62
     7
370
    15
100
AcDbPolyline
 90
       22
 70
   128
 43
0.0
 10
132.0434012233
 20
137.4388682068
 10
132.0552864742
 20
137.3948794004
 10
132.0995204025
 20
137.2908161255
 10
132.148978438
 20
137.1516211038
 10
132.2145329715
 20
136.9318397436
 10
132.2777200519
 20
136.6841159577
 10
132.3462034667
 20
136.3782143138
 10
132.4606243325
 20
135.7893120938
 10
132.5844873117
 20
135.0641848187
 10
132.704111495
 20
134.3045885393
 10
132.8183968113
 20
133.5491750056
 10
132.9303415994
 20
132.8041141289
 10
133.0498223337
 20
132.0292684695
 10
133.1777537703
 20
131.2537427642
 10
133.3132193624
 20
130.528042161
 10
133.4494548317
 20
129.9257969906
 10
133.5882850407
 20
129.4675217543
 10
133.6643589977
 20
129.2884095637
 10
133.7650433506
 20
129.1256513468
 10
133.9048089778
 20
128.9985100893
 10
134.0902395193
 20
128.9460295231
 10
134.0902395193
 20
128.9460295231
  0
SPLINE
  5
EB
330
1F
100
AcDbEntity
  8
0
  6
Continuous
 62
     7
370
    15
100
AcDbSpline
210
0.0
220
0.0
230
1.0
 70
     8
 71
     3
 72
    33
 73
    29
 74
     0
 42
0.00000001
 43
0.00000001
 12
1.0
 22
0.0
 32
0.0
 13
1.0
 23
0.0
 33
0.0
 40
0.0
 40
0.0
 40
0.0
 40
0.0
 40
0.0218396318458465
 40
0.0536699948732133
 40
0.0832980245473822
 40
0.1115896930923734
 40
0.1448267376750199
 40
0.1841230429986221
 40
0.2294716041678006
 40
0.2808839536281116
 40
0.3364219562641775
 40
0.3866074503379267
 40
0.4301442586724687
 40
0.4777709678294283
 40
0.5151618536218104
 40
0.5542369636499386
 40
0.5862154672488632
 40
0.620474934737918
 40
0.6570133913892285
 40
0.6941821514385966
 40
0.7649450360948744
 40
0.8311182186004974
 40
0.8725437829941937
 40
0.9072418373671843
 40
0.9330893635498835
 40
0.9501962641439691
 40
0.9700562371835136
 40
1.0
 40
1.0
 40
1.0
 40
1.0
 10
136.0300481338842
 20
137.4470886835959
 30
0.0
 10
136.0291642334387
 20
137.4455076810812
 30
0.0
 10
136.0269920845348
 20
137.4416224325815
 30
0.0
 10
136.0626714070315
 20
137.3794297976386
 30
0.0
 10
136.1063516610619
 20
137.275092322138
 30
0.0
 10
136.1617318669548
 20
137.1176060065036
 30
0.0
 10
136.2236383185675
 20
136.9052380121583
 30
0.0
 10
136.2976616212312
 20
136.6074096573599
 30
0.0
 10
136.3839346421385
 20
136.2043184436015
 30
0.0
 10
136.4812645066428
 20
135.684908635171
 30
0.0
 10
136.5819087409216
 20
135.0874820886972
 30
0.0
 10
136.6774943446981
 20
134.4806833345041
 30
0.0
 10
136.7681132532411
 20
133.8848245375329
 30
0.0
 10
136.85070755722
 20
133.3331113028401
 30
0.0
 10
136.9303327852118
 20
132.8029408513226
 30
0.0
 10
136.9999026873047
 20
132.3469542855784
 30
0.0
 10
137.0674662491971
 20
131.9161821056471
 30
0.0
 10
137.1334894462335
 20
131.5103653360416
 30
0.0
 10
137.2029563123848
 20
131.1052601694364
 30
0.0
 10
137.2961768967802
 20
130.5999942384891
 30
0.0
 10
137.4096748221545
 20
130.0631940269311
 30
0.0
 10
137.5293113736067
 20
129.6248424477411
 30
0.0
 10
137.6285757877736
 20
129.3556321513362
 30
0.0
 10
137.7047198685417
 20
129.2039096385455
 30
0.0
 10
137.7694307910131
 20
129.1113187918594
 30
0.0
 10
137.8357278201697
 20
129.0419616624075
 30
0.0
 10
137.9420499537354
 20
128.9648338333631
 30
0.0
 10
138.0345095553128
 20
128.9532481514575
 30
0.0
 10
138.0900995292807
 20
128.9462824308126
 30
0.0
  0
SPLINE
  5
EC
330
1F
100
AcDbEntity
  8
0
  6
Continuous
 62
     7
370
    15
100
AcDbSpline
210
0.0
220
0.0
230
1.0
 70
     8
 71
     3
 72
    18
 73
    14
 74
     0
 42
0.00000001
 43
0.00000001
 12
1.0
 22
0.0
 32
0.0
 13
1.0
 23
0.0
 33
0.0
 40
0.0
 40
0.0
 40
0.0
 40
0.0
 40
0.0687161136398216
 40
0.118053771616354
 40
0.1772890327657555
 40
0.2508727672357778
 40
0.3389530314493689
 40
0.441663850777895
 40
0.5590740347968173
 40
0.656808235865049
 40
0.7628102862657613
 40
0.8771600588129826
 40
1.0
 40
1.0
 40
1.0
 40
1.0
 10
140.0300374379067
 20
137.4450528057071
 30
0.0
 10
140.0284003346606
 20
137.4438155015517
 30
0.0
 10
140.0255878034728
 20
137.441689822225
 30
0.0
 10
140.0567077666346
 20
137.3897339427456
 30
0.0
 10
140.0904650793956
 20
137.3168455240564
 30
0.0
 10
140.1351476498816
 20
137.2011420415316
 30
0.0
 10
140.1905626087943
 20
137.0270919347558
 30
0.0
 10
140.2569918809073
 20
136.77975096227
 30
0.0
 10
140.3267321428104
 20
136.4768424434486
 30
0.0
 10
140.3979761288401
 20
136.1290012524146
 30
0.0
 10
140.4691319753361
 20
135.74836993702
 30
0.0
 10
140.5463409283179
 20
135.30257882187
 30
0.0
 10
140.5999062707168
 20
134.9689703763553
 30
0.0
 10
140.6276476234354
 20
134.7961954225796
 30
0.0
  0
SPLINE
  5
ED
330
1F
100
AcDbEntity
  8
0
  6
Continuous
 62
     7
370
    15
100
AcDbSpline
210
0.0
220
0.0
230
1.0
 70
     8
 71
     3
 72
    15
 73
    11
 74
     0
 42
0.00000001
 43
0.00000001
 12
1.0
 22
0.0
 32
0.0
 13
1.0
 23
0.0
 33
0.0
 40
0.0
 40
0.0
 40
0.0
 40
0.0
 40
0.1130332822323784
 40
0.2171420490692241
 40
0.3136470939287368
 40
0.4078796290179527
 40
0.5940793842770454
 40
0.7809165451579203
 40
0.9793565484683495
 40
1.0
 40
1.0
 40
1.0
 40
1.0
 10
140.0894188303221
 20
137.942002646342
 30
0.0
 10
140.0253447746987
 20
137.9314534255428
 30
0.0
 10
139.9022556149798
 20
137.911187895115
 30
0.0
 10
139.7762774015413
 20
137.7891847033124
 30
0.0
 10
139.6933764390122
 20
137.6639912641168
 30
0.0
 10
139.5975882577381
 20
137.4610327145131
 30
0.0
 10
139.4913495747667
 20
137.140492918406
 30
0.0
 10
139.3702981994915
 20
136.6427963451797
 30
0.0
 10
139.2841237562162
 20
136.2352385377899
 30
0.0
 10
139.2380717897713
 20
135.96915277219
 30
0.0
 10
139.2337324774397
 20
135.9440804607761
 30
0.0
  0
SPLINE
  5
EE
330
1F
100
AcDbEntity
  8
0
  6
Continuous
 62
     7
370
    15
100
AcDbSpline
210
0.0
220
0.0
230
1.0
 70
     8
 71
     3
 72
    12
 73
     8
 74
     0
 42
0.00000001
 43
0.00000001
 12
1.0
 22
0.0
 32
0.0
 13
1.0
 23
0.0
 33
0.0
 40
0.0
 40
0.0
 40
0.0
 40
0.0
 40
0.1761764389492121
 40
0.4913769480209689
 40
0.8027834058138652
 40
0.9567876730750843
 40
1.0
 40
1.0
 40
1.0
 40
1.0
 10
138.4301184797704
 20
130.9440804607761
 30
0.0
 10
138.408702991957
 20
130.8284751668216
 30
0.0
 10
138.348972660791
 20
130.5060383139866
 30
0.0
 10
138.2514888787429
 20
130.0825784666272
 30
0.0
 10
138.1635427819764
 20
129.7703942724215
 30
0.0
 10
138.1044469855813
 20
129.6068375849521
 30
0.0
 10
138.0874402606288
 20
129.5697249931881
 30
0.0
 10
138.0837138999663
 20
129.5615932157636
 30
0.0
  0
SPLINE
  5
EF
330
1F
100
AcDbEntity
  8
0
  6
Continuous
 62
     7
370
    15
100
AcDbSpline
210
0.0
220
0.0
230
1.0
 70
     8
 71
     3
 72
    17
 73
    13
 74
     0
 42
0.00000001
 43
0.00000001
 12
1.0
 22
0.0
 32
0.0
 13
1.0
 23
0.0
 33
0.0
 40
0.0
 40
0.0
 40
0.0
 40
0.0
 40
0.1502034976498839
 40
0.2707688398044121
 40
0.3621330655983341
 40
0.4263652643856085
 40
0.4823844257028104
 40
0.5375135119172866
 40
0.591773122303127
 40
0.6451810240133684
 40
0.8503685862971262
 40
1.0
 40
1.0
 40
1.0
 40
1.0
 10
136.0896653082445
 20
137.9419473724772
 30
0.0
 10
136.0234965722713
 20
137.9300149806834
 30
0.0
 10
135.904215515897
 20
137.9085046967509
 30
0.0
 10
135.7649530064466
 20
137.7658667105365
 30
0.0
 10
135.6742082186215
 20
137.6196901915684
 30
0.0
 10
135.6188795588363
 20
137.4965559732613
 30
0.0
 10
135.5766602584119
 20
137.3859444315038
 30
0.0
 10
135.5374147458633
 20
137.2701599334324
 30
0.0
 10
135.4998497633753
 20
137.1468945657022
 30
0.0
 10
135.4291351989831
 20
136.8919775905089
 30
0.0
 10
135.3405701333786
 20
136.5142110446993
 30
0.0
 10
135.2659172167735
 20
136.1131941080471
 30
0.0
 10
135.2344351873312
 20
135.9440804607761
 30
0.0
  0
SPLINE
  5
F0
330
1F
100
AcDbEntity
  8
0
  6
Continuous
 62
     7
370
    15
100
AcDbSpline
210
0.0
220
0.0
230
1.0
 70
     8
 71
     3
 72
    14
 73
    10
 74
     0
 42
0.00000001
 43
0.00000001
 12
1.0
 22
0.0
 32
0.0
 13
1.0
 23
0.0
 33
0.0
 40
0.0
 40
0.0
 40
0.0
 40
0.0
 40
0.0712185894233874
 40
0.2479503228065183
 40
0.4064422686354939
 40
0.5893879369363867
 40
0.7435360433623723
 40
0.9188507731536874
 40
1.0
 40
1.0
 40
1.0
 40
1.0
 10
134.4314957876063
 20
130.9440804607761
 30
0.0
 10
134.422757857599
 20
130.8964025966133
 30
0.0
 10
134.3923364102845
 20
130.7304102355512
 30
0.0
 10
134.3426523209764
 20
130.4895396505632
 30
0.0
 10
134.2796005097372
 20
130.2065219040008
 30
0.0
 10
134.2198610914435
 20
129.970179992502
 30
0.0
 10
134.158698143425
 20
129.7623284726401
 30
0.0
 10
134.1132490314789
 20
129.6302030130994
 30
0.0
 10
134.0899943961889
 20
129.5767354727433
 30
0.0
 10
134.0826362640789
 20
129.5598175025998
 30
0.0
  0
SPLINE
  5
F1
330
1F
100
AcDbEntity
  8
0
  6
Continuous
 62
     7
370
    15
100
AcDbSpline
210
0.0
220
0.0
230
1.0
 70
     8
 71
     3
 72
    17
 73
    13
 74
     0
 42
0.00000001
 43
0.00000001
 12
1.0
 22
0.0
 32
0.0
 13
1.0
 23
0.0
 33
0.0
 40
0.0
 40
0.0
 40
0.0
 40
0.0
 40
0.1000421577313079
 40
0.2016997681375291
 40
0.3049661124632276
 40
0.4000856491449719
 40
0.5088449578068941
 40
0.6002587771542048
 40
0.7029679060193795
 40
0.7927072803792432
 40
0.8932633254676845
 40
1.0
 40
1.0
 40
1.0
 40
1.0
 10
132.0909370854843
 20
137.9424262682115
 30
0.0
 10
132.0316092309031
 20
137.9332045467544
 30
0.0
 10
131.9119955122022
 20
137.914612194071
 30
0.0
 10
131.788893058122
 20
137.8026955782935
 30
0.0
 10
131.7020129624577
 20
137.679034583595
 30
0.0
 10
131.6221227616157
 20
137.5159235219798
 30
0.0
 10
131.5516327989315
 20
137.3246470645289
 30
0.0
 10
131.48555956895
 20
137.104383992532
 30
0.0
 10
131.4247380026757
 20
136.8696888795026
 30
0.0
 10
131.3624059725414
 20
136.5980594571392
 30
0.0
 10
131.2995089995684
 20
136.2978670763374
 30
0.0
 10
131.25574356253
 20
136.0643303722244
 30
0.0
 10
131.2332083899611
 20
135.9440804607761
 30
0.0
  0
SPLINE
  5
F2
330
1F
100
AcDbEntity
  8
0
  6
Continuous
 62
     7
370
    15
100
AcDbSpline
210
0.0
220
0.0
230
1.0
 70
     8
 71
     3
 72
    13
 73
     9
 74
     0
 42
0.00000001
 43
0.00000001
 12
1.0
 22
0.0
 32
0.0
 13
1.0
 23
0.0
 33
0.0
 40
0.0
 40
0.0
 40
0.0
 40
0.0
 40
0.1585095521114498
 40
0.4910084823474206
 40
0.666263180592542
 40
0.8468495807017793
 40
0.9416360784245547
 40
1.0
 40
1.0
 40
1.0
 40
1.0
 10
130.4300739842499
 20
130.9440804607761
 30
0.0
 10
130.4097968672644
 20
130.8339825491126
 30
0.0
 10
130.3469852808028
 20
130.4929368026867
 30
0.0
 10
130.2642506546484
 20
130.135778521336
 30
0.0
 10
130.1830983931522
 20
129.83587762208
 30
0.0
 10
130.1354799341941
 20
129.6844121158965
 30
0.0
 10
130.0979434784296
 20
129.5870613136335
 30
0.0
 10
130.0897663714458
 20
129.5624249963326
 30
0.0
 10
130.0866501669136
 20
129.553036369795
 30
0.0
  0
SPLINE
  5
F3
330
1F
100
AcDbEntity
  8
0
  6
Continuous
 62
     7
370
    15
100
AcDbSpline
210
0.0
220
0.0
230
1.0
 70
     8
 71
     3
 72
    34
 73
    30
 74
     0
 42
0.00000001
 43
0.00000001
 12
1.0
 22
0.0
 32
0.0
 13
1.0
 23
0.0
 33
0.0
 40
0.0
 40
0.0
 40
0.0
 40
0.0
 40
0.0210547239746061
 40
0.0544751899349263
 40
0.0844833830765193
 40
0.1183195725521599
 40
0.1480287555038205
 40
0.1832716076636272
 40
0.2138279708309855
 40
0.2479392635475609
 40
0.2856108444352302
 40
0.3268284068633042
 40
0.3680900653632334
 40
0.4058742054072484
 40
0.4401939066446409
 40
0.4710298830762668
 40
0.50667265401896
 40
0.5360335163460012
 40
0.5635399377524127
 40
0.6103508498123024
 40
0.6639374783861938
 40
0.7243617160487521
 40
0.7916996082125941
 40
0.8281439691374408
 40
0.8665384112434138
 40
0.8884166746053199
 40
0.9176641996823155
 40
0.954833543305815
 40
1.0
 40
1.0
 40
1.0
 40
1.0
 10
116.0236284060133
 20
137.4523923969589
 30
0.0
 10
116.0223327554374
 20
137.451866514193
 30
0.0
 10
116.0189805000814
 20
137.4505058901549
 30
0.0
 10
116.0641389304226
 20
137.3768576938538
 30
0.0
 10
116.1111756759501
 20
137.2615041473076
 30
0.0
 10
116.1655634599225
 20
137.1054524213727
 30
0.0
 10
116.2273426364395
 20
136.8915195860106
 30
0.0
 10
116.2875838758218
 20
136.6489593216631
 30
0.0
 10
116.3510996222734
 20
136.3596191205675
 30
0.0
 10
116.4163809703664
 20
136.0320366807593
 30
0.0
 10
116.4886523510191
 20
135.6369170572666
 30
0.0
 10
116.5656810878068
 20
135.1837790587859
 30
0.0
 10
116.6429189932445
 20
134.7026675880215
 30
0.0
 10
116.7157714270741
 20
134.2307784407639
 30
0.0
 10
116.7818965298432
 20
133.792978202636
 30
0.0
 10
116.8466155593676
 20
133.3606575261288
 30
0.0
 10
116.9081719854614
 20
132.9496505715641
 30
0.0
 10
116.9675960682468
 20
132.5573301663907
 30
0.0
 10
117.0342265632017
 20
132.1251998405517
 30
0.0
 10
117.1166098979621
 20
131.608901969741
 30
0.0
 10
117.2203405015776
 20
131.0030536396266
 30
0.0
 10
117.3371490763477
 20
130.3930072108063
 30
0.0
 10
117.4465476724808
 20
129.9194549030982
 30
0.0
 10
117.5467321518503
 20
129.5822068749087
 30
0.0
 10
117.6170592569818
 20
129.3930990828043
 30
0.0
 10
117.6883490422491
 20
129.2422366878643
 30
0.0
 10
117.7781552389613
 20
129.1052297021388
 30
0.0
 10
117.9124365263326
 20
128.9747878195213
 30
0.0
 10
118.0275468454847
 20
128.9551801776149
 30
0.0
 10
118.0906922236189
 20
128.9444241309667
 30
0.0
  0
SPLINE
  5
F4
330
1F
100
AcDbEntity
  8
0
  6
Continuous
 62
     7
370
    15
100
AcDbSpline
210
0.0
220
0.0
230
1.0
 70
     8
 71
     3
 72
    33
 73
    29
 74
     0
 42
0.00000001
 43
0.00000001
 12
1.0
 22
0.0
 32
0.0
 13
1.0
 23
0.0
 33
0.0
 40
0.0
 40
0.0
 40
0.0
 40
0.0
 40
0.006401099827329
 40
0.0545993543276411
 40
0.0875167643051215
 40
0.123407321782979
 40
0.1655303541139487
 40
0.2012430893453941
 40
0.2405119322187846
 40
0.2833663939253721
 40
0.3282628822897816
 40
0.3694370910726412
 40
0.4063201561811843
 40
0.438918668058223
 40
0.4672270383902803
 40
0.4987594967288972
 40
0.5316792041222158
 40
0.5690643393184457
 40
0.600043460314621
 40
0.6335540490656381
 40
0.6696248421553967
 40
0.7063798192306945
 40
0.7774314889873472
 40
0.8453871272832636
 40
0.8786853297975133
 40
0.9149322526851544
 40
0.9553181904498795
 40
1.0
 40
1.0
 40
1.0
 40
1.0
 10
120.0228967199592
 20
137.4546787355948
 30
0.0
 10
120.0216166033903
 20
137.454994855768
 30
0.0
 10
120.0106976144638
 20
137.4576912607315
 30
0.0
 10
120.0570961950257
 20
137.3956247972861
 30
0.0
 10
120.1167620122117
 20
137.2476163936353
 30
0.0
 10
120.1853548834511
 20
137.0440556880825
 30
0.0
 10
120.2553370084952
 20
136.784544852069
 30
0.0
 10
120.3292187985537
 20
136.4652137456537
 30
0.0
 10
120.4040174268076
 20
136.0987536584723
 30
0.0
 10
120.4850651811507
 20
135.658801104921
 30
0.0
 10
120.5675459430326
 20
135.1725537397937
 30
0.0
 10
120.6462867723076
 20
134.6805806387635
 30
0.0
 10
120.7172608998502
 20
134.2206604419411
 30
0.0
 10
120.7800015393302
 20
133.8055493510778
 30
0.0
 10
120.839281573235
 20
133.4099219473492
 30
0.0
 10
120.898750453415
 20
133.0127494616953
 30
0.0
 10
120.9640297279161
 20
132.5804979828318
 30
0.0
 10
121.0290329451891
 20
132.1587673772831
 30
0.0
 10
121.0944811897817
 20
131.747761879091
 30
0.0
 10
121.1591849037001
 20
131.3582495615765
 30
0.0
 10
121.2275875974115
 20
130.9695339292494
 30
0.0
 10
121.3204373025017
 20
130.4803833890213
 30
0.0
 10
121.435090086434
 20
129.9547690144443
 30
0.0
 10
121.5531763394534
 20
129.5520317369807
 30
0.0
 10
121.649264614209
 20
129.3105968804816
 30
0.0
 10
121.7468754603625
 20
129.1369055384287
 30
0.0
 10
121.8890822960273
 20
128.9827539438214
 30
0.0
 10
122.0210501135723
 20
128.9581206760735
 30
0.0
 10
122.0903661713781
 20
128.9451820593491
 30
0.0
  0
SPLINE
  5
F5
330
1F
100
AcDbEntity
  8
0
  6
Continuous
 62
     7
370
    15
100
AcDbSpline
210
0.0
220
0.0
230
1.0
 70
     8
 71
     3
 72
    27
 73
    23
 74
     0
 42
0.00000001
 43
0.00000001
 12
1.0
 22
0.0
 32
0.0
 13
1.0
 23
0.0
 33
0.0
 40
0.0
 40
0.0
 40
0.0
 40
0.0
 40
0.0290659099002909
 40
0.0598148882546685
 40
0.0898051161672517
 40
0.1492200868241887
 40
0.2089636027986468
 40
0.2725481328823549
 40
0.3402473412448823
 40
0.4105181238548875
 40
0.4777159443989984
 40
0.5413453167117924
 40
0.6015050529493375
 40
0.6617442334604122
 40
0.7235303384524618
 40
0.7864244505172805
 40
0.8478848182982942
 40
0.8780402553596074
 40
0.9101957613176354
 40
0.9361132629656634
 40
0.9660404538085248
 40
0.9999999999999999
 40
0.9999999999999999
 40
0.9999999999999999
 40
0.9999999999999999
 10
124.0331905149996
 20
137.4438901160982
 30
0.0
 10
124.0325052598378
 20
137.4405335024264
 30
0.0
 10
124.0310950696505
 20
137.4336259095665
 30
0.0
 10
124.0806265943551
 20
137.3413428315282
 30
0.0
 10
124.143586838799
 20
137.1759470678668
 30
0.0
 10
124.2342527969887
 20
136.8772328782227
 30
0.0
 10
124.349605616028
 20
136.3798377303247
 30
0.0
 10
124.4709135122042
 20
135.7474734520676
 30
0.0
 10
124.5994067505537
 20
134.9831742108794
 30
0.0
 10
124.7305535277601
 20
134.1367791751355
 30
0.0
 10
124.859204783484
 20
133.2761457214314
 30
0.0
 10
124.9811841227752
 20
132.4648449924486
 30
0.0
 10
125.0987248404908
 20
131.7150180345637
 30
0.0
 10
125.2154511919713
 20
131.027100106155
 30
0.0
 10
125.3344886614242
 20
130.4079836719959
 30
0.0
 10
125.4545209837169
 20
129.884568178501
 30
0.0
 10
125.5590895241498
 20
129.5343460412274
 30
0.0
 10
125.6473451591339
 20
129.3164715765025
 30
0.0
 10
125.7169155059962
 20
129.1831008650998
 30
0.0
 10
125.8131686437364
 20
129.0618076661067
 30
0.0
 10
125.933382085593
 20
128.9673453980737
 30
0.0
 10
126.0358904651603
 20
128.9533605439488
 30
0.0
 10
126.090379678611
 20
128.9459267740979
 30
0.0
  0
SPLINE
  5
F6
330
1F
100
AcDbEntity
  8
0
  6
Continuous
 62
     7
370
    15
100
AcDbSpline
210
0.0
220
0.0
230
1.0
 70
     8
 71
     3
 72
    11
 73
     7
 74
     0
 42
0.00000001
 43
0.00000001
 12
1.0
 22
0.0
 32
0.0
 13
1.0
 23
0.0
 33
0.0
 40
0.0
 40
0.0
 40
0.0
 40
0.0
 40
0.1860991514189529
 40
0.416625398927383
 40
0.6872615058055243
 40
0.9999999999999999
 40
0.9999999999999999
 40
0.9999999999999999
 40
0.9999999999999999
 10
128.0605370596016
 20
137.4344119432941
 30
0.0
 10
128.0593764604793
 20
137.4307398905108
 30
0.0
 10
128.0567781946162
 20
137.4225191627748
 30
0.0
 10
128.0772185530543
 20
137.3672009836391
 30
0.0
 10
128.1117968942247
 20
137.2671048201011
 30
0.0
 10
128.1492508413173
 20
137.1502519341641
 30
0.0
 10
128.1693293483243
 20
137.0876088305339
 30
0.0
  0
SPLINE
  5
F7
330
1F
100
AcDbEntity
  8
0
  6
Continuous
 62
     7
370
    15
100
AcDbSpline
210
0.0
220
0.0
230
1.0
 70
     8
 71
     3
 72
    15
 73
    11
 74
     0
 42
0.00000001
 43
0.00000001
 12
1.0
 22
0.0
 32
0.0
 13
1.0
 23
0.0
 33
0.0
 40
0.0
 40
0.0
 40
0.0
 40
0.0
 40
0.1042580669825876
 40
0.1973774515655598
 40
0.2794144782197815
 40
0.3835879678546825
 40
0.4792429462600965
 40
0.6673624821121183
 40
0.8519334969189574
 40
1.0
 40
1.0
 40
1.0
 40
1.0
 10
128.0896852010995
 20
137.9419078352792
 30
0.0
 10
128.0348619162699
 20
137.9343073203387
 30
0.0
 10
127.9310725351766
 20
137.9199183112869
 30
0.0
 10
127.8093527629565
 20
137.8229495054388
 30
0.0
 10
127.7104773527358
 20
137.6958365655258
 30
0.0
 10
127.6383405899339
 20
137.5526650146286
 30
0.0
 10
127.5497615536323
 20
137.325153422361
 30
0.0
 10
127.4457688563849
 20
136.966793909327
 30
0.0
 10
127.3353673529543
 20
136.4858802602873
 30
0.0
 10
127.2653640106188
 20
136.1109656919875
 30
0.0
 10
127.2342035144444
 20
135.9440804607761
 30
0.0
  0
SPLINE
  5
F8
330
1F
100
AcDbEntity
  8
0
  6
Continuous
 62
     7
370
    15
100
AcDbSpline
210
0.0
220
0.0
230
1.0
 70
     8
 71
     3
 72
    11
 73
     7
 74
     0
 42
0.00000001
 43
0.00000001
 12
1.0
 22
0.0
 32
0.0
 13
1.0
 23
0.0
 33
0.0
 40
0.0
 40
0.0
 40
0.0
 40
0.0
 40
0.2906819117281023
 40
0.6094733737426135
 40
0.9235124150977541
 40
1.0
 40
1.0
 40
1.0
 40
1.0
 10
126.4309037799976
 20
130.9440804607761
 30
0.0
 10
126.3950219067769
 20
130.7570523325416
 30
0.0
 10
126.3197883079678
 20
130.364910063963
 30
0.0
 10
126.207410542854
 20
129.9131642171112
 30
0.0
 10
126.124034728424
 20
129.6536477105913
 30
0.0
 10
126.0897343757061
 20
129.5742145459745
 30
0.0
 10
126.0830163929508
 20
129.5586569616405
 30
0.0
  0
SPLINE
  5
F9
330
1F
100
AcDbEntity
  8
0
  6
Continuous
 62
     7
370
    15
100
AcDbSpline
210
0.0
220
0.0
230
1.0
 70
     8
 71
     3
 72
    15
 73
    11
 74
     0
 42
0.00000001
 43
0.00000001
 12
1.0
 22
0.0
 32
0.0
 13
1.0
 23
0.0
 33
0.0
 40
0.0
 40
0.0
 40
0.0
 40
0.0
 40
0.1136328850567503
 40
0.2183137698589497
 40
0.3152534737021666
 40
0.4098063504792823
 40
0.5964357138819699
 40
0.7838303132643304
 40
0.983087495994011
 40
1.0
 40
1.0
 40
1.0
 40
1.0
 10
124.0910311132523
 20
137.9425646022392
 30
0.0
 10
124.0269813124092
 20
137.9319481841935
 30
0.0
 10
123.9039275549182
 20
137.9115517096624
 30
0.0
 10
123.777480369477
 20
137.7890347481451
 30
0.0
 10
123.6938831326007
 20
137.6633703189397
 30
0.0
 10
123.5974450764546
 20
137.4613544951689
 30
0.0
 10
123.4904459099721
 20
137.139580308988
 30
0.0
 10
123.3686424624944
 20
136.6349032156002
 30
0.0
 10
123.2829190738812
 20
136.2278861596912
 30
0.0
 10
123.2373328483379
 20
135.9646734756459
 30
0.0
 10
123.233766311171
 20
135.9440804607761
 30
0.0
  0
SPLINE
  5
FA
330
1F
100
AcDbEntity
  8
0
  6
Continuous
 62
     7
370
    15
100
AcDbSpline
210
0.0
220
0.0
230
1.0
 70
     8
 71
     3
 72
    12
 73
     8
 74
     0
 42
0.00000001
 43
0.00000001
 12
1.0
 22
0.0
 32
0.0
 13
1.0
 23
0.0
 33
0.0
 40
0.0
 40
0.0
 40
0.0
 40
0.0
 40
0.1971575906019179
 40
0.5127550422972753
 40
0.8191721071037601
 40
0.9686203608859578
 40
1.0
 40
1.0
 40
1.0
 40
1.0
 10
122.4301583726778
 20
130.9440804607761
 30
0.0
 10
122.4062618947163
 20
130.8155315408623
 30
0.0
 10
122.3441134401197
 20
130.4812096074972
 30
0.0
 10
122.2446421739168
 20
130.0545320202905
 30
0.0
 10
122.1582893846031
 20
129.7554355052677
 30
0.0
 10
122.1016155112776
 20
129.6016065116128
 30
0.0
 10
122.0861642134963
 20
129.5677887340795
 30
0.0
 10
122.083482900672
 20
129.561920227636
 30
0.0
  0
SPLINE
  5
FB
330
1F
100
AcDbEntity
  8
0
  6
Continuous
 62
     7
370
    15
100
AcDbSpline
210
0.0
220
0.0
230
1.0
 70
     8
 71
     3
 72
    15
 73
    11
 74
     0
 42
0.00000001
 43
0.00000001
 12
1.0
 22
0.0
 32
0.0
 13
1.0
 23
0.0
 33
0.0
 40
0.0
 40
0.0
 40
0.0
 40
0.0
 40
0.1062329159638194
 40
0.1969796309180725
 40
0.2722367438847716
 40
0.343171933871159
 40
0.4624708644614616
 40
0.6368272767165566
 40
0.8646624154093859
 40
1.0
 40
1.0
 40
1.0
 40
1.0
 10
120.0895717036901
 20
137.9433964731894
 30
0.0
 10
120.0524233088616
 20
137.9401305355437
 30
0.0
 10
119.9835418606202
 20
137.9340747553155
 30
0.0
 10
119.8988461775318
 20
137.8917566199769
 30
0.0
 10
119.8342013581321
 20
137.8431089331033
 30
0.0
 10
119.7783871468967
 20
137.785599673872
 30
0.0
 10
119.723372076316
 20
137.7113430717987
 30
0.0
 10
119.6496217069273
 20
137.5758922282843
 30
0.0
 10
119.5794913400135
 20
137.4076210848795
 30
0.0
 10
119.5336121469964
 20
137.2520533287823
 30
0.0
 10
119.5165151053746
 20
137.1940804607761
 30
0.0
  0
SPLINE
  5
FC
330
1F
100
AcDbEntity
  8
0
  6
Continuous
 62
     7
370
    15
100
AcDbSpline
210
0.0
220
0.0
230
1.0
 70
     8
 71
     3
 72
     9
 73
     5
 74
     0
 42
0.00000001
 43
0.00000001
 12
1.0
 22
0.0
 32
0.0
 13
1.0
 23
0.0
 33
0.0
 40
0.0
 40
0.0
 40
0.0
 40
0.0
 40
0.5731709970706422
 40
1.0
 40
1.0
 40
1.0
 40
1.0
 10
118.1333007394314
 20
129.6940804607761
 30
0.0
 10
118.1216965134467
 20
129.6601040355086
 30
0.0
 10
118.1014508519527
 20
129.6008260444008
 30
0.0
 10
118.0886120563321
 20
129.5723102861196
 30
0.0
 10
118.0831320859985
 20
129.5601389334446
 30
0.0
  0
SPLINE
  5
FD
330
1F
100
AcDbEntity
  8
0
  6
Continuous
 62
     7
370
    15
100
AcDbSpline
210
0.0
220
0.0
230
1.0
 70
     8
 71
     3
 72
    21
 73
    17
 74
     0
 42
0.00000001
 43
0.00000001
 12
1.0
 22
0.0
 32
0.0
 13
1.0
 23
0.0
 33
0.0
 40
0.0
 40
0.0
 40
0.0
 40
0.0
 40
0.0507505738878523
 40
0.0871003737159517
 40
0.1005475974243071
 40
0.111574596281135
 40
0.1165326182550593
 40
0.1213499418697317
 40
0.1313262762928258
 40
0.1430001170498495
 40
0.1573035320785396
 40
0.2198609777736832
 40
0.3152590455820508
 40
0.568882638883618
 40
0.9310011904473846
 40
1.0
 40
1.0
 40
1.0
 40
1.0
 10
116.0843238420629
 20
137.9439163146372
 30
0.0
 10
116.0782878531504
 20
137.9438902133056
 30
0.0
 10
116.0679286227073
 20
137.9438454170488
 30
0.0
 10
116.0494318092726
 20
137.9397204834167
 30
0.0
 10
116.0331415630067
 20
137.9346531640647
 30
0.0
 10
116.0230845147926
 20
137.9311326418214
 30
0.0
 10
116.0150422315798
 20
137.9281341760113
 30
0.0
 10
116.0070962939846
 20
137.9250773054289
 30
0.0
 10
115.9965142858954
 20
137.9208371100783
 30
0.0
 10
115.9843814339724
 20
137.9157837660291
 30
0.0
 10
115.9599191440653
 20
137.9052904357087
 30
0.0
 10
115.9290499572839
 20
137.8910906253269
 30
0.0
 10
115.8751323262373
 20
137.8636936816771
 30
0.0
 10
115.8102516887247
 20
137.8155153048694
 30
0.0
 10
115.7564202961254
 20
137.7643686787174
 30
0.0
 10
115.7267411251487
 20
137.7080218892014
 30
0.0
 10
115.7219910787562
 20
137.6990037847376
 30
0.0
  0
SPLINE
  5
FE
330
1F
100
AcDbEntity
  8
0
  6
Continuous
 62
     7
370
    15
100
AcDbSpline
210
0.0
220
0.0
230
1.0
 70
     8
 71
     3
 72
    12
 73
     8
 74
     0
 42
0.00000001
 43
0.00000001
 12
1.0
 22
0.0
 32
0.0
 13
1.0
 23
0.0
 33
0.0
 40
0.0
 40
0.0
 40
0.0
 40
0.0
 40
0.2295428015719258
 40
0.4387013131435529
 40
0.7165059759416202
 40
0.9483467155369185
 40
1.0
 40
1.0
 40
1.0
 40
1.0
 10
118.0774295203129
 20
128.9444267471852
 30
0.0
 10
118.1464978860083
 20
128.9571067697024
 30
0.0
 10
118.278501078963
 20
128.9813407796163
 30
0.0
 10
118.4327530293107
 20
129.1491738172776
 30
0.0
 10
118.5348380333362
 20
129.3491400882722
 30
0.0
 10
118.6108318033344
 20
129.5504260494304
 30
0.0
 10
118.6453795133481
 20
129.6719402794739
 30
0.0
 10
118.6516741881612
 20
129.6940804607761
 30
0.0
  0
SPLINE
  5
FF
330
1F
100
AcDbEntity
  8
0
  6
Continuous
 62
     7
370
    15
100
AcDbSpline
210
0.0
220
0.0
230
1.0
 70
     8
 71
     3
 72
     9
 73
     5
 74
     0
 42
0.00000001
 43
0.00000001
 12
1.0
 22
0.0
 32
0.0
 13
1.0
 23
0.0
 33
0.0
 40
0.0
 40
0.0
 40
0.0
 40
0.0
 40
0.5028368532695991
 40
1.0
 40
1.0
 40
1.0
 40
1.0
 10
120.0308417612007
 20
137.1940804607761
 30
0.0
 10
120.0397977919152
 20
137.2217034762584
 30
0.0
 10
120.0576087989174
 20
137.2766378258445
 30
0.0
 10
120.0730857336246
 20
137.312155926542
 30
0.0
 10
120.0807802951853
 20
137.3298142172507
 30
0.0
  0
SPLINE
  5
100
330
1F
100
AcDbEntity
  8
0
  6
Continuous
 62
     7
370
    15
100
AcDbSpline
210
0.0
220
0.0
230
1.0
 70
     8
 71
     3
 72
    15
 73
    11
 74
     0
 42
0.00000001
 43
0.00000001
 12
1.0
 22
0.0
 32
0.0
 13
1.0
 23
0.0
 33
0.0
 40
0.0
 40
0.0
 40
0.0
 40
0.0
 40
0.1064217075869842
 40
0.2024345958124988
 40
0.2881178375655641
 40
0.3987737855731126
 40
0.4991929740555694
 40
0.691738449085255
 40
0.8740646948504691
 40
1.0
 40
1.0
 40
1.0
 40
1.0
 10
122.0764817481373
 20
128.9452331904172
 30
0.0
 10
122.1310002349376
 20
128.9524088189962
 30
0.0
 10
122.2347049028102
 20
128.966058247332
 30
0.0
 10
122.3579123692887
 20
129.0652826488205
 30
0.0
 10
122.4602860882488
 20
129.1998725735508
 30
0.0
 10
122.536999251158
 20
129.3577402845795
 30
0.0
 10
122.6285143846041
 20
129.6021905880231
 30
0.0
 10
122.7341226670984
 20
129.9755273049605
 30
0.0
 10
122.8404891741372
 20
130.4484056076722
 30
0.0
 10
122.9052409827049
 20
130.8003139571528
 30
0.0
 10
122.931694294014
 20
130.9440804607761
 30
0.0
  0
SPLINE
  5
101
330
1F
100
AcDbEntity
  8
0
  6
Continuous
 62
     7
370
    15
100
AcDbSpline
210
0.0
220
0.0
230
1.0
 70
     8
 71
     3
 72
    12
 73
     8
 74
     0
 42
0.00000001
 43
0.00000001
 12
1.0
 22
0.0
 32
0.0
 13
1.0
 23
0.0
 33
0.0
 40
0.0
 40
0.0
 40
0.0
 40
0.0
 40
0.2549860422528742
 40
0.5920512146421406
 40
0.7570008537214555
 40
0.9236610236679621
 40
1.0
 40
1.0
 40
1.0
 40
1.0
 10
123.736176669011
 20
135.9440804607761
 30
0.0
 10
123.7674685886347
 20
136.1095229464716
 30
0.0
 10
123.8401251892002
 20
136.493663285072
 30
0.0
 10
123.9320183964016
 20
136.8718595610432
 30
0.0
 10
124.0108470701208
 20
137.1386501531884
 30
0.0
 10
124.056227774322
 20
137.2675459362648
 30
0.0
 10
124.0767082099716
 20
137.3140110486812
 30
0.0
 10
124.0831422057953
 20
137.3286082156727
 30
0.0
  0
SPLINE
  5
102
330
1F
100
AcDbEntity
  8
0
  6
Continuous
 62
     7
370
    15
100
AcDbSpline
210
0.0
220
0.0
230
1.0
 70
     8
 71
     3
 72
    15
 73
    11
 74
     0
 42
0.00000001
 43
0.00000001
 12
1.0
 22
0.0
 32
0.0
 13
1.0
 23
0.0
 33
0.0
 40
0.0
 40
0.0
 40
0.0
 40
0.0
 40
0.1158438933845651
 40
0.22136994277206
 40
0.3180967166619091
 40
0.412334151495398
 40
0.5986046599639305
 40
0.7854966283033521
 40
0.984017169385536
 40
1.0
 40
1.0
 40
1.0
 40
1.0
 10
126.0772668055462
 20
128.945936046255
 30
0.0
 10
126.142758990442
 20
128.9569924465715
 30
0.0
 10
126.2679101814009
 20
128.9781204890935
 30
0.0
 10
126.3950099523019
 20
129.1045522669798
 30
0.0
 10
126.4773041455335
 20
129.2325288178054
 30
0.0
 10
126.5722134624286
 20
129.4373540078298
 30
0.0
 10
126.6780400888509
 20
129.7593343664568
 30
0.0
 10
126.7990442886884
 20
130.2593222568523
 30
0.0
 10
126.8842078429379
 20
130.663906230182
 30
0.0
 10
126.9292515597816
 20
130.9246520645198
 30
0.0
 10
126.9326078058436
 20
130.9440804607761
 30
0.0
  0
SPLINE
  5
103
330
1F
100
AcDbEntity
  8
0
  6
Continuous
 62
     7
370
    15
100
AcDbSpline
210
0.0
220
0.0
230
1.0
 70
     8
 71
     3
 72
    12
 73
     8
 74
     0
 42
0.00000001
 43
0.00000001
 12
1.0
 22
0.0
 32
0.0
 13
1.0
 23
0.0
 33
0.0
 40
0.0
 40
0.0
 40
0.0
 40
0.0
 40
0.1820003974256187
 40
0.4932010537624368
 40
0.8016165135743198
 40
0.9545813525319108
 40
1.0
 40
1.0
 40
1.0
 40
1.0
 10
127.7360594946021
 20
135.9440804607761
 30
0.0
 10
127.7584817268341
 20
136.0646961748578
 30
0.0
 10
127.8192435093409
 20
136.3915514901583
 30
0.0
 10
127.9178571239563
 20
136.8186877819076
 30
0.0
 10
128.0061607202912
 20
137.1295417169551
 30
0.0
 10
128.065927464113
 20
137.2921177788035
 30
0.0
 10
128.08328433487
 20
137.3286725556255
 30
0.0
 10
128.0872580809124
 20
137.3370415411277
 30
0.0
  0
SPLINE
  5
104
330
1F
100
AcDbEntity
  8
0
  6
Continuous
 62
     7
370
    15
100
AcDbSpline
210
0.0
220
0.0
230
1.0
 70
     8
 71
     3
 72
    14
 73
    10
 74
     0
 42
0.00000001
 43
0.00000001
 12
1.0
 22
0.0
 32
0.0
 13
1.0
 23
0.0
 33
0.0
 40
0.0
 40
0.0
 40
0.0
 40
0.0
 40
0.2642209375541436
 40
0.4897848696060382
 40
0.67641577744431
 40
0.7905913552159892
 40
0.8824403747343109
 40
0.9520000350993049
 40
1.0
 40
1.0
 40
1.0
 40
1.0
 10
128.6504625450772
 20
137.2025507812928
 30
0.0
 10
128.6167221602156
 20
137.3069633109976
 30
0.0
 10
128.5541777980887
 20
137.5005122315339
 30
0.0
 10
128.4566215108539
 20
137.6961893299915
 30
0.0
 10
128.3676304929691
 20
137.812800152919
 30
0.0
 10
128.287953674878
 20
137.8794019445182
 30
0.0
 10
128.2181080501711
 20
137.9152838357966
 30
0.0
 10
128.1555341470489
 20
137.9374012812241
 30
0.0
 10
128.0993038745606
 20
137.9405824215823
 30
0.0
 10
128.0763448773735
 20
137.9418812912001
 30
0.0
  0
SPLINE
  5
105
330
1F
100
AcDbEntity
  8
0
  6
Continuous
 62
     7
370
    15
100
AcDbSpline
210
0.0
220
0.0
230
1.0
 70
     8
 71
     3
 72
    28
 73
    24
 74
     0
 42
0.00000001
 43
0.00000001
 12
1.0
 22
0.0
 32
0.0
 13
1.0
 23
0.0
 33
0.0
 40
0.0
 40
0.0
 40
0.0
 40
0.0
 40
0.0296997365795924
 40
0.0610186063220026
 40
0.091748231014118
 40
0.1525954045217879
 40
0.2143200086512293
 40
0.280223599306346
 40
0.3503889675553745
 40
0.3867544359381337
 40
0.4223041889527071
 40
0.4903808649589888
 40
0.5545730482098576
 40
0.615549493330904
 40
0.6758149981546259
 40
0.7356503887379906
 40
0.794359244766033
 40
0.8509877792546464
 40
0.8785619926236975
 40
0.9091612423722629
 40
0.9348484309701384
 40
0.9651115175095112
 40
1.0
 40
1.0
 40
1.0
 40
1.0
 10
126.1345351275717
 20
129.4442235494785
 30
0.0
 10
126.1348340284825
 20
129.4476598377109
 30
0.0
 10
126.135448125411
 20
129.4547197494477
 30
0.0
 10
126.0847874234019
 20
129.5474591517275
 30
0.0
 10
126.0208174179471
 20
129.7151045524595
 30
0.0
 10
125.9269587779323
 20
130.0284641541421
 30
0.0
 10
125.808104177676
 20
130.5502833597693
 30
0.0
 10
125.6824984008966
 20
131.2109783299331
 30
0.0
 10
125.5722014885163
 20
131.8750354311494
 30
0.0
 10
125.4815770027911
 20
132.4546227205398
 30
0.0
 10
125.3922924886428
 20
133.040958696926
 30
0.0
 10
125.2849224655445
 20
133.7608551317994
 30
0.0
 10
125.161274348574
 20
134.5778309115548
 30
0.0
 10
125.0428327669089
 20
135.3225774127553
 30
0.0
 10
124.9268588103824
 20
135.9925423382731
 30
0.0
 10
124.8116586881538
 20
136.5752339464887
 30
0.0
 10
124.6979556413481
 20
137.0523838614761
 30
0.0
 10
124.6004976636516
 20
137.368259640934
 30
0.0
 10
124.5199519032319
 20
137.5682148399362
 30
0.0
 10
124.4524123482031
 20
137.7006709305583
 30
0.0
 10
124.3569428026448
 20
137.8239861532495
 30
0.0
 10
124.2354538654941
 20
137.9210801110805
 30
0.0
 10
124.1325595718966
 20
137.935069030028
 30
0.0
 10
124.077459966254
 20
137.9425600568909
 30
0.0
  0
LWPOLYLINE
  5
106
330
1F
100
AcDbEntity
  8
0
  6
Continuous
 62
     7
370
    15
100
AcDbPolyline
 90
       24
 70
   128
 43
0.0
 10
122.1576156471
 20
129.4243706243
 10
122.1487706957
 20
129.4360572391
 10
122.1149455686
 20
129.4915491065
 10
122.0569296028
 20
129.6213107837
 10
121.981410064
 20
129.846862878
 10
121.903780978
 20
130.1382356834
 10
121.8255994653
 20
130.4836486401
 10
121.7476600019
 20
130.8727372423
 10
121.6705762647
 20
131.2955977957
 10
121.5951415683
 20
131.740757521
 10
121.522783186
 20
132.1915542588
 10
121.453637643
 20
132.6382747667
 10
121.3250833067
 20
133.4910742477
 10
121.2094565266
 20
134.2583187302
 10
121.0969306461
 20
134.980335972
 10
120.9818607318
 20
135.6712522243
 10
120.8639707267
 20
136.306662951
 10
120.7382534579
 20
136.8776490004
 10
120.5989770829
 20
137.359924068
 10
120.520858546
 20
137.5584139798
 10
120.4187868068
 20
137.7394776497
 10
120.2741999546
 20
137.8834279102
 10
120.0775055071
 20
137.9433714397
 10
120.0775055071
 20
137.9433714397
  0
LWPOLYLINE
  5
107
330
1F
100
AcDbEntity
  8
0
  6
Continuous
 62
     7
370
    15
100
AcDbPolyline
 90
       29
 70
   128
 43
0.0
 10
118.133768868
 20
129.4436306802
 10
118.1299365197
 20
129.4619854393
 10
118.0883351466
 20
129.5469626106
 10
118.0421932089
 20
129.66381327
 10
117.9838589171
 20
129.8421269505
 10
117.9286602513
 20
130.0409402246
 10
117.8621506893
 20
130.3168874918
 10
117.8041384479
 20
130.5867759107
 10
117.7391729028
 20
130.9176833976
 10
117.6672674957
 20
131.3148507169
 10
117.5884353432
 20
131.7818450596
 10
117.5093916484
 20
132.2768247346
 10
117.4369691457
 20
132.747324702
 10
117.3712077941
 20
133.1830722501
 10
117.3121430552
 20
133.5772891805
 10
117.2438600585
 20
134.0317021983
 10
117.1875982585
 20
134.4014691925
 10
117.1346751663
 20
134.7426206636
 10
117.0437598467
 20
135.3069795552
 10
116.9388420327
 20
135.9124291778
 10
116.8197379941
 20
136.5211540036
 10
116.6839899123
 20
137.0835257428
 10
116.6069370466
 20
137.3320667424
 10
116.5212548319
 20
137.5497008829
 10
116.467959517
 20
137.6541383153
 10
116.3850568478
 20
137.7734467162
 10
116.2632270664
 20
137.8832880408
 10
116.0985259986
 20
137.9417579187
 10
116.0985259986
 20
137.9417579187
  0
LINE
  5
108
330
1F
100
AcDbEntity
  8
0
  6
Continuous
 62
     7
370
    15
100
AcDbLine
 10
155.3276175135
 20
127.4440804608
 30
0.0
 11
155.6276175135
 21
127.7440804608
 31
0.0
  0
LINE
  5
109
330
1F
100
AcDbEntity
  8
0
  6
Continuous
 62
     7
370
    15
100
AcDbLine
 10
155.6276175135
 20
139.1440804608
 30
0.0
 11
155.3276175135
 21
139.4440804608
 31
0.0
  0
LINE
  5
10A
330
1F
100
AcDbEntity
  8
0
  6
Continuous
 62
     7
370
    15
100
AcDbLine
 10
155.3276175135
 20
139.4440804608
 30
0.0
 11
153.9276175135
 21
139.4440804608
 31
0.0
  0
LINE
  5
10B
330
1F
100
AcDbEntity
  8
0
  6
Continuous
 62
     7
370
    15
100
AcDbLine
 10
153.9276175135
 20
127.4440804608
 30
0.0
 11
155.3276175135
 21
127.4440804608
 31
0.0
  0
LINE
  5
10C
330
1F
100
AcDbEntity
  8
0
  6
Continuous
 62
     7
370
    15
100
AcDbLine
 10
153.9276175135
 20
139.4440804608
 30
0.0
 11
153.6276175135
 21
139.1440804608
 31
0.0
  0
LINE
  5
10D
330
1F
100
AcDbEntity
  8
0
  6
Continuous
 62
     7
370
    15
100
AcDbLine
 10
153.6276175135
 20
127.7440804608
 30
0.0
 11
153.9276175135
 21
127.4440804608
 31
0.0
  0
LINE
  5
10E
330
1F
100
AcDbEntity
  8
0
  6
Continuous
 62
     7
370
    15
100
AcDbLine
 10
173.3276175135
 20
129.4440804608
 30
0.0
 11
173.6276175135
 21
129.7440804608
 31
0.0
  0
LINE
  5
10F
330
1F
100
AcDbEntity
  8
0
  6
Continuous
 62
     7
370
    15
100
AcDbLine
 10
173.6276175135
 20
137.1440804608
 30
0.0
 11
173.3276175135
 21
137.4440804608
 31
0.0
  0
LINE
  5
110
330
1F
100
AcDbEntity
  8
0
  6
Continuous
 62
     7
370
    15
100
AcDbLine
 10
173.3276175135
 20
137.4440804608
 30
0.0
 11
155.6276175135
 21
137.4440804608
 31
0.0
  0
LINE
  5
111
330
1F
100
AcDbEntity
  8
0
  6
Continuous
 62
     7
370
    15
100
AcDbLine
 10
155.6276175135
 20
129.4440804608
 30
0.0
 11
173.3276175135
 21
129.4440804608
 31
0.0
  0
LINE
  5
112
330
1F
100
AcDbEntity
  8
0
  6
Continuous
 62
     7
370
    15
100
AcDbLine
 10
153.6276175135
 20
137.1940804608
 30
0.0
 11
152.6518571699
 21
137.1940804608
 31
0.0
  0
LINE
  5
113
330
1F
100
AcDbEntity
  8
0
  6
Continuous
 62
     7
370
    15
100
AcDbLine
 10
152.133930441
 20
137.1940804608
 30
0.0
 11
151.9276175135
 21
137.1940804608
 31
0.0
  0
LINE
  5
114
330
1F
100
AcDbEntity
  8
0
  6
Continuous
 62
     7
370
    15
100
AcDbLine
 10
151.9276175135
 20
129.6940804608
 30
0.0
 11
153.6276175135
 21
129.6940804608
 31
0.0
  0
LINE
  5
115
330
1F
100
AcDbEntity
  8
0
  6
Continuous
 62
     7
370
    15
100
AcDbLine
 10
151.9276175135
 20
137.1940804608
 30
0.0
 11
151.6276175135
 21
136.8940804608
 31
0.0
  0
LINE
  5
116
330
1F
100
AcDbEntity
  8
0
  6
Continuous
 62
     7
370
    15
100
AcDbLine
 10
151.6276175135
 20
129.9940804608
 30
0.0
 11
151.9276175135
 21
129.6940804608
 31
0.0
  0
LINE
  5
117
330
1F
100
AcDbEntity
  8
0
  6
Continuous
 62
     7
370
    15
100
AcDbLine
 10
115.6276175135
 20
129.6940804608
 30
0.0
 11
117.516033584
 21
129.6940804608
 31
0.0
  0
LINE
  5
118
330
1F
100
AcDbEntity
  8
0
  6
Continuous
 62
     7
370
    15
100
AcDbLine
 10
118.0322914721
 20
129.6940804608
 30
0.0
 11
121.5195288891
 21
129.6940804608
 31
0.0
  0
LINE
  5
119
330
1F
100
AcDbEntity
  8
0
  6
Continuous
 62
     7
370
    15
100
AcDbLine
 10
121.6276175135
 20
137.1940804608
 30
0.0
 11
120.6468711126
 21
137.1940804608
 31
0.0
  0
LINE
  5
11A
330
1F
100
AcDbEntity
  8
0
  6
Continuous
 62
     7
370
    15
100
AcDbLine
 10
120.1329940882
 20
137.1940804608
 30
0.0
 11
116.6497156564
 21
137.1940804608
 31
0.0
  0
LINE
  5
11B
330
1F
100
AcDbEntity
  8
0
  6
Continuous
 62
     7
370
    15
100
AcDbLine
 10
116.133003121
 20
137.1940804608
 30
0.0
 11
115.6276175135
 21
137.1940804608
 31
0.0
  0
LINE
  5
11C
330
1F
100
AcDbEntity
  8
0
  6
Continuous
 62
     7
370
    15
100
AcDbLine
 10
102.1276175135
 20
129.9440804608
 30
0.0
 11
104.1276175135
 21
129.9440804608
 31
0.0
  0
LINE
  5
11D
330
1F
100
AcDbEntity
  8
0
  6
Continuous
 62
     7
370
    15
100
AcDbLine
 10
104.1276175135
 20
136.9440804608
 30
0.0
 11
102.1276175135
 21
136.9440804608
 31
0.0
  0
LINE
  5
11E
330
1F
100
AcDbEntity
  8
0
  6
Continuous
 62
     7
370
    15
100
AcDbLine
 10
175.1276175135
 20
130.9440804608
 30
0.0
 11
175.6276175135
 21
131.4440804608
 31
0.0
  0
LINE
  5
11F
330
1F
100
AcDbEntity
  8
0
  6
Continuous
 62
     7
370
    15
100
AcDbLine
 10
175.6276175135
 20
135.4440804608
 30
0.0
 11
175.1276175135
 21
135.9440804608
 31
0.0
  0
LINE
  5
120
330
1F
100
AcDbEntity
  8
0
  6
Continuous
 62
     7
370
    15
100
AcDbLine
 10
174.3276175135
 20
130.9440804608
 30
0.0
 11
175.1276175135
 21
130.9440804608
 31
0.0
  0
LINE
  5
121
330
1F
100
AcDbEntity
  8
0
  6
Continuous
 62
     7
370
    15
100
AcDbLine
 10
175.1276175135
 20
135.9440804608
 30
0.0
 11
174.3276175135
 21
135.9440804608
 31
0.0
  0
LINE
  5
122
330
1F
100
AcDbEntity
  8
0
  6
Continuous
 62
     7
370
    15
100
AcDbLine
 10
121.7346547645
 20
130.9440804608
 30
0.0
 11
125.2341676695
 21
130.9440804608
 31
0.0
  0
LINE
  5
123
330
1F
100
AcDbEntity
  8
0
  6
Continuous
 62
     7
370
    15
100
AcDbLine
 10
125.7364348196
 20
130.9440804608
 30
0.0
 11
129.2352578777
 21
130.9440804608
 31
0.0
  0
LINE
  5
124
330
1F
100
AcDbEntity
  8
0
  6
Continuous
 62
     7
370
    15
100
AcDbLine
 10
129.7353204833
 20
130.9440804608
 30
0.0
 11
133.2355580315
 21
130.9440804608
 31
0.0
  0
LINE
  5
125
330
1F
100
AcDbEntity
  8
0
  6
Continuous
 62
     7
370
    15
100
AcDbLine
 10
133.7346660916
 20
130.9440804608
 30
0.0
 11
137.2336729266
 21
130.9440804608
 31
0.0
  0
LINE
  5
126
330
1F
100
AcDbEntity
  8
0
  6
Continuous
 62
     7
370
    15
100
AcDbLine
 10
137.7345738482
 20
130.9440804608
 30
0.0
 11
141.2331401576
 21
130.9440804608
 31
0.0
  0
LINE
  5
127
330
1F
100
AcDbEntity
  8
0
  6
Continuous
 62
     7
370
    15
100
AcDbLine
 10
141.7347382755
 20
130.9440804608
 30
0.0
 11
145.2332643692
 21
130.9440804608
 31
0.0
  0
LINE
  5
128
330
1F
100
AcDbEntity
  8
0
  6
Continuous
 62
     7
370
    15
100
AcDbLine
 10
145.7354444393
 20
130.9440804608
 30
0.0
 11
149.2336561686
 21
130.9440804608
 31
0.0
  0
LINE
  5
129
330
1F
100
AcDbEntity
  8
0
  6
Continuous
 62
     7
370
    15
100
AcDbLine
 10
149.7340755094
 20
130.9440804608
 30
0.0
 11
151.6276175135
 21
130.9440804608
 31
0.0
  0
LINE
  5
12A
330
1F
100
AcDbEntity
  8
0
  6
Continuous
 62
     7
370
    15
100
AcDbLine
 10
151.6276175135
 20
135.9440804608
 30
0.0
 11
148.9329036739
 21
135.9440804608
 31
0.0
  0
LINE
  5
12B
330
1F
100
AcDbEntity
  8
0
  6
Continuous
 62
     7
370
    15
100
AcDbLine
 10
148.4317067439
 20
135.9440804608
 30
0.0
 11
144.9325092613
 21
135.9440804608
 31
0.0
  0
LINE
  5
12C
330
1F
100
AcDbEntity
  8
0
  6
Continuous
 62
     7
370
    15
100
AcDbLine
 10
144.4316485442
 20
135.9440804608
 30
0.0
 11
140.9322944838
 21
135.9440804608
 31
0.0
  0
LINE
  5
12D
330
1F
100
AcDbEntity
  8
0
  6
Continuous
 62
     7
370
    15
100
AcDbLine
 10
140.4315558497
 20
135.9440804608
 30
0.0
 11
136.9331003911
 21
135.9440804608
 31
0.0
  0
LINE
  5
12E
330
1F
100
AcDbEntity
  8
0
  6
Continuous
 62
     7
370
    15
100
AcDbLine
 10
136.4307373416
 20
135.9440804608
 30
0.0
 11
132.9329356086
 21
135.9440804608
 31
0.0
  0
LINE
  5
12F
330
1F
100
AcDbEntity
  8
0
  6
Continuous
 62
     7
370
    15
100
AcDbLine
 10
132.430553584
 20
135.9440804608
 30
0.0
 11
128.9320683663
 21
135.9440804608
 31
0.0
  0
LINE
  5
130
330
1F
100
AcDbEntity
  8
0
  6
Continuous
 62
     7
370
    15
100
AcDbLine
 10
128.4309449068
 20
135.9440804608
 30
0.0
 11
124.9328640401
 21
135.9440804608
 31
0.0
  0
LINE
  5
131
330
1F
100
AcDbEntity
  8
0
  6
Continuous
 62
     7
370
    15
100
AcDbLine
 10
124.4301740616
 20
135.9440804608
 30
0.0
 11
121.6276175135
 21
135.9440804608
 31
0.0
  0
LINE
  5
132
330
1F
100
AcDbEntity
  8
0
  6
Continuous
 62
     7
370
    15
100
AcDbLine
 10
104.1276175135
 20
130.9440804608
 30
0.0
 11
107.6276175135
 21
130.9440804608
 31
0.0
  0
LINE
  5
133
330
1F
100
AcDbEntity
  8
0
  6
Continuous
 62
     7
370
    15
100
AcDbLine
 10
107.6276175135
 20
135.9440804608
 30
0.0
 11
104.1276175135
 21
135.9440804608
 31
0.0
  0
LINE
  5
134
330
1F
100
AcDbEntity
  8
0
  6
Continuous
 62
     7
370
    15
100
AcDbLine
 10
173.6276175135
 20
131.9440804608
 30
0.0
 11
173.7276175135
 21
131.9440804608
 31
0.0
  0
LINE
  5
135
330
1F
100
AcDbEntity
  8
0
  6
Continuous
 62
     7
370
    15
100
AcDbLine
 10
173.7276175135
 20
134.9440804608
 30
0.0
 11
173.6276175135
 21
134.9440804608
 31
0.0
  0
LINE
  5
136
330
1F
100
AcDbEntity
  8
0
  6
Continuous
 62
     7
370
    15
100
AcDbLine
 10
107.6276175135
 20
140.2440804608
 30
0.0
 11
107.6276175135
 21
139.4440804608
 31
0.0
  0
LINE
  5
137
330
1F
100
AcDbEntity
  8
0
  6
Continuous
 62
     7
370
    15
100
AcDbLine
 10
115.6276175135
 20
139.4440804608
 30
0.0
 11
115.6276175135
 21
140.2440804608
 31
0.0
  0
LINE
  5
138
330
1F
100
AcDbEntity
  8
0
  6
Continuous
 62
     7
370
    15
100
AcDbLine
 10
107.6276175135
 20
127.4440804608
 30
0.0
 11
107.6276175135
 21
126.6440804608
 31
0.0
  0
LINE
  5
139
330
1F
100
AcDbEntity
  8
0
  6
Continuous
 62
     7
370
    15
100
AcDbLine
 10
115.6276175135
 20
126.6440804608
 30
0.0
 11
115.6276175135
 21
127.4440804608
 31
0.0
  0
LINE
  5
13A
330
1F
100
AcDbEntity
  8
0
  6
Continuous
 62
     7
370
    15
100
AcDbLine
 10
174.3276175135
 20
135.9714313599
 30
0.0
 11
173.7276175135
 21
135.9714313599
 31
0.0
  0
LINE
  5
13B
330
1F
100
AcDbEntity
  8
0
  6
Continuous
 62
     7
370
    15
100
AcDbLine
 10
173.7276175135
 20
129.9440804608
 30
0.0
 11
173.7276175135
 21
135.9714313599
 31
0.0
  0
LINE
  5
13C
330
1F
100
AcDbEntity
  8
0
  6
Continuous
 62
     7
370
    15
100
AcDbLine
 10
174.3276175135
 20
129.9440804608
 30
0.0
 11
174.3276175135
 21
135.9714313599
 31
0.0
  0
LINE
  5
13D
330
1F
100
AcDbEntity
  8
0
  6
Continuous
 62
     7
370
    15
100
AcDbLine
 10
173.7276175135
 20
135.9714313599
 30
0.0
 11
173.7276175135
 21
136.0270113086
 31
0.0
  0
LINE
  5
13E
330
1F
100
AcDbEntity
  8
0
  6
Continuous
 62
     7
370
    15
100
AcDbLine
 10
174.3276175135
 20
136.0270113086
 30
0.0
 11
174.3276175135
 21
135.9714313599
 31
0.0
  0
LINE
  5
13F
330
1F
100
AcDbEntity
  8
0
  6
Continuous
 62
     7
370
    15
100
AcDbLine
 10
115.1350203989
 20
124.1440804608
 30
0.0
 11
115.1350203989
 21
126.6440804608
 31
0.0
  0
LINE
  5
140
330
1F
100
AcDbEntity
  8
0
  6
Continuous
 62
     7
370
    15
100
AcDbLine
 10
111.6276175135
 20
124.1440804608
 30
0.0
 11
111.6276175135
 21
126.6440804608
 31
0.0
  0
LINE
  5
141
330
1F
100
AcDbEntity
  8
0
  6
Continuous
 62
     7
370
    15
100
AcDbLine
 10
111.6276175135
 20
126.6440804608
 30
0.0
 11
111.7159079709
 21
126.6440804608
 31
0.0
  0
LINE
  5
142
330
1F
100
AcDbEntity
  8
0
  6
Continuous
 62
     7
370
    15
100
AcDbLine
 10
115.0467299415
 20
126.6440804608
 30
0.0
 11
115.1350203989
 21
126.6440804608
 31
0.0
  0
LINE
  5
143
330
1F
100
AcDbEntity
  8
0
  6
Continuous
 62
     7
370
    15
100
AcDbLine
 10
111.6276175135
 20
124.1440804608
 30
0.0
 11
115.1350203989
 21
124.1440804608
 31
0.0
  0
LINE
  5
144
330
1F
100
AcDbEntity
  8
0
  6
Continuous
 62
     7
370
    15
100
AcDbLine
 10
108.1202146282
 20
124.1440804608
 30
0.0
 11
108.1202146282
 21
126.6440804608
 31
0.0
  0
LINE
  5
145
330
1F
100
AcDbEntity
  8
0
  6
Continuous
 62
     7
370
    15
100
AcDbLine
 10
108.1202146282
 20
126.6440804608
 30
0.0
 11
108.2085050856
 21
126.6440804608
 31
0.0
  0
LINE
  5
146
330
1F
100
AcDbEntity
  8
0
  6
Continuous
 62
     7
370
    15
100
AcDbLine
 10
111.5393270562
 20
126.6440804608
 30
0.0
 11
111.6276175135
 21
126.6440804608
 31
0.0
  0
LINE
  5
147
330
1F
100
AcDbEntity
  8
0
  6
Continuous
 62
     7
370
    15
100
AcDbLine
 10
108.1202146282
 20
124.1440804608
 30
0.0
 11
111.6276175135
 21
124.1440804608
 31
0.0
  0
LINE
  5
148
330
1F
100
AcDbEntity
  8
0
  6
Continuous
 62
     7
370
    15
100
AcDbLine
 10
113.9776175135
 20
121.6440804608
 30
0.0
 11
109.2776175135
 21
121.6440804608
 31
0.0
  0
LINE
  5
149
330
1F
100
AcDbEntity
  8
0
  6
Continuous
 62
     7
370
    15
100
AcDbLine
 10
113.6627772124
 20
119.1440804608
 30
0.0
 11
109.2776175135
 21
119.1440804608
 31
0.0
  0
LINE
  5
14A
330
1F
100
AcDbEntity
  8
0
  6
Continuous
 62
     7
370
    15
100
AcDbLine
 10
113.9776175135
 20
119.1440804608
 30
0.0
 11
113.6627772124
 21
119.1440804608
 31
0.0
  0
LINE
  5
14B
330
1F
100
AcDbEntity
  8
0
  6
Continuous
 62
     7
370
    15
100
AcDbLine
 10
113.3596683211
 20
116.6440804608
 30
0.0
 11
109.6276175135
 21
116.6440804608
 31
0.0
  0
LINE
  5
14C
330
1F
100
AcDbEntity
  8
0
  6
Continuous
 62
     7
370
    15
100
AcDbLine
 10
113.6276175135
 20
116.6440804608
 30
0.0
 11
113.3596683211
 21
116.6440804608
 31
0.0
  0
SPLINE
  5
14D
330
1F
100
AcDbEntity
  8
0
  6
Continuous
 62
     7
370
    15
100
AcDbSpline
210
0.0
220
0.0
230
1.0
 70
     8
 71
     3
 72
    13
 73
     9
 74
     0
 42
0.00000001
 43
0.00000001
 12
1.0
 22
0.0
 32
0.0
 13
1.0
 23
0.0
 33
0.0
 40
0.0
 40
0.0
 40
0.0
 40
0.0
 40
0.1971508904461954
 40
0.3937027512624771
 40
0.60384778349044
 40
0.7999645523276545
 40
0.9907099878198002
 40
1.0
 40
1.0
 40
1.0
 40
1.0
 10
153.3428951441689
 20
131.658866849618
 30
0.0
 10
153.3707034461161
 20
131.6600530333257
 30
0.0
 10
153.4262355563683
 20
131.6624217966022
 30
0.0
 10
153.501464770517
 20
131.6795697717821
 30
0.0
 10
153.5608799674147
 20
131.7047538339516
 30
0.0
 10
153.5887649378482
 20
131.7363272055617
 30
0.0
 10
153.597746398267
 20
131.7592623015766
 30
0.0
 10
153.5898134917057
 20
131.7699688536482
 30
0.0
 10
153.5894450730107
 20
131.7704660855154
 30
0.0
  0
SPLINE
  5
14E
330
1F
100
AcDbEntity
  8
0
  6
Continuous
 62
     7
370
    15
100
AcDbSpline
210
0.0
220
0.0
230
1.0
 70
     8
 71
     3
 72
    12
 73
     8
 74
     0
 42
0.00000001
 43
0.00000001
 12
1.0
 22
0.0
 32
0.0
 13
1.0
 23
0.0
 33
0.0
 40
0.0
 40
0.0
 40
0.0
 40
0.0
 40
0.2161016463129267
 40
0.431548059811107
 40
0.6618462712766288
 40
0.876690327052979
 40
0.9999999999999999
 40
0.9999999999999999
 40
0.9999999999999999
 40
0.9999999999999999
 10
153.3428951441689
 20
131.658866849618
 30
0.0
 10
153.3151107641917
 20
131.6600603715097
 30
0.0
 10
153.2596262481005
 20
131.6624437964648
 30
0.0
 10
153.1839829748257
 20
131.6796293603126
 30
0.0
 10
153.1263306720273
 20
131.7047799225901
 30
0.0
 10
153.0969431253034
 20
131.7323837005633
 30
0.0
 10
153.0970053799048
 20
131.7496716575999
 30
0.0
 10
153.097028081398
 20
131.7559758090761
 30
0.0
  0
SPLINE
  5
14F
330
1F
100
AcDbEntity
  8
0
  6
Continuous
 62
     7
370
    15
100
AcDbSpline
210
0.0
220
0.0
230
1.0
 70
     8
 71
     3
 72
    25
 73
    21
 74
     0
 42
0.00000001
 43
0.00000001
 12
1.0
 22
0.0
 32
0.0
 13
1.0
 23
0.0
 33
0.0
 40
0.0
 40
0.0
 40
0.0
 40
0.0
 40
0.0582419062270477
 40
0.1164451667898218
 40
0.1746894941874387
 40
0.2329775779828956
 40
0.2912468721103769
 40
0.3494672164370254
 40
0.4077070304255768
 40
0.4659912952653278
 40
0.5242654753088762
 40
0.5824900625515325
 40
0.6407216196750487
 40
0.6990014709554556
 40
0.7572811539219801
 40
0.8155122481197961
 40
0.8737362663709496
 40
0.9320102191008847
 40
0.9902945936530932
 40
1.0
 40
1.0
 40
1.0
 40
1.0
 10
128.4095605238165
 20
137.3636724092848
 30
0.0
 10
128.4420188661493
 20
137.242709371388
 30
0.0
 10
128.5069140135012
 20
137.0008635590551
 30
0.0
 10
128.6043936834664
 20
136.5294997776312
 30
0.0
 10
128.7017876602455
 20
135.9909270352317
 30
0.0
 10
128.7991270681138
 20
135.3921936796016
 30
0.0
 10
128.8964912922501
 20
134.7492390146732
 30
0.0
 10
128.9939555947546
 20
134.0752808782413
 30
0.0
 10
129.0913733097507
 20
133.3862562454232
 30
0.0
 10
129.1887183428692
 20
132.6987384022349
 30
0.0
 10
129.2860747571382
 20
132.0282658451839
 30
0.0
 10
129.3835260935226
 20
131.3906069651326
 30
0.0
 10
129.4809610928945
 20
130.8025100245347
 30
0.0
 10
129.5783105271354
 20
130.2758300910228
 30
0.0
 10
129.6756598444136
 20
129.8215038174321
 30
0.0
 10
129.7730954379919
 20
129.4516829607065
 30
0.0
 10
129.8705455234549
 20
129.1755798114185
 30
0.0
 10
129.96790820375
 20
129.0088261476374
 30
0.0
 10
130.0382072235187
 20
128.9354706167165
 30
0.0
 10
130.0761099511379
 20
128.9504997848106
 30
0.0
 10
130.0815204903151
 20
128.9526451687416
 30
0.0
  0
LINE
  5
150
330
1F
100
AcDbEntity
  8
0
  6
Continuous
 62
     7
370
    15
100
AcDbLine
 10
116.1093296984
 20
137.9291130962
 30
0.0
 11
116.0811645791
 21
137.9308875716
 31
0.0
  0
SPLINE
  5
151
330
1F
100
AcDbEntity
  8
0
  6
Continuous
 62
     7
370
    15
100
AcDbSpline
210
0.0
220
0.0
230
1.0
 70
     8
 71
     3
 72
     8
 73
     4
 74
     0
 42
0.00000001
 43
0.00000001
 12
1.0
 22
0.0
 32
0.0
 13
1.0
 23
0.0
 33
0.0
 40
0.0
 40
0.0
 40
0.0
 40
0.0
 40
1.0
 40
1.0
 40
1.0
 40
1.0
 10
115.9428949320669
 20
137.3459519990191
 30
0.0
 10
115.9753602561849
 20
137.3907633205967
 30
0.0
 10
116.007825580303
 20
137.4205563055864
 30
0.0
 10
116.0402909044212
 20
137.4346425511873
 30
0.0
  0
SPLINE
  5
152
330
1F
100
AcDbEntity
  8
0
  6
Continuous
 62
     7
370
    15
100
AcDbSpline
210
0.0
220
0.0
230
1.0
 70
     8
 71
     3
 72
    14
 73
    10
 74
     0
 42
0.00000001
 43
0.00000001
 12
1.0
 22
0.0
 32
0.0
 13
1.0
 23
0.0
 33
0.0
 40
0.0
 40
0.0
 40
0.0
 40
0.0
 40
0.1638854856734423
 40
0.3272732017269714
 40
0.5019948086521193
 40
0.6650626855403051
 40
0.823647639074902
 40
0.9979350185411431
 40
1.0
 40
1.0
 40
1.0
 40
1.0
 10
115.9428950812135
 20
137.3459517843393
 30
0.0
 10
115.9151074169073
 20
137.3488625562997
 30
0.0
 10
115.8596164878075
 20
137.3546752593287
 30
0.0
 10
115.7841631298229
 20
137.3968966038616
 30
0.0
 10
115.7256546229713
 20
137.4585323120382
 30
0.0
 10
115.6945491263215
 20
137.5371384225755
 30
0.0
 10
115.6928702785865
 20
137.6184494931632
 30
0.0
 10
115.7021038858928
 20
137.6768173927825
 30
0.0
 10
115.7200000548121
 20
137.7000706947892
 30
0.0
 10
115.7202096083265
 20
137.7003429771519
 30
0.0
  0
SPLINE
  5
153
330
1F
100
AcDbEntity
  8
0
  6
Continuous
 62
     7
370
    15
100
AcDbSpline
210
0.0
220
0.0
230
1.0
 70
     8
 71
     3
 72
    10
 73
     6
 74
     0
 42
0.00000001
 43
0.00000001
 12
1.0
 22
0.0
 32
0.0
 13
1.0
 23
0.0
 33
0.0
 40
0.0
 40
0.0
 40
0.0
 40
0.0
 40
0.0999986834454189
 40
0.8170440079638586
 40
1.0
 40
1.0
 40
1.0
 40
1.0
 10
116.060228979542
 20
137.377381677502
 30
0.0
 10
116.0568883042179
 20
137.3750605112374
 30
0.0
 10
116.0295931573021
 20
137.3560953116703
 30
0.0
 10
115.987074988397
 20
137.3475845604559
 30
0.0
 10
115.9503588830483
 20
137.3462276273221
 30
0.0
 10
115.9428950812135
 20
137.3459517843393
 30
0.0
  0
LINE
  5
154
330
1F
100
AcDbEntity
  8
0
  6
Continuous
 62
     7
370
    15
100
AcDbLine
 10
115.1350203989
 20
140.2440804608
 30
0.0
 11
115.1350203989
 21
142.7440804608
 31
0.0
  0
LINE
  5
155
330
1F
100
AcDbEntity
  8
0
  6
Continuous
 62
     7
370
    15
100
AcDbLine
 10
111.6276175135
 20
140.2440804608
 30
0.0
 11
111.7159079709
 21
140.2440804608
 31
0.0
  0
LINE
  5
156
330
1F
100
AcDbEntity
  8
0
  6
Continuous
 62
     7
370
    15
100
AcDbLine
 10
115.0467299415
 20
140.2440804608
 30
0.0
 11
115.1350203989
 21
140.2440804608
 31
0.0
  0
LINE
  5
157
330
1F
100
AcDbEntity
  8
0
  6
Continuous
 62
     7
370
    15
100
AcDbLine
 10
111.6276175135
 20
140.2440804608
 30
0.0
 11
111.6276175137
 21
142.7440804608
 31
0.0
  0
LINE
  5
158
330
1F
100
AcDbEntity
  8
0
  6
Continuous
 62
     7
370
    15
100
AcDbLine
 10
111.6276175137
 20
142.7440804608
 30
0.0
 11
115.1350203989
 21
142.7440804608
 31
0.0
  0
LINE
  5
159
330
1F
100
AcDbEntity
  8
0
  6
Continuous
 62
     7
370
    15
100
AcDbLine
 10
108.1202146282
 20
140.2440804608
 30
0.0
 11
108.1202146282
 21
142.7440804608
 31
0.0
  0
LINE
  5
15A
330
1F
100
AcDbEntity
  8
0
  6
Continuous
 62
     7
370
    15
100
AcDbLine
 10
108.1202146282
 20
142.7440804608
 30
0.0
 11
111.6276175137
 21
142.7440804608
 31
0.0
  0
LINE
  5
15B
330
1F
100
AcDbEntity
  8
0
  6
Continuous
 62
     7
370
    15
100
AcDbLine
 10
108.1202146282
 20
140.2440804608
 30
0.0
 11
108.2085050856
 21
140.2440804608
 31
0.0
  0
LINE
  5
15C
330
1F
100
AcDbEntity
  8
0
  6
Continuous
 62
     7
370
    15
100
AcDbLine
 10
111.5393270562
 20
140.2440804608
 30
0.0
 11
111.6276175135
 21
140.2440804608
 31
0.0
  0
LINE
  5
15D
330
1F
100
AcDbEntity
  8
0
  6
Continuous
 62
     7
370
    15
100
AcDbLine
 10
155.6276175135
 20
139.1440804608
 30
0.0
 11
155.6276175135
 21
127.7440804608
 31
0.0
  0
LINE
  5
15E
330
1F
100
AcDbEntity
  8
0
  6
Continuous
 62
     7
370
    15
100
AcDbLine
 10
155.3276175135
 20
139.4440804608
 30
0.0
 11
155.3276175135
 21
127.4440804608
 31
0.0
  0
LINE
  5
15F
330
1F
100
AcDbEntity
  8
0
  6
Continuous
 62
     7
370
    15
100
AcDbLine
 10
153.9276175135
 20
139.4440804608
 30
0.0
 11
153.9276175135
 21
127.4440804608
 31
0.0
  0
LINE
  5
160
330
1F
100
AcDbEntity
  8
0
  6
Continuous
 62
     7
370
    15
100
AcDbLine
 10
153.6276175135
 20
139.1440804608
 30
0.0
 11
153.6276175135
 21
127.7440804608
 31
0.0
  0
LINE
  5
161
330
1F
100
AcDbEntity
  8
0
  6
Continuous
 62
     7
370
    15
100
AcDbLine
 10
173.6276175135
 20
137.1440804608
 30
0.0
 11
173.6276175135
 21
129.7440804608
 31
0.0
  0
LINE
  5
162
330
1F
100
AcDbEntity
  8
0
  6
Continuous
 62
     7
370
    15
100
AcDbLine
 10
173.3276175135
 20
137.4440804608
 30
0.0
 11
173.3276175135
 21
129.4440804608
 31
0.0
  0
LINE
  5
163
330
1F
100
AcDbEntity
  8
0
  6
Continuous
 62
     7
370
    15
100
AcDbLine
 10
151.9276175135
 20
137.1940804608
 30
0.0
 11
151.9276175135
 21
129.6940804608
 31
0.0
  0
LINE
  5
164
330
1F
100
AcDbEntity
  8
0
  6
Continuous
 62
     7
370
    15
100
AcDbLine
 10
151.6276175135
 20
136.8940804608
 30
0.0
 11
151.6276175135
 21
129.9940804608
 31
0.0
  0
LINE
  5
165
330
1F
100
AcDbEntity
  8
0
  6
Continuous
 62
     7
370
    15
100
AcDbLine
 10
115.6276175135
 20
133.4440804608
 30
0.0
 11
107.6276175135
 21
133.4440804608
 31
0.0
  0
LINE
  5
166
330
1F
100
AcDbEntity
  8
0
  6
Continuous
 62
     7
370
    15
100
AcDbLine
 10
115.6276175135
 20
127.4440804608
 30
0.0
 11
113.6276175135
 21
127.4440804608
 31
0.0
  0
LINE
  5
167
330
1F
100
AcDbEntity
  8
0
  6
Continuous
 62
     7
370
    15
100
AcDbLine
 10
109.6276175135
 20
127.4440804608
 30
0.0
 11
107.6276175135
 21
127.4440804608
 31
0.0
  0
LINE
  5
168
330
1F
100
AcDbEntity
  8
0
  6
Continuous
 62
     7
370
    15
100
AcDbLine
 10
107.6276175135
 20
133.4440804608
 30
0.0
 11
107.6276175135
 21
127.4440804608
 31
0.0
  0
LINE
  5
169
330
1F
100
AcDbEntity
  8
0
  6
Continuous
 62
     7
370
    15
100
AcDbLine
 10
115.6276175135
 20
133.4440804608
 30
0.0
 11
115.6276175135
 21
127.4440804608
 31
0.0
  0
LINE
  5
16A
330
1F
100
AcDbEntity
  8
0
  6
Continuous
 62
     7
370
    15
100
AcDbLine
 10
115.6276175135
 20
139.4440804608
 30
0.0
 11
113.6276175135
 21
139.4440804608
 31
0.0
  0
LINE
  5
16B
330
1F
100
AcDbEntity
  8
0
  6
Continuous
 62
     7
370
    15
100
AcDbLine
 10
109.6276175135
 20
139.4440804608
 30
0.0
 11
107.6276175135
 21
139.4440804608
 31
0.0
  0
LINE
  5
16C
330
1F
100
AcDbEntity
  8
0
  6
Continuous
 62
     7
370
    15
100
AcDbLine
 10
107.6276175135
 20
139.4440804608
 30
0.0
 11
107.6276175135
 21
133.4440804608
 31
0.0
  0
LINE
  5
16D
330
1F
100
AcDbEntity
  8
0
  6
Continuous
 62
     7
370
    15
100
AcDbLine
 10
115.6276175135
 20
139.4440804608
 30
0.0
 11
115.6276175135
 21
133.4440804608
 31
0.0
  0
LINE
  5
16E
330
1F
100
AcDbEntity
  8
0
  6
Continuous
 62
     7
370
    15
100
AcDbLine
 10
121.6276175135
 20
137.1940804608
 30
0.0
 11
121.6276175135
 21
131.5370588306
 31
0.0
  0
LINE
  5
16F
330
1F
100
AcDbEntity
  8
0
  6
Continuous
 62
     7
370
    15
100
AcDbLine
 10
102.1276175135
 20
136.9440804608
 30
0.0
 11
102.1276175135
 21
129.9440804608
 31
0.0
  0
LINE
  5
170
330
1F
100
AcDbEntity
  8
0
  6
Continuous
 62
     7
370
    15
100
AcDbLine
 10
104.1276175135
 20
136.9440804608
 30
0.0
 11
104.1276175135
 21
129.9440804608
 31
0.0
  0
LINE
  5
171
330
1F
100
AcDbEntity
  8
0
  6
Continuous
 62
     7
370
    15
100
AcDbLine
 10
175.6276175135
 20
135.4440804608
 30
0.0
 11
175.6276175135
 21
131.4440804608
 31
0.0
  0
LINE
  5
172
330
1F
100
AcDbEntity
  8
0
  6
Continuous
 62
     7
370
    15
100
AcDbLine
 10
175.1276175135
 20
130.9440804608
 30
0.0
 11
175.1276175135
 21
135.9440804608
 31
0.0
  0
LINE
  5
173
330
1F
100
AcDbEntity
  8
0
  6
Continuous
 62
     7
370
    15
100
AcDbLine
 10
115.6276175135
 20
140.2440804608
 30
0.0
 11
115.1350203989
 21
140.2440804608
 31
0.0
  0
LINE
  5
174
330
1F
100
AcDbEntity
  8
0
  6
Continuous
 62
     7
370
    15
100
AcDbLine
 10
115.0467299415
 20
140.2440804608
 30
0.0
 11
111.7159079709
 21
140.2440804608
 31
0.0
  0
LINE
  5
175
330
1F
100
AcDbEntity
  8
0
  6
Continuous
 62
     7
370
    15
100
AcDbLine
 10
111.5393270562
 20
140.2440804608
 30
0.0
 11
108.2085050856
 21
140.2440804608
 31
0.0
  0
LINE
  5
176
330
1F
100
AcDbEntity
  8
0
  6
Continuous
 62
     7
370
    15
100
AcDbLine
 10
108.1202146282
 20
140.2440804608
 30
0.0
 11
107.6276175135
 21
140.2440804608
 31
0.0
  0
LINE
  5
177
330
1F
100
AcDbEntity
  8
0
  6
Continuous
 62
     7
370
    15
100
AcDbLine
 10
113.6276175135
 20
139.4440804608
 30
0.0
 11
109.6276175135
 21
139.4440804608
 31
0.0
  0
LINE
  5
178
330
1F
100
AcDbEntity
  8
0
  6
Continuous
 62
     7
370
    15
100
AcDbLine
 10
115.6276175135
 20
126.6440804608
 30
0.0
 11
115.1350203989
 21
126.6440804608
 31
0.0
  0
LINE
  5
179
330
1F
100
AcDbEntity
  8
0
  6
Continuous
 62
     7
370
    15
100
AcDbLine
 10
115.0467299415
 20
126.6440804608
 30
0.0
 11
111.7159079709
 21
126.6440804608
 31
0.0
  0
LINE
  5
17A
330
1F
100
AcDbEntity
  8
0
  6
Continuous
 62
     7
370
    15
100
AcDbLine
 10
111.5393270562
 20
126.6440804608
 30
0.0
 11
108.2085050856
 21
126.6440804608
 31
0.0
  0
LINE
  5
17B
330
1F
100
AcDbEntity
  8
0
  6
Continuous
 62
     7
370
    15
100
AcDbLine
 10
108.1202146282
 20
126.6440804608
 30
0.0
 11
107.6276175135
 21
126.6440804608
 31
0.0
  0
LINE
  5
17C
330
1F
100
AcDbEntity
  8
0
  6
Continuous
 62
     7
370
    15
100
AcDbLine
 10
113.6276175135
 20
127.4440804608
 30
0.0
 11
109.6276175135
 21
127.4440804608
 31
0.0
  0
SPLINE
  5
17D
330
1F
100
AcDbEntity
  8
0
  6
Continuous
 62
     8
370
    15
100
AcDbSpline
210
0.0
220
0.0
230
1.0
 70
     8
 71
     3
 72
    14
 73
    10
 74
     0
 42
0.00000001
 43
0.00000001
 12
1.0
 22
0.0
 32
0.0
 13
1.0
 23
0.0
 33
0.0
 40
0.0
 40
0.0
 40
0.0
 40
0.0
 40
0.1055867563971779
 40
0.2763745395742084
 40
0.4471416773502589
 40
0.618054507975115
 40
0.7889977462450656
 40
0.9598105068997732
 40
1.0
 40
1.0
 40
1.0
 40
1.0
 10
142.0822106921468
 20
129.456736577554
 30
0.0
 10
142.1022620671886
 20
129.4555370197568
 30
0.0
 10
142.1547467701389
 20
129.4523971635362
 30
0.0
 10
142.2397640978355
 20
129.5512565116771
 30
0.0
 10
142.3372137868123
 20
129.7442387773253
 30
0.0
 10
142.4345710801289
 20
130.0260663674346
 30
0.0
 10
142.531914819146
 20
130.389857136389
 30
0.0
 10
142.6045169308263
 20
130.7005136448647
 30
0.0
 10
142.6446356640145
 20
130.9051109206138
 30
0.0
 10
142.6522770589378
 20
130.9440804607761
 30
0.0
  0
SPLINE
  5
17E
330
1F
100
AcDbEntity
  8
0
  6
Continuous
 62
     8
370
    15
100
AcDbSpline
210
0.0
220
0.0
230
1.0
 70
     8
 71
     3
 72
    13
 73
     9
 74
     0
 42
0.00000001
 43
0.00000001
 12
1.0
 22
0.0
 32
0.0
 13
1.0
 23
0.0
 33
0.0
 40
0.0
 40
0.0
 40
0.0
 40
0.0
 40
0.1578848104354686
 40
0.3291605920627081
 40
0.5003705607363675
 40
0.6714426200736142
 40
0.8425842536555173
 40
1.0
 40
1.0
 40
1.0
 40
1.0
 10
143.5134734019379
 20
135.9440804607761
 30
0.0
 10
143.5434246495348
 20
136.0866332084444
 30
0.0
 10
143.6058674542912
 20
136.3838292888858
 30
0.0
 10
143.7006859168498
 20
136.7540660145734
 30
0.0
 10
143.7980568529104
 20
137.0641117206827
 30
0.0
 10
143.8955231027221
 20
137.2854629135723
 30
0.0
 10
143.9903068614192
 20
137.4191488923226
 30
0.0
 10
144.0525779530696
 20
137.4324254406143
 30
0.0
 10
144.0824127733071
 20
137.4387863927217
 30
0.0
  0
SPLINE
  5
17F
330
1F
100
AcDbEntity
  8
0
  6
Continuous
 62
     8
370
    15
100
AcDbSpline
210
0.0
220
0.0
230
1.0
 70
     8
 71
     3
 72
    13
 73
     9
 74
     0
 42
0.00000001
 43
0.00000001
 12
1.0
 22
0.0
 32
0.0
 13
1.0
 23
0.0
 33
0.0
 40
0.0
 40
0.0
 40
0.0
 40
0.0
 40
0.1684271774326238
 40
0.3616288072523079
 40
0.5549190114979561
 40
0.748348141177638
 40
0.9417267522197327
 40
1.0
 40
1.0
 40
1.0
 40
1.0
 10
146.1481588276839
 20
129.4717634689827
 30
0.0
 10
146.1764327079603
 20
129.4942284337895
 30
0.0
 10
146.2371393573063
 20
129.5424628016146
 30
0.0
 10
146.3304229565607
 20
129.7290309705387
 30
0.0
 10
146.4278284320361
 20
130.0030568286617
 30
0.0
 10
146.5251753624067
 20
130.3628660517123
 30
0.0
 10
146.5998758919524
 20
130.680392318714
 30
0.0
 10
146.6421639662473
 20
130.8945008555368
 30
0.0
 10
146.6519563176452
 20
130.9440804607761
 30
0.0
  0
SPLINE
  5
180
330
1F
100
AcDbEntity
  8
0
  6
Continuous
 62
     8
370
    15
100
AcDbSpline
210
0.0
220
0.0
230
1.0
 70
     8
 71
     3
 72
    14
 73
    10
 74
     0
 42
0.00000001
 43
0.00000001
 12
1.0
 22
0.0
 32
0.0
 13
1.0
 23
0.0
 33
0.0
 40
0.0
 40
0.0
 40
0.0
 40
0.0
 40
0.1451333634069181
 40
0.3158956703793605
 40
0.4867025876582748
 40
0.6573868273179856
 40
0.8279928516402794
 40
0.9987330696737126
 40
1.0
 40
1.0
 40
1.0
 40
1.0
 10
147.5136923743382
 20
135.9440804607761
 30
0.0
 10
147.5413133581046
 20
136.0766610799211
 30
0.0
 10
147.6014328852662
 20
136.3652345862533
 30
0.0
 10
147.6939496838132
 20
136.7298912781683
 30
0.0
 10
147.7912928707601
 20
137.0437208710855
 30
0.0
 10
147.8887007864826
 20
137.2761123669958
 30
0.0
 10
147.9861685755588
 20
137.4058522639008
 30
0.0
 10
148.0513087237374
 20
137.4579799351
 30
0.0
 10
148.0840010043808
 20
137.4420990481536
 30
0.0
 10
148.0842418015928
 20
137.4419820764028
 30
0.0
  0
SPLINE
  5
181
330
1F
100
AcDbEntity
  8
0
  6
Continuous
 62
     8
370
    15
100
AcDbSpline
210
0.0
220
0.0
230
1.0
 70
     8
 71
     3
 72
    13
 73
     9
 74
     0
 42
0.00000001
 43
0.00000001
 12
1.0
 22
0.0
 32
0.0
 13
1.0
 23
0.0
 33
0.0
 40
0.0
 40
0.0
 40
0.0
 40
0.0
 40
0.1617341008632257
 40
0.3535947316987827
 40
0.5453773653913765
 40
0.7373146042009893
 40
0.9293256235076525
 40
0.9999999999999999
 40
0.9999999999999999
 40
0.9999999999999999
 40
0.9999999999999999
 10
150.1441860568968
 20
129.4704440415371
 30
0.0
 10
150.1715292525969
 20
129.4907473291869
 30
0.0
 10
150.2313089149919
 20
129.5351358379232
 30
0.0
 10
150.3235995820114
 20
129.7132390266547
 30
0.0
 10
150.4210648361672
 20
129.9804864730087
 30
0.0
 10
150.51843864444
 20
130.3355162458036
 30
0.0
 10
150.5952764910351
 20
130.6602666821489
 30
0.0
 10
150.6397241015634
 20
130.883910147764
 30
0.0
 10
150.6516825401021
 20
130.9440804607761
 30
0.0
  0
SPLINE
  5
182
330
1F
100
AcDbEntity
  8
0
  6
Continuous
 62
     8
370
    15
100
AcDbSpline
210
0.0
220
0.0
230
1.0
 70
     8
 71
     3
 72
     9
 73
     5
 74
     0
 42
0.00000001
 43
0.00000001
 12
1.0
 22
0.0
 32
0.0
 13
1.0
 23
0.0
 33
0.0
 40
0.0
 40
0.0
 40
0.0
 40
0.0
 40
0.667020062142186
 40
1.0
 40
1.0
 40
1.0
 40
1.0
 10
151.5139247872011
 20
135.9440804607761
 30
0.0
 10
151.5392092127164
 20
136.0693202321243
 30
0.0
 10
151.5771157569875
 20
136.2570803587777
 30
0.0
 10
151.6150021160541
 20
136.4051533948786
 30
0.0
 10
151.6276175135418
 20
136.4544587452379
 30
0.0
  0
SPLINE
  5
183
330
1F
100
AcDbEntity
  8
0
  6
Continuous
 62
     8
370
    15
100
AcDbSpline
210
0.0
220
0.0
230
1.0
 70
     8
 71
     3
 72
    11
 73
     7
 74
     0
 42
0.00000001
 43
0.00000001
 12
1.0
 22
0.0
 32
0.0
 13
1.0
 23
0.0
 33
0.0
 40
0.0
 40
0.0
 40
0.0
 40
0.0
 40
0.2578700154774858
 40
0.6221379802428612
 40
0.9864499842670758
 40
1.0
 40
1.0
 40
1.0
 40
1.0
 10
151.8130675627725
 20
137.0795305100068
 30
0.0
 10
151.8360265435886
 20
137.1388447195319
 30
0.0
 10
151.8914174502315
 20
137.2819463610519
 30
0.0
 10
151.9793554202072
 20
137.3983302666618
 30
0.0
 10
152.0455168739451
 20
137.4566213454299
 30
0.0
 10
152.0791612099007
 20
137.4417628721901
 30
0.0
 10
152.0803676854333
 20
137.4412300519128
 30
0.0
  0
SPLINE
  5
184
330
1F
100
AcDbEntity
  8
0
  6
Continuous
 62
     8
370
    15
100
AcDbSpline
210
0.0
220
0.0
230
1.0
 70
     8
 71
     3
 72
    20
 73
    16
 74
     0
 42
0.00000001
 43
0.00000001
 12
1.0
 22
0.0
 32
0.0
 13
1.0
 23
0.0
 33
0.0
 40
0.0
 40
0.0
 40
0.0
 40
0.0
 40
0.0772549905717312
 40
0.1544585910559897
 40
0.231716664562529
 40
0.3090327786569037
 40
0.3863239692331427
 40
0.4635502304423468
 40
0.5408023171462712
 40
0.6181133655943217
 40
0.6954110370842691
 40
0.7726429263010078
 40
0.8498840607024838
 40
0.9271892547933578
 40
1.0
 40
1.0
 40
1.0
 40
1.0
 10
153.3428953052642
 20
131.6588679445498
 30
0.0
 10
153.3104369087966
 20
131.8732631612341
 30
0.0
 10
153.2455417072153
 20
132.3019109787164
 30
0.0
 10
153.1480619832567
 20
132.9833541993966
 30
0.0
 10
153.0506680064009
 20
133.672775241997
 30
0.0
 10
152.9533285987226
 20
134.357652380136
 30
0.0
 10
152.8559643739034
 20
135.0214818999822
 30
0.0
 10
152.758500073938
 20
135.6485054825442
 30
0.0
 10
152.6610823494638
 20
136.222383407284
 30
0.0
 10
152.5637373517441
 20
136.7320872790979
 30
0.0
 10
152.466380805405
 20
137.1663437166378
 30
0.0
 10
152.3689299615078
 20
137.5145442611923
 30
0.0
 10
152.2714931237573
 20
137.7622131491657
 30
0.0
 10
152.1760374529117
 20
137.9153585084067
 30
0.0
 10
152.1129908919149
 20
137.9318811931632
 30
0.0
 10
152.0824114137438
 20
137.93989519218
 30
0.0
  0
SPLINE
  5
185
330
1F
100
AcDbEntity
  8
0
  6
Continuous
 62
     8
370
    15
100
AcDbSpline
210
0.0
220
0.0
230
1.0
 70
     8
 71
     3
 72
    29
 73
    25
 74
     0
 42
0.00000001
 43
0.00000001
 12
1.0
 22
0.0
 32
0.0
 13
1.0
 23
0.0
 33
0.0
 40
0.0
 40
0.0
 40
0.0
 40
0.0
 40
0.0269831049569393
 40
0.0756042208640152
 40
0.1242341944917757
 40
0.1729040946465764
 40
0.221571853488444
 40
0.2701986195469513
 40
0.318822373591663
 40
0.3674876598442878
 40
0.4161594238011555
 40
0.4647928491815688
 40
0.5134116897425378
 40
0.5620712965038172
 40
0.6107457506903559
 40
0.6593863475488722
 40
0.7080021357849686
 40
0.7566552298679518
 40
0.8053309598750923
 40
0.8539788079070286
 40
0.9025937388869545
 40
0.9512397727166707
 40
0.9999153178373024
 40
1.0
 40
1.0
 40
1.0
 40
1.0
 10
150.0854418596318
 20
128.9586936821361
 30
0.0
 10
150.0674430366082
 20
128.9560881402984
 30
0.0
 10
150.0170119615583
 20
128.9487876476058
 30
0.0
 10
149.9340276215487
 20
129.0522378772968
 30
0.0
 10
149.836599757602
 20
129.2611688732984
 30
0.0
 10
149.7392510494347
 20
129.571762759611
 30
0.0
 10
149.6419003810045
 20
129.9696943206849
 30
0.0
 10
149.5444609309769
 20
130.44872774728
 30
0.0
 10
149.4470131187807
 20
130.9999805986089
 30
0.0
 10
149.3496586973795
 20
131.607971383048
 30
0.0
 10
149.2523131022079
 20
132.2579787120169
 30
0.0
 10
149.1548917072173
 20
132.9355435114659
 30
0.0
 10
149.0574298768346
 20
133.6254240308584
 30
0.0
 10
148.960066342615
 20
134.3108393104867
 30
0.0
 10
148.8627239615801
 20
134.9763541544515
 30
0.0
 10
148.7653206699991
 20
135.6067653558268
 30
0.0
 10
148.6678500206574
 20
136.1855009225258
 30
0.0
 10
148.5704743397001
 20
136.6991984909291
 30
0.0
 10
148.4731335363132
 20
137.1384745694403
 30
0.0
 10
148.3757464253908
 20
137.4921243059677
 30
0.0
 10
148.278275218771
 20
137.7530069058697
 30
0.0
 10
148.1808773419289
 20
137.8983099985982
 30
0.0
 10
148.1159422364737
 20
137.9590465225318
 30
0.0
 10
148.0834065908656
 20
137.942053108603
 30
0.0
 10
148.0833500860258
 20
137.9420235960449
 30
0.0
  0
SPLINE
  5
186
330
1F
100
AcDbEntity
  8
0
  6
Continuous
 62
     8
370
    15
100
AcDbSpline
210
0.0
220
0.0
230
1.0
 70
     8
 71
     3
 72
    29
 73
    25
 74
     0
 42
0.00000001
 43
0.00000001
 12
1.0
 22
0.0
 32
0.0
 13
1.0
 23
0.0
 33
0.0
 40
0.0
 40
0.0
 40
0.0
 40
0.0
 40
0.0252167776743697
 40
0.0737853669521899
 40
0.1223229028960052
 40
0.1708933034878445
 40
0.2194915416667485
 40
0.2680671799579148
 40
0.316605571793146
 40
0.3651687327554249
 40
0.4137656971448045
 40
0.4623478377460398
 40
0.5108892770468033
 40
0.5594452779479543
 40
0.6080395563904912
 40
0.6566273674413018
 40
0.7051737124035348
 40
0.7537230645844403
 40
0.802313344288144
 40
0.8509057618958064
 40
0.8994583165395076
 40
0.9480020275640161
 40
0.9965871472859726
 40
1.0
 40
1.0
 40
1.0
 40
1.0
 10
146.0887440848871
 20
128.9592893952384
 30
0.0
 10
146.0718996117534
 20
128.9559033988994
 30
0.0
 10
146.0226119649601
 20
128.9459958292013
 30
0.0
 10
145.9408482923126
 20
129.0421474003615
 30
0.0
 10
145.843375592238
 20
129.2420890679448
 30
0.0
 10
145.7459888817111
 20
129.5471426658737
 30
0.0
 10
145.6486479709628
 20
129.9401530110626
 30
0.0
 10
145.5512723187587
 20
130.4139056439588
 30
0.0
 10
145.4538016617167
 20
130.9593465818143
 30
0.0
 10
145.3563983721999
 20
131.5642271390139
 30
0.0
 10
145.259055990607
 20
132.2121980272635
 30
0.0
 10
145.1616924565526
 20
132.8884340514737
 30
0.0
 10
145.0642306260697
 20
133.5779117650216
 30
0.0
 10
144.9668092313211
 20
134.2640948262468
 30
0.0
 10
144.8694636352901
 20
134.9311700409411
 30
0.0
 10
144.772109217093
 20
135.5642099493036
 30
0.0
 10
144.6746613929564
 20
136.1481033413125
 30
0.0
 10
144.5772219874989
 20
136.6666554412735
 30
0.0
 10
144.4798711525859
 20
137.1105082526385
 30
0.0
 10
144.3825230657002
 20
137.4695985066147
 30
0.0
 10
144.2850928850679
 20
137.738658160867
 30
0.0
 10
144.1876360098556
 20
137.8928853612467
 30
0.0
 10
144.1204681733808
 20
137.956607371463
 30
0.0
 10
144.0857299879539
 20
137.9397062494001
 30
0.0
 10
144.0834499700059
 20
137.9385969553719
 30
0.0
  0
SPLINE
  5
187
330
1F
100
AcDbEntity
  8
0
  6
Continuous
 62
     8
370
    15
100
AcDbSpline
210
0.0
220
0.0
230
1.0
 70
     8
 71
     3
 72
    20
 73
    16
 74
     0
 42
0.00000001
 43
0.00000001
 12
1.0
 22
0.0
 32
0.0
 13
1.0
 23
0.0
 33
0.0
 40
0.0
 40
0.0
 40
0.0
 40
0.0
 40
0.03344107919454
 40
0.1140287639118219
 40
0.1945496688724102
 40
0.2750609360843033
 40
0.3556407787800888
 40
0.4362345664389947
 40
0.5167668887526106
 40
0.5972722889835411
 40
0.6778453755765607
 40
0.7584444439764326
 40
0.8389830073009621
 40
0.9194647845997186
 40
1.0
 40
1.0
 40
1.0
 40
1.0
 10
142.0853933067007
 20
128.9586625881432
 30
0.0
 10
142.0719208674421
 20
128.9553790520284
 30
0.0
 10
142.0259819912891
 20
128.9441827158618
 30
0.0
 10
141.9476298086278
 20
129.0338647471822
 30
0.0
 10
141.8501922114059
 20
129.2240570017977
 30
0.0
 10
141.7527415709633
 20
129.5223589895035
 30
0.0
 10
141.655384970063
 20
129.9103184694586
 30
0.0
 10
141.5580399869673
 20
130.379640210377
 30
0.0
 10
141.4606222585786
 20
130.9196500374273
 30
0.0
 10
141.3631579596627
 20
131.520518907625
 30
0.0
 10
141.265793734566
 20
132.1663411076006
 30
0.0
 10
141.1684543269573
 20
132.8415115533147
 30
0.0
 10
141.0710603501107
 20
133.5299661974211
 30
0.0
 10
140.9735806801645
 20
134.2188256094025
 30
0.0
 10
140.9086855328104
 20
134.6596422292645
 30
0.0
 10
140.8762271904765
 20
134.880123688007
 30
0.0
  0
SPLINE
  5
188
330
1F
100
AcDbEntity
  8
0
  6
Continuous
 62
     8
370
    15
100
AcDbSpline
210
0.0
220
0.0
230
1.0
 70
     8
 71
     3
 72
    12
 73
     8
 74
     0
 42
0.00000001
 43
0.00000001
 12
1.0
 22
0.0
 32
0.0
 13
1.0
 23
0.0
 33
0.0
 40
0.0
 40
0.0
 40
0.0
 40
0.0
 40
0.2322880477087236
 40
0.3600172310936
 40
0.4880925885208724
 40
0.7447810739418258
 40
1.0
 40
1.0
 40
1.0
 40
1.0
 10
141.1234334961211
 20
134.803179338513
 30
0.0
 10
141.12034535304
 20
134.8126609221704
 30
0.0
 10
141.1155591200321
 20
134.8273561831982
 30
0.0
 10
141.0852908722455
 20
134.844952360796
 30
0.0
 10
141.043387771462
 20
134.8608398368026
 30
0.0
 10
140.9739299241031
 20
134.8762013972582
 30
0.0
 10
140.9087323796859
 20
134.8788187623597
 30
0.0
 10
140.8762271904765
 20
134.880123688007
 30
0.0
  0
SPLINE
  5
189
330
1F
100
AcDbEntity
  8
0
  6
Continuous
 62
     8
370
    15
100
AcDbSpline
210
0.0
220
0.0
230
1.0
 70
     8
 71
     3
 72
    13
 73
     9
 74
     0
 42
0.00000001
 43
0.00000001
 12
1.0
 22
0.0
 32
0.0
 13
1.0
 23
0.0
 33
0.0
 40
0.0
 40
0.0
 40
0.0
 40
0.0
 40
0.0319063152238344
 40
0.2740270973988896
 40
0.3948118861868474
 40
0.5159240281877517
 40
0.758656845187111
 40
1.0
 40
1.0
 40
1.0
 40
1.0
 10
140.629734394391
 20
134.7963199600734
 30
0.0
 10
140.6288469949107
 20
134.7976601528573
 30
0.0
 10
140.6212255725652
 20
134.8091703863626
 30
0.0
 10
140.6374464701688
 20
134.8265365939738
 30
0.0
 10
140.6667912010502
 20
134.8449506946665
 30
0.0
 10
140.7092837448866
 20
134.8608476789456
 30
0.0
 10
140.7784579870024
 20
134.8762047356765
 30
0.0
 10
140.8437007450684
 20
134.8788228344398
 30
0.0
 10
140.8762284762041
 20
134.8801281258651
 30
0.0
  0
SPLINE
  5
18A
330
1F
100
AcDbEntity
  8
0
  6
Continuous
 62
     8
370
    15
100
AcDbSpline
210
0.0
220
0.0
230
1.0
 70
     8
 71
     3
 72
    13
 73
     9
 74
     0
 42
0.00000001
 43
0.00000001
 12
1.0
 22
0.0
 32
0.0
 13
1.0
 23
0.0
 33
0.0
 40
0.0
 40
0.0
 40
0.0
 40
0.0
 40
0.1462936767879638
 40
0.3170181711240938
 40
0.4877629959428828
 40
0.6586486912117187
 40
0.8295338955328939
 40
1.0
 40
1.0
 40
1.0
 40
1.0
 10
140.0830525791602
 20
137.4366187382394
 30
0.0
 10
140.0552623598721
 20
137.4325808595597
 30
0.0
 10
139.9950409976966
 20
137.423830782712
 30
0.0
 10
139.9022611794178
 20
137.2978453065429
 30
0.0
 10
139.8048273848153
 20
137.0820301571112
 30
0.0
 10
139.707477211793
 20
136.7783799486373
 30
0.0
 10
139.6101814399451
 20
136.4036050832825
 30
0.0
 10
139.5452631994107
 20
136.0971299082483
 30
0.0
 10
139.5128439313785
 20
135.9440804607761
 30
0.0
  0
SPLINE
  5
18B
330
1F
100
AcDbEntity
  8
0
  6
Continuous
 62
     8
370
    15
100
AcDbSpline
210
0.0
220
0.0
230
1.0
 70
     8
 71
     3
 72
    14
 73
    10
 74
     0
 42
0.00000001
 43
0.00000001
 12
1.0
 22
0.0
 32
0.0
 13
1.0
 23
0.0
 33
0.0
 40
0.0
 40
0.0
 40
0.0
 40
0.0
 40
0.028498080003734
 40
0.19965209203361
 40
0.370891752661207
 40
0.5420397982564034
 40
0.7130668716505771
 40
0.8841958819601502
 40
1.0
 40
1.0
 40
1.0
 40
1.0
 10
138.6523521808495
 20
130.9440804607761
 30
0.0
 10
138.646942299416
 20
130.9163763952051
 30
0.0
 10
138.6090417059124
 20
130.7222870162589
 30
0.0
 10
138.5387032976251
 20
130.4188223366723
 30
0.0
 10
138.4413593899635
 20
130.0486852726144
 30
0.0
 10
138.3439773326891
 20
129.7607229327795
 30
0.0
 10
138.2465049425116
 20
129.5622237305294
 30
0.0
 10
138.1596260225906
 20
129.4565258343738
 30
0.0
 10
138.1052310414105
 20
129.4561749521694
 30
0.0
 10
138.0832776237009
 20
129.4560333386706
 30
0.0
  0
SPLINE
  5
18C
330
1F
100
AcDbEntity
  8
0
  6
Continuous
 62
     8
370
    15
100
AcDbSpline
210
0.0
220
0.0
230
1.0
 70
     8
 71
     3
 72
    14
 73
    10
 74
     0
 42
0.00000001
 43
0.00000001
 12
1.0
 22
0.0
 32
0.0
 13
1.0
 23
0.0
 33
0.0
 40
0.0
 40
0.0
 40
0.0
 40
0.0
 40
0.1327075011978909
 40
0.3040098602396181
 40
0.4751969119217375
 40
0.6464929158307011
 40
0.8178922971397288
 40
0.9892190089880261
 40
1.0
 40
1.0
 40
1.0
 40
1.0
 10
136.0818453412951
 20
137.4341923693299
 30
0.0
 10
136.0567110185595
 20
137.4316915050254
 30
0.0
 10
135.9991326460252
 20
137.4259624588086
 30
0.0
 10
135.9090801106624
 20
137.3087729073958
 30
0.0
 10
135.811606632705
 20
137.1004702343956
 30
0.0
 10
135.7142173759792
 20
136.8038553295236
 30
0.0
 10
135.6168712860805
 20
136.4247297763739
 30
0.0
 10
135.5499039942389
 20
136.1327466040699
 30
0.0
 10
135.5153678967481
 20
135.9546254437623
 30
0.0
 10
135.5133233190022
 20
135.9440804607761
 30
0.0
  0
SPLINE
  5
18D
330
1F
100
AcDbEntity
  8
0
  6
Continuous
 62
     8
370
    15
100
AcDbSpline
210
0.0
220
0.0
230
1.0
 70
     8
 71
     3
 72
    14
 73
    10
 74
     0
 42
0.00000001
 43
0.00000001
 12
1.0
 22
0.0
 32
0.0
 13
1.0
 23
0.0
 33
0.0
 40
0.0
 40
0.0
 40
0.0
 40
0.0
 40
0.017272046913611
 40
0.1876972274700829
 40
0.3582665256797321
 40
0.5288508682557654
 40
0.6992985577879469
 40
0.8697052542365356
 40
1.0
 40
1.0
 40
1.0
 40
1.0
 10
134.65276525528
 20
130.9440804607761
 30
0.0
 10
134.6494750392131
 20
130.9271219478454
 30
0.0
 10
134.6137199004849
 20
130.7428319285426
 30
0.0
 10
134.5454482550474
 20
130.4465019990156
 30
0.0
 10
134.4480991425094
 20
130.0716225041413
 30
0.0
 10
134.3507508228708
 20
129.7790338833995
 30
0.0
 10
134.2533267931282
 20
129.5724811433977
 30
0.0
 10
134.1635345206275
 20
129.4582791778198
 30
0.0
 10
134.1063056613403
 20
129.4553755711476
 30
0.0
 10
134.0815082422914
 20
129.4541174305468
 30
0.0
  0
SPLINE
  5
18E
330
1F
100
AcDbEntity
  8
0
  6
Continuous
 62
     8
370
    15
100
AcDbSpline
210
0.0
220
0.0
230
1.0
 70
     8
 71
     3
 72
    14
 73
    10
 74
     0
 42
0.00000001
 43
0.00000001
 12
1.0
 22
0.0
 32
0.0
 13
1.0
 23
0.0
 33
0.0
 40
0.0
 40
0.0
 40
0.0
 40
0.0
 40
0.1256087652738296
 40
0.2961910453571451
 40
0.4666341145623008
 40
0.637046299889546
 40
0.8076030940652347
 40
0.9781971210722078
 40
1.0
 40
1.0
 40
1.0
 40
1.0
 10
132.0849280864522
 20
137.4337033233365
 30
0.0
 10
132.0610198414534
 20
137.4325826881683
 30
0.0
 10
132.0046431382561
 20
137.429940180687
 30
0.0
 10
131.9158585799577
 20
137.3186263678585
 30
0.0
 10
131.8184255501093
 20
137.1182598378484
 30
0.0
 10
131.7209729523601
 20
136.8275970137414
 30
0.0
 10
131.6236072928122
 20
136.4533058353201
 30
0.0
 10
131.554567133965
 20
136.1533916322874
 30
0.0
 10
131.5179236652065
 20
135.9653857395542
 30
0.0
 10
131.5137711394216
 20
135.9440804607761
 30
0.0
  0
SPLINE
  5
18F
330
1F
100
AcDbEntity
  8
0
  6
Continuous
 62
     8
370
    15
100
AcDbSpline
210
0.0
220
0.0
230
1.0
 70
     8
 71
     3
 72
    14
 73
    10
 74
     0
 42
0.00000001
 43
0.00000001
 12
1.0
 22
0.0
 32
0.0
 13
1.0
 23
0.0
 33
0.0
 40
0.0
 40
0.0
 40
0.0
 40
0.0
 40
0.0060718741408721
 40
0.1766332707176012
 40
0.3472891414547275
 40
0.5180583882191614
 40
0.6887688045422059
 40
0.8593392163147175
 40
1.0
 40
1.0
 40
1.0
 40
1.0
 10
130.653130380035
 20
130.9440804607761
 30
0.0
 10
130.6519755074129
 20
130.938097792104
 30
0.0
 10
130.618379796473
 20
130.7640595444946
 30
0.0
 10
130.5522301827652
 20
130.4741913688883
 30
0.0
 10
130.4548403039877
 20
130.0943684412682
 30
0.0
 10
130.3574952438751
 20
129.7972786534183
 30
0.0
 10
130.2601314749271
 20
129.5846577599096
 30
0.0
 10
130.1683659961238
 20
129.4608861430047
 30
0.0
 10
130.1091571172445
 20
129.4547309253456
 30
0.0
 10
130.0823976939417
 20
129.4519490777919
 30
0.0
  0
LINE
  5
190
330
1F
100
AcDbEntity
  8
0
  6
Continuous
 62
     8
370
    15
100
AcDbLine
 10
130.0815204903
 20
128.9526451687
 30
0.0
 11
130.0867354965
 21
128.9543561288
 31
0.0
  0
SPLINE
  5
191
330
1F
100
AcDbEntity
  8
0
  6
Continuous
 62
     8
370
    15
100
AcDbSpline
210
0.0
220
0.0
230
1.0
 70
     8
 71
     3
 72
    29
 73
    25
 74
     0
 42
0.00000001
 43
0.00000001
 12
1.0
 22
0.0
 32
0.0
 13
1.0
 23
0.0
 33
0.0
 40
0.0
 40
0.0
 40
0.0
 40
0.0
 40
0.0138295567025973
 40
0.0624577548246512
 40
0.1110829408442044
 40
0.1597496602948018
 40
0.2084228576404125
 40
0.2570577152804976
 40
0.305677987671614
 40
0.3543390274636124
 40
0.4030149151181307
 40
0.4516569444475343
 40
0.5002741644239153
 40
0.5489286913458619
 40
0.5976058548586086
 40
0.6462551355750322
 40
0.6948714982700392
 40
0.7435189647308206
 40
0.7921959433516262
 40
0.8408521763182035
 40
0.889469967995441
 40
0.9381101653549762
 40
0.9867855050151051
 40
0.9999999999999999
 40
0.9999999999999999
 40
0.9999999999999999
 40
0.9999999999999999
 10
132.0829271315348
 20
137.9319168687466
 30
0.0
 10
132.092151399238
 20
137.9351367149552
 30
0.0
 10
132.1338105111699
 20
137.9496783499038
 30
0.0
 10
132.2079981378046
 20
137.8706974690858
 30
0.0
 10
132.3054416355031
 20
137.6893956359328
 30
0.0
 10
132.4027972139418
 20
137.4014922428256
 30
0.0
 10
132.5001424990115
 20
137.0250905271061
 30
0.0
 10
132.5975639770145
 20
136.5653543439331
 30
0.0
 10
132.6950257852089
 20
136.0305639232971
 30
0.0
 10
132.7923893251977
 20
135.4352460489577
 30
0.0
 10
132.8897317053521
 20
134.7943805562139
 30
0.0
 10
132.9871349946771
 20
134.122313209003
 30
0.0
 10
133.0846056539142
 20
133.4338782253591
 30
0.0
 10
133.1819812975154
 20
132.7458765114109
 30
0.0
 10
133.2793222404875
 20
132.0739619763874
 30
0.0
 10
133.3767088308078
 20
131.4333800803343
 30
0.0
 10
133.4741819792557
 20
130.840461795774
 30
0.0
 10
133.5715726041383
 20
130.3097584537589
 30
0.0
 10
133.6689136710154
 20
129.8509412672519
 30
0.0
 10
133.7662862826766
 20
129.4749908312132
 30
0.0
 10
133.8637541461564
 20
129.1904480470766
 30
0.0
 10
133.9611661596153
 20
129.0160147692841
 30
0.0
 10
134.034859243084
 20
128.9384212704163
 30
0.0
 10
134.0761511377177
 20
128.953118624635
 30
0.0
 10
134.0849676346058
 20
128.9562567508673
 30
0.0
  0
SPLINE
  5
192
330
1F
100
AcDbEntity
  8
0
  6
Continuous
 62
     8
370
    15
100
AcDbSpline
210
0.0
220
0.0
230
1.0
 70
     8
 71
     3
 72
    29
 73
    25
 74
     0
 42
0.00000001
 43
0.00000001
 12
1.0
 22
0.0
 32
0.0
 13
1.0
 23
0.0
 33
0.0
 40
0.0
 40
0.0
 40
0.0
 40
0.0
 40
0.0121170973977746
 40
0.0606697988026164
 40
0.1091852713388925
 40
0.1577255013065101
 40
0.2062995187396266
 40
0.2548587193842373
 40
0.3033772379470966
 40
0.3519103112345211
 40
0.4004816439890987
 40
0.4490465124057819
 40
0.497569934313723
 40
0.5460963620203617
 40
0.5946636979242711
 40
0.643233170722649
 40
0.691762799379928
 40
0.740283588593882
 40
0.7888457669525559
 40
0.837418601859935
 40
0.8859551871560966
 40
0.9344719377011497
 40
0.9830280044022557
 40
0.9999999999999999
 40
0.9999999999999999
 40
0.9999999999999999
 40
0.9999999999999999
 10
136.0795367753016
 20
137.9322434474625
 30
0.0
 10
136.0876350194592
 20
137.9355023888142
 30
0.0
 10
136.1281825885322
 20
137.9518197715689
 30
0.0
 10
136.2011836077396
 20
137.8785408914365
 30
0.0
 10
136.2986539353466
 20
137.7067939982145
 30
0.0
 10
136.3960573131672
 20
137.424713433515
 30
0.0
 10
136.4933996710791
 20
137.0533716135424
 30
0.0
 10
136.5907632114728
 20
136.5987399683138
 30
0.0
 10
136.6882250402681
 20
136.0701293841847
 30
0.0
 10
136.785646435431
 20
135.4783056426605
 30
0.0
 10
136.8829920314963
 20
134.8397031785738
 30
0.0
 10
136.9803464491483
 20
134.1691222054449
 30
0.0
 10
137.0777942754353
 20
133.4814527139978
 30
0.0
 10
137.1752336728371
 20
132.7928958954456
 30
0.0
 10
137.2725845378447
 20
132.1196536730626
 30
0.0
 10
137.3699325124136
 20
131.4767451307067
 30
0.0
 10
137.467363111854
 20
130.8791683466877
 30
0.0
 10
137.5648184241468
 20
130.3434514633481
 30
0.0
 10
137.6621769876115
 20
129.8801916520451
 30
0.0
 10
137.7595207899739
 20
129.4990660706669
 30
0.0
 10
137.856932983963
 20
129.2068659017174
 30
0.0
 10
137.9544004256725
 20
129.023406556404
 30
0.0
 10
138.0306408344342
 20
128.9408635496564
 30
0.0
 10
138.0744359415492
 20
128.9544777749494
 30
0.0
 10
138.0857790263144
 20
128.9580039065583
 30
0.0
  0
SPLINE
  5
193
330
1F
100
AcDbEntity
  8
0
  6
Continuous
 62
     8
370
    15
100
AcDbSpline
210
0.0
220
0.0
230
1.0
 70
     8
 71
     3
 72
    16
 73
    12
 74
     0
 42
0.00000001
 43
0.00000001
 12
1.0
 22
0.0
 32
0.0
 13
1.0
 23
0.0
 33
0.0
 40
0.0
 40
0.0
 40
0.0
 40
0.0
 40
0.0159772805360239
 40
0.1390547744125544
 40
0.2620384024853263
 40
0.3849809169368018
 40
0.5080267975168578
 40
0.6311123557912818
 40
0.7541055147225765
 40
0.8770119537968732
 40
1.0
 40
1.0
 40
1.0
 40
1.0
 10
140.084416118985
 20
137.9361949342671
 30
0.0
 10
140.0886314157285
 20
137.9380000469897
 30
0.0
 10
140.1253183310286
 20
137.9537104516402
 30
0.0
 10
140.1944121280193
 20
137.884579827722
 30
0.0
 10
140.2918343590806
 20
137.7228663044692
 30
0.0
 10
140.3892974519975
 20
137.4479784855808
 30
0.0
 10
140.4866620004905
 20
137.0817876813647
 30
0.0
 10
140.5840013214169
 20
136.6317874798184
 30
0.0
 10
140.6813953214442
 20
136.1080779587436
 30
0.0
 10
140.7788749852963
 20
135.522946128469
 30
0.0
 10
140.8437701334635
 20
135.0944481965042
 30
0.0
 10
140.8762284762041
 20
134.8801281258651
 30
0.0
  0
SPLINE
  5
194
330
1F
100
AcDbEntity
  8
0
  6
Continuous
 62
     8
370
    15
100
AcDbSpline
210
0.0
220
0.0
230
1.0
 70
     8
 71
     3
 72
    12
 73
     8
 74
     0
 42
0.00000001
 43
0.00000001
 12
1.0
 22
0.0
 32
0.0
 13
1.0
 23
0.0
 33
0.0
 40
0.0
 40
0.0
 40
0.0
 40
0.0
 40
0.2966925495334655
 40
0.5950993915838131
 40
0.743991504323104
 40
0.8924797453026406
 40
1.0
 40
1.0
 40
1.0
 40
1.0
 10
128.4095618095441
 20
137.3636746111065
 30
0.0
 10
128.4420590754492
 20
137.3601229129053
 30
0.0
 10
128.5072413767866
 20
137.3529989947551
 30
0.0
 10
128.5770508665269
 20
137.3111545013997
 30
0.0
 10
128.6183572209626
 20
137.26761501849
 30
0.0
 10
128.6417151174544
 20
137.2337978010879
 30
0.0
 10
128.6454033735301
 20
137.2094552038283
 30
0.0
 10
128.6469523933452
 20
137.1992316280425
 30
0.0
  0
SPLINE
  5
195
330
1F
100
AcDbEntity
  8
0
  6
Continuous
 62
     8
370
    15
100
AcDbSpline
210
0.0
220
0.0
230
1.0
 70
     8
 71
     3
 72
    13
 73
     9
 74
     0
 42
0.00000001
 43
0.00000001
 12
1.0
 22
0.0
 32
0.0
 13
1.0
 23
0.0
 33
0.0
 40
0.0
 40
0.0
 40
0.0
 40
0.0
 40
0.2124068740402998
 40
0.4260410371175095
 40
0.53263524814572
 40
0.638940321013738
 40
0.8520345925758145
 40
0.9999999999999999
 40
0.9999999999999999
 40
0.9999999999999999
 40
0.9999999999999999
 10
128.4095605238164
 20
137.3636725046325
 30
0.0
 10
128.3770241500738
 20
137.3601268384913
 30
0.0
 10
128.3117634070967
 20
137.3530150193146
 30
0.0
 10
128.2424459547815
 20
137.3110946797691
 30
0.0
 10
128.2001169438639
 20
137.2677129066265
 30
0.0
 10
128.1699485225271
 20
137.2173747829246
 30
0.0
 10
128.1534970900319
 20
137.1540161159469
 30
0.0
 10
128.1674629194164
 20
137.1071645028157
 30
0.0
 10
128.1731862381783
 20
137.0879643028795
 30
0.0
  0
SPLINE
  5
196
330
1F
100
AcDbEntity
  8
0
  6
Continuous
 62
     8
370
    15
100
AcDbSpline
210
0.0
220
0.0
230
1.0
 70
     8
 71
     3
 72
    11
 73
     7
 74
     0
 42
0.00000001
 43
0.00000001
 12
1.0
 22
0.0
 32
0.0
 13
1.0
 23
0.0
 33
0.0
 40
0.0
 40
0.0
 40
0.0
 40
0.0
 40
0.2960196147526297
 40
0.5918428095149535
 40
0.8878747300799038
 40
1.0
 40
1.0
 40
1.0
 40
1.0
 10
128.409561809544
 20
137.3636747069046
 30
0.0
 10
128.377103355087
 20
137.4681695702071
 30
0.0
 10
128.3122079835609
 20
137.6770899605958
 30
0.0
 10
128.2147299944542
 20
137.8601051583895
 30
0.0
 10
128.1375233497288
 20
137.9463516723332
 30
0.0
 10
128.0927986243474
 20
137.9333253723624
 30
0.0
 10
128.080512250317
 20
137.9297469044723
 30
0.0
  0
SPLINE
  5
197
330
1F
100
AcDbEntity
  8
0
  6
Continuous
 62
     8
370
    15
100
AcDbSpline
210
0.0
220
0.0
230
1.0
 70
     8
 71
     3
 72
    29
 73
    25
 74
     0
 42
0.00000001
 43
0.00000001
 12
1.0
 22
0.0
 32
0.0
 13
1.0
 23
0.0
 33
0.0
 40
0.0
 40
0.0
 40
0.0
 40
0.0
 40
0.0049540647062951
 40
0.053678312764317
 40
0.1023763567695282
 40
0.1510397997832114
 40
0.1997323992674947
 40
0.2484560909284444
 40
0.2971609627265796
 40
0.3458263978802198
 40
0.3945117285706065
 40
0.443233419962893
 40
0.4919444221483764
 40
0.540613908347822
 40
0.5892922610799896
 40
0.6380105800597572
 40
0.6867267555963225
 40
0.7354018975682078
 40
0.784074024529809
 40
0.8327877250172696
 40
0.881507909653256
 40
0.9301897175719901
 40
0.9788569261617005
 40
1.0
 40
1.0
 40
1.0
 40
1.0
 10
126.0819693258163
 20
128.950651092321
 30
0.0
 10
126.0786666380513
 20
128.9491693742886
 30
0.0
 10
126.0428813350078
 20
128.9331146538347
 30
0.0
 10
125.9746993960395
 20
129.0007029544858
 30
0.0
 10
125.8773100850607
 20
129.1588168890484
 30
0.0
 10
125.7798391199267
 20
129.4294993775885
 30
0.0
 10
125.6824438861872
 20
129.7930686209303
 30
0.0
 10
125.5851025538765
 20
130.2411944804815
 30
0.0
 10
125.4877333602906
 20
130.7625387266062
 30
0.0
 10
125.3902664241714
 20
131.347245705021
 30
0.0
 10
125.2928540946701
 20
131.982221439763
 30
0.0
 10
125.1955103286558
 20
132.6507184795926
 30
0.0
 10
125.0981517554287
 20
133.3374163892298
 30
0.0
 10
125.0006964458456
 20
134.0268220064467
 30
0.0
 10
124.9032658453217
 20
134.7021304446525
 30
0.0
 10
124.8059178723744
 20
135.3481378775599
 30
0.0
 10
124.7085670019596
 20
135.9505633336602
 30
0.0
 10
124.6111276245421
 20
136.4949753952862
 30
0.0
 10
124.5136797237138
 20
136.9658718373363
 30
0.0
 10
124.4163255844848
 20
137.3542147349499
 30
0.0
 10
124.3189789492924
 20
137.6546579033951
 30
0.0
 10
124.2215614289456
 20
137.8518535373023
 30
0.0
 10
124.14248157303
 20
137.9442800688157
 30
0.0
 10
124.0959577440354
 20
137.9331600835199
 30
0.0
 10
124.081867316129
 20
137.9297922319368
 30
0.0
  0
SPLINE
  5
198
330
1F
100
AcDbEntity
  8
0
  6
Continuous
 62
     8
370
    15
100
AcDbSpline
210
0.0
220
0.0
230
1.0
 70
     8
 71
     3
 72
    29
 73
    25
 74
     0
 42
0.00000001
 43
0.00000001
 12
1.0
 22
0.0
 32
0.0
 13
1.0
 23
0.0
 33
0.0
 40
0.0
 40
0.0
 40
0.0
 40
0.0
 40
0.0019806414831961
 40
0.0506719483025177
 40
0.0993675721567569
 40
0.1480239828577422
 40
0.196668630390837
 40
0.245354503830322
 40
0.2940531624706846
 40
0.3427166619747731
 40
0.3913577450626367
 40
0.4400372878559792
 40
0.4887375862422114
 40
0.5374083583299816
 40
0.5860480117510524
 40
0.634720598963642
 40
0.683421082330425
 40
0.7320989182618658
 40
0.7807394293750528
 40
0.8294047617267344
 40
0.8781039686241042
 40
0.9267883205457658
 40
0.975431885536037
 40
1.0
 40
1.0
 40
1.0
 40
1.0
 10
122.0827971788911
 20
128.9472092183382
 30
0.0
 10
122.0814754262478
 20
128.9465480369985
 30
0.0
 10
122.0476602294141
 20
128.92963263512
 30
0.0
 10
121.9814373229338
 20
128.9940169250122
 30
0.0
 10
121.8840833213093
 20
129.1450098021526
 30
0.0
 10
121.7866592574938
 20
129.4076047668419
 30
0.0
 10
121.6892000119896
 20
129.764239309117
 30
0.0
 10
121.5918391936916
 20
130.207756478742
 30
0.0
 10
121.4944961398678
 20
130.725124105697
 30
0.0
 10
121.3970883772069
 20
131.3052636593565
 30
0.0
 10
121.2996193753252
 20
131.9367933122815
 30
0.0
 10
121.2022470689189
 20
132.6037058753855
 30
0.0
 10
121.1049059201825
 20
133.289799077493
 30
0.0
 10
121.0075153173003
 20
133.9795569158735
 30
0.0
 10
120.9100421626666
 20
134.6567110966913
 30
0.0
 10
120.8126555751053
 20
135.3048595162765
 30
0.0
 10
120.7153146272825
 20
135.9102163015951
 30
0.0
 10
120.6179390003106
 20
136.4590908909686
 30
0.0
 10
120.520468279441
 20
136.936926491203
 30
0.0
 10
120.4230652201511
 20
137.3306241677142
 30
0.0
 10
120.325721980926
 20
137.6363370822216
 30
0.0
 10
120.2283616456291
 20
137.8405382569848
 30
0.0
 10
120.1469726196711
 20
137.9421573422222
 30
0.0
 10
120.0981293789851
 20
137.9331826303745
 30
0.0
 10
120.0817387383536
 20
137.9301709285587
 30
0.0
  0
SPLINE
  5
199
330
1F
100
AcDbEntity
  8
0
  6
Continuous
 62
     8
370
    15
100
AcDbSpline
210
0.0
220
0.0
230
1.0
 70
     8
 71
     3
 72
    29
 73
    25
 74
     0
 42
0.00000001
 43
0.00000001
 12
1.0
 22
0.0
 32
0.0
 13
1.0
 23
0.0
 33
0.0
 40
0.0
 40
0.0
 40
0.0
 40
0.0
 40
0.0001204597122752
 40
0.0493915614146285
 40
0.0986955675894115
 40
0.1479824997597488
 40
0.1972287991130419
 40
0.2464926806051208
 40
0.2957943895856931
 40
0.3450872829333969
 40
0.3943379375994791
 40
0.4435945776821805
 40
0.4928923181344714
 40
0.5421902009604727
 40
0.5914472326237722
 40
0.640698368589649
 40
0.6899914542179643
 40
0.7392930703948557
 40
0.7885570863925201
 40
0.8378046333517546
 40
0.8870935860711895
 40
0.9363984326343947
 40
0.9856662664440481
 40
1.0
 40
1.0
 40
1.0
 40
1.0
 10
118.0858406608336
 20
128.9445024832785
 30
0.0
 10
118.0857612443435
 20
128.9444572044839
 30
0.0
 10
118.0531984532378
 20
128.9258917411993
 30
0.0
 10
117.9881722352129
 20
128.9868302092517
 30
0.0
 10
117.8908283381388
 20
129.1311668630122
 30
0.0
 10
117.7934625582824
 20
129.387545476451
 30
0.0
 10
117.6959978136863
 20
129.7358036894645
 30
0.0
 10
117.5985811419012
 20
130.1741510408404
 30
0.0
 10
117.5012365808704
 20
130.6875204616243
 30
0.0
 10
117.4038801834311
 20
131.2640994747869
 30
0.0
 10
117.3064284159479
 20
131.8916839832787
 30
0.0
 10
117.2089932730671
 20
132.5567051465497
 30
0.0
 10
117.1116438349268
 20
133.242084037152
 30
0.0
 10
117.0142944330542
 20
133.9320896918167
 30
0.0
 10
116.916859425091
 20
134.6109948825026
 30
0.0
 10
116.8194080907294
 20
135.2617717962878
 30
0.0
 10
116.7220516769582
 20
135.8699799004448
 30
0.0
 10
116.6247066398229
 20
136.4225699847512
 30
0.0
 10
116.5272889403829
 20
136.9067545146126
 30
0.0
 10
116.4298245796787
 20
137.3071049148229
 30
0.0
 10
116.3324605729733
 20
137.6187079013413
 30
0.0
 10
116.2351203534334
 20
137.8266718758911
 30
0.0
 10
116.160725000219
 20
137.9314889749418
 30
0.0
 10
116.1187822385431
 20
137.9295500639866
 30
0.0
 10
116.109329698372
 20
137.9291130962486
 30
0.0
  0
SPLINE
  5
19A
330
1F
100
AcDbEntity
  8
0
  6
Continuous
 62
     8
370
    15
100
AcDbSpline
210
0.0
220
0.0
230
1.0
 70
     8
 71
     3
 72
    11
 73
     7
 74
     0
 42
0.00000001
 43
0.00000001
 12
1.0
 22
0.0
 32
0.0
 13
1.0
 23
0.0
 33
0.0
 40
0.0
 40
0.0
 40
0.0
 40
0.0
 40
0.0017516046182178
 40
0.4448896062351519
 40
0.8883540911883455
 40
1.0
 40
1.0
 40
1.0
 40
1.0
 10
118.0852184478658
 20
129.4445151600577
 30
0.0
 10
118.0853467030658
 20
129.4444549016432
 30
0.0
 10
118.1179222083166
 20
129.4291498824577
 30
0.0
 10
118.1830484629111
 20
129.4901012768825
 30
0.0
 10
118.2561163120806
 20
129.5744115987482
 30
0.0
 10
118.2967336933498
 20
129.6740423466917
 30
0.0
 10
118.304902815197
 20
129.6940804607761
 30
0.0
  0
SPLINE
  5
19B
330
1F
100
AcDbEntity
  8
0
  6
Continuous
 62
     8
370
    15
100
AcDbSpline
210
0.0
220
0.0
230
1.0
 70
     8
 71
     3
 72
    10
 73
     6
 74
     0
 42
0.00000001
 43
0.00000001
 12
1.0
 22
0.0
 32
0.0
 13
1.0
 23
0.0
 33
0.0
 40
0.0
 40
0.0
 40
0.0
 40
0.0
 40
0.3386354543354469
 40
0.7778314672880182
 40
0.9999999999999999
 40
0.9999999999999999
 40
0.9999999999999999
 40
0.9999999999999999
 10
119.8610183516195
 20
137.1940804607761
 30
0.0
 10
119.8860558879107
 20
137.2450463120808
 30
0.0
 10
119.943566060993
 20
137.3621127396932
 30
0.0
 10
120.0174545488814
 20
137.4387446321886
 30
0.0
 10
120.0663882569287
 20
137.433500644681
 30
0.0
 10
120.0828262867388
 20
137.4317390609708
 30
0.0
  0
SPLINE
  5
19C
330
1F
100
AcDbEntity
  8
0
  6
Continuous
 62
     8
370
    15
100
AcDbSpline
210
0.0
220
0.0
230
1.0
 70
     8
 71
     3
 72
    13
 73
     9
 74
     0
 42
0.00000001
 43
0.00000001
 12
1.0
 22
0.0
 32
0.0
 13
1.0
 23
0.0
 33
0.0
 40
0.0
 40
0.0
 40
0.0
 40
0.0
 40
0.16174316990376
 40
0.333051577761532
 40
0.5045048501611994
 40
0.6759732448945677
 40
0.8473042783806469
 40
1.0
 40
1.0
 40
1.0
 40
1.0
 10
122.0842702374307
 20
129.4474914782928
 30
0.0
 10
122.1149211242224
 20
129.4544235452296
 30
0.0
 10
122.1780355432846
 20
129.4686976306938
 30
0.0
 10
122.2736726472005
 20
129.609312705228
 30
0.0
 10
122.371024025757
 20
129.8335950821235
 30
0.0
 10
122.4683696036046
 20
130.144073507631
 30
0.0
 10
122.5622782803798
 20
130.5110751643593
 30
0.0
 10
122.6236929798622
 20
130.805387490695
 30
0.0
 10
122.6526342993913
 20
130.9440804607761
 30
0.0
  0
SPLINE
  5
19D
330
1F
100
AcDbEntity
  8
0
  6
Continuous
 62
     8
370
    15
100
AcDbSpline
210
0.0
220
0.0
230
1.0
 70
     8
 71
     3
 72
    14
 73
    10
 74
     0
 42
0.00000001
 43
0.00000001
 12
1.0
 22
0.0
 32
0.0
 13
1.0
 23
0.0
 33
0.0
 40
0.0
 40
0.0
 40
0.0
 40
0.0
 40
0.0447688474756605
 40
0.2154366859623413
 40
0.3860255700007997
 40
0.5564843311135531
 40
0.7270296247671165
 40
0.8976930132083519
 40
1.0
 40
1.0
 40
1.0
 40
1.0
 10
123.5142063560352
 20
135.9440804607761
 30
0.0
 10
123.5227279890292
 20
135.9873509540691
 30
0.0
 10
123.5637357985829
 20
136.195577258757
 30
0.0
 10
123.6371366695561
 20
136.5100869748567
 30
0.0
 10
123.7345178877799
 20
136.8732302078148
 30
0.0
 10
123.8319859321878
 20
137.1520129170048
 30
0.0
 10
123.9293925077968
 20
137.3390544785587
 30
0.0
 10
124.0137346697073
 20
137.4364072308989
 30
0.0
 10
124.0656822419384
 20
137.4329557723001
 30
0.0
 10
124.0851517524359
 20
137.4316621948232
 30
0.0
  0
SPLINE
  5
19E
330
1F
100
AcDbEntity
  8
0
  6
Continuous
 62
     8
370
    15
100
AcDbSpline
210
0.0
220
0.0
230
1.0
 70
     8
 71
     3
 72
    13
 73
     9
 74
     0
 42
0.00000001
 43
0.00000001
 12
1.0
 22
0.0
 32
0.0
 13
1.0
 23
0.0
 33
0.0
 40
0.0
 40
0.0
 40
0.0
 40
0.0
 40
0.1510712096321112
 40
0.3219645033146145
 40
0.4929524549957867
 40
0.6640540033238509
 40
0.8350966067318248
 40
1.0
 40
1.0
 40
1.0
 40
1.0
 10
126.0834212300341
 20
129.4504431784542
 30
0.0
 10
126.1120936487008
 20
129.4552446780307
 30
0.0
 10
126.1732005999019
 20
129.4654776829166
 30
0.0
 10
126.2668862153854
 20
129.5960378940145
 30
0.0
 10
126.3642838767599
 20
129.8148403660088
 30
0.0
 10
126.4616256406499
 20
130.1205951293493
 30
0.0
 10
126.5578562885675
 20
130.4927605442436
 30
0.0
 10
126.621685581625
 20
130.7954845211983
 30
0.0
 10
126.6530170072684
 20
130.9440804607761
 30
0.0
  0
SPLINE
  5
19F
330
1F
100
AcDbEntity
  8
0
  6
Continuous
 62
     8
370
    15
100
AcDbSpline
210
0.0
220
0.0
230
1.0
 70
     8
 71
     3
 72
    14
 73
    10
 74
     0
 42
0.00000001
 43
0.00000001
 12
1.0
 22
0.0
 32
0.0
 13
1.0
 23
0.0
 33
0.0
 40
0.0
 40
0.0
 40
0.0
 40
0.0
 40
0.0335045760947004
 40
0.2041665982562202
 40
0.3748580014094256
 40
0.5454199018442972
 40
0.7159250797878387
 40
0.8865728674924762
 40
1.0
 40
1.0
 40
1.0
 40
1.0
 10
127.5138610997464
 20
135.9440804607761
 30
0.0
 10
127.5202405683168
 20
135.976651497994
 30
0.0
 10
127.5591150907999
 20
136.1751293970025
 30
0.0
 10
127.6303990854491
 20
136.4820914329701
 30
0.0
 10
127.7277492300017
 20
136.8501200842935
 30
0.0
 10
127.8251652083826
 20
137.1356206711253
 30
0.0
 10
127.9226306887251
 20
137.3300898898424
 30
0.0
 10
128.0090961235049
 20
137.4332147972911
 30
0.0
 10
128.0631222566131
 20
137.4323056344277
 30
0.0
 10
128.0846941340402
 20
137.4319426184441
 30
0.0
  0
DIMENSION
  5
1A0
330
1F
100
AcDbEntity
  8
0
  6
Continuous
 62
     7
370
     0
100
AcDbDimension
  2
_D_3
 10
175.6276175135
 20
161.7079280472
 30
0.0
 11
138.8776175135
 21
161.7079280472
 31
0.0
 70
   160
  1
<>
 71
     2
 42
-1.0
  3
SLDDIMSTYLE0
100
AcDbAlignedDimension
 13
102.1276175135
 23
136.9440804608
 33
0.0
 14
175.6276175135
 24
135.4440804608
 34
0.0
100
AcDbRotatedDimension
  0
DIMENSION
  5
1AA
330
1F
100
AcDbEntity
  8
0
  6
Continuous
 62
     7
370
     0
100
AcDbDimension
  2
_D_4
 10
93.2315340723
 20
129.9440804608
 30
0.0
 11
93.2315340723
 21
133.4381081419
 31
0.0
 70
   160
  1
%%c<>
 71
     2
 42
-1.0
  3
SLDDIMSTYLE3
100
AcDbAlignedDimension
 13
102.1276175135
 23
136.9440804608
 33
0.0
 14
102.1276175135
 24
129.9440804608
 34
0.0
 50
90.0
100
AcDbRotatedDimension
  0
DIMENSION
  5
1B8
330
1F
100
AcDbEntity
  8
0
  6
Continuous
 62
     7
370
     0
100
AcDbDimension
  2
_D_5
 10
107.6276175135
 20
151.1191499339
 30
0.0
 11
113.6548559019
 21
151.1191499339
 31
0.0
 70
   160
  1
<>
 71
     2
 42
-1.0
  3
SLDDIMSTYLE4
100
AcDbAlignedDimension
 13
102.1276175135
 23
136.9440804608
 33
0.0
 14
107.6276175135
 24
140.2440804608
 34
0.0
100
AcDbRotatedDimension
  0
DIMENSION
  5
1C5
330
1F
100
AcDbEntity
  8
0
  6
Continuous
 62
     7
370
     0
100
AcDbDimension
  2
_D_6
 10
151.6276175135
 20
108.9601620901
 30
0.0
 11
136.6276175135
 21
108.9601620901
 31
0.0
 70
   160
  1
<>st
 71
     2
 42
-1.0
  3
SLDDIMSTYLE2
100
AcDbAlignedDimension
 13
121.6276175135
 23
129.6940804608
 33
0.0
 14
151.6276175135
 24
129.9940804608
 34
0.0
100
AcDbRotatedDimension
  0
DIMENSION
  5
1D0
330
1F
100
AcDbEntity
  8
0
  6
Continuous
 62
     7
370
     0
100
AcDbDimension
  2
_D_7
 10
173.6276175135
 20
108.9601620901
 30
0.0
 11
164.6276175135
 21
108.9601620901
 31
0.0
 70
   160
  1
<>
 71
     2
 42
-1.0
  3
SLDDIMSTYLE2
100
AcDbAlignedDimension
 13
155.6276175135
 23
127.7440804608
 33
0.0
 14
173.6276175135
 24
129.7440804608
 34
0.0
100
AcDbRotatedDimension
  0
DIMENSION
  5
1DA
330
1F
100
AcDbEntity
  8
0
  6
Continuous
 62
     7
370
     0
100
AcDbDimension
  2
_D_8
 10
184.367217045
 20
130.9440804608
 30
0.0
 11
184.367217045
 21
122.6679359452
 31
0.0
 70
   160
  1
%%c<>
 71
     2
 42
-1.0
  3
SLDDIMSTYLE3
100
AcDbAlignedDimension
 13
175.1276175135
 23
135.9440804608
 33
0.0
 14
175.1276175135
 24
130.9440804608
 34
0.0
 50
90.0
100
AcDbRotatedDimension
  0
DIMENSION
  5
1E7
330
1F
100
AcDbEntity
  8
0
  6
Continuous
 62
     7
370
     0
100
AcDbDimension
  2
_D_9
 10
193.4333884487
 20
129.4440804608
 30
0.0
 11
193.4333884487
 21
133.4440804608
 31
0.0
 70
   160
  1
%%c<>
 71
     2
 42
-1.0
  3
SLDDIMSTYLE2
100
AcDbAlignedDimension
 13
173.3276175135
 23
137.4440804608
 33
0.0
 14
173.3276175135
 24
129.4440804608
 34
0.0
 50
90.0
100
AcDbRotatedDimension
  0
ENDSEC
  0
SECTION
  2
OBJECTS
  0
DICTIONARY
  5
C
330
0
100
AcDbDictionary
281
     1
  3
ACAD_GROUP
350
D
  3
ACAD_LAYOUT
350
1A
  3
ACAD_MLINESTYLE
350
17
  3
ACAD_PLOTSETTINGS
350
19
  3
ACAD_PLOTSTYLENAME
350
E
  0
DICTIONARY
  5
D
102
{ACAD_REACTORS
330
C
102
}
330
C
100
AcDbDictionary
281
     1
  0
DICTIONARY
  5
1A
102
{ACAD_REACTORS
330
C
102
}
330
C
100
AcDbDictionary
281
     1
  3
Layout1
350
1E
  3
Layout2
350
26
  3
Model
350
22
  0
DICTIONARY
  5
17
102
{ACAD_REACTORS
330
C
102
}
330
C
100
AcDbDictionary
281
     1
  3
Standard
350
18
  0
DICTIONARY
  5
19
102
{ACAD_REACTORS
330
C
102
}
330
C
100
AcDbDictionary
281
     1
  0
ACDBDICTIONARYWDFLT
  5
E
102
{ACAD_REACTORS
330
C
102
}
330
C
100
AcDbDictionary
281
     1
  3
Normal
350
F
100
AcDbDictionaryWithDefault
340
F
  0
LAYOUT
  5
1E
102
{ACAD_REACTORS
330
1A
102
}
330
1A
100
AcDbPlotSettings
  1

  2
none_device
  4

  6

 40
0.0
 41
0.0
 42
0.0
 43
0.0
 44
0.0
 45
0.0
 46
0.0
 47
0.0
 48
0.0
 49
0.0
140
0.0
141
0.0
142
1.0
143
1.0
 70
   688
 72
     0
 73
     0
 74
     5
  7

 75
    16
147
1.0
148
0.0
149
0.0
100
AcDbLayout
  1
Layout1
 70
     1
 71
     1
 10
0.0
 20
0.0
 11
420.0
 21
297.0
 12
0.0
 22
0.0
 32
0.0
 14
1.0000000000E+20
 24
1.0000000000E+20
 34
1.0000000000E+20
 15
-1.0000000000E+20
 25
-1.0000000000E+20
 35
-1.0000000000E+20
146
0.0
 13
0.0
 23
0.0
 33
0.0
 16
1.0
 26
0.0
 36
0.0
 17
0.0
 27
1.0
 37
0.0
 76
     0
330
1B
  0
LAYOUT
  5
26
102
{ACAD_REACTORS
330
1A
102
}
330
1A
100
AcDbPlotSettings
  1

  2
none_device
  4

  6

 40
0.0
 41
0.0
 42
0.0
 43
0.0
 44
0.0
 45
0.0
 46
0.0
 47
0.0
 48
0.0
 49
0.0
140
0.0
141
0.0
142
1.0
143
1.0
 70
   688
 72
     0
 73
     0
 74
     5
  7

 75
    16
147
1.0
148
0.0
149
0.0
100
AcDbLayout
  1
Layout2
 70
     1
 71
     2
 10
0.0
 20
0.0
 11
0.0
 21
0.0
 12
0.0
 22
0.0
 32
0.0
 14
0.0
 24
0.0
 34
0.0
 15
0.0
 25
0.0
 35
0.0
146
0.0
 13
0.0
 23
0.0
 33
0.0
 16
1.0
 26
0.0
 36
0.0
 17
0.0
 27
1.0
 37
0.0
 76
     0
330
23
  0
LAYOUT
  5
22
102
{ACAD_REACTORS
330
1A
102
}
330
1A
100
AcDbPlotSettings
  1

  2
none_device
  4

  6

 40
0.0
 41
0.0
 42
0.0
 43
0.0
 44
0.0
 45
0.0
 46
0.0
 47
0.0
 48
0.0
 49
0.0
140
0.0
141
0.0
142
1.0
143
1.0
 70
  1712
 72
     0
 73
     0
 74
     0
  7

 75
     0
147
1.0
148
0.0
149
0.0
100
AcDbLayout
  1
Model
 70
     1
 71
     0
 10
0.0
 20
0.0
 11
210.0
 21
297.0
 12
0.0
 22
0.0
 32
0.0
 14
0.0
 24
0.0
 34
0.0
 15
210.0
 25
297.0
 35
0.0
146
0.0
 13
0.0
 23
0.0
 33
0.0
 16
1.0
 26
0.0
 36
0.0
 17
0.0
 27
1.0
 37
0.0
 76
     0
330
1F
331
29
  0
MLINESTYLE
  5
18
102
{ACAD_REACTORS
330
17
102
}
330
17
100
AcDbMlineStyle
  2
Standard
 70
     0
  3

 62
   256
 51
90.0
 52
90.0
 71
     2
 49
0.5
 62
   256
  6
BYLAYER
 49
-0.5
 62
   256
  6
BYLAYER
  0
ACDBPLACEHOLDER
  5
F
102
{ACAD_REACTORS
330
E
102
}
330
E
  0
ENDSEC
  0
EOF
