  0
SECTION
  2
HEADER
  9
$ACADVER
  1
AC1015
  9
$ACADMAINTVER
 70
     6
  9
$DWGCODEPAGE
  3
DOS932
  9
$INSBASE
 10
0.0
 20
0.0
 30
0.0
  9
$EXTMIN
 10
0.0
 20
0.0
 30
0.0
  9
$EXTMAX
 10
210.0
 20
297.0
 30
0.0
  9
$LIMMIN
 10
0.0
 20
0.0
  9
$LIMMAX
 10
210.0
 20
297.0
  9
$ORTHOMODE
 70
     0
  9
$REGENMODE
 70
     1
  9
$FILLMODE
 70
     1
  9
$QTEXTMODE
 70
     0
  9
$MIRRTEXT
 70
     1
  9
$LTSCALE
 40
1.0
  9
$ATTMODE
 70
     1
  9
$TEXTSIZE
 40
3.5
  9
$TRACEWID
 40
1.0
  9
$TEXTSTYLE
  7
Standard
  9
$CLAYER
  8
0
  9
$CELTYPE
  6
ByLayer
  9
$CECOLOR
 62
   256
  9
$CELTSCALE
 40
1.0
  9
$DISPSILH
 70
     0
  9
$DIMSCALE
 40
1.0
  9
$DIMASZ
 40
2.0
  9
$DIMEXO
 40
1.0
  9
$DIMDLI
 40
3.75
  9
$DIMRND
 40
0.0
  9
$DIMDLE
 40
0.0
  9
$DIMEXE
 40
1.0
  9
$DIMTP
 40
0.0
  9
$DIMTM
 40
0.0
  9
$DIMTXT
 40
3.5
  9
$DIMCEN
 40
2.5
  9
$DIMTSZ
 40
0.0
  9
$DIMTOL
 70
     0
  9
$DIMLIM
 70
     0
  9
$DIMTIH
 70
     1
  9
$DIMTOH
 70
     1
  9
$DIMSE1
 70
     0
  9
$DIMSE2
 70
     0
  9
$DIMTAD
 70
     1
  9
$DIMZIN
 70
     0
  9
$DIMBLK
  1

  9
$DIMASO
 70
     1
  9
$DIMSHO
 70
     1
  9
$DIMPOST
  1

  9
$DIMAPOST
  1

  9
$DIMALT
 70
     0
  9
$DIMALTD
 70
     3
  9
$DIMALTF
 40
0.0393700787
  9
$DIMLFAC
 40
1.0
  9
$DIMTOFL
 70
     1
  9
$DIMTVP
 40
0.0
  9
$DIMTIX
 70
     0
  9
$DIMSOXD
 70
     0
  9
$DIMSAH
 70
     0
  9
$DIMBLK1
  1

  9
$DIMBLK2
  1

  9
$DIMSTYLE
  2
ISO-25
  9
$DIMCLRD
 70
     0
  9
$DIMCLRE
 70
     0
  9
$DIMCLRT
 70
     0
  9
$DIMTFAC
 40
1.0
  9
$DIMGAP
 40
1.524
  9
$DIMJUST
 70
     0
  9
$DIMSD1
 70
     0
  9
$DIMSD2
 70
     0
  9
$DIMTOLJ
 70
     0
  9
$DIMTZIN
 70
     0
  9
$DIMALTZ
 70
     0
  9
$DIMALTTZ
 70
     0
  9
$DIMUPT
 70
     0
  9
$DIMDEC
 70
     2
  9
$DIMTDEC
 70
     2
  9
$DIMALTU
 70
     2
  9
$DIMALTTD
 70
     3
  9
$DIMTXSTY
  7
Standard
  9
$DIMAUNIT
 70
     0
  9
$DIMADEC
 70
     2
  9
$DIMALTRND
 40
0.0
  9
$DIMAZIN
 70
     0
  9
$DIMDSEP
 70
    44
  9
$DIMATFIT
 70
     3
  9
$DIMFRAC
 70
     0
  9
$DIMLDRBLK
  1

  9
$DIMLUNIT
 70
     2
  9
$DIMLWD
 70
    -2
  9
$DIMLWE
 70
    -2
  9
$DIMTMOVE
 70
     0
  9
$LUNITS
 70
     2
  9
$LUPREC
 70
     2
  9
$SKETCHINC
 40
1.0
  9
$FILLETRAD
 40
10.0
  9
$AUNITS
 70
     0
  9
$AUPREC
 70
     2
  9
$MENU
  1
.
  9
$ELEVATION
 40
0.0
  9
$PELEVATION
 40
0.0
  9
$THICKNESS
 40
0.0
  9
$LIMCHECK
 70
     0
  9
$CHAMFERA
 40
10.0
  9
$CHAMFERB
 40
10.0
  9
$CHAMFERC
 40
20.0
  9
$CHAMFERD
 40
0.0
  9
$SKPOLY
 70
     0
  9
$TDCREATE
 40
2456910.5953925
  9
$TDUCREATE
 40
2456910.2203925
  9
$TDUPDATE
 40
2456910.595395035
  9
$TDUUPDATE
 40
2456910.220395035
  9
$TDINDWG
 40
0.0000000116
  9
$TDUSRTIMER
 40
0.0000000116
  9
$USRTIMER
 70
     1
  9
$ANGBASE
 50
0.0
  9
$ANGDIR
 70
     0
  9
$PDMODE
 70
     0
  9
$PDSIZE
 40
-1.0
  9
$PLINEWID
 40
0.0
  9
$SPLFRAME
 70
     0
  9
$SPLINETYPE
 70
     6
  9
$SPLINESEGS
 70
     8
  9
$HANDSEED
  5
1E9
  9
$SURFTAB1
 70
     6
  9
$SURFTAB2
 70
     6
  9
$SURFTYPE
 70
     6
  9
$SURFU
 70
     6
  9
$SURFV
 70
     6
  9
$UCSBASE
  2

  9
$UCSNAME
  2

  9
$UCSORG
 10
0.0
 20
0.0
 30
0.0
  9
$UCSXDIR
 10
1.0
 20
0.0
 30
0.0
  9
$UCSYDIR
 10
0.0
 20
1.0
 30
0.0
  9
$UCSORTHOREF
  2

  9
$UCSORTHOVIEW
 70
     0
  9
$UCSORGTOP
 10
0.0
 20
0.0
 30
0.0
  9
$UCSORGBOTTOM
 10
0.0
 20
0.0
 30
0.0
  9
$UCSORGLEFT
 10
0.0
 20
0.0
 30
0.0
  9
$UCSORGRIGHT
 10
0.0
 20
0.0
 30
0.0
  9
$UCSORGFRONT
 10
0.0
 20
0.0
 30
0.0
  9
$UCSORGBACK
 10
0.0
 20
0.0
 30
0.0
  9
$PUCSBASE
  2

  9
$PUCSNAME
  2

  9
$PUCSORG
 10
0.0
 20
0.0
 30
0.0
  9
$PUCSXDIR
 10
1.0
 20
0.0
 30
0.0
  9
$PUCSYDIR
 10
0.0
 20
1.0
 30
0.0
  9
$PUCSORTHOREF
  2

  9
$PUCSORTHOVIEW
 70
     0
  9
$PUCSORGTOP
 10
0.0
 20
0.0
 30
0.0
  9
$PUCSORGBOTTOM
 10
0.0
 20
0.0
 30
0.0
  9
$PUCSORGLEFT
 10
0.0
 20
0.0
 30
0.0
  9
$PUCSORGRIGHT
 10
0.0
 20
0.0
 30
0.0
  9
$PUCSORGFRONT
 10
0.0
 20
0.0
 30
0.0
  9
$PUCSORGBACK
 10
0.0
 20
0.0
 30
0.0
  9
$USERI1
 70
     0
  9
$USERI2
 70
     0
  9
$USERI3
 70
     0
  9
$USERI4
 70
     0
  9
$USERI5
 70
     0
  9
$USERR1
 40
0.0
  9
$USERR2
 40
0.0
  9
$USERR3
 40
0.0
  9
$USERR4
 40
0.0
  9
$USERR5
 40
0.0
  9
$WORLDVIEW
 70
     1
  9
$SHADEDGE
 70
     3
  9
$SHADEDIF
 70
    70
  9
$TILEMODE
 70
     1
  9
$MAXACTVP
 70
    64
  9
$PINSBASE
 10
0.0
 20
0.0
 30
0.0
  9
$PLIMCHECK
 70
     0
  9
$PEXTMIN
 10
1.0000000000E+20
 20
1.0000000000E+20
 30
1.0000000000E+20
  9
$PEXTMAX
 10
-1.0000000000E+20
 20
-1.0000000000E+20
 30
-1.0000000000E+20
  9
$PLIMMIN
 10
0.0
 20
0.0
  9
$PLIMMAX
 10
420.0
 20
297.0
  9
$UNITMODE
 70
     0
  9
$VISRETAIN
 70
     1
  9
$PLINEGEN
 70
     0
  9
$PSLTSCALE
 70
     1
  9
$TREEDEPTH
 70
  3020
  9
$CMLSTYLE
  2
Standard
  9
$CMLJUST
 70
     0
  9
$CMLSCALE
 40
20.0
  9
$PROXYGRAPHICS
 70
     1
  9
$MEASUREMENT
 70
     1
  9
$CELWEIGHT
370
    -1
  9
$ENDCAPS
280
     0
  9
$JOINSTYLE
280
     0
  9
$LWDISPLAY
290
     1
  9
$INSUNITS
 70
     4
  9
$HYPERLINKBASE
  1

  9
$STYLESHEET
  1

  9
$XEDIT
290
     1
  9
$CEPSNTYPE
380
     0
  9
$PSTYLEMODE
290
     1
  9
$FINGERPRINTGUID
  2
{FC16EAFC-F237-4CAF-92D9-D25010F64D29}
  9
$VERSIONGUID
  2
{FAEB1C32-E019-11D5-929B-00C0DF256EC4}
  9
$EXTNAMES
290
     1
  9
$PSVPSCALE
 40
0.0
  9
$OLESTARTUP
290
     0
  0
ENDSEC
  0
SECTION
  2
CLASSES
  0
CLASS
  1
ACDBDICTIONARYWDFLT
  2
AcDbDictionaryWithDefault
  3
ObjectDBX Classes
 90
        0
280
     0
281
     0
  0
CLASS
  1
VISUALSTYLE
  2
AcDbVisualStyle
  3
ObjectDBX Classes
 90
     4095
280
     0
281
     0
  0
CLASS
  1
MATERIAL
  2
AcDbMaterial
  3
ObjectDBX Classes
 90
     1153
280
     0
281
     0
  0
CLASS
  1
ACDBPLACEHOLDER
  2
AcDbPlaceHolder
  3
ObjectDBX Classes
 90
        0
280
     0
281
     0
  0
CLASS
  1
LAYOUT
  2
AcDbLayout
  3
ObjectDBX Classes
 90
        0
280
     0
281
     0
  0
ENDSEC
  0
SECTION
  2
TABLES
  0
TABLE
  2
VPORT
  5
8
330
0
100
AcDbSymbolTable
 70
     1
  0
VPORT
  5
29
330
8
100
AcDbSymbolTableRecord
100
AcDbViewportTableRecord
  2
*Active
 70
     0
 10
0.0
 20
0.0
 11
1.0
 21
1.0
 12
105.0
 22
148.5
 13
0.0
 23
0.0
 14
10.0
 24
10.0
 15
10.0
 25
10.0
 16
0.0
 26
0.0
 36
1.0
 17
0.0
 27
0.0
 37
0.0
 40
297.0
 41
0.7070707071
 42
50.0
 43
0.0
 44
0.0
 50
0.0
 51
0.0
 71
     0
 72
  2000
 73
     1
 74
     3
 75
     0
 76
     0
 77
     0
 78
     0
281
     0
 65
     1
110
0.0
120
0.0
130
0.0
111
1.0
121
0.0
131
0.0
112
0.0
122
1.0
132
0.0
 79
     0
146
0.0
  0
ENDTAB
  0
TABLE
  2
LTYPE
  5
5
330
0
100
AcDbSymbolTable
 70
     6
  0
LTYPE
  5
14
330
5
100
AcDbSymbolTableRecord
100
AcDbLinetypeTableRecord
  2
ByBlock
 70
     0
  3

 72
    65
 73
     0
 40
0.0
  0
LTYPE
  5
15
330
5
100
AcDbSymbolTableRecord
100
AcDbLinetypeTableRecord
  2
ByLayer
 70
     0
  3

 72
    65
 73
     0
 40
0.0
  0
LTYPE
  5
16
330
5
100
AcDbSymbolTableRecord
100
AcDbLinetypeTableRecord
  2
Continuous
 70
     0
  3
Solid line
 72
    65
 73
     0
 40
0.0
  0
LTYPE
  5
3F
330
5
100
AcDbSymbolTableRecord
100
AcDbLinetypeTableRecord
  2
HIDDEN
 70
     0
  3
Hidden __ __ __ __ __ __ __ __ __ __ __ __ __ __
 72
    65
 73
     2
 40
1.905
 49
1.27
 74
     0
 49
-0.635
 74
     0
  0
LTYPE
  5
40
330
5
100
AcDbSymbolTableRecord
100
AcDbLinetypeTableRecord
  2
PHANTOM
 70
     0
  3
Phantom ______  __  __  ______  __  __  ______
 72
    65
 73
     6
 40
12.7
 49
6.35
 74
     0
 49
-1.27
 74
     0
 49
1.27
 74
     0
 49
-1.27
 74
     0
 49
1.27
 74
     0
 49
-1.27
 74
     0
  0
LTYPE
  5
41
330
5
100
AcDbSymbolTableRecord
100
AcDbLinetypeTableRecord
  2
CENTER
 70
     0
  3
Center ____ _ ____ _ ____ _ ____ _ ____ _ ____
 72
    65
 73
     4
 40
10.16
 49
6.35
 74
     0
 49
-1.27
 74
     0
 49
1.27
 74
     0
 49
-1.27
 74
     0
  0
LTYPE
  5
42
330
5
100
AcDbSymbolTableRecord
100
AcDbLinetypeTableRecord
  2
CENTERX2
 70
     0
  3
Center (2x) ________  __  ________  __  _____
 72
    65
 73
     4
 40
20.32
 49
12.7
 74
     0
 49
-2.54
 74
     0
 49
2.54
 74
     0
 49
-2.54
 74
     0
  0
LTYPE
  5
43
330
5
100
AcDbSymbolTableRecord
100
AcDbLinetypeTableRecord
  2
DOT2
 70
     0
  3
Dot (.5x) ........................................
 72
    65
 73
     2
 40
0.635
 49
0.0
 74
     0
 49
-0.635
 74
     0
  0
ENDTAB
  0
TABLE
  2
LAYER
  5
2
330
0
100
AcDbSymbolTable
 70
     1
  0
LAYER
  5
10
330
2
100
AcDbSymbolTableRecord
100
AcDbLayerTableRecord
  2
0
 70
     0
 62
     7
  6
Continuous
370
    -3
390
F
  0
ENDTAB
  0
TABLE
  2
STYLE
  5
3
330
0
100
AcDbSymbolTable
 70
     3
  0
STYLE
  5
11
330
3
100
AcDbSymbolTableRecord
100
AcDbTextStyleTableRecord
  2
Standard
 70
     0
 40
0.0
 41
1.0
 50
0.0
 71
     0
 42
3.5
  3
txt
  4
bigfont
  0
STYLE
  5
4C
330
3
100
AcDbSymbolTableRecord
100
AcDbTextStyleTableRecord
  2
SLDTEXTSTYLE0
 70
     0
 40
0.0
 41
0.7
 50
0.0
 71
     0
 42
0.2
  3
TXT
  4
bigfont
  0
STYLE
  5
8F
330
3
100
AcDbSymbolTableRecord
100
AcDbTextStyleTableRecord
  2
SLDTEXTSTYLE1
 70
     0
 40
0.0
 41
0.75
 50
0.0
 71
     0
 42
0.2
  3
TXT
  4
bigfont
  0
ENDTAB
  0
TABLE
  2
VIEW
  5
6
330
0
100
AcDbSymbolTable
 70
     0
  0
ENDTAB
  0
TABLE
  2
UCS
  5
7
330
0
100
AcDbSymbolTable
 70
     0
  0
ENDTAB
  0
TABLE
  2
APPID
  5
9
330
0
100
AcDbSymbolTable
 70
     1
  0
APPID
  5
12
330
9
100
AcDbSymbolTableRecord
100
AcDbRegAppTableRecord
  2
ACAD
 70
     0
  0
ENDTAB
  0
TABLE
  2
DIMSTYLE
  5
A
330
0
100
AcDbSymbolTable
 70
     4
100
AcDbDimStyleTable
  0
DIMSTYLE
105
27
330
A
100
AcDbSymbolTableRecord
100
AcDbDimStyleTableRecord
  2
ISO-25
 70
     0
 41
2.5
 42
0.625
 43
3.75
 44
1.25
 73
     0
 74
     0
 77
     1
 78
     8
140
2.5
141
2.5
143
0.0393700787
147
0.625
171
     3
172
     1
178
     0
271
     2
272
     2
274
     3
278
    44
283
     0
284
     8
340
11
  0
DIMSTYLE
105
90
102
{ACAD_REACTORS
330
8E
330
9A
330
A4
330
1B0
330
1BA
330
1C4
330
1DC
102
}
330
A
100
AcDbSymbolTableRecord
100
AcDbDimStyleTableRecord
  2
SLDDIMSTYLE0
 70
     0
 41
2.0
 44
0.0
 45
0.000000001
 73
     0
 74
     0
 77
     3
 78
    12
 79
     3
140
3.5
147
0.875
173
     1
178
     0
271
     1
272
     1
276
     2
284
    12
340
8F
  0
DIMSTYLE
105
B0
330
A
100
AcDbSymbolTableRecord
100
AcDbDimStyleTableRecord
  2
SLDDIMSTYLE1
 70
     0
 41
2.0
 44
0.0
 45
0.000000001
140
0.0
146
2.0
147
0.0
173
     1
178
     0
271
     0
272
     0
276
     2
340
11
  0
DIMSTYLE
105
197
102
{ACAD_REACTORS
330
196
330
1A4
330
1CF
102
}
330
A
100
AcDbSymbolTableRecord
100
AcDbDimStyleTableRecord
  2
SLDDIMSTYLE2
 70
     0
 41
2.0
 44
0.0
 45
0.000000001
 73
     0
 74
     0
 77
     3
 78
    12
 79
     3
140
3.5
147
0.875
172
     1
173
     1
178
     0
271
     1
272
     1
276
     2
284
    12
289
     0
340
8F
  0
ENDTAB
  0
TABLE
  2
BLOCK_RECORD
  5
1
330
0
100
AcDbSymbolTable
 70
    12
  0
BLOCK_RECORD
  5
1F
330
1
100
AcDbSymbolTableRecord
100
AcDbBlockTableRecord
  2
*Model_Space
340
22
  0
BLOCK_RECORD
  5
1B
330
1
100
AcDbSymbolTableRecord
100
AcDbBlockTableRecord
  2
*Paper_Space
340
1E
  0
BLOCK_RECORD
  5
23
330
1
100
AcDbSymbolTableRecord
100
AcDbBlockTableRecord
  2
*Paper_Space0
340
26
  0
BLOCK_RECORD
  5
91
330
1
100
AcDbSymbolTableRecord
100
AcDbBlockTableRecord
  2
_D
340
0
  0
BLOCK_RECORD
  5
9B
330
1
100
AcDbSymbolTableRecord
100
AcDbBlockTableRecord
  2
_D_1
340
0
  0
BLOCK_RECORD
  5
A5
330
1
100
AcDbSymbolTableRecord
100
AcDbBlockTableRecord
  2
_D_2
340
0
  0
BLOCK_RECORD
  5
B2
330
1
100
AcDbSymbolTableRecord
100
AcDbBlockTableRecord
  2
SW_CENTERMARKSYMBOL_0
340
0
102
{BLKREFS
331
BD
102
}
  0
BLOCK_RECORD
  5
198
330
1
100
AcDbSymbolTableRecord
100
AcDbBlockTableRecord
  2
_D_3
340
0
  0
BLOCK_RECORD
  5
1A5
330
1
100
AcDbSymbolTableRecord
100
AcDbBlockTableRecord
  2
_D_4
340
0
  0
BLOCK_RECORD
  5
1B1
330
1
100
AcDbSymbolTableRecord
100
AcDbBlockTableRecord
  2
_D_5
340
0
  0
BLOCK_RECORD
  5
1BB
330
1
100
AcDbSymbolTableRecord
100
AcDbBlockTableRecord
  2
_D_6
340
0
  0
BLOCK_RECORD
  5
1C5
330
1
100
AcDbSymbolTableRecord
100
AcDbBlockTableRecord
  2
_D_7
340
0
  0
BLOCK_RECORD
  5
1D0
330
1
100
AcDbSymbolTableRecord
100
AcDbBlockTableRecord
  2
_D_8
340
0
  0
BLOCK_RECORD
  5
1DD
330
1
100
AcDbSymbolTableRecord
100
AcDbBlockTableRecord
  2
_D_9
340
0
  0
ENDTAB
  0
ENDSEC
  0
SECTION
  2
BLOCKS
  0
BLOCK
  5
20
330
1F
100
AcDbEntity
  8
0
100
AcDbBlockBegin
  2
*Model_Space
 70
     0
 10
0.0
 20
0.0
 30
0.0
  3
*Model_Space
  1

  0
ENDBLK
  5
21
330
1F
100
AcDbEntity
  8
0
100
AcDbBlockEnd
  0
BLOCK
  5
1C
330
1B
100
AcDbEntity
 67
     1
  8
0
100
AcDbBlockBegin
  2
*Paper_Space
 70
     0
 10
0.0
 20
0.0
 30
0.0
  3
*Paper_Space
  1

  0
ENDBLK
  5
1D
330
1B
100
AcDbEntity
 67
     1
  8
0
100
AcDbBlockEnd
  0
BLOCK
  5
24
330
23
100
AcDbEntity
  8
0
100
AcDbBlockBegin
  2
*Paper_Space0
 70
     0
 10
0.0
 20
0.0
 30
0.0
  3
*Paper_Space0
  1

  0
ENDBLK
  5
25
330
23
100
AcDbEntity
  8
0
100
AcDbBlockEnd
  0
BLOCK
  5
92
330
91
100
AcDbEntity
  8
0
100
AcDbBlockBegin
  2
_D
 70
     0
 10
0.0
 20
0.0
 30
0.0
  3
_D
  1

  0
SOLID
  5
94
330
91
100
AcDbEntity
  8
0
  6
Continuous
 62
     7
370
     0
100
AcDbTrace
 10
27.0345146428
 20
148.8317671799
 30
0.0
 11
26.2845146428
 21
146.8317671799
 31
0.0
 12
27.7845146428
 22
146.8317671799
 32
0.0
 13
27.7845146428
 23
146.8317671799
 33
0.0
  0
SOLID
  5
95
330
91
100
AcDbEntity
  8
0
  6
Continuous
 62
     7
370
     0
100
AcDbTrace
 10
27.0345146428
 20
130.2317671799
 30
0.0
 11
27.7845146428
 21
132.2317671799
 31
0.0
 12
26.2845146428
 22
132.2317671799
 32
0.0
 13
26.2845146428
 23
132.2317671799
 33
0.0
  0
LINE
  5
96
330
91
100
AcDbEntity
  8
0
  6
Continuous
 62
     7
370
     0
100
AcDbLine
 10
45.9845146429
 20
148.8317671799
 30
0.0
 11
26.0345146428
 21
148.8317671799
 31
0.0
  0
LINE
  5
97
330
91
100
AcDbEntity
  8
0
  6
Continuous
 62
     7
370
     0
100
AcDbLine
 10
45.9845146428
 20
130.2317671799
 30
0.0
 11
26.0345146428
 21
130.2317671799
 31
0.0
  0
LINE
  5
98
330
91
100
AcDbEntity
  8
0
  6
Continuous
 62
     7
370
     0
100
AcDbLine
 10
27.0345146428
 20
148.8317671799
 30
0.0
 11
27.0345146428
 21
130.2317671799
 31
0.0
  0
MTEXT
  5
99
330
91
100
AcDbEntity
  8
0
  6
Continuous
 62
     7
370
     0
100
AcDbMText
 10
22.5227777282
 20
135.0060726494
 30
36.85
 40
3.5
 41
0.0
 71
     1
 72
     1
  1
18.6
  7
SLDTEXTSTYLE1
 11
-7.044195017643634E-15
 21
1.0
 31
0.0
 73
     1
 44
1.0
  0
ENDBLK
  5
93
330
91
100
AcDbEntity
  8
0
100
AcDbBlockEnd
  0
BLOCK
  5
9C
330
9B
100
AcDbEntity
  8
0
100
AcDbBlockBegin
  2
_D_1
 70
     0
 10
0.0
 20
0.0
 30
0.0
  3
_D_1
  1

  0
SOLID
  5
9E
330
9B
100
AcDbEntity
  8
0
  6
Continuous
 62
     7
370
     0
100
AcDbTrace
 10
35.8760770909
 20
145.5317671799
 30
0.0
 11
35.1260770909
 21
143.5317671799
 31
0.0
 12
36.6260770909
 22
143.5317671799
 32
0.0
 13
36.6260770909
 23
143.5317671799
 33
0.0
  0
SOLID
  5
9F
330
9B
100
AcDbEntity
  8
0
  6
Continuous
 62
     7
370
     0
100
AcDbTrace
 10
35.8760770909
 20
133.5317671799
 30
0.0
 11
36.6260770909
 21
135.5317671799
 31
0.0
 12
35.1260770909
 22
135.5317671799
 32
0.0
 13
35.1260770909
 23
135.5317671799
 33
0.0
  0
LINE
  5
A0
330
9B
100
AcDbEntity
  8
0
  6
Continuous
 62
     7
370
     0
100
AcDbLine
 10
46.5704130277
 20
145.5317671799
 30
0.0
 11
34.8760770909
 21
145.5317671799
 31
0.0
  0
LINE
  5
A1
330
9B
100
AcDbEntity
  8
0
  6
Continuous
 62
     7
370
     0
100
AcDbLine
 10
46.5704130277
 20
133.5317671799
 30
0.0
 11
34.8760770909
 21
133.5317671799
 31
0.0
  0
LINE
  5
A2
330
9B
100
AcDbEntity
  8
0
  6
Continuous
 62
     7
370
     0
100
AcDbLine
 10
35.8760770909
 20
145.5317671799
 30
0.0
 11
35.8760770909
 21
133.5317671799
 31
0.0
  0
MTEXT
  5
A3
330
9B
100
AcDbEntity
  8
0
  6
Continuous
 62
     7
370
     0
100
AcDbMText
 10
31.3643401763
 20
136.9456559863
 30
36.85
 40
3.5
 41
0.0
 71
     1
 72
     1
  1
12
  7
SLDTEXTSTYLE1
 11
-7.044195017643634E-15
 21
1.0
 31
0.0
 73
     1
 44
1.0
  0
ENDBLK
  5
9D
330
9B
100
AcDbEntity
  8
0
100
AcDbBlockEnd
  0
BLOCK
  5
A6
330
A5
100
AcDbEntity
  8
0
100
AcDbBlockBegin
  2
_D_2
 70
     0
 10
0.0
 20
0.0
 30
0.0
  3
_D_2
  1

  0
SOLID
  5
A8
330
A5
100
AcDbEntity
  8
0
  6
Continuous
 62
     7
370
     0
100
AcDbTrace
 10
43.0345146428
 20
157.0532863355
 30
0.0
 11
45.0345146428
 21
156.3032863355
 31
0.0
 12
45.0345146428
 22
157.8032863355
 32
0.0
 13
45.0345146428
 23
157.8032863355
 33
0.0
  0
SOLID
  5
A9
330
A5
100
AcDbEntity
  8
0
  6
Continuous
 62
     7
370
     0
100
AcDbTrace
 10
59.0345146428
 20
157.0532863355
 30
0.0
 11
57.0345146428
 21
157.8032863355
 31
0.0
 12
57.0345146428
 22
156.3032863355
 32
0.0
 13
57.0345146428
 23
156.3032863355
 33
0.0
  0
LINE
  5
AA
330
A5
100
AcDbEntity
  8
0
  6
Continuous
 62
     7
370
     0
100
AcDbLine
 10
43.0345146428
 20
140.5317671799
 30
0.0
 11
43.0345146428
 21
158.0532863355
 31
0.0
  0
LINE
  5
AB
330
A5
100
AcDbEntity
  8
0
  6
Continuous
 62
     7
370
     0
100
AcDbLine
 10
59.0345146428
 20
140.5317671799
 30
0.0
 11
59.0345146428
 21
158.0532863355
 31
0.0
  0
LINE
  5
AC
330
A5
100
AcDbEntity
  8
0
  6
Continuous
 62
     7
370
     0
100
AcDbLine
 10
43.0345146428
 20
157.0532863355
 30
0.0
 11
59.0345146428
 21
157.0532863355
 31
0.0
  0
MTEXT
  5
AD
330
A5
100
AcDbEntity
  8
0
  6
Continuous
 62
     7
370
     0
100
AcDbMText
 10
45.8091845173
 20
161.5650234248
 30
36.85
 40
3.5
 41
0.0
 71
     1
 72
     1
  1
%%c
  7
SLDTEXTSTYLE1
 73
     1
 44
1.0
  0
MTEXT
  5
AE
330
A5
100
AcDbEntity
  8
0
  6
Continuous
 62
     7
370
     0
100
AcDbMText
 10
51.0876219157
 20
161.6184956014
 30
36.85
 40
3.5
 41
0.0
 71
     1
 72
     1
  1
16
  7
SLDTEXTSTYLE1
 73
     1
 44
1.0
  0
ENDBLK
  5
A7
330
A5
100
AcDbEntity
  8
0
100
AcDbBlockEnd
  0
BLOCK
  5
B3
330
B2
100
AcDbEntity
  8
0
100
AcDbBlockBegin
  2
SW_CENTERMARKSYMBOL_0
 70
     0
 10
0.0
 20
0.0
 30
0.0
  3
SW_CENTERMARKSYMBOL_0
  1

  0
LINE
  5
B5
330
B2
100
AcDbEntity
  8
0
  6
Continuous
 62
     0
370
     0
100
AcDbLine
 10
0.0
 20
0.0
 30
0.0
 11
0.0
 21
2.5
 31
0.0
  0
LINE
  5
B6
330
B2
100
AcDbEntity
  8
0
  6
Continuous
 62
     0
370
     0
100
AcDbLine
 10
0.0
 20
0.0
 30
0.0
 11
-2.5
 21
0.0
 31
0.0
  0
LINE
  5
B7
330
B2
100
AcDbEntity
  8
0
  6
Continuous
 62
     0
370
     0
100
AcDbLine
 10
0.0
 20
0.0
 30
0.0
 11
0.0
 21
-2.5
 31
0.0
  0
LINE
  5
B8
330
B2
100
AcDbEntity
  8
0
  6
Continuous
 62
     0
370
     0
100
AcDbLine
 10
0.0
 20
0.0
 30
0.0
 11
2.5
 21
0.0
 31
0.0
  0
LINE
  5
B9
330
B2
100
AcDbEntity
  8
0
  6
Continuous
 62
     0
370
     0
100
AcDbLine
 10
0.0
 20
5.0
 30
0.0
 11
0.0
 21
10.5
 31
0.0
  0
LINE
  5
BA
330
B2
100
AcDbEntity
  8
0
  6
Continuous
 62
     0
370
     0
100
AcDbLine
 10
-5.0
 20
0.0
 30
0.0
 11
-10.5
 21
0.0
 31
0.0
  0
LINE
  5
BB
330
B2
100
AcDbEntity
  8
0
  6
Continuous
 62
     0
370
     0
100
AcDbLine
 10
0.0
 20
-5.0
 30
0.0
 11
0.0
 21
-10.5
 31
0.0
  0
LINE
  5
BC
330
B2
100
AcDbEntity
  8
0
  6
Continuous
 62
     0
370
     0
100
AcDbLine
 10
5.0
 20
0.0
 30
0.0
 11
10.5
 21
0.0
 31
0.0
  0
ENDBLK
  5
B4
330
B2
100
AcDbEntity
  8
0
100
AcDbBlockEnd
  0
BLOCK
  5
199
330
198
100
AcDbEntity
  8
0
100
AcDbBlockBegin
  2
_D_3
 70
     0
 10
0.0
 20
0.0
 30
0.0
  3
_D_3
  1

  0
SOLID
  5
19B
330
198
100
AcDbEntity
  8
0
  6
Continuous
 62
     7
370
     0
100
AcDbTrace
 10
82.0177998601
 20
143.0317671799
 30
0.0
 11
82.7677998601
 21
145.0317671799
 31
0.0
 12
81.2677998601
 22
145.0317671799
 32
0.0
 13
81.2677998601
 23
145.0317671799
 33
0.0
  0
SOLID
  5
19C
330
198
100
AcDbEntity
  8
0
  6
Continuous
 62
     7
370
     0
100
AcDbTrace
 10
82.0177998601
 20
136.0317671799
 30
0.0
 11
81.2677998601
 21
134.0317671799
 31
0.0
 12
82.7677998601
 22
134.0317671799
 32
0.0
 13
82.7677998601
 23
134.0317671799
 33
0.0
  0
LINE
  5
19D
330
198
100
AcDbEntity
  8
0
  6
Continuous
 62
     7
370
     0
100
AcDbLine
 10
91.0177998601
 20
143.0317671799
 30
0.0
 11
81.0177998601
 21
143.0317671799
 31
0.0
  0
LINE
  5
19E
330
198
100
AcDbEntity
  8
0
  6
Continuous
 62
     7
370
     0
100
AcDbLine
 10
91.0177998601
 20
136.0317671799
 30
0.0
 11
81.0177998601
 21
136.0317671799
 31
0.0
  0
LINE
  5
19F
330
198
100
AcDbEntity
  8
0
  6
Continuous
 62
     7
370
     0
100
AcDbLine
 10
82.0177998601
 20
143.0317671799
 30
0.0
 11
82.0177998601
 21
148.0317671799
 31
0.0
  0
LINE
  5
1A0
330
198
100
AcDbEntity
  8
0
  6
Continuous
 62
     7
370
     0
100
AcDbLine
 10
82.0177998601
 20
143.0317671799
 30
0.0
 11
82.0177998601
 21
136.0317671799
 31
0.0
  0
LINE
  5
1A1
330
198
100
AcDbEntity
  8
0
  6
Continuous
 62
     7
370
     0
100
AcDbLine
 10
82.0177998601
 20
136.0317671799
 30
0.0
 11
82.0177998601
 21
131.0317671799
 31
0.0
  0
MTEXT
  5
1A2
330
198
100
AcDbEntity
  8
0
  6
Continuous
 62
     7
370
     0
100
AcDbMText
 10
77.5060627709
 20
135.5994927675
 30
0.1
 40
3.5
 41
0.0
 71
     1
 72
     1
  1
%%c
  7
SLDTEXTSTYLE1
 11
-7.044195017643634E-15
 21
1.0
 31
0.0
 73
     1
 44
1.0
  0
MTEXT
  5
1A3
330
198
100
AcDbEntity
  8
0
  6
Continuous
 62
     7
370
     0
100
AcDbMText
 10
77.4525905942
 20
140.8779301659
 30
0.1
 40
3.5
 41
0.0
 71
     1
 72
     1
  1
7
  7
SLDTEXTSTYLE1
 11
-7.044195017643634E-15
 21
1.0
 31
0.0
 73
     1
 44
1.0
  0
ENDBLK
  5
19A
330
198
100
AcDbEntity
  8
0
100
AcDbBlockEnd
  0
BLOCK
  5
1A6
330
1A5
100
AcDbEntity
  8
0
100
AcDbBlockBegin
  2
_D_4
 70
     0
 10
0.0
 20
0.0
 30
0.0
  3
_D_4
  1

  0
SOLID
  5
1A8
330
1A5
100
AcDbEntity
  8
0
  6
Continuous
 62
     7
370
     0
100
AcDbTrace
 10
97.5177998601
 20
157.0572838065
 30
0.0
 11
99.5177998601
 21
156.3072838065
 31
0.0
 12
99.5177998601
 22
157.8072838065
 32
0.0
 13
99.5177998601
 23
157.8072838065
 33
0.0
  0
SOLID
  5
1A9
330
1A5
100
AcDbEntity
  8
0
  6
Continuous
 62
     7
370
     0
100
AcDbTrace
 10
92.0177998601
 20
157.0572838065
 30
0.0
 11
90.0177998601
 21
157.8072838065
 31
0.0
 12
90.0177998601
 22
156.3072838065
 32
0.0
 13
90.0177998601
 23
156.3072838065
 33
0.0
  0
LINE
  5
1AA
330
1A5
100
AcDbEntity
  8
0
  6
Continuous
 62
     7
370
     0
100
AcDbLine
 10
97.5177998601
 20
146.5317671799
 30
0.0
 11
97.5177998601
 21
158.0572838065
 31
0.0
  0
LINE
  5
1AB
330
1A5
100
AcDbEntity
  8
0
  6
Continuous
 62
     7
370
     0
100
AcDbLine
 10
92.0177998601
 20
144.0317671799
 30
0.0
 11
92.0177998601
 21
158.0572838065
 31
0.0
  0
LINE
  5
1AC
330
1A5
100
AcDbEntity
  8
0
  6
Continuous
 62
     7
370
     0
100
AcDbLine
 10
97.5177998601
 20
157.0572838065
 30
0.0
 11
106.9031480912
 21
157.0572838065
 31
0.0
  0
LINE
  5
1AD
330
1A5
100
AcDbEntity
  8
0
  6
Continuous
 62
     7
370
     0
100
AcDbLine
 10
97.5177998601
 20
157.0572838065
 30
0.0
 11
92.0177998601
 21
157.0572838065
 31
0.0
  0
LINE
  5
1AE
330
1A5
100
AcDbEntity
  8
0
  6
Continuous
 62
     7
370
     0
100
AcDbLine
 10
92.0177998601
 20
157.0572838065
 30
0.0
 11
87.0177998601
 21
157.0572838065
 31
0.0
  0
MTEXT
  5
1AF
330
1A5
100
AcDbEntity
  8
0
  6
Continuous
 62
     7
370
     0
100
AcDbMText
 10
100.4378704566
 20
161.5690207211
 30
0.1
 40
3.5
 41
0.0
 71
     1
 72
     1
  1
5.5
  7
SLDTEXTSTYLE1
 73
     1
 44
1.0
  0
ENDBLK
  5
1A7
330
1A5
100
AcDbEntity
  8
0
100
AcDbBlockEnd
  0
BLOCK
  5
1B2
330
1B1
100
AcDbEntity
  8
0
100
AcDbBlockBegin
  2
_D_5
 70
     0
 10
0.0
 20
0.0
 30
0.0
  3
_D_5
  1

  0
SOLID
  5
1B4
330
1B1
100
AcDbEntity
  8
0
  6
Continuous
 62
     7
370
     0
100
AcDbTrace
 10
92.0177998601
 20
167.7686035626
 30
0.0
 11
94.0177998601
 21
167.0186035626
 31
0.0
 12
94.0177998601
 22
168.5186035626
 32
0.0
 13
94.0177998601
 23
168.5186035626
 33
0.0
  0
SOLID
  5
1B5
330
1B1
100
AcDbEntity
  8
0
  6
Continuous
 62
     7
370
     0
100
AcDbTrace
 10
165.5177998601
 20
167.7686035626
 30
0.0
 11
163.5177998601
 21
168.5186035626
 31
0.0
 12
163.5177998601
 22
167.0186035626
 32
0.0
 13
163.5177998601
 23
167.0186035626
 33
0.0
  0
LINE
  5
1B6
330
1B1
100
AcDbEntity
  8
0
  6
Continuous
 62
     7
370
     0
100
AcDbLine
 10
92.0177998601
 20
144.0317671799
 30
0.0
 11
92.0177998601
 21
168.7686035626
 31
0.0
  0
LINE
  5
1B7
330
1B1
100
AcDbEntity
  8
0
  6
Continuous
 62
     7
370
     0
100
AcDbLine
 10
165.5177998601
 20
142.5317671799
 30
0.0
 11
165.5177998601
 21
168.7686035626
 31
0.0
  0
LINE
  5
1B8
330
1B1
100
AcDbEntity
  8
0
  6
Continuous
 62
     7
370
     0
100
AcDbLine
 10
92.0177998601
 20
167.7686035626
 30
0.0
 11
165.5177998601
 21
167.7686035626
 31
0.0
  0
MTEXT
  5
1B9
330
1B1
100
AcDbEntity
  8
0
  6
Continuous
 62
     7
370
     0
100
AcDbMText
 10
124.2421053296
 20
172.2803404772
 30
0.1
 40
3.5
 41
0.0
 71
     1
 72
     1
  1
73.5
  7
SLDTEXTSTYLE1
 73
     1
 44
1.0
  0
ENDBLK
  5
1B3
330
1B1
100
AcDbEntity
  8
0
100
AcDbBlockEnd
  0
BLOCK
  5
1BC
330
1BB
100
AcDbEntity
  8
0
100
AcDbBlockBegin
  2
_D_6
 70
     0
 10
0.0
 20
0.0
 30
0.0
  3
_D_6
  1

  0
SOLID
  5
1BE
330
1BB
100
AcDbEntity
  8
0
  6
Continuous
 62
     7
370
     0
100
AcDbTrace
 10
145.5177998601
 20
116.9330632805
 30
0.0
 11
147.5177998601
 21
116.1830632805
 31
0.0
 12
147.5177998601
 22
117.6830632805
 32
0.0
 13
147.5177998601
 23
117.6830632805
 33
0.0
  0
SOLID
  5
1BF
330
1BB
100
AcDbEntity
  8
0
  6
Continuous
 62
     7
370
     0
100
AcDbTrace
 10
163.5177998601
 20
116.9330632805
 30
0.0
 11
161.5177998601
 21
117.6830632805
 31
0.0
 12
161.5177998601
 22
116.1830632805
 32
0.0
 13
161.5177998601
 23
116.1830632805
 33
0.0
  0
LINE
  5
1C0
330
1BB
100
AcDbEntity
  8
0
  6
Continuous
 62
     7
370
     0
100
AcDbLine
 10
145.5177998601
 20
130.8317671799
 30
0.0
 11
145.5177998601
 21
115.9330632805
 31
0.0
  0
LINE
  5
1C1
330
1BB
100
AcDbEntity
  8
0
  6
Continuous
 62
     7
370
     0
100
AcDbLine
 10
163.5177998601
 20
132.8317671799
 30
0.0
 11
163.5177998601
 21
115.9330632805
 31
0.0
  0
LINE
  5
1C2
330
1BB
100
AcDbEntity
  8
0
  6
Continuous
 62
     7
370
     0
100
AcDbLine
 10
145.5177998601
 20
116.9330632805
 30
0.0
 11
163.5177998601
 21
116.9330632805
 31
0.0
  0
MTEXT
  5
1C3
330
1BB
100
AcDbEntity
  8
0
  6
Continuous
 62
     7
370
     0
100
AcDbMText
 10
151.9316886665
 20
121.4448001951
 30
0.1
 40
3.5
 41
0.0
 71
     1
 72
     1
  1
18
  7
SLDTEXTSTYLE1
 73
     1
 44
1.0
  0
ENDBLK
  5
1BD
330
1BB
100
AcDbEntity
  8
0
100
AcDbBlockEnd
  0
BLOCK
  5
1C6
330
1C5
100
AcDbEntity
  8
0
100
AcDbBlockBegin
  2
_D_7
 70
     0
 10
0.0
 20
0.0
 30
0.0
  3
_D_7
  1

  0
SOLID
  5
1C8
330
1C5
100
AcDbEntity
  8
0
  6
Continuous
 62
     7
370
     0
100
AcDbTrace
 10
141.5177998601
 20
116.9330632805
 30
0.0
 11
139.5177998601
 21
117.6830632805
 31
0.0
 12
139.5177998601
 22
116.1830632805
 32
0.0
 13
139.5177998601
 23
116.1830632805
 33
0.0
  0
SOLID
  5
1C9
330
1C5
100
AcDbEntity
  8
0
  6
Continuous
 62
     7
370
     0
100
AcDbTrace
 10
111.5177998601
 20
116.9330632805
 30
0.0
 11
113.5177998601
 21
116.1830632805
 31
0.0
 12
113.5177998601
 22
117.6830632805
 32
0.0
 13
113.5177998601
 23
117.6830632805
 33
0.0
  0
LINE
  5
1CA
330
1C5
100
AcDbEntity
  8
0
  6
Continuous
 62
     7
370
     0
100
AcDbLine
 10
141.5177998601
 20
135.0817671799
 30
0.0
 11
141.5177998601
 21
115.9330632805
 31
0.0
  0
LINE
  5
1CB
330
1C5
100
AcDbEntity
  8
0
  6
Continuous
 62
     7
370
     0
100
AcDbLine
 10
111.5177998601
 20
134.7817671799
 30
0.0
 11
111.5177998601
 21
115.9330632805
 31
0.0
  0
LINE
  5
1CC
330
1C5
100
AcDbEntity
  8
0
  6
Continuous
 62
     7
370
     0
100
AcDbLine
 10
141.5177998601
 20
116.9330632805
 30
0.0
 11
111.5177998601
 21
116.9330632805
 31
0.0
  0
MTEXT
  5
1CD
330
1C5
100
AcDbEntity
  8
0
  6
Continuous
 62
     7
370
     0
100
AcDbMText
 10
122.2351609638
 20
121.4448001951
 30
0.1
 40
3.5
 41
0.0
 71
     1
 72
     1
  1
30
  7
SLDTEXTSTYLE1
 73
     1
 44
1.0
  0
MTEXT
  5
1CE
330
1C5
100
AcDbEntity
  8
0
  6
Continuous
 62
     7
370
     0
100
AcDbMText
 10
127.4073833509
 20
121.4448001951
 30
0.1
 40
3.5
 41
0.0
 71
     1
 72
     1
  1
st
  7
SLDTEXTSTYLE1
 73
     1
 44
1.0
  0
ENDBLK
  5
1C7
330
1C5
100
AcDbEntity
  8
0
100
AcDbBlockEnd
  0
BLOCK
  5
1D1
330
1D0
100
AcDbEntity
  8
0
100
AcDbBlockBegin
  2
_D_8
 70
     0
 10
0.0
 20
0.0
 30
0.0
  3
_D_8
  1

  0
SOLID
  5
1D3
330
1D0
100
AcDbEntity
  8
0
  6
Continuous
 62
     7
370
     0
100
AcDbTrace
 10
172.6625172188
 20
142.0317671799
 30
0.0
 11
173.4125172188
 21
144.0317671799
 31
0.0
 12
171.9125172188
 22
144.0317671799
 32
0.0
 13
171.9125172188
 23
144.0317671799
 33
0.0
  0
SOLID
  5
1D4
330
1D0
100
AcDbEntity
  8
0
  6
Continuous
 62
     7
370
     0
100
AcDbTrace
 10
172.6625172188
 20
137.0317671799
 30
0.0
 11
171.9125172188
 21
135.0317671799
 31
0.0
 12
173.4125172188
 22
135.0317671799
 32
0.0
 13
173.4125172188
 23
135.0317671799
 33
0.0
  0
LINE
  5
1D5
330
1D0
100
AcDbEntity
  8
0
  6
Continuous
 62
     7
370
     0
100
AcDbLine
 10
166.0177998601
 20
142.0317671799
 30
0.0
 11
173.6625172188
 21
142.0317671799
 31
0.0
  0
LINE
  5
1D6
330
1D0
100
AcDbEntity
  8
0
  6
Continuous
 62
     7
370
     0
100
AcDbLine
 10
166.0177998601
 20
137.0317671799
 30
0.0
 11
173.6625172188
 21
137.0317671799
 31
0.0
  0
LINE
  5
1D7
330
1D0
100
AcDbEntity
  8
0
  6
Continuous
 62
     7
370
     0
100
AcDbLine
 10
172.6625172188
 20
142.0317671799
 30
0.0
 11
172.6625172188
 21
147.0317671799
 31
0.0
  0
LINE
  5
1D8
330
1D0
100
AcDbEntity
  8
0
  6
Continuous
 62
     7
370
     0
100
AcDbLine
 10
172.6625172188
 20
142.0317671799
 30
0.0
 11
172.6625172188
 21
137.0317671799
 31
0.0
  0
LINE
  5
1D9
330
1D0
100
AcDbEntity
  8
0
  6
Continuous
 62
     7
370
     0
100
AcDbLine
 10
172.6625172188
 20
137.0317671799
 30
0.0
 11
172.6625172188
 21
123.7273127187
 31
0.0
  0
MTEXT
  5
1DA
330
1D0
100
AcDbEntity
  8
0
  6
Continuous
 62
     7
370
     0
100
AcDbMText
 10
168.1507801296
 20
123.7273127187
 30
0.1
 40
3.5
 41
0.0
 71
     1
 72
     1
  1
%%c
  7
SLDTEXTSTYLE1
 11
-7.044195017643634E-15
 21
1.0
 31
0.0
 73
     1
 44
1.0
  0
MTEXT
  5
1DB
330
1D0
100
AcDbEntity
  8
0
  6
Continuous
 62
     7
370
     0
100
AcDbMText
 10
168.097307953
 20
129.0057501171
 30
0.1
 40
3.5
 41
0.0
 71
     1
 72
     1
  1
5
  7
SLDTEXTSTYLE1
 11
-7.044195017643634E-15
 21
1.0
 31
0.0
 73
     1
 44
1.0
  0
ENDBLK
  5
1D2
330
1D0
100
AcDbEntity
  8
0
100
AcDbBlockEnd
  0
BLOCK
  5
1DE
330
1DD
100
AcDbEntity
  8
0
100
AcDbBlockBegin
  2
_D_9
 70
     0
 10
0.0
 20
0.0
 30
0.0
  3
_D_9
  1

  0
SOLID
  5
1E0
330
1DD
100
AcDbEntity
  8
0
  6
Continuous
 62
     7
370
     0
100
AcDbTrace
 10
183.2160276495
 20
145.5317671799
 30
0.0
 11
182.4660276495
 21
143.5317671799
 31
0.0
 12
183.9660276495
 22
143.5317671799
 32
0.0
 13
183.9660276495
 23
143.5317671799
 33
0.0
  0
SOLID
  5
1E1
330
1DD
100
AcDbEntity
  8
0
  6
Continuous
 62
     7
370
     0
100
AcDbTrace
 10
183.2160276495
 20
133.5317671799
 30
0.0
 11
183.9660276495
 21
135.5317671799
 31
0.0
 12
182.4660276495
 22
135.5317671799
 32
0.0
 13
182.4660276495
 23
135.5317671799
 33
0.0
  0
LINE
  5
1E2
330
1DD
100
AcDbEntity
  8
0
  6
Continuous
 62
     7
370
     0
100
AcDbLine
 10
164.2177998601
 20
145.5317671799
 30
0.0
 11
184.2160276495
 21
145.5317671799
 31
0.0
  0
LINE
  5
1E3
330
1DD
100
AcDbEntity
  8
0
  6
Continuous
 62
     7
370
     0
100
AcDbLine
 10
164.2177998601
 20
133.5317671799
 30
0.0
 11
184.2160276495
 21
133.5317671799
 31
0.0
  0
LINE
  5
1E4
330
1DD
100
AcDbEntity
  8
0
  6
Continuous
 62
     7
370
     0
100
AcDbLine
 10
183.2160276495
 20
145.5317671799
 30
0.0
 11
183.2160276495
 21
133.5317671799
 31
0.0
  0
MTEXT
  5
1E5
330
1DD
100
AcDbEntity
  8
0
  6
Continuous
 62
     7
370
     0
100
AcDbMText
 10
178.7042905603
 20
134.3064370543
 30
0.1
 40
3.5
 41
0.0
 71
     1
 72
     1
  1
%%c
  7
SLDTEXTSTYLE1
 11
-7.044195017643634E-15
 21
1.0
 31
0.0
 73
     1
 44
1.0
  0
MTEXT
  5
1E6
330
1DD
100
AcDbEntity
  8
0
  6
Continuous
 62
     7
370
     0
100
AcDbMText
 10
178.6508183837
 20
139.5848744527
 30
0.1
 40
3.5
 41
0.0
 71
     1
 72
     1
  1
12
  7
SLDTEXTSTYLE1
 11
-7.044195017643634E-15
 21
1.0
 31
0.0
 73
     1
 44
1.0
  0
ENDBLK
  5
1DF
330
1DD
100
AcDbEntity
  8
0
100
AcDbBlockEnd
  0
ENDSEC
  0
SECTION
  2
ENTITIES
  0
LINE
  5
44
330
1F
100
AcDbEntity
  8
0
  6
Continuous
 62
     7
370
     0
100
AcDbLine
 10
20.2604743903
 20
285.0
 30
0.0
 11
196.7604743903
 21
285.0
 31
0.0
  0
LINE
  5
45
330
1F
100
AcDbEntity
  8
0
  6
Continuous
 62
     7
370
     0
100
AcDbLine
 10
20.2604743903
 20
285.0
 30
0.0
 11
20.2604743903
 21
10.0
 31
0.0
  0
LINE
  5
46
330
1F
100
AcDbEntity
  8
0
  6
Continuous
 62
     7
370
     0
100
AcDbLine
 10
20.2604743903
 20
10.0
 30
0.0
 11
196.7604743903
 21
10.0
 31
0.0
  0
LINE
  5
47
330
1F
100
AcDbEntity
  8
0
  6
Continuous
 62
     7
370
     0
100
AcDbLine
 10
196.7604743903
 20
285.0
 30
0.0
 11
196.7604743903
 21
10.0
 31
0.0
  0
LINE
  5
48
330
1F
100
AcDbEntity
  8
0
  6
Continuous
 62
     7
370
     0
100
AcDbLine
 10
127.0104743903
 20
50.75
 30
0.0
 11
196.7604743903
 21
50.75
 31
0.0
  0
LINE
  5
49
330
1F
100
AcDbEntity
  8
0
  6
Continuous
 62
     7
370
     0
100
AcDbLine
 10
127.0104743903
 20
50.75
 30
0.0
 11
127.0104743903
 21
10.0
 31
0.0
  0
LINE
  5
4A
330
1F
100
AcDbEntity
  8
0
  6
Continuous
 62
     7
370
     0
100
AcDbLine
 10
127.0104743903
 20
22.75
 30
0.0
 11
196.7604743903
 21
22.75
 31
0.0
  0
LINE
  5
4B
330
1F
100
AcDbEntity
  8
0
  6
Continuous
 62
     7
370
     0
100
AcDbLine
 10
127.0104743903
 20
36.75
 30
0.0
 11
196.7604743903
 21
36.75
 31
0.0
  0
MTEXT
  5
4D
330
1F
100
AcDbEntity
  8
0
  6
Continuous
 62
     7
370
     0
100
AcDbMText
 10
160.9594284911
 20
30.4171582345
 30
0.0
 40
4.2333333333
 41
0.0
 71
     2
 72
     1
  1
VFIL2-SS-30-P12
  7
SLDTEXTSTYLE0
 73
     1
 44
1.0
  0
MTEXT
  5
4E
330
1F
100
AcDbEntity
  8
0
  6
Continuous
 62
     7
370
     0
100
AcDbMText
 10
161.3686533351
 20
43.9409718514
 30
0.0
 40
4.2333333333
 41
0.0
 71
     2
 72
     1
  1
吸着金具・ミニ用
  7
SLDTEXTSTYLE0
 73
     1
 44
1.0
  0
MTEXT
  5
4F
330
1F
100
AcDbEntity
  8
0
  6
Continuous
 62
     7
370
     0
100
AcDbMText
 10
162.6260621273
 20
16.8228189052
 30
0.0
 40
4.2333333333
 41
0.0
 71
     2
 72
     1
  1
211040
  7
SLDTEXTSTYLE0
 73
     1
 44
1.0
  0
LINE
  5
50
330
1F
100
AcDbEntity
  8
0
  6
Continuous
 62
     7
370
    15
100
AcDbLine
 10
48.6845146428
 20
127.7317671799
 30
0.0
 11
49.0345146428
 21
125.2317671799
 31
0.0
  0
LINE
  5
51
330
1F
100
AcDbEntity
  8
0
  6
Continuous
 62
     7
370
    15
100
AcDbLine
 10
53.0345146428
 20
125.2317671799
 30
0.0
 11
53.3845146428
 21
127.7317671799
 31
0.0
  0
LINE
  5
52
330
1F
100
AcDbEntity
  8
0
  6
Continuous
 62
     7
370
    15
100
AcDbLine
 10
48.6845146428
 20
125.2317671799
 30
0.0
 11
49.0345146428
 21
122.7317671799
 31
0.0
  0
LINE
  5
53
330
1F
100
AcDbEntity
  8
0
  6
Continuous
 62
     7
370
    15
100
AcDbLine
 10
53.0345146428
 20
122.7317671799
 30
0.0
 11
53.3845146428
 21
125.2317671799
 31
0.0
  0
LINE
  5
54
330
1F
100
AcDbEntity
  8
0
  6
Continuous
 62
     7
370
    15
100
AcDbLine
 10
53.1345146428
 20
127.7317671799
 30
0.0
 11
53.1345146428
 21
130.2317671799
 31
0.0
  0
LINE
  5
55
330
1F
100
AcDbEntity
  8
0
  6
Continuous
 62
     7
370
    15
100
AcDbLine
 10
48.9345146428
 20
130.2317671799
 30
0.0
 11
48.9345146428
 21
127.7317671799
 31
0.0
  0
LINE
  5
56
330
1F
100
AcDbEntity
  8
0
  6
Continuous
 62
     7
370
    15
100
AcDbLine
 10
47.0345146428
 20
146.3317671799
 30
0.0
 11
47.0345146428
 21
145.5317671799
 31
0.0
  0
LINE
  5
57
330
1F
100
AcDbEntity
  8
0
  6
Continuous
 62
     7
370
    15
100
AcDbLine
 10
55.0345146428
 20
145.5317671799
 30
0.0
 11
55.0345146428
 21
146.3317671799
 31
0.0
  0
LINE
  5
58
330
1F
100
AcDbEntity
  8
0
  6
Continuous
 62
     7
370
    15
100
AcDbLine
 10
47.0345146428
 20
133.5317671799
 30
0.0
 11
47.0345146428
 21
132.7317671799
 31
0.0
  0
LINE
  5
59
330
1F
100
AcDbEntity
  8
0
  6
Continuous
 62
     7
370
    15
100
AcDbLine
 10
55.0345146428
 20
132.7317671799
 30
0.0
 11
55.0345146428
 21
133.5317671799
 31
0.0
  0
ARC
  5
5A
330
1F
100
AcDbEntity
  8
0
  6
Continuous
 62
     7
370
    15
100
AcDbCircle
 10
51.0345146428
 20
139.5317671799
 30
0.0
 40
7.7
100
AcDbArc
 50
121.2974122203
 51
238.7025877797
  0
ARC
  5
5B
330
1F
100
AcDbEntity
  8
0
  6
Continuous
 62
     7
370
    15
100
AcDbCircle
 10
51.0345146428
 20
139.5317671799
 30
0.0
 40
7.700000000000008
100
AcDbArc
 50
301.2974122203
 51
58.7025877797
  0
ARC
  5
5C
330
1F
100
AcDbEntity
  8
0
  6
Continuous
 62
     7
370
    15
100
AcDbCircle
 10
51.0345146428
 20
139.5317671799
 30
0.0
 40
8.000000000000012
100
AcDbArc
 50
120.4143653546
 51
239.5856346455
  0
ARC
  5
5D
330
1F
100
AcDbEntity
  8
0
  6
Continuous
 62
     7
370
    15
100
AcDbCircle
 10
51.0345146428
 20
139.5317671799
 30
0.0
 40
7.999999999999989
100
AcDbArc
 50
300.4143653546
 51
59.5856346455
  0
LINE
  5
5E
330
1F
100
AcDbEntity
  8
0
  6
Continuous
 62
     7
370
    15
100
AcDbLine
 10
49.0095146428
 20
130.2317671799
 30
0.0
 11
49.0095146428
 21
132.7317671799
 31
0.0
  0
LINE
  5
5F
330
1F
100
AcDbEntity
  8
0
  6
Continuous
 62
     7
370
    15
100
AcDbLine
 10
46.9845146428
 20
132.7317671799
 30
0.0
 11
46.9845146428
 21
130.2317671799
 31
0.0
  0
LINE
  5
60
330
1F
100
AcDbEntity
  8
0
  6
Continuous
 62
     7
370
    15
100
AcDbLine
 10
46.9845146428
 20
132.7317671799
 30
0.0
 11
47.0354891621
 21
132.7317671799
 31
0.0
  0
LINE
  5
61
330
1F
100
AcDbEntity
  8
0
  6
Continuous
 62
     7
370
    15
100
AcDbLine
 10
48.9585401235
 20
132.7317671799
 30
0.0
 11
49.0095146428
 21
132.7317671799
 31
0.0
  0
LINE
  5
62
330
1F
100
AcDbEntity
  8
0
  6
Continuous
 62
     7
370
    15
100
AcDbLine
 10
46.9845146428
 20
130.2317671799
 30
0.0
 11
49.0095146428
 21
130.2317671799
 31
0.0
  0
LINE
  5
63
330
1F
100
AcDbEntity
  8
0
  6
Continuous
 62
     7
370
    15
100
AcDbLine
 10
53.0595146428
 20
130.2317671799
 30
0.0
 11
53.0595146428
 21
132.7317671799
 31
0.0
  0
LINE
  5
64
330
1F
100
AcDbEntity
  8
0
  6
Continuous
 62
     7
370
    15
100
AcDbLine
 10
49.0095146428
 20
132.7317671799
 30
0.0
 11
49.1114636815
 21
132.7317671799
 31
0.0
  0
LINE
  5
65
330
1F
100
AcDbEntity
  8
0
  6
Continuous
 62
     7
370
    15
100
AcDbLine
 10
52.9575656042
 20
132.7317671799
 30
0.0
 11
53.0595146428
 21
132.7317671799
 31
0.0
  0
LINE
  5
66
330
1F
100
AcDbEntity
  8
0
  6
Continuous
 62
     7
370
    15
100
AcDbLine
 10
49.0095146428
 20
130.2317671799
 30
0.0
 11
53.0595146428
 21
130.2317671799
 31
0.0
  0
LINE
  5
67
330
1F
100
AcDbEntity
  8
0
  6
Continuous
 62
     7
370
    15
100
AcDbLine
 10
55.0845146428
 20
130.2317671799
 30
0.0
 11
55.0845146428
 21
132.7317671799
 31
0.0
  0
LINE
  5
68
330
1F
100
AcDbEntity
  8
0
  6
Continuous
 62
     7
370
    15
100
AcDbLine
 10
53.0595146428
 20
132.7317671799
 30
0.0
 11
53.1104891621
 21
132.7317671799
 31
0.0
  0
LINE
  5
69
330
1F
100
AcDbEntity
  8
0
  6
Continuous
 62
     7
370
    15
100
AcDbLine
 10
55.0335401235
 20
132.7317671799
 30
0.0
 11
55.0845146428
 21
132.7317671799
 31
0.0
  0
LINE
  5
6A
330
1F
100
AcDbEntity
  8
0
  6
Continuous
 62
     7
370
    15
100
AcDbLine
 10
53.0595146428
 20
130.2317671799
 30
0.0
 11
55.0845146428
 21
130.2317671799
 31
0.0
  0
LINE
  5
6B
330
1F
100
AcDbEntity
  8
0
  6
Continuous
 62
     7
370
    15
100
AcDbLine
 10
53.3845146428
 20
127.7317671799
 30
0.0
 11
48.6845146428
 21
127.7317671799
 31
0.0
  0
LINE
  5
6C
330
1F
100
AcDbEntity
  8
0
  6
Continuous
 62
     7
370
    15
100
AcDbLine
 10
53.0345146428
 20
122.7317671799
 30
0.0
 11
49.0345146428
 21
122.7317671799
 31
0.0
  0
LINE
  5
6D
330
1F
100
AcDbEntity
  8
0
  6
Continuous
 62
     7
370
    15
100
AcDbLine
 10
53.3845146428
 20
125.2317671799
 30
0.0
 11
48.6845146428
 21
125.2317671799
 31
0.0
  0
LINE
  5
6E
330
1F
100
AcDbEntity
  8
0
  6
Continuous
 62
     7
370
    15
100
AcDbLine
 10
53.0595146428
 20
146.3317671799
 30
0.0
 11
53.0595146428
 21
148.8317671799
 31
0.0
  0
LINE
  5
6F
330
1F
100
AcDbEntity
  8
0
  6
Continuous
 62
     7
370
    15
100
AcDbLine
 10
49.0095146428
 20
146.3317671799
 30
0.0
 11
49.1114636815
 21
146.3317671799
 31
0.0
  0
LINE
  5
70
330
1F
100
AcDbEntity
  8
0
  6
Continuous
 62
     7
370
    15
100
AcDbLine
 10
52.9575656042
 20
146.3317671799
 30
0.0
 11
53.0595146428
 21
146.3317671799
 31
0.0
  0
LINE
  5
71
330
1F
100
AcDbEntity
  8
0
  6
Continuous
 62
     7
370
    15
100
AcDbLine
 10
49.0095146428
 20
146.3317671799
 30
0.0
 11
49.0095146428
 21
148.8317671799
 31
0.0
  0
LINE
  5
72
330
1F
100
AcDbEntity
  8
0
  6
Continuous
 62
     7
370
    15
100
AcDbLine
 10
49.0095146428
 20
148.8317671799
 30
0.0
 11
53.0595146428
 21
148.8317671799
 31
0.0
  0
LINE
  5
73
330
1F
100
AcDbEntity
  8
0
  6
Continuous
 62
     7
370
    15
100
AcDbLine
 10
46.9845146428
 20
146.3317671799
 30
0.0
 11
47.0354891621
 21
146.3317671799
 31
0.0
  0
LINE
  5
74
330
1F
100
AcDbEntity
  8
0
  6
Continuous
 62
     7
370
    15
100
AcDbLine
 10
48.9585401235
 20
146.3317671799
 30
0.0
 11
49.0095146428
 21
146.3317671799
 31
0.0
  0
LINE
  5
75
330
1F
100
AcDbEntity
  8
0
  6
Continuous
 62
     7
370
    15
100
AcDbLine
 10
46.9845146428
 20
146.3317671799
 30
0.0
 11
46.9845146429
 21
148.8317671799
 31
0.0
  0
LINE
  5
76
330
1F
100
AcDbEntity
  8
0
  6
Continuous
 62
     7
370
    15
100
AcDbLine
 10
46.9845146429
 20
148.8317671799
 30
0.0
 11
49.0095146428
 21
148.8317671799
 31
0.0
  0
LINE
  5
77
330
1F
100
AcDbEntity
  8
0
  6
Continuous
 62
     7
370
    15
100
AcDbLine
 10
55.0845146428
 20
146.3317671799
 30
0.0
 11
55.0845146428
 21
148.8317671799
 31
0.0
  0
LINE
  5
78
330
1F
100
AcDbEntity
  8
0
  6
Continuous
 62
     7
370
    15
100
AcDbLine
 10
53.0595146428
 20
146.3317671799
 30
0.0
 11
53.1104891621
 21
146.3317671799
 31
0.0
  0
LINE
  5
79
330
1F
100
AcDbEntity
  8
0
  6
Continuous
 62
     7
370
    15
100
AcDbLine
 10
55.0335401235
 20
146.3317671799
 30
0.0
 11
55.0845146428
 21
146.3317671799
 31
0.0
  0
LINE
  5
7A
330
1F
100
AcDbEntity
  8
0
  6
Continuous
 62
     7
370
    15
100
AcDbLine
 10
53.0595146428
 20
148.8317671799
 30
0.0
 11
55.0845146428
 21
148.8317671799
 31
0.0
  0
CIRCLE
  5
7B
330
1F
100
AcDbEntity
  8
0
  6
Continuous
 62
     7
370
    15
100
AcDbCircle
 10
51.0345146428
 20
139.5317671799
 30
0.0
 40
3.499999999999993
  0
CIRCLE
  5
7C
330
1F
100
AcDbEntity
  8
0
  6
Continuous
 62
     7
370
    15
100
AcDbCircle
 10
51.0345146428
 20
139.5317671799
 30
0.0
 40
1.25
  0
LINE
  5
7D
330
1F
100
AcDbEntity
  8
0
  6
Continuous
 62
     7
370
    15
100
AcDbLine
 10
54.498616258
 20
145.5317671799
 30
0.0
 11
57.9627178731
 21
139.5317671799
 31
0.0
  0
LINE
  5
7E
330
1F
100
AcDbEntity
  8
0
  6
Continuous
 62
     7
370
    15
100
AcDbLine
 10
57.9627178731
 20
139.5317671799
 30
0.0
 11
54.498616258
 21
133.5317671799
 31
0.0
  0
LINE
  5
7F
330
1F
100
AcDbEntity
  8
0
  6
Continuous
 62
     7
370
    15
100
AcDbLine
 10
54.498616258
 20
133.5317671799
 30
0.0
 11
47.5704130277
 21
133.5317671799
 31
0.0
  0
LINE
  5
80
330
1F
100
AcDbEntity
  8
0
  6
Continuous
 62
     7
370
    15
100
AcDbLine
 10
44.1063114126
 20
139.5317671799
 30
0.0
 11
47.5704130277
 21
145.5317671799
 31
0.0
  0
LINE
  5
81
330
1F
100
AcDbEntity
  8
0
  6
Continuous
 62
     7
370
    15
100
AcDbLine
 10
47.5704130277
 20
145.5317671799
 30
0.0
 11
54.498616258
 21
145.5317671799
 31
0.0
  0
LINE
  5
82
330
1F
100
AcDbEntity
  8
0
  6
Continuous
 62
     7
370
    15
100
AcDbLine
 10
47.5704130277
 20
133.5317671799
 30
0.0
 11
44.1063114126
 21
139.5317671799
 31
0.0
  0
LINE
  5
83
330
1F
100
AcDbEntity
  8
0
  6
Continuous
 62
     7
370
    15
100
AcDbLine
 10
55.0335401235
 20
146.3317671799
 30
0.0
 11
53.1104891621
 21
146.3317671799
 31
0.0
  0
LINE
  5
84
330
1F
100
AcDbEntity
  8
0
  6
Continuous
 62
     7
370
    15
100
AcDbLine
 10
52.9575656042
 20
146.3317671799
 30
0.0
 11
49.1114636815
 21
146.3317671799
 31
0.0
  0
LINE
  5
85
330
1F
100
AcDbEntity
  8
0
  6
Continuous
 62
     7
370
    15
100
AcDbLine
 10
48.9585401235
 20
146.3317671799
 30
0.0
 11
47.0354891621
 21
146.3317671799
 31
0.0
  0
LINE
  5
86
330
1F
100
AcDbEntity
  8
0
  6
Continuous
 62
     7
370
    15
100
AcDbLine
 10
55.0345146428
 20
145.5317671799
 30
0.0
 11
54.498616258
 21
145.5317671799
 31
0.0
  0
LINE
  5
87
330
1F
100
AcDbEntity
  8
0
  6
Continuous
 62
     7
370
    15
100
AcDbLine
 10
47.5704130277
 20
145.5317671799
 30
0.0
 11
47.0345146428
 21
145.5317671799
 31
0.0
  0
LINE
  5
88
330
1F
100
AcDbEntity
  8
0
  6
Continuous
 62
     7
370
    15
100
AcDbLine
 10
48.0694810281
 20
132.7317671799
 30
0.0
 11
47.0354891621
 21
132.7317671799
 31
0.0
  0
LINE
  5
89
330
1F
100
AcDbEntity
  8
0
  6
Continuous
 62
     7
370
    15
100
AcDbLine
 10
55.0335401235
 20
132.7317671799
 30
0.0
 11
53.1104891621
 21
132.7317671799
 31
0.0
  0
LINE
  5
8A
330
1F
100
AcDbEntity
  8
0
  6
Continuous
 62
     7
370
    15
100
AcDbLine
 10
52.9575656042
 20
132.7317671799
 30
0.0
 11
49.1114636815
 21
132.7317671799
 31
0.0
  0
LINE
  5
8B
330
1F
100
AcDbEntity
  8
0
  6
Continuous
 62
     7
370
    15
100
AcDbLine
 10
48.9585401235
 20
132.7317671799
 30
0.0
 11
48.0694810281
 21
132.7317671799
 31
0.0
  0
LINE
  5
8C
330
1F
100
AcDbEntity
  8
0
  6
Continuous
 62
     7
370
    15
100
AcDbLine
 10
47.5704130277
 20
133.5317671799
 30
0.0
 11
47.0345146428
 21
133.5317671799
 31
0.0
  0
LINE
  5
8D
330
1F
100
AcDbEntity
  8
0
  6
Continuous
 62
     7
370
    15
100
AcDbLine
 10
55.0345146428
 20
133.5317671799
 30
0.0
 11
54.498616258
 21
133.5317671799
 31
0.0
  0
DIMENSION
  5
8E
330
1F
100
AcDbEntity
  8
0
  6
Continuous
 62
     7
370
     0
100
AcDbDimension
  2
_D
 10
27.0345146428
 20
130.2317671799
 30
0.0
 11
27.0345146428
 21
139.5317671799
 31
0.0
 70
   160
  1
<>
 71
     2
 42
-1.0
  3
SLDDIMSTYLE0
100
AcDbAlignedDimension
 13
46.9845146429
 23
148.8317671799
 33
0.0
 14
46.9845146428
 24
130.2317671799
 34
0.0
 50
90.0
100
AcDbRotatedDimension
  0
DIMENSION
  5
9A
330
1F
100
AcDbEntity
  8
0
  6
Continuous
 62
     7
370
     0
100
AcDbDimension
  2
_D_1
 10
35.8760770909
 20
133.5317671799
 30
0.0
 11
35.8760770909
 21
139.5317671799
 31
0.0
 70
   160
  1
<>
 71
     2
 42
-1.0
  3
SLDDIMSTYLE0
100
AcDbAlignedDimension
 13
47.5704130277
 23
145.5317671799
 33
0.0
 14
47.5704130277
 24
133.5317671799
 34
0.0
 50
90.0
100
AcDbRotatedDimension
  0
DIMENSION
  5
A4
330
1F
100
AcDbEntity
  8
0
  6
Continuous
 62
     7
370
     0
100
AcDbDimension
  2
_D_2
 10
59.0345146428
 20
157.0532863355
 30
0.0
 11
51.0345146428
 21
157.0532863355
 31
0.0
 70
   160
  1
%%c<>
 71
     2
 42
-1.0
  3
SLDDIMSTYLE0
100
AcDbAlignedDimension
 13
43.0345146428
 23
139.5317671799
 33
0.0
 14
59.0345146428
 24
139.5317671799
 34
0.0
100
AcDbRotatedDimension
  0
MTEXT
  5
AF
330
1F
100
AcDbEntity
  8
0
  6
Continuous
 62
     7
370
     0
100
AcDbMText
 10
27.0345146428
 20
161.8544445774
 30
0.0
 40
3.5
 41
0.0
 71
     1
 72
     1
  1
M3
  7
SLDTEXTSTYLE1
 73
     1
 44
1.0
  0
LEADER
  5
B1
330
1F
100
AcDbEntity
  8
0
  6
Continuous
 62
     7
370
     0
100
AcDbLeader
  3
SLDDIMSTYLE1
 76
     3
 10
49.8653525634
 20
139.97398888
 30
0.0
 10
34.3804220399
 20
157.327080891
 30
0.0
 10
26.9636576788
 20
157.327080891
 30
0.0
  0
INSERT
  5
BD
330
1F
100
AcDbEntity
  8
0
  6
Continuous
 62
     7
370
     0
100
AcDbBlockReference
  2
SW_CENTERMARKSYMBOL_0
 10
51.0345146428
 20
139.5317671799
 30
0.0
  0
LINE
  5
BE
330
1F
100
AcDbEntity
  8
0
  6
Continuous
 62
     7
370
    15
100
AcDbLine
 10
145.2177998601
 20
131.5317671799
 30
0.0
 11
145.5177998601
 21
131.8317671799
 31
0.0
  0
LINE
  5
BF
330
1F
100
AcDbEntity
  8
0
  6
Continuous
 62
     7
370
    15
100
AcDbLine
 10
145.5177998601
 20
147.2317671799
 30
0.0
 11
145.2177998601
 21
147.5317671799
 31
0.0
  0
LINE
  5
C0
330
1F
100
AcDbEntity
  8
0
  6
Continuous
 62
     7
370
    15
100
AcDbLine
 10
145.2177998601
 20
147.5317671799
 30
0.0
 11
143.8177998601
 21
147.5317671799
 31
0.0
  0
LINE
  5
C1
330
1F
100
AcDbEntity
  8
0
  6
Continuous
 62
     7
370
    15
100
AcDbLine
 10
143.8177998601
 20
131.5317671799
 30
0.0
 11
145.2177998601
 21
131.5317671799
 31
0.0
  0
LINE
  5
C2
330
1F
100
AcDbEntity
  8
0
  6
Continuous
 62
     7
370
    15
100
AcDbLine
 10
143.8177998601
 20
147.5317671799
 30
0.0
 11
143.5177998601
 21
147.2317671799
 31
0.0
  0
LINE
  5
C3
330
1F
100
AcDbEntity
  8
0
  6
Continuous
 62
     7
370
    15
100
AcDbLine
 10
143.5177998601
 20
131.8317671799
 30
0.0
 11
143.8177998601
 21
131.5317671799
 31
0.0
  0
LINE
  5
C4
330
1F
100
AcDbEntity
  8
0
  6
Continuous
 62
     7
370
    15
100
AcDbLine
 10
163.2177998601
 20
133.5317671799
 30
0.0
 11
163.5177998601
 21
133.8317671799
 31
0.0
  0
LINE
  5
C5
330
1F
100
AcDbEntity
  8
0
  6
Continuous
 62
     7
370
    15
100
AcDbLine
 10
163.5177998601
 20
145.2317671799
 30
0.0
 11
163.2177998601
 21
145.5317671799
 31
0.0
  0
LINE
  5
C6
330
1F
100
AcDbEntity
  8
0
  6
Continuous
 62
     7
370
    15
100
AcDbLine
 10
163.2177998601
 20
145.5317671799
 30
0.0
 11
145.5177998601
 21
145.5317671799
 31
0.0
  0
LINE
  5
C7
330
1F
100
AcDbEntity
  8
0
  6
Continuous
 62
     7
370
    15
100
AcDbLine
 10
145.5177998601
 20
133.5317671799
 30
0.0
 11
163.2177998601
 21
133.5317671799
 31
0.0
  0
LINE
  5
C8
330
1F
100
AcDbEntity
  8
0
  6
Continuous
 62
     7
370
    15
100
AcDbLine
 10
143.5177998601
 20
143.2817671799
 30
0.0
 11
141.8177998601
 21
143.2817671799
 31
0.0
  0
LINE
  5
C9
330
1F
100
AcDbEntity
  8
0
  6
Continuous
 62
     7
370
    15
100
AcDbLine
 10
141.8177998601
 20
135.7817671799
 30
0.0
 11
143.5177998601
 21
135.7817671799
 31
0.0
  0
LINE
  5
CA
330
1F
100
AcDbEntity
  8
0
  6
Continuous
 62
     7
370
    15
100
AcDbLine
 10
141.8177998601
 20
143.2817671799
 30
0.0
 11
141.7382880921
 21
143.2022554119
 31
0.0
  0
LINE
  5
CB
330
1F
100
AcDbEntity
  8
0
  6
Continuous
 62
     7
370
    15
100
AcDbLine
 10
141.5177998601
 20
136.0817671799
 30
0.0
 11
141.8177998601
 21
135.7817671799
 31
0.0
  0
LINE
  5
CC
330
1F
100
AcDbEntity
  8
0
  6
Continuous
 62
     7
370
    15
100
AcDbLine
 10
163.6177998601
 20
136.0317671799
 30
0.0
 11
164.2177998601
 21
136.0317671799
 31
0.0
  0
LINE
  5
CD
330
1F
100
AcDbEntity
  8
0
  6
Continuous
 62
     7
370
    15
100
AcDbLine
 10
164.2177998601
 20
142.1146980276
 30
0.0
 11
163.6177998601
 21
142.1146980276
 31
0.0
  0
LINE
  5
CE
330
1F
100
AcDbEntity
  8
0
  6
Continuous
 62
     7
370
    15
100
AcDbLine
 10
99.1677998601
 20
127.7317671799
 30
0.0
 11
99.5177998601
 21
125.2317671799
 31
0.0
  0
LINE
  5
CF
330
1F
100
AcDbEntity
  8
0
  6
Continuous
 62
     7
370
    15
100
AcDbLine
 10
103.5177998601
 20
125.2317671799
 30
0.0
 11
103.8677998601
 21
127.7317671799
 31
0.0
  0
LINE
  5
D0
330
1F
100
AcDbEntity
  8
0
  6
Continuous
 62
     7
370
    15
100
AcDbLine
 10
99.1677998601
 20
125.2317671799
 30
0.0
 11
99.5177998601
 21
122.7317671799
 31
0.0
  0
LINE
  5
D1
330
1F
100
AcDbEntity
  8
0
  6
Continuous
 62
     7
370
    15
100
AcDbLine
 10
103.5177998601
 20
122.7317671799
 30
0.0
 11
103.8677998601
 21
125.2317671799
 31
0.0
  0
LINE
  5
D2
330
1F
100
AcDbEntity
  8
0
  6
Continuous
 62
     7
370
    15
100
AcDbLine
 10
103.6177998601
 20
127.7317671799
 30
0.0
 11
103.6177998601
 21
130.2317671799
 31
0.0
  0
LINE
  5
D3
330
1F
100
AcDbEntity
  8
0
  6
Continuous
 62
     7
370
    15
100
AcDbLine
 10
99.4177998601
 20
130.2317671799
 30
0.0
 11
99.4177998601
 21
127.7317671799
 31
0.0
  0
SPLINE
  5
D4
330
1F
100
AcDbEntity
  8
0
  6
Continuous
 62
     7
370
    15
100
AcDbSpline
210
0.0
220
0.0
230
1.0
 70
     8
 71
     3
 72
    16
 73
    12
 74
     0
 42
0.00000001
 43
0.00000001
 12
1.0
 22
0.0
 32
0.0
 13
1.0
 23
0.0
 33
0.0
 40
0.0
 40
0.0
 40
0.0
 40
0.0
 40
0.0908538045538112
 40
0.1514623454621225
 40
0.2040364973442309
 40
0.2833292189503896
 40
0.3897091474920181
 40
0.5165832822481405
 40
0.7186479542262276
 40
0.9340473211142801
 40
1.0
 40
1.0
 40
1.0
 40
1.0
 10
119.1402598518618
 20
135.0336903258601
 30
0.0
 10
119.1957374840788
 20
135.0405860538544
 30
0.0
 10
119.2882242251408
 20
135.0520819195567
 30
0.0
 10
119.3942767883918
 20
135.1289732231293
 30
0.0
 10
119.4604327671276
 20
135.1982109549484
 30
0.0
 10
119.5253390862698
 20
135.2915591643913
 30
0.0
 10
119.6015116446515
 20
135.4446027558098
 30
0.0
 10
119.7006745157717
 20
135.7132958862487
 30
0.0
 10
119.8199315701208
 20
136.1514215367362
 30
0.0
 10
119.9230689723737
 20
136.6310419379529
 30
0.0
 10
119.9823510632331
 20
136.9556700198584
 30
0.0
 10
119.9962475774431
 20
137.0317671798571
 30
0.0
  0
SPLINE
  5
D5
330
1F
100
AcDbEntity
  8
0
  6
Continuous
 62
     7
370
    15
100
AcDbSpline
210
0.0
220
0.0
230
1.0
 70
     8
 71
     3
 72
    13
 73
     9
 74
     0
 42
0.00000001
 43
0.00000001
 12
1.0
 22
0.0
 32
0.0
 13
1.0
 23
0.0
 33
0.0
 40
0.0
 40
0.0
 40
0.0
 40
0.0
 40
0.1353936240831041
 40
0.371902002514176
 40
0.5760890650956483
 40
0.7479519750688648
 40
0.8937226762030587
 40
0.9999999999999999
 40
0.9999999999999999
 40
0.9999999999999999
 40
0.9999999999999999
 10
120.7992136091432
 20
142.0317671798571
 30
0.0
 10
120.8158235249931
 20
142.1217180404443
 30
0.0
 10
120.8614479848449
 20
142.3687969217931
 30
0.0
 10
120.9314622463614
 20
142.6899592930312
 30
0.0
 10
121.0054372389932
 20
142.9905997390958
 30
0.0
 10
121.0667804662803
 20
143.2009380516844
 30
0.0
 10
121.1169976784512
 20
143.3465142464761
 30
0.0
 10
121.1402150390705
 20
143.3997357672
 30
0.0
 10
121.1500047565377
 20
143.4221768904442
 30
0.0
  0
SPLINE
  5
D6
330
1F
100
AcDbEntity
  8
0
  6
Continuous
 62
     7
370
    15
100
AcDbSpline
210
0.0
220
0.0
230
1.0
 70
     8
 71
     3
 72
    15
 73
    11
 74
     0
 42
0.00000001
 43
0.00000001
 12
1.0
 22
0.0
 32
0.0
 13
1.0
 23
0.0
 33
0.0
 40
0.0
 40
0.0
 40
0.0
 40
0.0
 40
0.1452485359418859
 40
0.2706132346505007
 40
0.4253235468234319
 40
0.5531675236396748
 40
0.6573825284782212
 40
0.7660465812661084
 40
0.8821761193969806
 40
1.0
 40
1.0
 40
1.0
 40
1.0
 10
123.1404269026326
 20
135.0339558411423
 30
0.0
 10
123.2135385346751
 20
135.0480009096741
 30
0.0
 10
123.3497531623082
 20
135.074168343319
 30
0.0
 10
123.5107936823737
 20
135.258288127904
 30
0.0
 10
123.6150545002879
 20
135.4717510630466
 30
0.0
 10
123.7065207176251
 20
135.7390450884359
 30
0.0
 10
123.7805046395828
 20
136.006967712417
 30
0.0
 10
123.8500511003813
 20
136.2974012168457
 30
0.0
 10
123.9224470923504
 20
136.6353189603536
 30
0.0
 10
123.9716873878357
 20
136.8989812730686
 30
0.0
 10
123.996485840141
 20
137.0317671798571
 30
0.0
  0
SPLINE
  5
D7
330
1F
100
AcDbEntity
  8
0
  6
Continuous
 62
     7
370
    15
100
AcDbSpline
210
0.0
220
0.0
230
1.0
 70
     8
 71
     3
 72
    14
 73
    10
 74
     0
 42
0.00000001
 43
0.00000001
 12
1.0
 22
0.0
 32
0.0
 13
1.0
 23
0.0
 33
0.0
 40
0.0
 40
0.0
 40
0.0
 40
0.0
 40
0.0425455582469626
 40
0.2157939168329594
 40
0.3941590840637836
 40
0.5769326182106003
 40
0.7637668901118987
 40
0.9544136569761711
 40
1.0
 40
1.0
 40
1.0
 40
1.0
 10
124.798627965075
 20
142.0317671798571
 30
0.0
 10
124.803908241191
 20
142.0615501633344
 30
0.0
 10
124.8306901547909
 20
142.2126114473874
 30
0.0
 10
124.8794221886699
 20
142.4475976186647
 30
0.0
 10
124.9444269898343
 20
142.7455115718521
 30
0.0
 10
125.010420724087
 20
143.0078098575008
 30
0.0
 10
125.073049352565
 20
143.2243935321446
 30
0.0
 10
125.1261132090098
 20
143.3706156349459
 30
0.0
 10
125.1430591098396
 20
143.4093878246625
 30
0.0
 10
125.1463291918719
 20
143.4168697662965
 30
0.0
  0
SPLINE
  5
D8
330
1F
100
AcDbEntity
  8
0
  6
Continuous
 62
     7
370
    15
100
AcDbSpline
210
0.0
220
0.0
230
1.0
 70
     8
 71
     3
 72
    15
 73
    11
 74
     0
 42
0.00000001
 43
0.00000001
 12
1.0
 22
0.0
 32
0.0
 13
1.0
 23
0.0
 33
0.0
 40
0.0
 40
0.0
 40
0.0
 40
0.0
 40
0.1037780216583515
 40
0.206746584154356
 40
0.3995373416094301
 40
0.5146217976461933
 40
0.6508180395748699
 40
0.8193265767450002
 40
0.9667704495527865
 40
1.0
 40
1.0
 40
1.0
 40
1.0
 10
127.1396893975316
 20
135.0336924664745
 30
0.0
 10
127.2001542394133
 20
135.0434795230985
 30
0.0
 10
127.3206123028907
 20
135.0629772981918
 30
0.0
 10
127.4778860912695
 20
135.2066794675492
 30
0.0
 10
127.5896335283539
 20
135.406987353794
 30
0.0
 10
127.6902401081018
 20
135.6854549371588
 30
0.0
 10
127.7807469072507
 20
136.0001652096789
 30
0.0
 10
127.8770829727213
 20
136.4178048491404
 30
0.0
 10
127.9508439993633
 20
136.7766961732114
 30
0.0
 10
127.9888939925079
 20
136.992142228711
 30
0.0
 10
127.9958921671367
 20
137.0317671798571
 30
0.0
  0
SPLINE
  5
D9
330
1F
100
AcDbEntity
  8
0
  6
Continuous
 62
     7
370
    15
100
AcDbSpline
210
0.0
220
0.0
230
1.0
 70
     8
 71
     3
 72
    12
 73
     8
 74
     0
 42
0.00000001
 43
0.00000001
 12
1.0
 22
0.0
 32
0.0
 13
1.0
 23
0.0
 33
0.0
 40
0.0
 40
0.0
 40
0.0
 40
0.0
 40
0.1552777854053276
 40
0.3390522550717925
 40
0.6862173012224047
 40
0.9028211974420514
 40
1.0
 40
1.0
 40
1.0
 40
1.0
 10
128.7981721042667
 20
142.0317671798571
 30
0.0
 10
128.817139565853
 20
142.1321242326399
 30
0.0
 10
128.8585554104121
 20
142.3512559324482
 30
0.0
 10
128.9415795442754
 20
142.7395245832955
 30
0.0
 10
129.0297867910974
 20
143.0859903780568
 30
0.0
 10
129.1056906002803
 20
143.321272058835
 30
0.0
 10
129.1378435509921
 20
143.3921746934525
 30
0.0
 10
129.1478013506447
 20
143.4141333073506
 30
0.0
  0
SPLINE
  5
DA
330
1F
100
AcDbEntity
  8
0
  6
Continuous
 62
     7
370
    15
100
AcDbSpline
210
0.0
220
0.0
230
1.0
 70
     8
 71
     3
 72
    21
 73
    17
 74
     0
 42
0.00000001
 43
0.00000001
 12
1.0
 22
0.0
 32
0.0
 13
1.0
 23
0.0
 33
0.0
 40
0.0
 40
0.0
 40
0.0
 40
0.0
 40
0.0973547488523502
 40
0.1887098261253123
 40
0.2741218185609453
 40
0.3536104086047901
 40
0.4502615169670678
 40
0.5361529334317116
 40
0.61119115991485
 40
0.6753343709358991
 40
0.7285548456461124
 40
0.77525829960588
 40
0.8182467512303477
 40
0.86986710492711
 40
0.9304621081179945
 40
1.0
 40
1.0
 40
1.0
 40
1.0
 10
130.2353418221821
 20
140.5929759968124
 30
0.0
 10
130.2071081056067
 20
140.7742719076147
 30
0.0
 10
130.1523806289441
 20
141.1256910238677
 30
0.0
 10
130.0725873012763
 20
141.6077349506893
 30
0.0
 10
129.9977909109224
 20
142.0307862792119
 30
0.0
 10
129.9212101749609
 20
142.4305353581478
 30
0.0
 10
129.8440224906821
 20
142.7933011740527
 30
0.0
 10
129.7673668450254
 20
143.1064217417901
 30
0.0
 10
129.6993850951332
 20
143.3434653086133
 30
0.0
 10
129.6399865199968
 20
143.517385160149
 30
0.0
 10
129.5879464072051
 20
143.6439590255605
 30
0.0
 10
129.5399921520358
 20
143.7415010524546
 30
0.0
 10
129.4777076819215
 20
143.8402628390723
 30
0.0
 10
129.3956947755589
 20
143.931835489411
 30
0.0
 10
129.2821554234723
 20
144.0126256225133
 30
0.0
 10
129.1893962674543
 20
144.0240659932324
 30
0.0
 10
129.1398294291954
 20
144.0301792765933
 30
0.0
  0
LWPOLYLINE
  5
DB
330
1F
100
AcDbEntity
  8
0
  6
Continuous
 62
     7
370
    15
100
AcDbPolyline
 90
       30
 70
   128
 43
0.0
 10
127.1598488072
 20
135.5468802832
 10
127.1637315386
 20
135.5501374178
 10
127.1557917418
 20
135.6021669186
 10
127.1308867704
 20
135.6752604276
 10
127.1028631795
 20
135.7519184454
 10
127.0441620375
 20
135.9376212738
 10
126.9831240862
 20
136.1641090593
 10
126.8596296315
 20
136.7138834452
 10
126.741919117
 20
137.3395861032
 10
126.6380715451
 20
137.9567490912
 10
126.548799738
 20
138.5219169355
 10
126.4964431568
 20
138.8635107919
 10
126.4361392748
 20
139.2626655975
 10
126.3636908044
 20
139.7456128857
 10
126.3013432985
 20
140.15979677
 10
126.2320907304
 20
140.6132940417
 10
126.1558933922
 20
141.0981237712
 10
126.0741085072
 20
141.5941875531
 10
125.9969300042
 20
142.0315594183
 10
125.9263879183
 20
142.3997845378
 10
125.8624637028
 20
142.7043698931
 10
125.8051382199
 20
142.9518651505
 10
125.7389347546
 20
143.2052249175
 10
125.6783161321
 20
143.4046939366
 10
125.6000479249
 20
143.613602005
 10
125.5248370561
 20
143.7642102378
 10
125.4302438253
 20
143.893914141
 10
125.3043427737
 20
143.9904765132
 10
125.1394340351
 20
144.0296306108
 10
125.1394340351
 20
144.0296306108
  0
SPLINE
  5
DC
330
1F
100
AcDbEntity
  8
0
  6
Continuous
 62
     7
370
    15
100
AcDbSpline
210
0.0
220
0.0
230
1.0
 70
     8
 71
     3
 72
    33
 73
    29
 74
     0
 42
0.00000001
 43
0.00000001
 12
1.0
 22
0.0
 32
0.0
 13
1.0
 23
0.0
 33
0.0
 40
0.0
 40
0.0
 40
0.0
 40
0.0
 40
0.0185054165483025
 40
0.0515997956625405
 40
0.081413655750637
 40
0.1150646439164936
 40
0.1446553406918476
 40
0.1797845763751332
 40
0.2102261676138834
 40
0.2441694726605612
 40
0.2816240277645679
 40
0.3226306852700433
 40
0.3637420668172098
 40
0.4014039491301926
 40
0.4355791490026449
 40
0.4662521075703216
 40
0.501696847067297
 40
0.5309195369925543
 40
0.5584814330383947
 40
0.6060306240259979
 40
0.6610458810039224
 40
0.7231786034880745
 40
0.7901935224200777
 40
0.8620182212870267
 40
0.8830995025761801
 40
0.9127716928813638
 40
0.9516860780125664
 40
1.0
 40
1.0
 40
1.0
 40
1.0
 10
123.2024553134539
 20
135.5268589584556
 30
0.0
 10
123.2040533660816
 20
135.5271043509903
 30
0.0
 10
123.2085093149024
 20
135.5277885941477
 30
0.0
 10
123.1670692540348
 20
135.5936282733755
 30
0.0
 10
123.1222516176348
 20
135.7035958169932
 30
0.0
 10
123.0688299536561
 20
135.8560251019294
 30
0.0
 10
123.0075029270273
 20
136.0672504252649
 30
0.0
 10
122.9477611780598
 20
136.305498212796
 30
0.0
 10
122.8846985419145
 20
136.5888408442978
 30
0.0
 10
122.8198482398262
 20
136.9099613790847
 30
0.0
 10
122.7479898671504
 20
137.2992596747096
 30
0.0
 10
122.6714216270309
 20
137.7478176048341
 30
0.0
 10
122.5947160716243
 20
138.2245354787588
 30
0.0
 10
122.5223738605263
 20
138.6919347679202
 30
0.0
 10
122.4566586180101
 20
139.1259340190198
 30
0.0
 10
122.392313592239
 20
139.5549760255885
 30
0.0
 10
122.3310962735061
 20
139.9634375792085
 30
0.0
 10
122.2719317520778
 20
140.3544983413301
 30
0.0
 10
122.2050400163103
 20
140.7897287292469
 30
0.0
 10
122.1215325304041
 20
141.3166842283107
 30
0.0
 10
122.0154707268294
 20
141.9421958820437
 30
0.0
 10
121.8969980851975
 20
142.5636213484101
 30
0.0
 10
121.7630017864884
 20
143.1417884852183
 30
0.0
 10
121.6510052467163
 20
143.4954634378184
 30
0.0
 10
121.5535488835609
 20
143.7118221572852
 30
0.0
 10
121.4629850691619
 20
143.8571816750679
 30
0.0
 10
121.3246855577453
 20
143.9973037130165
 30
0.0
 10
121.2062106656848
 20
144.0181208804925
 30
0.0
 10
121.1405899184577
 20
144.0296510710769
 30
0.0
  0
SPLINE
  5
DD
330
1F
100
AcDbEntity
  8
0
  6
Continuous
 62
     7
370
    15
100
AcDbSpline
210
0.0
220
0.0
230
1.0
 70
     8
 71
     3
 72
    27
 73
    23
 74
     0
 42
0.00000001
 43
0.00000001
 12
1.0
 22
0.0
 32
0.0
 13
1.0
 23
0.0
 33
0.0
 40
0.0
 40
0.0
 40
0.0
 40
0.0
 40
0.0366395747600846
 40
0.0740878663381739
 40
0.122706954609444
 40
0.1716246435000711
 40
0.2208435582385452
 40
0.2702227431852424
 40
0.3186136600737305
 40
0.365535248537896
 40
0.4109996864659209
 40
0.4554420025859901
 40
0.5096397157316355
 40
0.5782934961905097
 40
0.6180830136976203
 40
0.6615213553456473
 40
0.7086551510675839
 40
0.7595079460992273
 40
0.8140689668389188
 40
0.8723119249587057
 40
0.934255547667637
 40
0.9999999999999999
 40
0.9999999999999999
 40
0.9999999999999999
 40
0.9999999999999999
 10
119.1881202779171
 20
135.5389282911918
 30
0.0
 10
119.1897434864917
 20
135.543200505748
 30
0.0
 10
119.1930257314606
 20
135.5518392321274
 30
0.0
 10
119.1513840572014
 20
135.6300407026278
 30
0.0
 10
119.0885452763855
 20
135.7912281842984
 30
0.0
 10
119.0200533798213
 20
136.0184294500178
 30
0.0
 10
118.9476623237147
 20
136.3037280376661
 30
0.0
 10
118.8741311487934
 20
136.6379359005115
 30
0.0
 10
118.8012851896093
 20
137.0078928406284
 30
0.0
 10
118.7301630435817
 20
137.4019441793972
 30
0.0
 10
118.6608834962107
 20
137.8128134366357
 30
0.0
 10
118.587861212026
 20
138.2678541121752
 30
0.0
 10
118.5031474384814
 20
138.8166635427786
 30
0.0
 10
118.42065950455
 20
139.3659240958125
 30
0.0
 10
118.3436291809356
 20
139.8802104988196
 30
0.0
 10
118.2774421285254
 20
140.318814947154
 30
0.0
 10
118.2056505390905
 20
140.7856478623964
 30
0.0
 10
118.1282126663614
 20
141.2724646227741
 30
0.0
 10
118.0450752552813
 20
141.7684087066247
 30
0.0
 10
117.9561459241703
 20
142.257269375962
 30
0.0
 10
117.8613396967391
 20
142.7260378488483
 30
0.0
 10
117.796221574569
 20
142.9848724062425
 30
0.0
 10
117.7626933435452
 20
143.118141986938
 30
0.0
  0
SPLINE
  5
DE
330
1F
100
AcDbEntity
  8
0
  6
Continuous
 62
     7
370
    15
100
AcDbSpline
210
0.0
220
0.0
230
1.0
 70
     8
 71
     3
 72
    30
 73
    26
 74
     0
 42
0.00000001
 43
0.00000001
 12
1.0
 22
0.0
 32
0.0
 13
1.0
 23
0.0
 33
0.0
 40
0.0
 40
0.0
 40
0.0
 40
0.0
 40
0.0619599494322766
 40
0.1186908222388699
 40
0.1702274268936487
 40
0.2165305365125461
 40
0.2699954163236766
 40
0.3139466589770904
 40
0.3483482072477161
 40
0.3735687694232396
 40
0.3984916593007401
 40
0.4268467237192571
 40
0.4758163416296424
 40
0.5325233716275586
 40
0.5966642723398919
 40
0.6595238919116524
 40
0.7170686625686908
 40
0.7692445726699872
 40
0.8010355479872745
 40
0.8304203455150543
 40
0.8612318740156887
 40
0.889154074533209
 40
0.9215103993498773
 40
0.9584748623886008
 40
1.0
 40
1.0
 40
1.0
 40
1.0
 10
117.2770498415104
 20
143.0237861055208
 30
0.0
 10
117.3108915287657
 20
142.8921349807339
 30
0.0
 10
117.3757188522718
 20
142.6399433570674
 30
0.0
 10
117.4689951985465
 20
142.1817252656262
 30
0.0
 10
117.5537075658526
 20
141.7186998654152
 30
0.0
 10
117.6366419041932
 20
141.2276300607049
 30
0.0
 10
117.7155478462826
 20
140.7329450712558
 30
0.0
 10
117.7880208132626
 20
140.261558860483
 30
0.0
 10
117.8450297344393
 20
139.8841275312382
 30
0.0
 10
117.8915642105924
 20
139.573925646833
 30
0.0
 10
117.9347543559479
 20
139.285591932363
 30
0.0
 10
117.9909923911364
 20
138.9112268541863
 30
0.0
 10
118.0647506722099
 20
138.42590483137
 30
0.0
 10
118.1583084365949
 20
137.8308537902632
 30
0.0
 10
118.2597507797392
 20
137.226760024894
 30
0.0
 10
118.3619452041719
 20
136.6792179578201
 30
0.0
 10
118.4582451607069
 20
136.2284376206346
 30
0.0
 10
118.5382097744429
 20
135.910778316945
 30
0.0
 10
118.6038654545127
 20
135.6903685767635
 30
0.0
 10
118.65735343835
 20
135.5354035665072
 30
0.0
 10
118.7136554470752
 20
135.3995045583135
 30
0.0
 10
118.7859519172161
 20
135.2671418252936
 30
0.0
 10
118.8780386908475
 20
135.1512008255153
 30
0.0
 10
119.0014320668865
 20
135.0542506571669
 30
0.0
 10
119.1009420874219
 20
135.0407827289821
 30
0.0
 10
119.1535881355891
 20
135.0336574847895
 30
0.0
  0
LWPOLYLINE
  5
DF
330
1F
100
AcDbEntity
  8
0
  6
Continuous
 62
     7
370
    15
100
AcDbPolyline
 90
       30
 70
   128
 43
0.0
 10
121.1295576196
 20
143.5177527067
 10
121.1269845351
 20
143.5162041216
 10
121.1329570266
 20
143.4704975205
 10
121.1572866074
 20
143.4015369798
 10
121.1860617882
 20
143.3248136875
 10
121.2460938615
 20
143.1374381054
 10
121.3078966891
 20
142.9095482507
 10
121.4309468135
 20
142.3642710411
 10
121.5462185963
 20
141.7551012428
 10
121.6483140851
 20
141.1514538369
 10
121.7367269079
 20
140.5938021285
 10
121.7889860357
 20
140.2536871276
 10
121.8492759374
 20
139.8552171503
 10
121.9217081311
 20
139.3725722492
 10
121.9840409167
 20
138.9581508612
 10
122.0532755837
 20
138.5038004507
 10
122.1294507122
 20
138.0172541188
 10
122.2112108784
 20
137.5183457649
 10
122.2883593564
 20
137.0773130173
 10
122.3588584214
 20
136.7054421109
 10
122.4227229086
 20
136.3974812034
 10
122.4799680476
 20
136.146824972
 10
122.5460251979
 20
135.8895957364
 10
122.6063531342
 20
135.6865558847
 10
122.6836993667
 20
135.4733924209
 10
122.7574353806
 20
135.3187956804
 10
122.8507266629
 20
135.183351781
 10
122.979544594
 20
135.0781104686
 10
123.1537620096
 20
135.0339667648
 10
123.1537620096
 20
135.0339667648
  0
SPLINE
  5
E0
330
1F
100
AcDbEntity
  8
0
  6
Continuous
 62
     7
370
    15
100
AcDbSpline
210
0.0
220
0.0
230
1.0
 70
     8
 71
     3
 72
    33
 73
    29
 74
     0
 42
0.00000001
 43
0.00000001
 12
1.0
 22
0.0
 32
0.0
 13
1.0
 23
0.0
 33
0.0
 40
0.0
 40
0.0
 40
0.0
 40
0.0
 40
0.0159373684958816
 40
0.0488019059101796
 40
0.078535573278015
 40
0.1121031551522339
 40
0.1416281737200515
 40
0.1766904215521601
 40
0.2070839109708378
 40
0.2409796865384851
 40
0.2783768728203599
 40
0.3193061471970234
 40
0.3603440224945043
 40
0.3979492666088107
 40
0.4320812522613893
 40
0.4627165049385332
 40
0.4981076637697183
 40
0.527278688856028
 40
0.5548887498832804
 40
0.6028904386673132
 40
0.6588214311905356
 40
0.7220735049826308
 40
0.7889392627056996
 40
0.8590973611996303
 40
0.879760056036682
 40
0.9097610679899371
 40
0.9497817148911708
 40
1.0
 40
1.0
 40
1.0
 40
1.0
 10
125.0915579199387
 20
143.5368009289472
 30
0.0
 10
125.0898356174775
 20
143.5367846134366
 30
0.0
 10
125.0845617454026
 20
143.5367346536195
 30
0.0
 10
125.1221518268991
 20
143.4789685062474
 30
0.0
 10
125.1646241733116
 20
143.3773198927232
 30
0.0
 10
125.2171880559596
 20
143.2314993014813
 30
0.0
 10
125.2783581223869
 20
143.0251964420777
 30
0.0
 10
125.3379480472792
 20
142.7913183260157
 30
0.0
 10
125.4009221697507
 20
142.5120954996042
 30
0.0
 10
125.4657001558039
 20
142.1949193462845
 30
0.0
 10
125.5375041154497
 20
141.8099835312212
 30
0.0
 10
125.6140626867512
 20
141.3649508105842
 30
0.0
 10
125.6907557363675
 20
140.8907574958364
 30
0.0
 10
125.7630803482489
 20
140.4249773701962
 30
0.0
 10
125.8287780486203
 20
139.9918430997566
 30
0.0
 10
125.8931034532622
 20
139.5631631717773
 30
0.0
 10
125.9543160729874
 20
139.1545078112549
 30
0.0
 10
126.0135478588054
 20
138.7624069827976
 30
0.0
 10
126.0808407347018
 20
138.3234674037589
 30
0.0
 10
126.1653803460521
 20
137.7879819970881
 30
0.0
 10
126.273152169026
 20
137.1491100399314
 30
0.0
 10
126.3929923899522
 20
136.5164743823202
 30
0.0
 10
126.5266453231494
 20
135.9374763266838
 30
0.0
 10
126.6369276011189
 20
135.5850552989599
 30
0.0
 10
126.7332727923383
 20
135.3661525754898
 30
0.0
 10
126.8244625852148
 20
135.2151210349277
 30
0.0
 10
126.9653020581836
 20
135.0675114691633
 30
0.0
 10
127.0859330671195
 20
135.0457957342409
 30
0.0
 10
127.1530646506253
 20
135.033710850883
 30
0.0
  0
SPLINE
  5
E1
330
1F
100
AcDbEntity
  8
0
  6
Continuous
 62
     7
370
    15
100
AcDbSpline
210
0.0
220
0.0
230
1.0
 70
     8
 71
     3
 72
    19
 73
    15
 74
     0
 42
0.00000001
 43
0.00000001
 12
1.0
 22
0.0
 32
0.0
 13
1.0
 23
0.0
 33
0.0
 40
0.0
 40
0.0
 40
0.0
 40
0.0
 40
0.0037083930366524
 40
0.1072597730040271
 40
0.1580692338201859
 40
0.2171593178986076
 40
0.2892573275054966
 40
0.3744851550554694
 40
0.47295308988563
 40
0.5847075357926039
 40
0.6772603537763366
 40
0.7772699132067273
 40
0.8848070814787761
 40
1.0
 40
1.0
 40
1.0
 40
1.0
 10
129.1002658142964
 20
143.5282594462621
 30
0.0
 10
129.0998121212868
 20
143.5282451219458
 30
0.0
 10
129.0866897233265
 20
143.5278308123253
 30
0.0
 10
129.1054553495033
 20
143.5067307715453
 30
0.0
 10
129.1458950808186
 20
143.4208690322183
 30
0.0
 10
129.1858466707478
 20
143.3228793375996
 30
0.0
 10
129.2342529791684
 20
143.1794397297214
 30
0.0
 10
129.293241870795
 20
142.973192674271
 30
0.0
 10
129.3623651031665
 20
142.6910894479226
 30
0.0
 10
129.434055908097
 20
142.355675080137
 30
0.0
 10
129.5066066248957
 20
141.979204944121
 30
0.0
 10
129.5785666509076
 20
141.5748451695113
 30
0.0
 10
129.6562468385622
 20
141.1086128655894
 30
0.0
 10
129.7099656990034
 20
140.7654917339747
 30
0.0
 10
129.7377483502067
 20
140.5880342331671
 30
0.0
  0
SPLINE
  5
E2
330
1F
100
AcDbEntity
  8
0
  6
Continuous
 62
     7
370
    15
100
AcDbSpline
210
0.0
220
0.0
230
1.0
 70
     8
 71
     3
 72
    14
 73
    10
 74
     0
 42
0.00000001
 43
0.00000001
 12
1.0
 22
0.0
 32
0.0
 13
1.0
 23
0.0
 33
0.0
 40
0.0
 40
0.0
 40
0.0
 40
0.0
 40
0.086774897709126
 40
0.1784996043060821
 40
0.3733551184229764
 40
0.5741673188134095
 40
0.782020532600915
 40
0.9975632098382491
 40
1.0
 40
1.0
 40
1.0
 40
1.0
 10
129.1531231723924
 20
144.0301441968057
 30
0.0
 10
129.1021123345647
 20
144.0235677931049
 30
0.0
 10
128.9971809015357
 20
144.0100398548492
 30
0.0
 10
128.8404600419873
 20
143.8900343702577
 30
0.0
 10
128.703616511689
 20
143.6662001898666
 30
0.0
 10
128.5666822017855
 20
143.2725763325961
 30
0.0
 10
128.4339185608054
 20
142.7332152862106
 30
0.0
 10
128.3431393020654
 20
142.3020974523518
 30
0.0
 10
128.2972974882585
 20
142.0347557894802
 30
0.0
 10
128.2967850231066
 20
142.0317671798571
 30
0.0
  0
SPLINE
  5
E3
330
1F
100
AcDbEntity
  8
0
  6
Continuous
 62
     7
370
    15
100
AcDbSpline
210
0.0
220
0.0
230
1.0
 70
     8
 71
     3
 72
    11
 73
     7
 74
     0
 42
0.00000001
 43
0.00000001
 12
1.0
 22
0.0
 32
0.0
 13
1.0
 23
0.0
 33
0.0
 40
0.0
 40
0.0
 40
0.0
 40
0.0
 40
0.2274549224947852
 40
0.5422370855725008
 40
0.8571262947396402
 40
1.0
 40
1.0
 40
1.0
 40
1.0
 10
127.4940768924073
 20
137.0317671798571
 30
0.0
 10
127.4656213511088
 20
136.8814355421678
 30
0.0
 10
127.3977852734683
 20
136.5230551290473
 30
0.0
 10
127.2943335464621
 20
136.0852043689462
 30
0.0
 10
127.2004524037452
 20
135.7742733040409
 30
0.0
 10
127.1572085960148
 20
135.6701263523576
 30
0.0
 10
127.1437116462942
 20
135.637620746487
 30
0.0
  0
SPLINE
  5
E4
330
1F
100
AcDbEntity
  8
0
  6
Continuous
 62
     7
370
    15
100
AcDbSpline
210
0.0
220
0.0
230
1.0
 70
     8
 71
     3
 72
    17
 73
    13
 74
     0
 42
0.00000001
 43
0.00000001
 12
1.0
 22
0.0
 32
0.0
 13
1.0
 23
0.0
 33
0.0
 40
0.0
 40
0.0
 40
0.0
 40
0.0
 40
0.1150767074494966
 40
0.2148068630604343
 40
0.3363475535404669
 40
0.4353739275400493
 40
0.5283392444525928
 40
0.6156663131063723
 40
0.757213311832365
 40
0.8817738552287039
 40
0.9925636179887992
 40
1.0
 40
1.0
 40
1.0
 40
1.0
 10
125.1527820554471
 20
144.0296412710255
 30
0.0
 10
125.0957207592004
 20
144.02134224408
 30
0.0
 10
124.9892078225636
 20
144.0058509428071
 30
0.0
 10
124.8494173092691
 20
143.8877152456413
 30
0.0
 10
124.7476355566489
 20
143.7350977702296
 30
0.0
 10
124.6737612395181
 20
143.5658458578725
 30
0.0
 10
124.6065923523007
 20
143.3785634436198
 30
0.0
 10
124.5330490848796
 20
143.132002381325
 30
0.0
 10
124.4549139214409
 20
142.8206891761902
 30
0.0
 10
124.3743611478402
 20
142.4394144734453
 30
0.0
 10
124.3232971966807
 20
142.1827999600734
 30
0.0
 10
124.2984220708749
 20
142.0407049075844
 30
0.0
 10
124.2968574344028
 20
142.0317671798571
 30
0.0
  0
SPLINE
  5
E5
330
1F
100
AcDbEntity
  8
0
  6
Continuous
 62
     7
370
    15
100
AcDbSpline
210
0.0
220
0.0
230
1.0
 70
     8
 71
     3
 72
    14
 73
    10
 74
     0
 42
0.00000001
 43
0.00000001
 12
1.0
 22
0.0
 32
0.0
 13
1.0
 23
0.0
 33
0.0
 40
0.0
 40
0.0
 40
0.0
 40
0.0
 40
0.1228765254957287
 40
0.2801801497841115
 40
0.4618231555513279
 40
0.6149577993623428
 40
0.7892753432028502
 40
0.9438677409569562
 40
1.0
 40
1.0
 40
1.0
 40
1.0
 10
123.4953431556298
 20
137.0317671798571
 30
0.0
 10
123.4801294560264
 20
136.9507787392209
 30
0.0
 10
123.4454395377001
 20
136.766110810691
 30
0.0
 10
123.3884532451435
 20
136.4941541796405
 30
0.0
 10
123.3282245936484
 20
136.2319287138678
 30
0.0
 10
123.2656873585477
 20
135.9934799144475
 30
0.0
 10
123.2114215857367
 20
135.8158110920995
 30
0.0
 10
123.1694391408958
 20
135.696788509408
 30
0.0
 10
123.1518797798999
 20
135.65770104628
 30
0.0
 10
123.1472023652346
 20
135.6472890345156
 30
0.0
  0
SPLINE
  5
E6
330
1F
100
AcDbEntity
  8
0
  6
Continuous
 62
     7
370
    15
100
AcDbSpline
210
0.0
220
0.0
230
1.0
 70
     8
 71
     3
 72
    17
 73
    13
 74
     0
 42
0.00000001
 43
0.00000001
 12
1.0
 22
0.0
 32
0.0
 13
1.0
 23
0.0
 33
0.0
 40
0.0
 40
0.0
 40
0.0
 40
0.0
 40
0.087817609582075
 40
0.1817654821836247
 40
0.2809395735453852
 40
0.3728186763808058
 40
0.4783824552437329
 40
0.5855127849917943
 40
0.711147332425952
 40
0.8174675933263513
 40
0.9340428999455933
 40
1.0
 40
1.0
 40
1.0
 40
1.0
 10
121.153971624039
 20
144.0296518058425
 30
0.0
 10
121.1030298067735
 20
144.0230328203952
 30
0.0
 10
120.9975900889011
 20
144.0093327995552
 30
0.0
 10
120.878611829141
 20
143.9173047063494
 30
0.0
 10
120.7852113535903
 20
143.8002853983633
 30
0.0
 10
120.7025897958806
 20
143.6435584023788
 30
0.0
 10
120.6312797257379
 20
143.4594699268951
 30
0.0
 10
120.5581298339906
 20
143.2251812153164
 30
0.0
 10
120.4851167447151
 20
142.9454981674638
 30
0.0
 10
120.411115123803
 20
142.6169609549096
 30
0.0
 10
120.3500043019901
 20
142.3198598225499
 30
0.0
 10
120.3115372502547
 20
142.1082362248049
 30
0.0
 10
120.2976373887104
 20
142.0317671798571
 30
0.0
  0
SPLINE
  5
E7
330
1F
100
AcDbEntity
  8
0
  6
Continuous
 62
     7
370
    15
100
AcDbSpline
210
0.0
220
0.0
230
1.0
 70
     8
 71
     3
 72
    14
 73
    10
 74
     0
 42
0.00000001
 43
0.00000001
 12
1.0
 22
0.0
 32
0.0
 13
1.0
 23
0.0
 33
0.0
 40
0.0
 40
0.0
 40
0.0
 40
0.0
 40
0.0105682178986241
 40
0.1709706963679089
 40
0.3208026505111904
 40
0.5881351969440363
 40
0.7067495372603505
 40
0.8644341534191656
 40
1.0
 40
1.0
 40
1.0
 40
1.0
 10
119.49569301298
 20
137.0317671798571
 30
0.0
 10
119.4942124605449
 20
137.0234788987585
 30
0.0
 10
119.4702603540244
 20
136.8893926029692
 30
0.0
 10
119.4255387707453
 20
136.6697019388133
 30
0.0
 10
119.3462061877781
 20
136.300211637804
 30
0.0
 10
119.2753461729067
 20
136.0217346021749
 30
0.0
 10
119.2099233289034
 20
135.8045073099601
 30
0.0
 10
119.1721774926213
 20
135.6829434953582
 30
0.0
 10
119.1629461548181
 20
135.639922813115
 30
0.0
 10
119.1586786283062
 20
135.6200349153968
 30
0.0
  0
SPLINE
  5
E8
330
1F
100
AcDbEntity
  8
0
  6
Continuous
 62
     7
370
    15
100
AcDbSpline
210
0.0
220
0.0
230
1.0
 70
     8
 71
     3
 72
    21
 73
    17
 74
     0
 42
0.00000001
 43
0.00000001
 12
1.0
 22
0.0
 32
0.0
 13
1.0
 23
0.0
 33
0.0
 40
0.0
 40
0.0
 40
0.0
 40
0.0
 40
0.0071188364427745
 40
0.095712244808933
 40
0.1811019277252959
 40
0.262640474507182
 40
0.3424128416804162
 40
0.4268176208357894
 40
0.5163410592555313
 40
0.6104079329371391
 40
0.7036055712692272
 40
0.7950561447337798
 40
0.8411205085708863
 40
0.8902885598419442
 40
0.9432230050259044
 40
1.0
 40
1.0
 40
1.0
 40
1.0
 10
105.5177998600616
 20
141.9090478602711
 30
0.0
 10
105.5211256102117
 20
141.8919225374815
 30
0.0
 10
105.5658400821764
 20
141.6616738022505
 30
0.0
 10
105.6508915778652
 20
141.1394185500503
 30
0.0
 10
105.770928842469
 20
140.3791219620978
 30
0.0
 10
105.8869486174117
 20
139.6049552256903
 30
0.0
 10
106.0023050427829
 20
138.8336546511976
 30
0.0
 10
106.1215393196141
 20
138.0571501207776
 30
0.0
 10
106.2479347002414
 20
137.2899690935683
 30
0.0
 10
106.3782826792024
 20
136.5889945395976
 30
0.0
 10
106.5118631559106
 20
135.9918905047414
 30
0.0
 10
106.6270730092654
 20
135.6088610124295
 30
0.0
 10
106.7257113141253
 20
135.3712771774918
 30
0.0
 10
106.826145233627
 20
135.2046112210276
 30
0.0
 10
106.9651568421911
 20
135.0651382142709
 30
0.0
 10
107.0901601333752
 20
135.0438270685665
 30
0.0
 10
107.1548508458941
 20
135.0327982933467
 30
0.0
  0
SPLINE
  5
E9
330
1F
100
AcDbEntity
  8
0
  6
Continuous
 62
     7
370
    15
100
AcDbSpline
210
0.0
220
0.0
230
1.0
 70
     8
 71
     3
 72
    33
 73
    29
 74
     0
 42
0.00000001
 43
0.00000001
 12
1.0
 22
0.0
 32
0.0
 13
1.0
 23
0.0
 33
0.0
 40
0.0
 40
0.0
 40
0.0
 40
0.0
 40
0.0141190850551623
 40
0.0477818206998896
 40
0.0777770670558642
 40
0.1103552350561024
 40
0.143827970330873
 40
0.1827052996611814
 40
0.2154212279956313
 40
0.2512008333045002
 40
0.2900768541317965
 40
0.3311531934850365
 40
0.3696391448162097
 40
0.404807294798995
 40
0.4366504840895619
 40
0.4651766755850291
 40
0.5122183621070816
 40
0.5533459833302398
 40
0.6023632368214046
 40
0.6595988132519472
 40
0.7238619372452998
 40
0.7893922989803283
 40
0.8557176302133397
 40
0.8760455184502705
 40
0.9065757379186128
 40
0.9328773678958685
 40
0.964032586540257
 40
1.0
 40
1.0
 40
1.0
 40
1.0
 10
109.0976619854838
 20
143.5339315932726
 30
0.0
 10
109.0957894214088
 20
143.5336207483795
 30
0.0
 10
109.0894522883346
 20
143.5325687868048
 30
0.0
 10
109.1203767662883
 20
143.4808918692364
 30
0.0
 10
109.1613087127104
 20
143.3836739909449
 30
0.0
 10
109.2183137467679
 20
143.2277546135895
 30
0.0
 10
109.2834575045305
 20
143.0075065003014
 30
0.0
 10
109.3494646983968
 20
142.7447365189006
 30
0.0
 10
109.4176080255912
 20
142.4351170066109
 30
0.0
 10
109.4861040061042
 20
142.0895015000252
 30
0.0
 10
109.5601387783175
 20
141.6809680266196
 30
0.0
 10
109.6360316038592
 20
141.2306007369828
 30
0.0
 10
109.709585322919
 20
140.7704057562767
 30
0.0
 10
109.7773017730061
 20
140.3320175692162
 30
0.0
 10
109.8386876221723
 20
139.9265464249273
 30
0.0
 10
109.9076872205802
 20
139.4664551240942
 30
0.0
 10
109.982688943279
 20
138.9654130225207
 30
0.0
 10
110.0707501997914
 20
138.3869894937989
 30
0.0
 10
110.165506488428
 20
137.7858365660904
 30
0.0
 10
110.2756129978596
 20
137.1352293975135
 30
0.0
 10
110.3959466864035
 20
136.503751985906
 30
0.0
 10
110.5272628897991
 20
135.9367168566272
 30
0.0
 10
110.6330130799915
 20
135.5950949130151
 30
0.0
 10
110.7285358609947
 20
135.3776143480399
 30
0.0
 10
110.8061673879002
 20
135.2471358862838
 30
0.0
 10
110.9049372259226
 20
135.1345660335318
 30
0.0
 10
111.0194022598826
 20
135.0505997549533
 30
0.0
 10
111.10682277774
 20
135.0394960144436
 30
0.0
 10
111.1536667379972
 20
135.0335461162746
 30
0.0
  0
LWPOLYLINE
  5
EA
330
1F
100
AcDbEntity
  8
0
  6
Continuous
 62
     7
370
    15
100
AcDbPolyline
 90
       20
 70
   128
 43
0.0
 10
113.103252683
 20
143.5272172451
 10
113.1149588178
 20
143.486974796
 10
113.1579651542
 20
143.3904326445
 10
113.2073805614
 20
143.2557458078
 10
113.3143369566
 20
142.8822234086
 10
113.4282151888
 20
142.377673718
 10
113.5443685105
 20
141.7654600171
 10
113.6613675609
 20
141.070793228
 10
113.7804356296
 20
140.3097675673
 10
113.906596894
 20
139.4733962261
 10
114.0403199558
 20
138.5880224957
 10
114.1801158085
 20
137.7045055896
 10
114.3144110809
 20
136.9361879102
 10
114.4412141927
 20
136.3139180404
 10
114.5624003162
 20
135.8315945799
 10
114.6934097647
 20
135.4512262161
 10
114.8556829997
 20
135.1783369454
 10
114.9807811158
 20
135.0776749538
 10
115.1539241648
 20
135.0339531452
 10
115.1539241648
 20
135.0339531452
  0
SPLINE
  5
EB
330
1F
100
AcDbEntity
  8
0
  6
Continuous
 62
     7
370
    15
100
AcDbSpline
210
0.0
220
0.0
230
1.0
 70
     8
 71
     3
 72
    11
 73
     7
 74
     0
 42
0.00000001
 43
0.00000001
 12
1.0
 22
0.0
 32
0.0
 13
1.0
 23
0.0
 33
0.0
 40
0.0
 40
0.0
 40
0.0
 40
0.0
 40
0.2039008967487063
 40
0.4270324190034098
 40
0.6918241780031323
 40
1.0
 40
1.0
 40
1.0
 40
1.0
 10
117.1195642612254
 20
143.5238082498498
 30
0.0
 10
117.1194857701031
 20
143.5183384228249
 30
0.0
 10
117.1193213850789
 20
143.5068828897537
 30
0.0
 10
117.1529205181073
 20
143.4256687951579
 30
0.0
 10
117.2031455297973
 20
143.2811169349501
 30
0.0
 10
117.2512778895372
 20
143.1139058100543
 30
0.0
 10
117.2771663167701
 20
143.0239697864975
 30
0.0
  0
SPLINE
  5
EC
330
1F
100
AcDbEntity
  8
0
  6
Continuous
 62
     7
370
    15
100
AcDbSpline
210
0.0
220
0.0
230
1.0
 70
     8
 71
     3
 72
    15
 73
    11
 74
     0
 42
0.00000001
 43
0.00000001
 12
1.0
 22
0.0
 32
0.0
 13
1.0
 23
0.0
 33
0.0
 40
0.0
 40
0.0
 40
0.0
 40
0.0
 40
0.098263019757923
 40
0.1857059870904578
 40
0.2624184827549258
 40
0.3595639690339695
 40
0.4503149885667804
 40
0.6302454334630265
 40
0.8102391685109205
 40
1.0
 40
1.0
 40
1.0
 40
1.0
 10
117.1529637211076
 20
144.0295081585525
 30
0.0
 10
117.1002325224892
 20
144.0226369972445
 30
0.0
 10
117.0005765245967
 20
144.0096512799697
 30
0.0
 10
116.8834044776881
 20
143.921080792393
 30
0.0
 10
116.7881974032102
 20
143.8056296971525
 30
0.0
 10
116.7189462385964
 20
143.6766954505036
 30
0.0
 10
116.6319376427549
 20
143.4664874877517
 30
0.0
 10
116.5312964831258
 20
143.1373171373723
 30
0.0
 10
116.4148523327047
 20
142.6503121820375
 30
0.0
 10
116.3367470503406
 20
142.2415480265349
 30
0.0
 10
116.2966628305191
 20
142.0317671798571
 30
0.0
  0
SPLINE
  5
ED
330
1F
100
AcDbEntity
  8
0
  6
Continuous
 62
     7
370
    15
100
AcDbSpline
210
0.0
220
0.0
230
1.0
 70
     8
 71
     3
 72
    12
 73
     8
 74
     0
 42
0.00000001
 43
0.00000001
 12
1.0
 22
0.0
 32
0.0
 13
1.0
 23
0.0
 33
0.0
 40
0.0
 40
0.0
 40
0.0
 40
0.0
 40
0.1736157085449181
 40
0.5047040574949349
 40
0.8319913896166545
 40
0.9923750574673063
 40
1.0
 40
1.0
 40
1.0
 40
1.0
 10
115.4937734846226
 20
137.0317671798571
 30
0.0
 10
115.4727248303883
 20
136.9178596577565
 30
0.0
 10
115.4115360054492
 20
136.5867283962754
 30
0.0
 10
115.3104383857686
 20
136.1490237303728
 30
0.0
 10
115.2179390116619
 20
135.8301224094112
 30
0.0
 10
115.1622819896624
 20
135.6786392455116
 30
0.0
 10
115.1475148397219
 20
135.6478194292522
 30
0.0
 10
115.1468446438944
 20
135.6464206954175
 30
0.0
  0
SPLINE
  5
EE
330
1F
100
AcDbEntity
  8
0
  6
Continuous
 62
     7
370
    15
100
AcDbSpline
210
0.0
220
0.0
230
1.0
 70
     8
 71
     3
 72
    13
 73
     9
 74
     0
 42
0.00000001
 43
0.00000001
 12
1.0
 22
0.0
 32
0.0
 13
1.0
 23
0.0
 33
0.0
 40
0.0
 40
0.0
 40
0.0
 40
0.0
 40
0.0882587457199275
 40
0.1807286577908709
 40
0.3754688280995697
 40
0.5765793738689685
 40
0.7853861640827965
 40
1.0
 40
1.0
 40
1.0
 40
1.0
 10
113.1541738311967
 20
144.0297168268583
 30
0.0
 10
113.1028731547424
 20
144.0229642524503
 30
0.0
 10
112.9978240480082
 20
144.0091369121744
 30
0.0
 10
112.8404155655643
 20
143.8879199522547
 30
0.0
 10
112.7028319721664
 20
143.6667789128464
 30
0.0
 10
112.5654018800993
 20
143.2667932056321
 30
0.0
 10
112.432209926427
 20
142.7363824724585
 30
0.0
 10
112.3423675034915
 20
142.2687766202338
 30
0.0
 10
112.2968302154513
 20
142.0317671798571
 30
0.0
  0
LINE
  5
EF
330
1F
100
AcDbEntity
  8
0
  6
Continuous
 62
     7
370
    15
100
AcDbLine
 10
111.5177998601
 20
137.1509499482
 30
0.0
 11
111.4967163169
 21
137.0434951163
 31
0.0
  0
SPLINE
  5
F0
330
1F
100
AcDbEntity
  8
0
  6
Continuous
 62
     7
370
    15
100
AcDbSpline
210
0.0
220
0.0
230
1.0
 70
     8
 71
     3
 72
     9
 73
     5
 74
     0
 42
0.00000001
 43
0.00000001
 12
1.0
 22
0.0
 32
0.0
 13
1.0
 23
0.0
 33
0.0
 40
0.0
 40
0.0
 40
0.0
 40
0.0
 40
0.2542592167680627
 40
1.0
 40
1.0
 40
1.0
 40
1.0
 10
111.1963572032967
 20
135.7817671798571
 30
0.0
 10
111.1913414453886
 20
135.7651085600385
 30
0.0
 10
111.1716144991175
 20
135.6995903065398
 30
0.0
 10
111.1565318743859
 20
135.6668311126281
 30
0.0
 10
111.1452841460054
 20
135.6424012457023
 30
0.0
  0
SPLINE
  5
F1
330
1F
100
AcDbEntity
  8
0
  6
Continuous
 62
     7
370
    15
100
AcDbSpline
210
0.0
220
0.0
230
1.0
 70
     8
 71
     3
 72
    14
 73
    10
 74
     0
 42
0.00000001
 43
0.00000001
 12
1.0
 22
0.0
 32
0.0
 13
1.0
 23
0.0
 33
0.0
 40
0.0
 40
0.0
 40
0.0
 40
0.0
 40
0.2340968811434506
 40
0.428544267686549
 40
0.6102432779948469
 40
0.7456015067720936
 40
0.8715875454131925
 40
0.993253189434969
 40
1.0
 40
1.0
 40
1.0
 40
1.0
 10
109.1540111314242
 20
144.0303408561528
 30
0.0
 10
109.0920974608892
 20
144.0200299554817
 30
0.0
 10
108.9787565719822
 20
144.0011545336661
 30
0.0
 10
108.840437624516
 20
143.8712613482348
 30
0.0
 10
108.7447056561178
 20
143.7233944198182
 30
0.0
 10
108.6825091315924
 20
143.5854076586419
 30
0.0
 10
108.6297415988195
 20
143.4445307193765
 30
0.0
 10
108.5955690391416
 20
143.3432390368958
 30
0.0
 10
108.5788779146529
 20
143.2848357003471
 30
0.0
 10
108.5780009603466
 20
143.2817671798571
 30
0.0
  0
SPLINE
  5
F2
330
1F
100
AcDbEntity
  8
0
  6
Continuous
 62
     7
370
    15
100
AcDbSpline
210
0.0
220
0.0
230
1.0
 70
     8
 71
     3
 72
     9
 73
     5
 74
     0
 42
0.00000001
 43
0.00000001
 12
1.0
 22
0.0
 32
0.0
 13
1.0
 23
0.0
 33
0.0
 40
0.0
 40
0.0
 40
0.0
 40
0.0
 40
0.308559765779569
 40
1.0
 40
1.0
 40
1.0
 40
1.0
 10
107.1969108147136
 20
135.7817671798571
 30
0.0
 10
107.1911985060444
 20
135.764270433043
 30
0.0
 10
107.1726856949047
 20
135.7075658696015
 30
0.0
 10
107.1573828434808
 20
135.6728587987424
 30
0.0
 10
107.146801836308
 20
135.6488609335384
 30
0.0
  0
SPLINE
  5
F3
330
1F
100
AcDbEntity
  8
0
  6
Continuous
 62
     7
370
    15
100
AcDbSpline
210
0.0
220
0.0
230
1.0
 70
     8
 71
     3
 72
    14
 73
    10
 74
     0
 42
0.00000001
 43
0.00000001
 12
1.0
 22
0.0
 32
0.0
 13
1.0
 23
0.0
 33
0.0
 40
0.0
 40
0.0
 40
0.0
 40
0.0
 40
0.2270065830640763
 40
0.4170944037205372
 40
0.5973553248388004
 40
0.734580137721034
 40
0.8624876272131936
 40
0.9856215263903104
 40
1.0
 40
1.0
 40
1.0
 40
1.0
 10
107.1408224625386
 20
135.032816656698
 30
0.0
 10
107.2016171799873
 20
135.0422804895549
 30
0.0
 10
107.3133193873919
 20
135.059669023707
 30
0.0
 10
107.4497198155168
 20
135.1859414270111
 30
0.0
 10
107.5446265138922
 20
135.3315498839596
 30
0.0
 10
107.606744341731
 20
135.4686472330722
 30
0.0
 10
107.6599886351538
 20
135.6094810650559
 30
0.0
 10
107.6954147393793
 20
135.7137549402803
 30
0.0
 10
107.7131934355408
 20
135.7753289236021
 30
0.0
 10
107.7150523992718
 20
135.7817671798571
 30
0.0
  0
SPLINE
  5
F4
330
1F
100
AcDbEntity
  8
0
  6
Continuous
 62
     7
370
    15
100
AcDbSpline
210
0.0
220
0.0
230
1.0
 70
     8
 71
     3
 72
     9
 73
     5
 74
     0
 42
0.00000001
 43
0.00000001
 12
1.0
 22
0.0
 32
0.0
 13
1.0
 23
0.0
 33
0.0
 40
0.0
 40
0.0
 40
0.0
 40
0.0
 40
0.100069644906274
 40
1.0
 40
1.0
 40
1.0
 40
1.0
 10
109.0953934565155
 20
143.2817671798571
 30
0.0
 10
109.0972735388452
 20
143.2876857230698
 30
0.0
 10
109.1160612774397
 20
143.3468299642456
 30
0.0
 10
109.1319257855578
 20
143.3832994054215
 30
0.0
 10
109.1462027379819
 20
143.416119362569
 30
0.0
  0
SPLINE
  5
F5
330
1F
100
AcDbEntity
  8
0
  6
Continuous
 62
     7
370
    15
100
AcDbSpline
210
0.0
220
0.0
230
1.0
 70
     8
 71
     3
 72
    17
 73
    13
 74
     0
 42
0.00000001
 43
0.00000001
 12
1.0
 22
0.0
 32
0.0
 13
1.0
 23
0.0
 33
0.0
 40
0.0
 40
0.0
 40
0.0
 40
0.0
 40
0.0887863868830603
 40
0.1888250404329819
 40
0.2987258061205214
 40
0.3989362995417557
 40
0.5083191372813297
 40
0.6154866908130626
 40
0.7411170634292704
 40
0.8473889476231875
 40
0.9639440155761063
 40
1.0
 40
1.0
 40
1.0
 40
1.0
 10
111.1404449150494
 20
135.0335781529431
 30
0.0
 10
111.1918991545823
 20
135.0403220280843
 30
0.0
 10
111.3013286426077
 20
135.0546644576044
 30
0.0
 10
111.4234075536024
 20
135.1525977672469
 30
0.0
 10
111.5219996436661
 20
135.2836204749805
 30
0.0
 10
111.6089526713985
 20
135.4620538080534
 30
0.0
 10
111.6821703607719
 20
135.6643008600225
 30
0.0
 10
111.7554123991342
 20
135.9110593973264
 30
0.0
 10
111.8280516562634
 20
136.1996863849086
 30
0.0
 10
111.9018335716633
 20
136.5378448460123
 30
0.0
 10
111.9565409991569
 20
136.8095278481741
 30
0.0
 10
111.9886315220207
 20
136.989295224939
 30
0.0
 10
111.9962132493891
 20
137.0317671798571
 30
0.0
  0
SPLINE
  5
F6
330
1F
100
AcDbEntity
  8
0
  6
Continuous
 62
     7
370
    15
100
AcDbSpline
210
0.0
220
0.0
230
1.0
 70
     8
 71
     3
 72
    14
 73
    10
 74
     0
 42
0.00000001
 43
0.00000001
 12
1.0
 22
0.0
 32
0.0
 13
1.0
 23
0.0
 33
0.0
 40
0.0
 40
0.0
 40
0.0
 40
0.0
 40
0.0301642655954222
 40
0.1893141509194951
 40
0.3416373315882776
 40
0.6247230093706302
 40
0.7563938847242176
 40
0.9217248015563257
 40
1.0
 40
1.0
 40
1.0
 40
1.0
 10
112.7983130056511
 20
142.0317671798571
 30
0.0
 10
112.8024154948434
 20
142.0545182158346
 30
0.0
 10
112.828163154956
 20
142.1973061463077
 30
0.0
 10
112.8742997459365
 20
142.4229872874817
 30
0.0
 10
112.9533430314021
 20
142.7881140873262
 30
0.0
 10
113.0259704331544
 20
143.0712580195716
 30
0.0
 10
113.0935348432866
 20
143.2896296221866
 30
0.0
 10
113.1288720853515
 20
143.3940542891022
 30
0.0
 10
113.1357716790179
 20
143.4252521580475
 30
0.0
 10
113.1379886474335
 20
143.4352766165056
 30
0.0
  0
SPLINE
  5
F7
330
1F
100
AcDbEntity
  8
0
  6
Continuous
 62
     7
370
    15
100
AcDbSpline
210
0.0
220
0.0
230
1.0
 70
     8
 71
     3
 72
    15
 73
    11
 74
     0
 42
0.00000001
 43
0.00000001
 12
1.0
 22
0.0
 32
0.0
 13
1.0
 23
0.0
 33
0.0
 40
0.0
 40
0.0
 40
0.0
 40
0.0
 40
0.1101353697775633
 40
0.205926716663665
 40
0.2875275772178466
 40
0.3861415985140081
 40
0.4776221976604194
 40
0.6642313889141106
 40
0.8551137032894813
 40
1.0
 40
1.0
 40
1.0
 40
1.0
 10
115.140668064429
 20
135.0339415827864
 30
0.0
 10
115.1975595270893
 20
135.0420815854082
 30
0.0
 10
115.3039329122742
 20
135.0573014372772
 30
0.0
 10
115.4280560674827
 20
135.1598770289486
 30
0.0
 10
115.5252215537411
 20
135.2895918933201
 30
0.0
 10
115.5941760410741
 20
135.4297777112747
 30
0.0
 10
115.6808555260322
 20
135.653570533478
 30
0.0
 10
115.784089569291
 20
136.0092449263951
 30
0.0
 10
115.8943288452041
 20
136.4876213514864
 30
0.0
 10
115.9650171007181
 20
136.8677424863311
 30
0.0
 10
115.9955195337157
 20
137.0317671798571
 30
0.0
  0
SPLINE
  5
F8
330
1F
100
AcDbEntity
  8
0
  6
Continuous
 62
     7
370
    15
100
AcDbSpline
210
0.0
220
0.0
230
1.0
 70
     8
 71
     3
 72
    12
 73
     8
 74
     0
 42
0.00000001
 43
0.00000001
 12
1.0
 22
0.0
 32
0.0
 13
1.0
 23
0.0
 33
0.0
 40
0.0
 40
0.0
 40
0.0
 40
0.0
 40
0.2292949630596972
 40
0.5355912335233965
 40
0.8399655027640739
 40
0.9935550005029409
 40
1.0
 40
1.0
 40
1.0
 40
1.0
 10
116.7996230638967
 20
142.0317671798571
 30
0.0
 10
116.8278504096858
 20
142.1816912549014
 30
0.0
 10
116.8937843436393
 20
142.5318865632339
 30
0.0
 10
116.9974301726155
 20
142.9686021434607
 30
0.0
 10
117.0843605645246
 20
143.2587768678886
 30
0.0
 10
117.136661246619
 20
143.3978614388697
 30
0.0
 10
117.1505473717695
 20
143.4262228929395
 30
0.0
 10
117.1511066016302
 20
143.4273650814075
 30
0.0
  0
SPLINE
  5
F9
330
1F
100
AcDbEntity
  8
0
  6
Continuous
 62
     7
370
    15
100
AcDbSpline
210
0.0
220
0.0
230
1.0
 70
     8
 71
     3
 72
    12
 73
     8
 74
     0
 42
0.00000001
 43
0.00000001
 12
1.0
 22
0.0
 32
0.0
 13
1.0
 23
0.0
 33
0.0
 40
0.0
 40
0.0
 40
0.0
 40
0.0
 40
0.236032130189462
 40
0.4452068176818498
 40
0.626933453117027
 40
0.8463275503231344
 40
1.0
 40
1.0
 40
1.0
 40
1.0
 10
117.7629038613555
 20
143.1179715477925
 30
0.0
 10
117.7278857736667
 20
143.2397529129747
 30
0.0
 10
117.6618342095482
 20
143.4694584789169
 30
0.0
 10
117.5553871891348
 20
143.713642609044
 30
0.0
 10
117.4351302227171
 20
143.8930502061523
 30
0.0
 10
117.3124654689806
 20
144.0059070753438
 30
0.0
 10
117.1900678625623
 20
144.0226168283618
 30
0.0
 10
117.1396502087415
 20
144.0294998595562
 30
0.0
  0
SPLINE
  5
FA
330
1F
100
AcDbEntity
  8
0
  6
Continuous
 62
     7
370
    15
100
AcDbSpline
210
0.0
220
0.0
230
1.0
 70
     8
 71
     3
 72
    28
 73
    24
 74
     0
 42
0.00000001
 43
0.00000001
 12
1.0
 22
0.0
 32
0.0
 13
1.0
 23
0.0
 33
0.0
 40
0.0
 40
0.0
 40
0.0
 40
0.0
 40
0.0156418072776457
 40
0.048797794811029
 40
0.0817756916275287
 40
0.1142035477239431
 40
0.1460441252178721
 40
0.2109264076755036
 40
0.27823797586651
 40
0.3479862477712668
 40
0.4167748507823323
 40
0.4818850526631557
 40
0.5433500816647934
 40
0.602147562361374
 40
0.6604340075751973
 40
0.7183032795834925
 40
0.7773874542803001
 40
0.8391323636791524
 40
0.8710836583692904
 40
0.9064169541996068
 40
0.9340574988232929
 40
0.9652456937161559
 40
1.0
 40
1.0
 40
1.0
 40
1.0
 10
115.1948953017632
 20
135.5312132104849
 30
0.0
 10
115.1966650564196
 20
135.5317661756469
 30
0.0
 10
115.2021861655252
 20
135.5334912627824
 30
0.0
 10
115.1686175348942
 20
135.5886043530495
 30
0.0
 10
115.1251327530498
 20
135.6947563960265
 30
0.0
 10
115.0700564766013
 20
135.8516505880005
 30
0.0
 10
114.9904106973883
 20
136.1247922044871
 30
0.0
 10
114.8869421329531
 20
136.5631325355217
 30
0.0
 10
114.7580748994937
 20
137.2309627180364
 30
0.0
 10
114.6258205075156
 20
138.0210689251572
 30
0.0
 10
114.495070179122
 20
138.8681519227173
 30
0.0
 10
114.3694119271978
 20
139.7087836032532
 30
0.0
 10
114.2501791703489
 20
140.500789428279
 30
0.0
 10
114.1355304465901
 20
141.2325009644431
 30
0.0
 10
114.0228943563042
 20
141.9006476744404
 30
0.0
 10
113.9097062418782
 20
142.498124383172
 30
0.0
 10
113.793327322218
 20
143.0190357659301
 30
0.0
 10
113.6889881365636
 20
143.383761671703
 30
0.0
 10
113.5989844745925
 20
143.6231382805954
 30
0.0
 10
113.5232098438389
 20
143.7778763526115
 30
0.0
 10
113.4215078470306
 20
143.9100381358044
 30
0.0
 10
113.2984580105986
 20
144.0084133969112
 30
0.0
 10
113.1949736088075
 20
144.0223593400098
 30
0.0
 10
113.1404332360393
 20
144.029709403614
 30
0.0
  0
LWPOLYLINE
  5
FB
330
1F
100
AcDbEntity
  8
0
  6
Continuous
 62
     7
370
    15
100
AcDbPolyline
 90
       31
 70
   128
 43
0.0
 10
111.1731905015
 20
135.5437538125
 10
111.1714658142
 20
135.5749461009
 10
111.1483178858
 20
135.6348552077
 10
111.1177809048
 20
135.7108120253
 10
111.0546254601
 20
135.9011487745
 10
110.991021481
 20
136.1325937627
 10
110.9287303153
 20
136.3923660901
 10
110.8690829235
 20
136.6688725047
 10
110.8129040699
 20
136.9522914558
 10
110.7597339767
 20
137.2394841365
 10
110.6618895727
 20
137.8100864708
 10
110.5755550471
 20
138.3493813321
 10
110.5235290696
 20
138.6858934061
 10
110.4632740414
 20
139.0827728012
 10
110.3908789767
 20
139.5648736314
 10
110.3285777403
 20
139.9798632234
 10
110.2593800667
 20
140.4358791694
 10
110.1832498701
 20
140.9257316318
 10
110.101535794
 20
141.4303641174
 10
110.0244412206
 20
141.8791953534
 10
109.9540240773
 20
142.2601227238
 10
109.8902767867
 20
142.5766837272
 10
109.8331916577
 20
142.8347404709
 10
109.7674280095
 20
143.1004306026
 10
109.7076313568
 20
143.311138379
 10
109.6317326638
 20
143.5339450968
 10
109.5601561434
 20
143.6984393374
 10
109.4683485179
 20
143.8490951342
 10
109.3333117295
 20
143.9749423631
 10
109.1414258245
 20
144.0303277522
 10
109.1414258245
 20
144.0303277522
  0
SPLINE
  5
FC
330
1F
100
AcDbEntity
  8
0
  6
Continuous
 62
     7
370
    15
100
AcDbSpline
210
0.0
220
0.0
230
1.0
 70
     8
 71
     3
 72
    30
 73
    26
 74
     0
 42
0.00000001
 43
0.00000001
 12
1.0
 22
0.0
 32
0.0
 13
1.0
 23
0.0
 33
0.0
 40
0.0
 40
0.0
 40
0.0
 40
0.0
 40
0.0172263863695317
 40
0.0555767008394568
 40
0.0895425375402008
 40
0.1260539282018357
 40
0.163388406055737
 40
0.2067923738825667
 40
0.2433595034784892
 40
0.2833553062629822
 40
0.3267623912242816
 40
0.3725691656119799
 40
0.4289741782352116
 40
0.4788777141954972
 40
0.5221996831814788
 40
0.5747054203722214
 40
0.6211355613043387
 40
0.6780284524388048
 40
0.7458315600849713
 40
0.7966444485577113
 40
0.8466580973332419
 40
0.8946369447996054
 40
0.9630460809997469
 40
0.9827811591038244
 40
1.0
 40
1.0
 40
1.0
 40
1.0
 10
107.1954032059748
 20
135.53129335634
 30
0.0
 10
107.1972879580962
 20
135.5319023706559
 30
0.0
 10
107.2033686474851
 20
135.5338672056314
 30
0.0
 10
107.171929763034
 20
135.5862677393042
 30
0.0
 10
107.1304353185393
 20
135.683780640607
 30
0.0
 10
107.0733992452456
 20
135.8396879469433
 30
0.0
 10
107.0084176796734
 20
136.0610979985149
 30
0.0
 10
106.9427667823545
 20
136.325063852805
 30
0.0
 10
106.8750424481103
 20
136.6347323882128
 30
0.0
 10
106.8069905094381
 20
136.9781217463212
 30
0.0
 10
106.7333941306066
 20
137.3829872432696
 30
0.0
 10
106.6502004446112
 20
137.8754445044717
 30
0.0
 10
106.56322488731
 20
138.4242034374403
 30
0.0
 10
106.4777319786953
 20
138.9852881852138
 30
0.0
 10
106.3944590858044
 20
139.5408319199231
 30
0.0
 10
106.3130373577198
 20
140.084863977274
 30
0.0
 10
106.2238265682628
 20
140.6704503853692
 30
0.0
 10
106.1258262495427
 20
141.2909146228579
 30
0.0
 10
106.0251451563768
 20
141.8848210979839
 30
0.0
 10
105.9285360666102
 20
142.3988497214992
 30
0.0
 10
105.8418664453443
 20
142.8077626521897
 30
0.0
 10
105.7407945289627
 20
143.2116350356519
 30
0.0
 10
105.6526349592743
 20
143.4807651753629
 30
0.0
 10
105.5713694416971
 20
143.6638346959656
 30
0.0
 10
105.5348269804228
 20
143.720321213483
 30
0.0
 10
105.5177998600616
 20
143.7466413544646
 30
0.0
  0
SPLINE
  5
FD
330
1F
100
AcDbEntity
  8
0
  6
Continuous
 62
     7
370
    15
100
AcDbSpline
210
0.0
220
0.0
230
1.0
 70
     8
 71
     3
 72
    16
 73
    12
 74
     0
 42
0.00000001
 43
0.00000001
 12
1.0
 22
0.0
 32
0.0
 13
1.0
 23
0.0
 33
0.0
 40
0.0
 40
0.0
 40
0.0
 40
0.0
 40
0.0959877400792209
 40
0.1818304622714501
 40
0.257592589539918
 40
0.3543985494336863
 40
0.4451474991983655
 40
0.6250242125950694
 40
0.8049805889974114
 40
0.9950978530820951
 40
1.0
 40
1.0
 40
1.0
 40
1.0
 10
131.1401883228741
 20
135.0339564194705
 30
0.0
 10
131.1920062303257
 20
135.0405739838629
 30
0.0
 10
131.290165370838
 20
135.0531096971901
 30
0.0
 10
131.4058526310902
 20
135.1387793379784
 30
0.0
 10
131.5006806029336
 20
135.2511594084293
 30
0.0
 10
131.5701725422959
 20
135.3773762699397
 30
0.0
 10
131.6577035327884
 20
135.5854957268933
 30
0.0
 10
131.7586812911629
 20
135.9097603072872
 30
0.0
 10
131.875187333586
 20
136.4066363952197
 30
0.0
 10
131.9546613447783
 20
136.7880607308501
 30
0.0
 10
131.9957130176913
 20
137.0257914120095
 30
0.0
 10
131.9967449218018
 20
137.0317671798571
 30
0.0
  0
SPLINE
  5
FE
330
1F
100
AcDbEntity
  8
0
  6
Continuous
 62
     7
370
    15
100
AcDbSpline
210
0.0
220
0.0
230
1.0
 70
     8
 71
     3
 72
    12
 73
     8
 74
     0
 42
0.00000001
 43
0.00000001
 12
1.0
 22
0.0
 32
0.0
 13
1.0
 23
0.0
 33
0.0
 40
0.0
 40
0.0
 40
0.0
 40
0.0
 40
0.1639601787083811
 40
0.4946074539261003
 40
0.8216182432430943
 40
0.9819131753635623
 40
1.0
 40
1.0
 40
1.0
 40
1.0
 10
132.7998282447465
 20
142.0317671798571
 30
0.0
 10
132.8197363799868
 20
142.1399347191232
 30
0.0
 10
132.8797918895694
 20
142.4662363346453
 30
0.0
 10
132.9797632496487
 20
142.9008508010608
 30
0.0
 10
133.0727097362535
 20
143.2241312741747
 30
0.0
 10
133.1295816950682
 20
143.3800296560217
 30
0.0
 10
133.1454399337499
 20
143.4134543612151
 30
0.0
 10
133.1470478626508
 20
143.4168434229238
 30
0.0
  0
SPLINE
  5
FF
330
1F
100
AcDbEntity
  8
0
  6
Continuous
 62
     7
370
    15
100
AcDbSpline
210
0.0
220
0.0
230
1.0
 70
     8
 71
     3
 72
    16
 73
    12
 74
     0
 42
0.00000001
 43
0.00000001
 12
1.0
 22
0.0
 32
0.0
 13
1.0
 23
0.0
 33
0.0
 40
0.0
 40
0.0
 40
0.0
 40
0.0
 40
0.0916241313264621
 40
0.1525035973051631
 40
0.2049953184432246
 40
0.2841947242220428
 40
0.3904049175204637
 40
0.5172275015720662
 40
0.7206760597377421
 40
0.9393988442270057
 40
1.0
 40
1.0
 40
1.0
 40
1.0
 10
135.1394196341302
 20
135.0335881813685
 30
0.0
 10
135.1950428661025
 20
135.0407095341237
 30
0.0
 10
135.2876248403783
 20
135.0525626550988
 30
0.0
 10
135.393950717478
 20
135.13005930089
 30
0.0
 10
135.4602964342649
 20
135.1996973268411
 30
0.0
 10
135.5251027678257
 20
135.2925257772266
 30
0.0
 10
135.6013257781701
 20
135.443601415248
 30
0.0
 10
135.7009820164372
 20
135.7120479907512
 30
0.0
 10
135.8214450304873
 20
136.1575650446292
 30
0.0
 10
135.9243838264083
 20
136.6387288134985
 30
0.0
 10
135.9833126430528
 20
136.9616970981177
 30
0.0
 10
135.9960976352508
 20
137.0317671798571
 30
0.0
  0
SPLINE
  5
100
330
1F
100
AcDbEntity
  8
0
  6
Continuous
 62
     7
370
    15
100
AcDbSpline
210
0.0
220
0.0
230
1.0
 70
     8
 71
     3
 72
    13
 73
     9
 74
     0
 42
0.00000001
 43
0.00000001
 12
1.0
 22
0.0
 32
0.0
 13
1.0
 23
0.0
 33
0.0
 40
0.0
 40
0.0
 40
0.0
 40
0.0
 40
0.1414194113372129
 40
0.3729079306278774
 40
0.576038381544025
 40
0.7508138898711042
 40
0.9014696488775436
 40
1.0
 40
1.0
 40
1.0
 40
1.0
 10
136.7991381783493
 20
142.0317671798571
 30
0.0
 10
136.8168800222941
 20
142.127784674691
 30
0.0
 10
136.8636633757843
 20
142.3809725854875
 30
0.0
 10
136.9352142557275
 20
142.7078271686642
 30
0.0
 10
137.0106760673265
 20
143.0101461057607
 30
0.0
 10
137.0728339098661
 20
143.2192982794776
 30
0.0
 10
137.126636517088
 20
143.3715672119416
 30
0.0
 10
137.1450991394874
 20
143.4080900072408
 30
0.0
 10
137.1523994206576
 20
143.4225314375555
 30
0.0
  0
SPLINE
  5
101
330
1F
100
AcDbEntity
  8
0
  6
Continuous
 62
     7
370
    15
100
AcDbSpline
210
0.0
220
0.0
230
1.0
 70
     8
 71
     3
 72
    17
 73
    13
 74
     0
 42
0.00000001
 43
0.00000001
 12
1.0
 22
0.0
 32
0.0
 13
1.0
 23
0.0
 33
0.0
 40
0.0
 40
0.0
 40
0.0
 40
0.0
 40
0.1309826984911993
 40
0.2404036537603634
 40
0.343604151456153
 40
0.4215439981019141
 40
0.4941042805700607
 40
0.5640057362039661
 40
0.6313245705909409
 40
0.7718845714236215
 40
0.9004573669654351
 40
1.0
 40
1.0
 40
1.0
 40
1.0
 10
139.1393097415564
 20
135.032834696748
 30
0.0
 10
139.2005832334549
 20
135.0428705173846
 30
0.0
 10
139.3130436690753
 20
135.0612901100279
 30
0.0
 10
139.4503500037126
 20
135.1887465975848
 30
0.0
 10
139.5459077614701
 20
135.3344747684645
 30
0.0
 10
139.6083445637186
 20
135.4720880408513
 30
0.0
 10
139.6617812680323
 20
135.6117954780055
 30
0.0
 10
139.7108941869314
 20
135.7623330564143
 30
0.0
 10
139.7743183962336
 20
135.9828510679737
 30
0.0
 10
139.8485253034991
 20
136.2873905695206
 30
0.0
 10
139.9273291632311
 20
136.6606462024477
 30
0.0
 10
139.9753854726112
 20
136.9190204978922
 30
0.0
 10
139.9963557839991
 20
137.0317671798571
 30
0.0
  0
SPLINE
  5
102
330
1F
100
AcDbEntity
  8
0
  6
Continuous
 62
     7
370
    15
100
AcDbSpline
210
0.0
220
0.0
230
1.0
 70
     8
 71
     3
 72
    14
 73
    10
 74
     0
 42
0.00000001
 43
0.00000001
 12
1.0
 22
0.0
 32
0.0
 13
1.0
 23
0.0
 33
0.0
 40
0.0
 40
0.0
 40
0.0
 40
0.0
 40
0.0221626753443904
 40
0.2004339414637392
 40
0.3601540222894634
 40
0.5444723365006241
 40
0.699888948606104
 40
0.8768696173654371
 40
1.0
 40
1.0
 40
1.0
 40
1.0
 10
140.798099702461
 20
142.0317671798571
 30
0.0
 10
140.8008134189492
 20
142.0467931842967
 30
0.0
 10
140.8253556226001
 20
142.1826847789478
 30
0.0
 10
140.8693344580468
 20
142.4004760321835
 30
0.0
 10
140.9329720362171
 20
142.696573041095
 30
0.0
 10
140.9933300147468
 20
142.9435257249979
 30
0.0
 10
141.0553674334544
 20
143.1631426279051
 30
0.0
 10
141.1062240109224
 20
143.3170335488311
 30
0.0
 10
141.1347619185923
 20
143.3857926087994
 30
0.0
 10
141.1464705293704
 20
143.4140032639025
 30
0.0
  0
SPLINE
  5
103
330
1F
100
AcDbEntity
  8
0
  6
Continuous
 62
     7
370
    15
100
AcDbSpline
210
0.0
220
0.0
230
1.0
 70
     8
 71
     3
 72
    23
 73
    19
 74
     0
 42
0.00000001
 43
0.00000001
 12
1.0
 22
0.0
 32
0.0
 13
1.0
 23
0.0
 33
0.0
 40
0.0
 40
0.0
 40
0.0
 40
0.0
 40
0.0282225108343055
 40
0.1102292428712668
 40
0.1903615975120806
 40
0.2686927260038915
 40
0.345136673399188
 40
0.4196145034420116
 40
0.4897241080536388
 40
0.5528911181587611
 40
0.6261745922299125
 40
0.6868837439225367
 40
0.7420505605736337
 40
0.7922333080218534
 40
0.8509969580204219
 40
0.9197258438410394
 40
0.958424625394396
 40
1.0
 40
1.0
 40
1.0
 40
1.0
 10
142.7013487077031
 20
137.5824058456988
 30
0.0
 10
142.6888002579634
 20
137.6542772463475
 30
0.0
 10
142.6397895189068
 20
137.9349868587601
 30
0.0
 10
142.5550189060506
 20
138.4782832465887
 30
0.0
 10
142.4479289555105
 20
139.1813296513612
 30
0.0
 10
142.3434478869473
 20
139.8821856914975
 30
0.0
 10
142.2414560496265
 20
140.5572753787792
 30
0.0
 10
142.1429657526448
 20
141.1850592882814
 30
0.0
 10
142.0503210137448
 20
141.7386994117057
 30
0.0
 10
141.958182508701
 20
142.2459755723881
 30
0.0
 10
141.8699204477422
 20
142.6811987366906
 30
0.0
 10
141.7847741829622
 20
143.0433513200566
 30
0.0
 10
141.7088559902798
 20
143.3178140437735
 30
0.0
 10
141.6263871169576
 20
143.5570478021965
 30
0.0
 10
141.5346617409409
 20
143.762182350175
 30
0.0
 10
141.4161728408217
 20
143.9205436701234
 30
0.0
 10
141.2745276768286
 20
144.0157097937627
 30
0.0
 10
141.1850756075054
 20
144.0258457769707
 30
0.0
 10
141.1387468328498
 20
144.0310953780757
 30
0.0
  0
SPLINE
  5
104
330
1F
100
AcDbEntity
  8
0
  6
Continuous
 62
     7
370
    15
100
AcDbSpline
210
0.0
220
0.0
230
1.0
 70
     8
 71
     3
 72
    33
 73
    29
 74
     0
 42
0.00000001
 43
0.00000001
 12
1.0
 22
0.0
 32
0.0
 13
1.0
 23
0.0
 33
0.0
 40
0.0
 40
0.0
 40
0.0
 40
0.0
 40
0.0148682167542622
 40
0.0491604380096341
 40
0.0795980434014708
 40
0.1123400421244046
 40
0.1458118563410353
 40
0.1846804746575129
 40
0.217391610104768
 40
0.2531769240530232
 40
0.2920605627591039
 40
0.3331354759423446
 40
0.3716099486380574
 40
0.4067653523355538
 40
0.4386042018204134
 40
0.4671329351012022
 40
0.514176783127819
 40
0.5552240323561871
 40
0.6039364390443228
 40
0.6606594267970308
 40
0.7243593736999019
 40
0.7899380672703483
 40
0.8570306684196807
 40
0.8775429045363913
 40
0.9079279084936995
 40
0.9339405373156145
 40
0.9646461762418749
 40
1.0
 40
1.0
 40
1.0
 40
1.0
 10
139.1952963681782
 20
135.5299511785303
 30
0.0
 10
139.1971904900122
 20
135.5304215335918
 30
0.0
 10
139.2034532356089
 20
135.5319767208228
 30
0.0
 10
139.1714815375274
 20
135.586280843439
 30
0.0
 10
139.1296763359676
 20
135.686615500249
 30
0.0
 10
139.0721993883211
 20
135.8453824464578
 30
0.0
 10
139.0068355445583
 20
136.068102044845
 30
0.0
 10
138.9407558052542
 20
136.3329299871631
 30
0.0
 10
138.8725587889525
 20
136.6449974543276
 30
0.0
 10
138.8040446489012
 20
136.9926581433561
 30
0.0
 10
138.7299986084037
 20
137.402759279661
 30
0.0
 10
138.6540939121281
 20
137.8543114027169
 30
0.0
 10
138.5805232323947
 20
138.3153709514652
 30
0.0
 10
138.5127892109284
 20
138.7543958780287
 30
0.0
 10
138.451399526045
 20
139.1603081389171
 30
0.0
 10
138.382405482596
 20
139.6206120885844
 30
0.0
 10
138.3074574645545
 20
140.1212526814528
 30
0.0
 10
138.2196225134878
 20
140.6976384835128
 30
0.0
 10
138.1253917693097
 20
141.2943604312598
 30
0.0
 10
138.0161549824008
 20
141.9379766256498
 30
0.0
 10
137.8964935725981
 20
142.5652531468458
 30
0.0
 10
137.7649051707507
 20
143.1331428231537
 30
0.0
 10
137.6583131427664
 20
143.4751142098082
 30
0.0
 10
137.5622166155062
 20
143.6915968090451
 30
0.0
 10
137.4846584111129
 20
143.8205184006732
 30
0.0
 10
137.3864570295805
 20
143.9311158699592
 30
0.0
 10
137.2730174518684
 20
144.0134397000817
 30
0.0
 10
137.1863639689735
 20
144.0244236892735
 30
0.0
 10
137.1399885999075
 20
144.0303021206483
 30
0.0
  0
LWPOLYLINE
  5
105
330
1F
100
AcDbEntity
  8
0
  6
Continuous
 62
     7
370
    15
100
AcDbPolyline
 90
       20
 70
   128
 43
0.0
 10
135.1901912726
 20
135.5359570717
 10
135.1779071326
 20
135.5780171902
 10
135.13414397
 20
135.6770442413
 10
135.0840147169
 20
135.8146245605
 10
134.9761093118
 20
136.1937730625
 10
134.8619721756
 20
136.7023561043
 10
134.7457813648
 20
137.3177957296
 10
134.6287624388
 20
138.0144580329
 10
134.5096826245
 20
138.7765461709
 10
134.3835111862
 20
139.6134023059
 10
134.2497773057
 20
140.4985216305
 10
134.1099670463
 20
141.3805257502
 10
133.9756411192
 20
142.1460339446
 10
133.8487736985
 20
142.7656812773
 10
133.7274338231
 20
143.2453174875
 10
133.5956275838
 20
143.6227016105
 10
133.4313876651
 20
143.8919434031
 10
133.3075343601
 20
143.9885607045
 10
133.1393214206
 20
144.0296921444
 10
133.1393214206
 20
144.0296921444
  0
SPLINE
  5
106
330
1F
100
AcDbEntity
  8
0
  6
Continuous
 62
     7
370
    15
100
AcDbSpline
210
0.0
220
0.0
230
1.0
 70
     8
 71
     3
 72
    21
 73
    17
 74
     0
 42
0.00000001
 43
0.00000001
 12
1.0
 22
0.0
 32
0.0
 13
1.0
 23
0.0
 33
0.0
 40
0.0
 40
0.0
 40
0.0
 40
0.0
 40
0.0185217981223987
 40
0.0665088090096926
 40
0.1130604937518912
 40
0.1733951074065886
 40
0.2316110079529635
 40
0.2887724122805095
 40
0.3405269416946882
 40
0.4028054266024911
 40
0.4756217560629074
 40
0.5590639755016628
 40
0.6532446130554949
 40
0.7581410394986499
 40
0.8736632587569046
 40
0.9999999999999999
 40
0.9999999999999999
 40
0.9999999999999999
 40
0.9999999999999999
 10
131.1927834335243
 20
135.5298640693948
 30
0.0
 10
131.1972600224074
 20
135.5289199391477
 30
0.0
 10
131.2133347357305
 20
135.5255297187237
 30
0.0
 10
131.1809390532243
 20
135.5636432797291
 30
0.0
 10
131.1472551323222
 20
135.6416998490699
 30
0.0
 10
131.0985901068908
 20
135.7655624716725
 30
0.0
 10
131.0427686425168
 20
135.9420327534524
 30
0.0
 10
130.9855199628001
 20
136.1519828930321
 30
0.0
 10
130.9263298030757
 20
136.3983905089659
 30
0.0
 10
130.8612774195833
 20
136.6998064802634
 30
0.0
 10
130.7848240628084
 20
137.0934982842738
 30
0.0
 10
130.6969669349431
 20
137.5924612885819
 30
0.0
 10
130.5977758171307
 20
138.2022186154557
 30
0.0
 10
130.4871910865734
 20
138.9205700021886
 30
0.0
 10
130.3649546511942
 20
139.7400732982588
 30
0.0
 10
130.2797063383427
 20
140.3003231916276
 30
0.0
 10
130.2351762782622
 20
140.5929736919989
 30
0.0
  0
SPLINE
  5
107
330
1F
100
AcDbEntity
  8
0
  6
Continuous
 62
     7
370
    15
100
AcDbSpline
210
0.0
220
0.0
230
1.0
 70
     8
 71
     3
 72
    21
 73
    17
 74
     0
 42
0.00000001
 43
0.00000001
 12
1.0
 22
0.0
 32
0.0
 13
1.0
 23
0.0
 33
0.0
 40
0.0
 40
0.0
 40
0.0
 40
0.0
 40
0.0736979399020462
 40
0.1454345467213399
 40
0.215282610106781
 40
0.2832711110143815
 40
0.3493577918688782
 40
0.4134918937758242
 40
0.4756580857196014
 40
0.5359098890632293
 40
0.6507473386102126
 40
0.7582824107011076
 40
0.8104000025472986
 40
0.8672704291419271
 40
0.9303857810880624
 40
1.0
 40
1.0
 40
1.0
 40
1.0
 10
129.7375833004759
 20
140.5880286595115
 30
0.0
 10
129.7667712307052
 20
140.3978990984751
 30
0.0
 10
129.824370308892
 20
140.0226999197137
 30
0.0
 10
129.9097247333308
 20
139.4521118978194
 30
0.0
 10
129.9927815248455
 20
138.8988608477413
 30
0.0
 10
130.0735425400306
 20
138.3699330979874
 30
0.0
 10
130.1520561050192
 20
137.8726991545495
 30
0.0
 10
130.2283772576403
 20
137.4126547491734
 30
0.0
 10
130.3024785693969
 20
136.9945596398273
 30
0.0
 10
130.397237810352
 20
136.503811967639
 30
0.0
 10
130.511431579595
 20
135.9948374598098
 30
0.0
 10
130.6272886579237
 20
135.6103470439093
 30
0.0
 10
130.7220710712276
 20
135.3777675790784
 30
0.0
 10
130.8191901233996
 20
135.2118388172207
 30
0.0
 10
130.9589029578345
 20
135.0678206686567
 30
0.0
 10
131.086562605899
 20
135.0456125171936
 30
0.0
 10
131.1535177435456
 20
135.0339647501769
 30
0.0
  0
SPLINE
  5
108
330
1F
100
AcDbEntity
  8
0
  6
Continuous
 62
     7
370
    15
100
AcDbSpline
210
0.0
220
0.0
230
1.0
 70
     8
 71
     3
 72
    28
 73
    24
 74
     0
 42
0.00000001
 43
0.00000001
 12
1.0
 22
0.0
 32
0.0
 13
1.0
 23
0.0
 33
0.0
 40
0.0
 40
0.0
 40
0.0
 40
0.0
 40
0.0169595576976335
 40
0.0476209640647351
 40
0.0782187325550699
 40
0.1389455470116862
 40
0.2006583176329868
 40
0.2665952550982741
 40
0.336811479439532
 40
0.3732105533260101
 40
0.4087973611859556
 40
0.4769499924711897
 40
0.541208510875459
 40
0.6022453781740957
 40
0.6625654252568483
 40
0.7224393155667369
 40
0.7822944623986633
 40
0.8426524837895197
 40
0.87308695693091
 40
0.9065744780040593
 40
0.9336003413651165
 40
0.9647285358646479
 40
1.0
 40
1.0
 40
1.0
 40
1.0
 10
133.0961036190675
 20
143.5334384608082
 30
0.0
 10
133.0943689650009
 20
143.5328821476039
 30
0.0
 10
133.0894982071399
 20
143.5313200684754
 30
0.0
 10
133.1249843235098
 20
143.4744129745425
 30
0.0
 10
133.1791854230409
 20
143.3443008039034
 30
0.0
 10
133.2708125685819
 20
143.0681969939695
 30
0.0
 10
133.3897266610261
 20
142.5777399450122
 30
0.0
 10
133.5155023134033
 20
141.9434714701095
 30
0.0
 10
133.6263306147436
 20
141.2936210624062
 30
0.0
 10
133.7174233559026
 20
140.7204157597005
 30
0.0
 10
133.8071881341687
 20
140.1370660573765
 30
0.0
 10
133.9151375238839
 20
139.4152725904034
 30
0.0
 10
134.0394736951141
 20
138.588172751799
 30
0.0
 10
134.1585524679559
 20
137.8276924203207
 30
0.0
 10
134.275062512105
 20
137.1378241408308
 30
0.0
 10
134.3913538530485
 20
136.5280127169397
 30
0.0
 10
134.5084633961169
 20
136.0121998137292
 30
0.0
 10
134.6110601441558
 20
135.6604562380053
 30
0.0
 10
134.6981667240001
 20
135.433137124792
 30
0.0
 10
134.7700607268699
 20
135.2866221691474
 30
0.0
 10
134.8692673111356
 20
135.1557634003211
 30
0.0
 10
134.9926568553057
 20
135.0556214889633
 30
0.0
 10
135.0972390674777
 20
135.0412402691744
 30
0.0
 10
135.152793084195
 20
135.0336009727016
 30
0.0
  0
LWPOLYLINE
  5
109
330
1F
100
AcDbEntity
  8
0
  6
Continuous
 62
     7
370
    15
100
AcDbPolyline
 90
       29
 70
   128
 43
0.0
 10
137.1374317854
 20
143.5154384835
 10
137.1329184385
 20
143.5096751372
 10
137.1421040643
 20
143.4535489916
 10
137.1667502934
 20
143.3792955399
 10
137.1934479335
 20
143.3053964484
 10
137.308313837
 20
142.9089988484
 10
137.4298342828
 20
142.3688448757
 10
137.5488068168
 20
141.7401538466
 10
137.6542289928
 20
141.1157095979
 10
137.7448217168
 20
140.5420493415
 10
137.7969478491
 20
140.2015531042
 10
137.8530480084
 20
139.8299294981
 10
137.920765909
 20
139.378289845
 10
137.9792165708
 20
138.9894828203
 10
138.0442706739
 20
138.5620674921
 10
138.1159655678
 20
138.1023917913
 10
138.1943433282
 20
137.6197267812
 10
138.27370424
 20
137.1591885635
 10
138.3473267368
 20
136.7636589531
 10
138.4152364614
 20
136.4309312248
 10
138.4774721898
 20
136.1564349053
 10
138.551698027
 20
135.8694964448
 10
138.6164513341
 20
135.6566917144
 10
138.696123562
 20
135.4453204513
 10
138.7804439848
 20
135.2810912912
 10
138.8877341018
 20
135.1448512068
 10
139.0119089885
 20
135.0609797877
 10
139.1525786035
 20
135.0328569466
 10
139.1525786035
 20
135.0328569466
  0
SPLINE
  5
10A
330
1F
100
AcDbEntity
  8
0
  6
Continuous
 62
     7
370
    15
100
AcDbSpline
210
0.0
220
0.0
230
1.0
 70
     8
 71
     3
 72
    23
 73
    19
 74
     0
 42
0.00000001
 43
0.00000001
 12
1.0
 22
0.0
 32
0.0
 13
1.0
 23
0.0
 33
0.0
 40
0.0
 40
0.0
 40
0.0
 40
0.0
 40
0.0053597673909138
 40
0.0771887729511891
 40
0.1395216842151804
 40
0.1924365943156268
 40
0.2363259113532966
 40
0.2832147781290711
 40
0.3375428067574335
 40
0.3993237989885331
 40
0.4685373472823662
 40
0.5450882973650968
 40
0.6256881524275177
 40
0.7085950796469119
 40
0.7937392427057716
 40
0.8810505838783175
 40
0.9706276278184796
 40
1.0
 40
1.0
 40
1.0
 40
1.0
 10
141.0997327157818
 20
143.5315275244482
 30
0.0
 10
141.0985342643544
 20
143.5315794411267
 30
0.0
 10
141.0812747475928
 20
143.5323271199746
 30
0.0
 10
141.1233329103432
 20
143.4823531238197
 30
0.0
 10
141.1791193814373
 20
143.3402436242227
 30
0.0
 10
141.2359588701615
 20
143.1723167006118
 30
0.0
 10
141.2914347523732
 20
142.9764114127347
 30
0.0
 10
141.3486173177679
 20
142.7468656610658
 30
0.0
 10
141.4130909667944
 20
142.4558022437567
 30
0.0
 10
141.4867687591849
 20
142.0856212762099
 30
0.0
 10
141.5695477880367
 20
141.6282036130216
 30
0.0
 10
141.6601335630327
 20
141.0854443907602
 30
0.0
 10
141.7562283110053
 20
140.4722896204901
 30
0.0
 10
141.8556932710394
 20
139.8139996346362
 30
0.0
 10
141.9578988439454
 20
139.1284765630979
 30
0.0
 10
142.0629647710253
 20
138.4378372521808
 30
0.0
 10
142.1456923351365
 20
137.905785931398
 30
0.0
 10
142.1933465850611
 20
137.6300407396359
 30
0.0
 10
142.2051139262592
 20
137.5619505323548
 30
0.0
  0
SPLINE
  5
10B
330
1F
100
AcDbEntity
  8
0
  6
Continuous
 62
     7
370
    15
100
AcDbSpline
210
0.0
220
0.0
230
1.0
 70
     8
 71
     3
 72
    16
 73
    12
 74
     0
 42
0.00000001
 43
0.00000001
 12
1.0
 22
0.0
 32
0.0
 13
1.0
 23
0.0
 33
0.0
 40
0.0
 40
0.0
 40
0.0
 40
0.0
 40
0.1169535044547813
 40
0.2281029562459623
 40
0.3834176622160919
 40
0.5142264170354066
 40
0.6205917861839184
 40
0.7359354525750628
 40
0.8265463007036847
 40
0.9281263756812819
 40
1.0
 40
1.0
 40
1.0
 40
1.0
 10
141.1520623567495
 20
144.0310989364381
 30
0.0
 10
141.0865085044022
 20
144.0197675763633
 30
0.0
 10
140.9586540413535
 20
143.9976671977265
 30
0.0
 10
140.8090184637045
 20
143.8434634428832
 30
0.0
 10
140.7068004071475
 20
143.6569649130146
 30
0.0
 10
140.6122697346803
 20
143.403796724371
 30
0.0
 10
140.535760590399
 20
143.1434715170546
 30
0.0
 10
140.469494484898
 20
142.8800231353559
 30
0.0
 10
140.4044782292849
 20
142.5863150592415
 30
0.0
 10
140.3488886083028
 20
142.3132733172436
 30
0.0
 10
140.312508743684
 20
142.1142401227963
 30
0.0
 10
140.2974340999434
 20
142.0317671798571
 30
0.0
  0
SPLINE
  5
10C
330
1F
100
AcDbEntity
  8
0
  6
Continuous
 62
     7
370
    15
100
AcDbSpline
210
0.0
220
0.0
230
1.0
 70
     8
 71
     3
 72
    14
 73
    10
 74
     0
 42
0.00000001
 43
0.00000001
 12
1.0
 22
0.0
 32
0.0
 13
1.0
 23
0.0
 33
0.0
 40
0.0
 40
0.0
 40
0.0
 40
0.0
 40
0.0404332051495553
 40
0.1900173476319915
 40
0.3524983533337512
 40
0.5278424746076144
 40
0.7155936704864482
 40
0.9154141918463835
 40
1.0
 40
1.0
 40
1.0
 40
1.0
 10
139.4953418680842
 20
137.0317671798571
 30
0.0
 10
139.4902696722563
 20
137.0042146186252
 30
0.0
 10
139.4664326997899
 20
136.874730334943
 30
0.0
 10
139.4223154107047
 20
136.6551412032443
 30
0.0
 10
139.362503272118
 20
136.3763859136166
 30
0.0
 10
139.2996585937939
 20
136.1148218774295
 30
0.0
 10
139.2355347247669
 20
135.8825751977123
 30
0.0
 10
139.1840854551715
 20
135.7287911999077
 30
0.0
 10
139.1568074237132
 20
135.6638714148662
 30
0.0
 10
139.1486946143405
 20
135.6445635025133
 30
0.0
  0
SPLINE
  5
10D
330
1F
100
AcDbEntity
  8
0
  6
Continuous
 62
     7
370
    15
100
AcDbSpline
210
0.0
220
0.0
230
1.0
 70
     8
 71
     3
 72
    15
 73
    11
 74
     0
 42
0.00000001
 43
0.00000001
 12
1.0
 22
0.0
 32
0.0
 13
1.0
 23
0.0
 33
0.0
 40
0.0
 40
0.0
 40
0.0
 40
0.0
 40
0.1019244277254377
 40
0.2017367193420416
 40
0.3908339845630736
 40
0.5086614878093635
 40
0.6477815975750679
 40
0.8178413747803767
 40
0.9656608648793845
 40
0.9999999999999999
 40
0.9999999999999999
 40
0.9999999999999999
 40
0.9999999999999999
 10
137.1532893357689
 20
144.0302557964016
 30
0.0
 10
137.0933148810601
 20
144.0209600521934
 30
0.0
 10
136.9746087964907
 20
144.0025611954889
 30
0.0
 10
136.8185501668791
 20
143.8623543447131
 30
0.0
 10
136.7082023970372
 20
143.6645724757657
 30
0.0
 10
136.6071647452102
 20
143.3884318894666
 30
0.0
 10
136.5150647299206
 20
143.071877041295
 30
0.0
 10
136.4176458149751
 20
142.6528450067339
 30
0.0
 10
136.3431746660605
 20
142.2899707993038
 30
0.0
 10
136.3048860516992
 20
142.0727213632301
 30
0.0
 10
136.2976681782631
 20
142.0317671798571
 30
0.0
  0
SPLINE
  5
10E
330
1F
100
AcDbEntity
  8
0
  6
Continuous
 62
     7
370
    15
100
AcDbSpline
210
0.0
220
0.0
230
1.0
 70
     8
 71
     3
 72
    12
 73
     8
 74
     0
 42
0.00000001
 43
0.00000001
 12
1.0
 22
0.0
 32
0.0
 13
1.0
 23
0.0
 33
0.0
 40
0.0
 40
0.0
 40
0.0
 40
0.0
 40
0.1558006316389998
 40
0.3404432613374477
 40
0.6888685522873941
 40
0.9060257988373549
 40
1.0
 40
1.0
 40
1.0
 40
1.0
 10
135.4953305673104
 20
137.0317671798571
 30
0.0
 10
135.47633940217
 20
136.9316066020297
 30
0.0
 10
135.4348414048321
 20
136.7127436011913
 30
0.0
 10
135.3517571586185
 20
136.323621026581
 30
0.0
 10
135.2633944074666
 20
135.9745819205336
 30
0.0
 10
135.1876084728835
 20
135.7396668500996
 30
0.0
 10
135.1557694068273
 20
135.6707012635258
 30
0.0
 10
135.1461527293091
 20
135.6498708847466
 30
0.0
  0
SPLINE
  5
10F
330
1F
100
AcDbEntity
  8
0
  6
Continuous
 62
     7
370
    15
100
AcDbSpline
210
0.0
220
0.0
230
1.0
 70
     8
 71
     3
 72
    15
 73
    11
 74
     0
 42
0.00000001
 43
0.00000001
 12
1.0
 22
0.0
 32
0.0
 13
1.0
 23
0.0
 33
0.0
 40
0.0
 40
0.0
 40
0.0
 40
0.0
 40
0.1027677495414516
 40
0.1934303663502204
 40
0.2721141017869426
 40
0.3701506900123342
 40
0.4623270222639013
 40
0.6502253589094478
 40
0.842301545364792
 40
1.0
 40
1.0
 40
1.0
 40
1.0
 10
133.1526671029633
 20
144.0297005076177
 30
0.0
 10
133.0983271454806
 20
144.0223642763085
 30
0.0
 10
132.9960479973019
 20
144.0085559569076
 30
0.0
 10
132.8761957495701
 20
143.9146293267673
 30
0.0
 10
132.7802107590445
 20
143.7934639126084
 30
0.0
 10
132.71087712815
 20
143.6591800168918
 30
0.0
 10
132.6227158581291
 20
143.4399077114387
 30
0.0
 10
132.5182775053196
 20
143.0889058298652
 30
0.0
 10
132.4046876688832
 20
142.6026940616788
 30
0.0
 10
132.3310130451656
 20
142.209184047335
 30
0.0
 10
132.2977963023228
 20
142.0317671798571
 30
0.0
  0
SPLINE
  5
110
330
1F
100
AcDbEntity
  8
0
  6
Continuous
 62
     7
370
    15
100
AcDbSpline
210
0.0
220
0.0
230
1.0
 70
     8
 71
     3
 72
    11
 73
     7
 74
     0
 42
0.00000001
 43
0.00000001
 12
1.0
 22
0.0
 32
0.0
 13
1.0
 23
0.0
 33
0.0
 40
0.0
 40
0.0
 40
0.0
 40
0.0
 40
0.227485689840162
 40
0.5399762505044472
 40
0.8503966306946096
 40
1.0
 40
1.0
 40
1.0
 40
1.0
 10
131.4938856900521
 20
137.0317671798571
 30
0.0
 10
131.4662282467444
 20
136.8846373930672
 30
0.0
 10
131.4005785676532
 20
136.5353996424899
 30
0.0
 10
131.2979950369366
 20
136.1024184598718
 30
0.0
 10
131.2083238968137
 20
135.7976971151242
 30
0.0
 10
131.1616860135304
 20
135.6828068391114
 30
0.0
 10
131.1465190042529
 20
135.6454436107764
 30
0.0
  0
LINE
  5
111
330
1F
100
AcDbEntity
  8
0
  6
Continuous
 62
     7
370
    15
100
AcDbLine
 10
105.5177998601
 20
135.7817671799
 30
0.0
 11
106.5832378565
 21
135.7817671799
 31
0.0
  0
LINE
  5
112
330
1F
100
AcDbEntity
  8
0
  6
Continuous
 62
     7
370
    15
100
AcDbLine
 10
107.0964512921
 20
135.7817671799
 30
0.0
 11
110.5846161052
 21
135.7817671799
 31
0.0
  0
LINE
  5
113
330
1F
100
AcDbEntity
  8
0
  6
Continuous
 62
     7
370
    15
100
AcDbLine
 10
111.0942373466
 20
135.7817671799
 30
0.0
 11
111.5177998601
 21
135.7817671799
 31
0.0
  0
LINE
  5
114
330
1F
100
AcDbEntity
  8
0
  6
Continuous
 62
     7
370
    15
100
AcDbLine
 10
111.5177998601
 20
143.2817671799
 30
0.0
 11
109.7159665945
 21
143.2817671799
 31
0.0
  0
LINE
  5
115
330
1F
100
AcDbEntity
  8
0
  6
Continuous
 62
     7
370
    15
100
AcDbLine
 10
109.1967539196
 20
143.2817671799
 30
0.0
 11
105.7092791327
 21
143.2817671799
 31
0.0
  0
LINE
  5
116
330
1F
100
AcDbEntity
  8
0
  6
Continuous
 62
     7
370
    15
100
AcDbLine
 10
92.0177998601
 20
136.0317671799
 30
0.0
 11
94.0177998601
 21
136.0317671799
 31
0.0
  0
LINE
  5
117
330
1F
100
AcDbEntity
  8
0
  6
Continuous
 62
     7
370
    15
100
AcDbLine
 10
94.0177998601
 20
143.0317671799
 30
0.0
 11
92.0177998601
 21
143.0317671799
 31
0.0
  0
LINE
  5
118
330
1F
100
AcDbEntity
  8
0
  6
Continuous
 62
     7
370
    15
100
AcDbLine
 10
165.0177998601
 20
137.0317671799
 30
0.0
 11
165.5177998601
 21
137.5317671799
 31
0.0
  0
LINE
  5
119
330
1F
100
AcDbEntity
  8
0
  6
Continuous
 62
     7
370
    15
100
AcDbLine
 10
165.5177998601
 20
141.5317671799
 30
0.0
 11
165.0177998601
 21
142.0317671799
 31
0.0
  0
LINE
  5
11A
330
1F
100
AcDbEntity
  8
0
  6
Continuous
 62
     7
370
    15
100
AcDbLine
 10
164.2177998601
 20
137.0317671799
 30
0.0
 11
165.0177998601
 21
137.0317671799
 31
0.0
  0
LINE
  5
11B
330
1F
100
AcDbEntity
  8
0
  6
Continuous
 62
     7
370
    15
100
AcDbLine
 10
165.0177998601
 20
142.0317671799
 30
0.0
 11
164.2177998601
 21
142.0317671799
 31
0.0
  0
LINE
  5
11C
330
1F
100
AcDbEntity
  8
0
  6
Continuous
 62
     7
370
    15
100
AcDbLine
 10
111.5177998601
 20
137.0317671799
 30
0.0
 11
114.2977046528
 21
137.0317671799
 31
0.0
  0
LINE
  5
11D
330
1F
100
AcDbEntity
  8
0
  6
Continuous
 62
     7
370
    15
100
AcDbLine
 10
114.79997802
 20
137.0317671799
 30
0.0
 11
118.2982032844
 21
137.0317671799
 31
0.0
  0
LINE
  5
11E
330
1F
100
AcDbEntity
  8
0
  6
Continuous
 62
     7
370
    15
100
AcDbLine
 10
118.7979412564
 20
137.0317671799
 30
0.0
 11
122.2969939091
 21
137.0317671799
 31
0.0
  0
LINE
  5
11F
330
1F
100
AcDbEntity
  8
0
  6
Continuous
 62
     7
370
    15
100
AcDbLine
 10
122.7983930725
 20
137.0317671799
 30
0.0
 11
126.2982886402
 21
137.0317671799
 31
0.0
  0
LINE
  5
120
330
1F
100
AcDbEntity
  8
0
  6
Continuous
 62
     7
370
    15
100
AcDbLine
 10
126.7998276513
 20
137.0317671799
 30
0.0
 11
130.2969016557
 21
137.0317671799
 31
0.0
  0
LINE
  5
121
330
1F
100
AcDbEntity
  8
0
  6
Continuous
 62
     7
370
    15
100
AcDbLine
 10
130.7980548193
 20
137.0317671799
 30
0.0
 11
134.2978879181
 21
137.0317671799
 31
0.0
  0
LINE
  5
122
330
1F
100
AcDbEntity
  8
0
  6
Continuous
 62
     7
370
    15
100
AcDbLine
 10
134.7997816075
 20
137.0317671799
 30
0.0
 11
138.2974220102
 21
137.0317671799
 31
0.0
  0
LINE
  5
123
330
1F
100
AcDbEntity
  8
0
  6
Continuous
 62
     7
370
    15
100
AcDbLine
 10
138.7980464111
 20
137.0317671799
 30
0.0
 11
141.5177998601
 21
137.0317671799
 31
0.0
  0
LINE
  5
124
330
1F
100
AcDbEntity
  8
0
  6
Continuous
 62
     7
370
    15
100
AcDbLine
 10
141.4952242891
 20
142.0317671799
 30
0.0
 11
137.9953566092
 21
142.0317671799
 31
0.0
  0
LINE
  5
125
330
1F
100
AcDbEntity
  8
0
  6
Continuous
 62
     7
370
    15
100
AcDbLine
 10
137.4936223532
 20
142.0317671799
 30
0.0
 11
133.9956918374
 21
142.0317671799
 31
0.0
  0
LINE
  5
126
330
1F
100
AcDbEntity
  8
0
  6
Continuous
 62
     7
370
    15
100
AcDbLine
 10
133.4945707062
 20
142.0317671799
 30
0.0
 11
129.9966202628
 21
142.0317671799
 31
0.0
  0
LINE
  5
127
330
1F
100
AcDbEntity
  8
0
  6
Continuous
 62
     7
370
    15
100
AcDbLine
 10
129.4955799515
 20
142.0317671799
 30
0.0
 11
125.9968902026
 21
142.0317671799
 31
0.0
  0
LINE
  5
128
330
1F
100
AcDbEntity
  8
0
  6
Continuous
 62
     7
370
    15
100
AcDbLine
 10
125.4951024062
 20
142.0317671799
 30
0.0
 11
121.9955730862
 21
142.0317671799
 31
0.0
  0
LINE
  5
129
330
1F
100
AcDbEntity
  8
0
  6
Continuous
 62
     7
370
    15
100
AcDbLine
 10
121.4938657451
 20
142.0317671799
 30
0.0
 11
117.9957823815
 21
142.0317671799
 31
0.0
  0
LINE
  5
12A
330
1F
100
AcDbEntity
  8
0
  6
Continuous
 62
     7
370
    15
100
AcDbLine
 10
117.495103016
 20
142.0317671799
 30
0.0
 11
113.9956282222
 21
142.0317671799
 31
0.0
  0
LINE
  5
12B
330
1F
100
AcDbEntity
  8
0
  6
Continuous
 62
     7
370
    15
100
AcDbLine
 10
113.4938429154
 20
142.0317671799
 30
0.0
 11
111.5177998601
 21
142.0317671799
 31
0.0
  0
LINE
  5
12C
330
1F
100
AcDbEntity
  8
0
  6
Continuous
 62
     7
370
    15
100
AcDbLine
 10
94.0177998601
 20
137.0317671799
 30
0.0
 11
97.5177998601
 21
137.0317671799
 31
0.0
  0
LINE
  5
12D
330
1F
100
AcDbEntity
  8
0
  6
Continuous
 62
     7
370
    15
100
AcDbLine
 10
97.5177998601
 20
142.0317671799
 30
0.0
 11
94.0177998601
 21
142.0317671799
 31
0.0
  0
LINE
  5
12E
330
1F
100
AcDbEntity
  8
0
  6
Continuous
 62
     7
370
    15
100
AcDbLine
 10
163.5177998601
 20
138.0317671799
 30
0.0
 11
163.6177998601
 21
138.0317671799
 31
0.0
  0
LINE
  5
12F
330
1F
100
AcDbEntity
  8
0
  6
Continuous
 62
     7
370
    15
100
AcDbLine
 10
163.6177998601
 20
141.0317671799
 30
0.0
 11
163.5177998601
 21
141.0317671799
 31
0.0
  0
LINE
  5
130
330
1F
100
AcDbEntity
  8
0
  6
Continuous
 62
     7
370
    15
100
AcDbLine
 10
97.5177998601
 20
146.3317671799
 30
0.0
 11
97.5177998601
 21
145.5317671799
 31
0.0
  0
LINE
  5
131
330
1F
100
AcDbEntity
  8
0
  6
Continuous
 62
     7
370
    15
100
AcDbLine
 10
105.5177998601
 20
145.5317671799
 30
0.0
 11
105.5177998601
 21
146.3317671799
 31
0.0
  0
LINE
  5
132
330
1F
100
AcDbEntity
  8
0
  6
Continuous
 62
     7
370
    15
100
AcDbLine
 10
97.5177998601
 20
133.5317671799
 30
0.0
 11
97.5177998601
 21
132.7317671799
 31
0.0
  0
LINE
  5
133
330
1F
100
AcDbEntity
  8
0
  6
Continuous
 62
     7
370
    15
100
AcDbLine
 10
105.5177998601
 20
132.7317671799
 30
0.0
 11
105.5177998601
 21
133.5317671799
 31
0.0
  0
LINE
  5
134
330
1F
100
AcDbEntity
  8
0
  6
Continuous
 62
     7
370
    15
100
AcDbLine
 10
145.5177998601
 20
147.2317671799
 30
0.0
 11
145.5177998601
 21
131.8317671799
 31
0.0
  0
LINE
  5
135
330
1F
100
AcDbEntity
  8
0
  6
Continuous
 62
     7
370
    15
100
AcDbLine
 10
145.2177998601
 20
147.5317671799
 30
0.0
 11
145.2177998601
 21
131.5317671799
 31
0.0
  0
LINE
  5
136
330
1F
100
AcDbEntity
  8
0
  6
Continuous
 62
     7
370
    15
100
AcDbLine
 10
143.8177998601
 20
147.5317671799
 30
0.0
 11
143.8177998601
 21
131.5317671799
 31
0.0
  0
LINE
  5
137
330
1F
100
AcDbEntity
  8
0
  6
Continuous
 62
     7
370
    15
100
AcDbLine
 10
143.5177998601
 20
147.2317671799
 30
0.0
 11
143.5177998601
 21
131.8317671799
 31
0.0
  0
LINE
  5
138
330
1F
100
AcDbEntity
  8
0
  6
Continuous
 62
     7
370
    15
100
AcDbLine
 10
163.5177998601
 20
145.2317671799
 30
0.0
 11
163.5177998601
 21
133.8317671799
 31
0.0
  0
LINE
  5
139
330
1F
100
AcDbEntity
  8
0
  6
Continuous
 62
     7
370
    15
100
AcDbLine
 10
163.2177998601
 20
145.5317671799
 30
0.0
 11
163.2177998601
 21
133.5317671799
 31
0.0
  0
LINE
  5
13A
330
1F
100
AcDbEntity
  8
0
  6
Continuous
 62
     7
370
    15
100
AcDbLine
 10
141.8177998601
 20
143.2817671799
 30
0.0
 11
141.8177998601
 21
142.9003992835
 31
0.0
  0
LINE
  5
13B
330
1F
100
AcDbEntity
  8
0
  6
Continuous
 62
     7
370
    15
100
AcDbLine
 10
141.8177998601
 20
140.0629835943
 30
0.0
 11
141.8177998601
 21
135.7817671799
 31
0.0
  0
LINE
  5
13C
330
1F
100
AcDbEntity
  8
0
  6
Continuous
 62
     7
370
    15
100
AcDbLine
 10
141.5177998601
 20
141.9198951158
 30
0.0
 11
141.5177998601
 21
136.0817671799
 31
0.0
  0
LINE
  5
13D
330
1F
100
AcDbEntity
  8
0
  6
Continuous
 62
     7
370
    15
100
AcDbLine
 10
164.2177998601
 20
142.059118079
 30
0.0
 11
163.6177998601
 21
142.059118079
 31
0.0
  0
LINE
  5
13E
330
1F
100
AcDbEntity
  8
0
  6
Continuous
 62
     7
370
    15
100
AcDbLine
 10
163.6177998601
 20
136.0317671799
 30
0.0
 11
163.6177998601
 21
142.059118079
 31
0.0
  0
LINE
  5
13F
330
1F
100
AcDbEntity
  8
0
  6
Continuous
 62
     7
370
    15
100
AcDbLine
 10
164.2177998601
 20
136.0317671799
 30
0.0
 11
164.2177998601
 21
142.059118079
 31
0.0
  0
LINE
  5
140
330
1F
100
AcDbEntity
  8
0
  6
Continuous
 62
     7
370
    15
100
AcDbLine
 10
163.6177998601
 20
142.059118079
 30
0.0
 11
163.6177998601
 21
142.1146980276
 31
0.0
  0
LINE
  5
141
330
1F
100
AcDbEntity
  8
0
  6
Continuous
 62
     7
370
    15
100
AcDbLine
 10
164.2177998601
 20
142.1146980276
 30
0.0
 11
164.2177998601
 21
142.059118079
 31
0.0
  0
LINE
  5
142
330
1F
100
AcDbEntity
  8
0
  6
Continuous
 62
     7
370
    15
100
AcDbLine
 10
105.0252027454
 20
130.2317671799
 30
0.0
 11
105.0252027454
 21
132.7317671799
 31
0.0
  0
LINE
  5
143
330
1F
100
AcDbEntity
  8
0
  6
Continuous
 62
     7
370
    15
100
AcDbLine
 10
101.5177998601
 20
130.2317671799
 30
0.0
 11
101.5177998601
 21
132.7317671799
 31
0.0
  0
LINE
  5
144
330
1F
100
AcDbEntity
  8
0
  6
Continuous
 62
     7
370
    15
100
AcDbLine
 10
101.5177998601
 20
132.7317671799
 30
0.0
 11
101.6060903174
 21
132.7317671799
 31
0.0
  0
LINE
  5
145
330
1F
100
AcDbEntity
  8
0
  6
Continuous
 62
     7
370
    15
100
AcDbLine
 10
104.936912288
 20
132.7317671799
 30
0.0
 11
105.0252027454
 21
132.7317671799
 31
0.0
  0
LINE
  5
146
330
1F
100
AcDbEntity
  8
0
  6
Continuous
 62
     7
370
    15
100
AcDbLine
 10
101.5177998601
 20
130.2317671799
 30
0.0
 11
105.0252027454
 21
130.2317671799
 31
0.0
  0
LINE
  5
147
330
1F
100
AcDbEntity
  8
0
  6
Continuous
 62
     7
370
    15
100
AcDbLine
 10
98.0103969747
 20
130.2317671799
 30
0.0
 11
98.0103969747
 21
132.7317671799
 31
0.0
  0
LINE
  5
148
330
1F
100
AcDbEntity
  8
0
  6
Continuous
 62
     7
370
    15
100
AcDbLine
 10
98.0103969747
 20
132.7317671799
 30
0.0
 11
98.0986874321
 21
132.7317671799
 31
0.0
  0
LINE
  5
149
330
1F
100
AcDbEntity
  8
0
  6
Continuous
 62
     7
370
    15
100
AcDbLine
 10
101.4295094027
 20
132.7317671799
 30
0.0
 11
101.5177998601
 21
132.7317671799
 31
0.0
  0
LINE
  5
14A
330
1F
100
AcDbEntity
  8
0
  6
Continuous
 62
     7
370
    15
100
AcDbLine
 10
98.0103969747
 20
130.2317671799
 30
0.0
 11
101.5177998601
 21
130.2317671799
 31
0.0
  0
LINE
  5
14B
330
1F
100
AcDbEntity
  8
0
  6
Continuous
 62
     7
370
    15
100
AcDbLine
 10
103.8677998601
 20
127.7317671799
 30
0.0
 11
99.1677998601
 21
127.7317671799
 31
0.0
  0
LINE
  5
14C
330
1F
100
AcDbEntity
  8
0
  6
Continuous
 62
     7
370
    15
100
AcDbLine
 10
103.552959559
 20
125.2317671799
 30
0.0
 11
99.1677998601
 21
125.2317671799
 31
0.0
  0
LINE
  5
14D
330
1F
100
AcDbEntity
  8
0
  6
Continuous
 62
     7
370
    15
100
AcDbLine
 10
103.8677998601
 20
125.2317671799
 30
0.0
 11
103.552959559
 21
125.2317671799
 31
0.0
  0
LINE
  5
14E
330
1F
100
AcDbEntity
  8
0
  6
Continuous
 62
     7
370
    15
100
AcDbLine
 10
103.2498506676
 20
122.7317671799
 30
0.0
 11
99.5177998601
 21
122.7317671799
 31
0.0
  0
LINE
  5
14F
330
1F
100
AcDbEntity
  8
0
  6
Continuous
 62
     7
370
    15
100
AcDbLine
 10
103.5177998601
 20
122.7317671799
 30
0.0
 11
103.2498506676
 21
122.7317671799
 31
0.0
  0
SPLINE
  5
150
330
1F
100
AcDbEntity
  8
0
  6
Continuous
 62
     7
370
    15
100
AcDbSpline
210
0.0
220
0.0
230
1.0
 70
     8
 71
     3
 72
    13
 73
     9
 74
     0
 42
0.00000001
 43
0.00000001
 12
1.0
 22
0.0
 32
0.0
 13
1.0
 23
0.0
 33
0.0
 40
0.0
 40
0.0
 40
0.0
 40
0.0
 40
0.1954643394686728
 40
0.3903347737783665
 40
0.5986820950818528
 40
0.7931211594590846
 40
0.9822348402076485
 40
1.0
 40
1.0
 40
1.0
 40
1.0
 10
142.4531289349182
 20
137.4499078080831
 30
0.0
 10
142.4809363434388
 20
137.4512910247498
 30
0.0
 10
142.5364666695523
 20
137.454053255273
 30
0.0
 10
142.611709541011
 20
137.4740517958935
 30
0.0
 10
142.6710706454453
 20
137.5034162246423
 30
0.0
 10
142.6991457422667
 20
137.540251637081
 30
0.0
 10
142.7078462132232
 20
137.5675413840125
 30
0.0
 10
142.6994023848658
 20
137.5805517860334
 30
0.0
 10
142.6986772939883
 20
137.5816690190489
 30
0.0
  0
SPLINE
  5
151
330
1F
100
AcDbEntity
  8
0
  6
Continuous
 62
     7
370
    15
100
AcDbSpline
210
0.0
220
0.0
230
1.0
 70
     8
 71
     3
 72
    12
 73
     8
 74
     0
 42
0.00000001
 43
0.00000001
 12
1.0
 22
0.0
 32
0.0
 13
1.0
 23
0.0
 33
0.0
 40
0.0
 40
0.0
 40
0.0
 40
0.0
 40
0.2171443318332245
 40
0.4336302693683137
 40
0.665039664457575
 40
0.8809203379085265
 40
0.9999999999999999
 40
0.9999999999999999
 40
0.9999999999999999
 40
0.9999999999999999
 10
142.4531289349182
 20
137.4499078080831
 30
0.0
 10
142.4253452243274
 20
137.4512996939711
 30
0.0
 10
142.3698620449793
 20
137.4540792454678
 30
0.0
 10
142.294208539832
 20
137.474119913885
 30
0.0
 10
142.2365967492588
 20
137.5034520359328
 30
0.0
 10
142.207334789347
 20
137.5353636930609
 30
0.0
 10
142.2073460587958
 20
137.5552351875334
 30
0.0
 10
142.2073500651273
 20
137.5622995787342
 30
0.0
  0
LINE
  5
152
330
1F
100
AcDbEntity
  8
0
  6
Continuous
 62
     7
370
    15
100
AcDbLine
 10
105.0252027454
 20
146.3317671799
 30
0.0
 11
105.0252027454
 21
148.8317671799
 31
0.0
  0
LINE
  5
153
330
1F
100
AcDbEntity
  8
0
  6
Continuous
 62
     7
370
    15
100
AcDbLine
 10
101.5177998601
 20
146.3317671799
 30
0.0
 11
101.6060903174
 21
146.3317671799
 31
0.0
  0
LINE
  5
154
330
1F
100
AcDbEntity
  8
0
  6
Continuous
 62
     7
370
    15
100
AcDbLine
 10
104.936912288
 20
146.3317671799
 30
0.0
 11
105.0252027454
 21
146.3317671799
 31
0.0
  0
LINE
  5
155
330
1F
100
AcDbEntity
  8
0
  6
Continuous
 62
     7
370
    15
100
AcDbLine
 10
101.5177998601
 20
146.3317671799
 30
0.0
 11
101.5177998602
 21
148.8317671799
 31
0.0
  0
LINE
  5
156
330
1F
100
AcDbEntity
  8
0
  6
Continuous
 62
     7
370
    15
100
AcDbLine
 10
101.5177998602
 20
148.8317671799
 30
0.0
 11
105.0252027454
 21
148.8317671799
 31
0.0
  0
LINE
  5
157
330
1F
100
AcDbEntity
  8
0
  6
Continuous
 62
     7
370
    15
100
AcDbLine
 10
98.0103969747
 20
146.3317671799
 30
0.0
 11
98.0103969747
 21
148.8317671799
 31
0.0
  0
LINE
  5
158
330
1F
100
AcDbEntity
  8
0
  6
Continuous
 62
     7
370
    15
100
AcDbLine
 10
98.0103969747
 20
148.8317671799
 30
0.0
 11
101.5177998602
 21
148.8317671799
 31
0.0
  0
LINE
  5
159
330
1F
100
AcDbEntity
  8
0
  6
Continuous
 62
     7
370
    15
100
AcDbLine
 10
98.0103969747
 20
146.3317671799
 30
0.0
 11
98.0986874321
 21
146.3317671799
 31
0.0
  0
LINE
  5
15A
330
1F
100
AcDbEntity
  8
0
  6
Continuous
 62
     7
370
    15
100
AcDbLine
 10
101.4295094027
 20
146.3317671799
 30
0.0
 11
101.5177998601
 21
146.3317671799
 31
0.0
  0
LINE
  5
15B
330
1F
100
AcDbEntity
  8
0
  6
Continuous
 62
     7
370
    15
100
AcDbLine
 10
105.5177998601
 20
145.5317671799
 30
0.0
 11
103.5177998601
 21
145.5317671799
 31
0.0
  0
LINE
  5
15C
330
1F
100
AcDbEntity
  8
0
  6
Continuous
 62
     7
370
    15
100
AcDbLine
 10
99.5177998601
 20
145.5317671799
 30
0.0
 11
97.5177998601
 21
145.5317671799
 31
0.0
  0
LINE
  5
15D
330
1F
100
AcDbEntity
  8
0
  6
Continuous
 62
     7
370
    15
100
AcDbLine
 10
105.5177998601
 20
145.5317671799
 30
0.0
 11
105.5177998601
 21
139.5317671799
 31
0.0
  0
LINE
  5
15E
330
1F
100
AcDbEntity
  8
0
  6
Continuous
 62
     7
370
    15
100
AcDbLine
 10
105.5177998601
 20
139.5317671799
 30
0.0
 11
97.5177998601
 21
139.5317671799
 31
0.0
  0
LINE
  5
15F
330
1F
100
AcDbEntity
  8
0
  6
Continuous
 62
     7
370
    15
100
AcDbLine
 10
97.5177998601
 20
145.5317671799
 30
0.0
 11
97.5177998601
 21
139.5317671799
 31
0.0
  0
LINE
  5
160
330
1F
100
AcDbEntity
  8
0
  6
Continuous
 62
     7
370
    15
100
AcDbLine
 10
105.5177998601
 20
133.5317671799
 30
0.0
 11
103.5177998601
 21
133.5317671799
 31
0.0
  0
LINE
  5
161
330
1F
100
AcDbEntity
  8
0
  6
Continuous
 62
     7
370
    15
100
AcDbLine
 10
99.5177998601
 20
133.5317671799
 30
0.0
 11
97.5177998601
 21
133.5317671799
 31
0.0
  0
LINE
  5
162
330
1F
100
AcDbEntity
  8
0
  6
Continuous
 62
     7
370
    15
100
AcDbLine
 10
97.5177998601
 20
139.5317671799
 30
0.0
 11
97.5177998601
 21
133.5317671799
 31
0.0
  0
LINE
  5
163
330
1F
100
AcDbEntity
  8
0
  6
Continuous
 62
     7
370
    15
100
AcDbLine
 10
105.5177998601
 20
139.5317671799
 30
0.0
 11
105.5177998601
 21
133.5317671799
 31
0.0
  0
LINE
  5
164
330
1F
100
AcDbEntity
  8
0
  6
Continuous
 62
     7
370
    15
100
AcDbLine
 10
111.5177998601
 20
143.2817671799
 30
0.0
 11
111.5177998601
 21
135.7817671799
 31
0.0
  0
LINE
  5
165
330
1F
100
AcDbEntity
  8
0
  6
Continuous
 62
     7
370
    15
100
AcDbLine
 10
92.0177998601
 20
143.0317671799
 30
0.0
 11
92.0177998601
 21
136.0317671799
 31
0.0
  0
LINE
  5
166
330
1F
100
AcDbEntity
  8
0
  6
Continuous
 62
     7
370
    15
100
AcDbLine
 10
94.0177998601
 20
143.0317671799
 30
0.0
 11
94.0177998601
 21
136.0317671799
 31
0.0
  0
LINE
  5
167
330
1F
100
AcDbEntity
  8
0
  6
Continuous
 62
     7
370
    15
100
AcDbLine
 10
165.5177998601
 20
141.5317671799
 30
0.0
 11
165.5177998601
 21
137.5317671799
 31
0.0
  0
LINE
  5
168
330
1F
100
AcDbEntity
  8
0
  6
Continuous
 62
     7
370
    15
100
AcDbLine
 10
165.0177998601
 20
137.0317671799
 30
0.0
 11
165.0177998601
 21
142.0317671799
 31
0.0
  0
LINE
  5
169
330
1F
100
AcDbEntity
  8
0
  6
Continuous
 62
     7
370
    15
100
AcDbLine
 10
105.5177998601
 20
146.3317671799
 30
0.0
 11
105.0252027454
 21
146.3317671799
 31
0.0
  0
LINE
  5
16A
330
1F
100
AcDbEntity
  8
0
  6
Continuous
 62
     7
370
    15
100
AcDbLine
 10
104.936912288
 20
146.3317671799
 30
0.0
 11
101.6060903174
 21
146.3317671799
 31
0.0
  0
LINE
  5
16B
330
1F
100
AcDbEntity
  8
0
  6
Continuous
 62
     7
370
    15
100
AcDbLine
 10
101.4295094027
 20
146.3317671799
 30
0.0
 11
98.0986874321
 21
146.3317671799
 31
0.0
  0
LINE
  5
16C
330
1F
100
AcDbEntity
  8
0
  6
Continuous
 62
     7
370
    15
100
AcDbLine
 10
98.0103969747
 20
146.3317671799
 30
0.0
 11
97.5177998601
 21
146.3317671799
 31
0.0
  0
LINE
  5
16D
330
1F
100
AcDbEntity
  8
0
  6
Continuous
 62
     7
370
    15
100
AcDbLine
 10
103.5177998601
 20
145.5317671799
 30
0.0
 11
99.5177998601
 21
145.5317671799
 31
0.0
  0
LINE
  5
16E
330
1F
100
AcDbEntity
  8
0
  6
Continuous
 62
     7
370
    15
100
AcDbLine
 10
103.5177998601
 20
133.5317671799
 30
0.0
 11
99.5177998601
 21
133.5317671799
 31
0.0
  0
LINE
  5
16F
330
1F
100
AcDbEntity
  8
0
  6
Continuous
 62
     7
370
    15
100
AcDbLine
 10
105.5177998601
 20
132.7317671799
 30
0.0
 11
105.0252027454
 21
132.7317671799
 31
0.0
  0
LINE
  5
170
330
1F
100
AcDbEntity
  8
0
  6
Continuous
 62
     7
370
    15
100
AcDbLine
 10
104.936912288
 20
132.7317671799
 30
0.0
 11
101.6060903174
 21
132.7317671799
 31
0.0
  0
LINE
  5
171
330
1F
100
AcDbEntity
  8
0
  6
Continuous
 62
     7
370
    15
100
AcDbLine
 10
101.4295094027
 20
132.7317671799
 30
0.0
 11
98.0986874321
 21
132.7317671799
 31
0.0
  0
LINE
  5
172
330
1F
100
AcDbEntity
  8
0
  6
Continuous
 62
     7
370
    15
100
AcDbLine
 10
98.0103969747
 20
132.7317671799
 30
0.0
 11
97.5177998601
 21
132.7317671799
 31
0.0
  0
SPLINE
  5
173
330
1F
100
AcDbEntity
  8
0
  6
Continuous
 62
     8
370
    15
100
AcDbSpline
210
0.0
220
0.0
230
1.0
 70
     8
 71
     3
 72
    14
 73
    10
 74
     0
 42
0.00000001
 43
0.00000001
 12
1.0
 22
0.0
 32
0.0
 13
1.0
 23
0.0
 33
0.0
 40
0.0
 40
0.0
 40
0.0
 40
0.0
 40
0.0645176875883085
 40
0.235762404506907
 40
0.4070275138581281
 40
0.5784339229123256
 40
0.7498398395228727
 40
0.9211035944156637
 40
1.0
 40
1.0
 40
1.0
 40
1.0
 10
129.1465621420854
 20
143.5195407456004
 30
0.0
 10
129.1343424965779
 20
143.5224824036222
 30
0.0
 10
129.089689113688
 20
143.5332318956512
 30
0.0
 10
129.0124925444325
 20
143.4552627963228
 30
0.0
 10
128.9150618820865
 20
143.284253812651
 30
0.0
 10
128.8177106042664
 20
143.0212761008441
 30
0.0
 10
128.7203634321584
 20
142.6766857790987
 30
0.0
 10
128.640430108165
 20
142.343967874469
 30
0.0
 10
128.5930039789841
 20
142.1066221293287
 30
0.0
 10
128.578046556843
 20
142.0317671798571
 30
0.0
  0
SPLINE
  5
174
330
1F
100
AcDbEntity
  8
0
  6
Continuous
 62
     8
370
    15
100
AcDbSpline
210
0.0
220
0.0
230
1.0
 70
     8
 71
     3
 72
    14
 73
    10
 74
     0
 42
0.00000001
 43
0.00000001
 12
1.0
 22
0.0
 32
0.0
 13
1.0
 23
0.0
 33
0.0
 40
0.0
 40
0.0
 40
0.0
 40
0.0
 40
0.1166212538561862
 40
0.2874951315934107
 40
0.4582775899959562
 40
0.628939334604679
 40
0.7997027983826354
 40
0.9705747348954523
 40
0.9999999999999999
 40
0.9999999999999999
 40
0.9999999999999999
 40
0.9999999999999999
 10
127.7154670800639
 20
137.0317671798571
 30
0.0
 10
127.6932956132274
 20
136.9235238762508
 30
0.0
 10
127.6386384339827
 20
136.6566820975405
 30
0.0
 10
127.5515960586422
 20
136.3037898942043
 30
0.0
 10
127.4542100925646
 20
135.9753810981444
 30
0.0
 10
127.3567399813197
 20
135.7313043811008
 30
0.0
 10
127.2593396265091
 20
135.5858629903531
 30
0.0
 10
127.1888688290626
 20
135.5234139834516
 30
0.0
 10
127.1507966093413
 20
135.5378958193054
 30
0.0
 10
127.1452034949624
 20
135.5400233171225
 30
0.0
  0
SPLINE
  5
175
330
1F
100
AcDbEntity
  8
0
  6
Continuous
 62
     8
370
    15
100
AcDbSpline
210
0.0
220
0.0
230
1.0
 70
     8
 71
     3
 72
    14
 73
    10
 74
     0
 42
0.00000001
 43
0.00000001
 12
1.0
 22
0.0
 32
0.0
 13
1.0
 23
0.0
 33
0.0
 40
0.0
 40
0.0
 40
0.0
 40
0.0
 40
0.0490163490078023
 40
0.2210190853234086
 40
0.3929060428401653
 40
0.5649023980397665
 40
0.7370025533025053
 40
0.9090297419922083
 40
1.0
 40
1.0
 40
1.0
 40
1.0
 10
125.144409315525
 20
143.5205503249824
 30
0.0
 10
125.1351632283741
 20
143.5231057066929
 30
0.0
 10
125.0934717975293
 20
143.534628150525
 30
0.0
 10
125.0193126389586
 20
143.4627384718579
 30
0.0
 10
124.9218409632095
 20
143.3004478309847
 30
0.0
 10
124.8244502697392
 20
143.0422683216194
 30
0.0
 10
124.7271081259351
 20
142.7024303500397
 30
0.0
 10
124.645008107909
 20
142.3635416701009
 30
0.0
 10
124.5953296629589
 20
142.117033746769
 30
0.0
 10
124.5781459944051
 20
142.0317671798571
 30
0.0
  0
SPLINE
  5
176
330
1F
100
AcDbEntity
  8
0
  6
Continuous
 62
     8
370
    15
100
AcDbSpline
210
0.0
220
0.0
230
1.0
 70
     8
 71
     3
 72
    14
 73
    10
 74
     0
 42
0.00000001
 43
0.00000001
 12
1.0
 22
0.0
 32
0.0
 13
1.0
 23
0.0
 33
0.0
 40
0.0
 40
0.0
 40
0.0
 40
0.0
 40
0.1051945340116693
 40
0.2767925009106529
 40
0.4484056029055301
 40
0.6198812277298865
 40
0.7913156122497138
 40
0.9628945302781773
 40
1.0
 40
1.0
 40
1.0
 40
1.0
 10
123.7154894234462
 20
137.0317671798571
 30
0.0
 10
123.6955672495167
 20
136.9338056014102
 30
0.0
 10
123.6431471461594
 20
136.6760447724257
 30
0.0
 10
123.558333526652
 20
136.329603278217
 30
0.0
 10
123.4609846957627
 20
135.996236221837
 30
0.0
 10
123.3635596633947
 20
135.7449831011187
 30
0.0
 10
123.2660999387532
 20
135.5920667668951
 30
0.0
 10
123.1941909189512
 20
135.5259226321881
 30
0.0
 10
123.1547151799426
 20
135.5391060467136
 30
0.0
 10
123.147696131444
 20
135.5414501453488
 30
0.0
  0
SPLINE
  5
177
330
1F
100
AcDbEntity
  8
0
  6
Continuous
 62
     8
370
    15
100
AcDbSpline
210
0.0
220
0.0
230
1.0
 70
     8
 71
     3
 72
    14
 73
    10
 74
     0
 42
0.00000001
 43
0.00000001
 12
1.0
 22
0.0
 32
0.0
 13
1.0
 23
0.0
 33
0.0
 40
0.0
 40
0.0
 40
0.0
 40
0.0
 40
0.0406468817696287
 40
0.2120943173890666
 40
0.3834018360836094
 40
0.5546783142640549
 40
0.726100134716989
 40
0.897559376837879
 40
1.0
 40
1.0
 40
1.0
 40
1.0
 10
121.1465327185151
 20
143.5216109951119
 30
0.0
 10
121.1388352959039
 20
143.5240837394809
 30
0.0
 10
121.0986703552412
 20
143.5369864519691
 30
0.0
 10
121.0260931782478
 20
143.4693385786422
 30
0.0
 10
120.9286593324436
 20
143.3154327481396
 30
0.0
 10
120.8312059695689
 20
143.0634302956517
 30
0.0
 10
120.7338441895477
 20
142.7284014227897
 30
0.0
 10
120.6495508698939
 20
142.3829189624197
 30
0.0
 10
120.5976424000429
 20
142.1273513876016
 30
0.0
 10
120.578228239348
 20
142.0317671798571
 30
0.0
  0
SPLINE
  5
178
330
1F
100
AcDbEntity
  8
0
  6
Continuous
 62
     8
370
    15
100
AcDbSpline
210
0.0
220
0.0
230
1.0
 70
     8
 71
     3
 72
    13
 73
     9
 74
     0
 42
0.00000001
 43
0.00000001
 12
1.0
 22
0.0
 32
0.0
 13
1.0
 23
0.0
 33
0.0
 40
0.0
 40
0.0
 40
0.0
 40
0.0
 40
0.0981472119182589
 40
0.278505597793013
 40
0.458983805606466
 40
0.6393998382166663
 40
0.8196679064196649
 40
1.0
 40
1.0
 40
1.0
 40
1.0
 10
119.7155337724848
 20
137.0317671798571
 30
0.0
 10
119.6978558152086
 20
136.9440817006593
 30
0.0
 10
119.6476922908177
 20
136.6952626427926
 30
0.0
 10
119.5650716569189
 20
136.3553820626027
 30
0.0
 10
119.4677297857031
 20
136.016453750975
 30
0.0
 10
119.3703646994938
 20
135.7627028393393
 30
0.0
 10
119.2728947363113
 20
135.5900810040081
 30
0.0
 10
119.2079851204859
 20
135.5547951106087
 30
0.0
 10
119.1755245501483
 20
135.5371490313638
 30
0.0
  0
SPLINE
  5
179
330
1F
100
AcDbEntity
  8
0
  6
Continuous
 62
     8
370
    15
100
AcDbSpline
210
0.0
220
0.0
230
1.0
 70
     8
 71
     3
 72
    12
 73
     8
 74
     0
 42
0.00000001
 43
0.00000001
 12
1.0
 22
0.0
 32
0.0
 13
1.0
 23
0.0
 33
0.0
 40
0.0
 40
0.0
 40
0.0
 40
0.0
 40
0.2309279732695018
 40
0.3588834410009237
 40
0.4871856960548619
 40
0.7443289294406473
 40
0.9999999999999999
 40
0.9999999999999999
 40
0.9999999999999999
 40
0.9999999999999999
 10
130.2335411646856
 20
140.5928849497666
 30
0.0
 10
130.2304705546964
 20
140.6002297489643
 30
0.0
 10
130.2256985426127
 20
140.61164424662
 30
0.0
 10
130.1955216600203
 20
140.6253291787922
 30
0.0
 10
130.1536232972287
 20
140.6377317765397
 30
0.0
 10
130.0841631702275
 20
140.6497232929232
 30
0.0
 10
130.0189659892413
 20
140.6517665136509
 30
0.0
 10
129.9864609812259
 20
140.6527851912245
 30
0.0
  0
SPLINE
  5
17A
330
1F
100
AcDbEntity
  8
0
  6
Continuous
 62
     8
370
    15
100
AcDbSpline
210
0.0
220
0.0
230
1.0
 70
     8
 71
     3
 72
    24
 73
    20
 74
     0
 42
0.00000001
 43
0.00000001
 12
1.0
 22
0.0
 32
0.0
 13
1.0
 23
0.0
 33
0.0
 40
0.0
 40
0.0
 40
0.0
 40
0.0
 40
0.0597807882091497
 40
0.1195219096487721
 40
0.1793051830012559
 40
0.2391333688938936
 40
0.2989422686533235
 40
0.3587009252482344
 40
0.4184795659372472
 40
0.4783038319687915
 40
0.5381177467411655
 40
0.5978807583594552
 40
0.6576509240185129
 40
0.7174706598745616
 40
0.7772902229694972
 40
0.8370599134713175
 40
0.8968223410640712
 40
0.9566360225166958
 40
1.0
 40
1.0
 40
1.0
 40
1.0
 10
117.5197943145658
 20
143.2797860974879
 30
0.0
 10
117.5522526568986
 20
143.1448987787899
 30
0.0
 10
117.6171478042505
 20
142.8752136441313
 30
0.0
 10
117.7146274742156
 20
142.3681702152274
 30
0.0
 10
117.8120214509952
 20
141.7995903356567
 30
0.0
 10
117.9093608588617
 20
141.1773373061105
 30
0.0
 10
118.0067250830044
 20
140.5177678634394
 30
0.0
 10
118.1041893854853
 20
139.8346965712375
 30
0.0
 10
118.2016071005694
 20
139.1444567761583
 30
0.0
 10
118.2989521333593
 20
138.46332220375
 30
0.0
 10
118.3963085488542
 20
137.8066348292043
 30
0.0
 10
118.4937598806675
 20
137.1899705754945
 30
0.0
 10
118.591194897103
 20
136.6298559595808
 30
0.0
 10
118.6885442676084
 20
136.137060963341
 30
0.0
 10
118.7858938227247
 20
135.7222511655228
 30
0.0
 10
118.8833285294382
 20
135.3946240910675
 30
0.0
 10
118.9807819247035
 20
135.170424936149
 30
0.0
 10
119.069200129746
 20
135.0469806272349
 30
0.0
 10
119.1251927866232
 20
135.044841963514
 30
0.0
 10
119.148725636051
 20
135.0439431161628
 30
0.0
  0
SPLINE
  5
17B
330
1F
100
AcDbEntity
  8
0
  6
Continuous
 62
     8
370
    15
100
AcDbSpline
210
0.0
220
0.0
230
1.0
 70
     8
 71
     3
 72
    28
 73
    24
 74
     0
 42
0.00000001
 43
0.00000001
 12
1.0
 22
0.0
 32
0.0
 13
1.0
 23
0.0
 33
0.0
 40
0.0
 40
0.0
 40
0.0
 40
0.0
 40
0.0376572131200514
 40
0.0862205823200071
 40
0.1347809434330615
 40
0.1833827826066615
 40
0.2319910910392374
 40
0.2805611108790553
 40
0.3291165649143007
 40
0.3777127320011668
 40
0.4263237271560515
 40
0.4749009091242147
 40
0.5234533148140667
 40
0.5720429777135456
 40
0.6206552470257423
 40
0.6692396707137032
 40
0.7177912202650699
 40
0.7663738321160724
 40
0.8149859167828174
 40
0.8635772834525054
 40
0.9121302600810478
 40
0.9607056125216424
 40
1.0
 40
1.0
 40
1.0
 40
1.0
 10
121.1453768791858
 20
144.0206549755956
 30
0.0
 10
121.1705254595735
 20
144.0188327214121
 30
0.0
 10
121.2281060680649
 20
144.0146604578851
 30
0.0
 10
121.3182293148727
 20
143.8851340763955
 30
0.0
 10
121.415676127232
 20
143.6522081421285
 30
0.0
 10
121.5130308167635
 20
143.3201838722751
 30
0.0
 10
121.610376340075
 20
142.9023034228049
 30
0.0
 10
121.7077977542916
 20
142.4062655859905
 30
0.0
 10
121.8052595795711
 20
141.8410236622554
 30
0.0
 10
121.9026231149778
 20
141.2217881168347
 30
0.0
 10
121.9999654963623
 20
140.5638973523665
 30
0.0
 10
122.0973687853511
 20
139.8821210255436
 30
0.0
 10
122.1948394447039
 20
139.1918293365902
 30
0.0
 10
122.2922150881785
 20
138.5097663650199
 30
0.0
 10
122.3895560315416
 20
137.8512129192906
 30
0.0
 10
122.4869426204254
 20
137.2311107479233
 30
0.0
 10
122.5844157742255
 20
136.6656014543053
 30
0.0
 10
122.6818063791214
 20
136.1684565904434
 30
0.0
 10
122.7791475206326
 20
135.7488220015034
 30
0.0
 10
122.87651985391
 20
135.4150133098127
 30
0.0
 10
122.9739887555995
 20
135.1813108859415
 30
0.0
 10
123.065170271663
 20
135.0496107680894
 30
0.0
 10
123.1238476839071
 20
135.0443254617298
 30
0.0
 10
123.1500875814541
 20
135.041961930482
 30
0.0
  0
SPLINE
  5
17C
330
1F
100
AcDbEntity
  8
0
  6
Continuous
 62
     8
370
    15
100
AcDbSpline
210
0.0
220
0.0
230
1.0
 70
     8
 71
     3
 72
    28
 73
    24
 74
     0
 42
0.00000001
 43
0.00000001
 12
1.0
 22
0.0
 32
0.0
 13
1.0
 23
0.0
 33
0.0
 40
0.0
 40
0.0
 40
0.0
 40
0.0
 40
0.0356873019454693
 40
0.0842622572416081
 40
0.132799966605513
 40
0.181362444748206
 40
0.229958725842716
 40
0.2785401833575183
 40
0.3270809401441376
 40
0.3756362583264085
 40
0.4242298535118704
 40
0.4728169813965407
 40
0.5213626437756659
 40
0.5699113133311816
 40
0.6185009098340386
 40
0.6670926442107991
 40
0.7156445161840953
 40
0.7641875446625509
 40
0.8127719812562371
 40
0.861367079283005
 40
0.9099259110837247
 40
0.9584648990421756
 40
1.0
 40
1.0
 40
1.0
 40
1.0
 10
125.1425439300884
 20
144.019534890602
 30
0.0
 10
125.1663833061848
 20
144.0191620907341
 30
0.0
 10
125.2226711041301
 20
144.0182818628478
 30
0.0
 10
125.3114165609471
 20
143.8964775568325
 30
0.0
 10
125.4088879505642
 20
143.6727720888224
 30
0.0
 10
125.5062910437101
 20
143.3463954343946
 30
0.0
 10
125.6036334779604
 20
142.9333143859152
 30
0.0
 10
125.7009969979042
 20
142.4420392805564
 30
0.0
 10
125.7984588321742
 20
141.8824152196064
 30
0.0
 10
125.8958802258705
 20
141.2662363554874
 30
0.0
 10
125.9932258223269
 20
140.6101969029745
 30
0.0
 10
126.0905802398821
 20
139.9294431331082
 30
0.0
 10
126.1880280661652
 20
139.2392188676568
 30
0.0
 10
126.2854674636794
 20
138.556070728246
 30
0.0
 10
126.3828183282414
 20
137.895765449242
 30
0.0
 10
126.48016630448
 20
137.2729212643585
 30
0.0
 10
126.5775968976924
 20
136.7021845173928
 30
0.0
 10
126.6750522332274
 20
136.1996032921161
 30
0.0
 10
126.7724107098754
 20
135.7752112762454
 30
0.0
 10
126.8697548362889
 20
135.436114809888
 30
0.0
 10
126.9671658218941
 20
135.1940815597625
 30
0.0
 10
127.0599251506743
 20
135.0530076931272
 30
0.0
 10
127.1201094227636
 20
135.0441759201628
 30
0.0
 10
127.1478616858991
 20
135.0401033995731
 30
0.0
  0
SPLINE
  5
17D
330
1F
100
AcDbEntity
  8
0
  6
Continuous
 62
     8
370
    15
100
AcDbSpline
210
0.0
220
0.0
230
1.0
 70
     8
 71
     3
 72
    16
 73
    12
 74
     0
 42
0.00000001
 43
0.00000001
 12
1.0
 22
0.0
 32
0.0
 13
1.0
 23
0.0
 33
0.0
 40
0.0
 40
0.0
 40
0.0
 40
0.0
 40
0.0749864753763167
 40
0.1906833431016833
 40
0.3062919739029842
 40
0.4218619565562363
 40
0.5375291067494583
 40
0.653233555272475
 40
0.7688511453923573
 40
0.8843872160117342
 40
1.0
 40
1.0
 40
1.0
 40
1.0
 10
129.1441595417528
 20
144.018354485658
 30
0.0
 10
129.1652063981169
 20
144.0191319778183
 30
0.0
 10
129.2187265150867
 20
144.0211090650681
 30
0.0
 10
129.3046474417292
 20
143.9067325662824
 30
0.0
 10
129.402067742049
 20
143.6918659802814
 30
0.0
 10
129.4995313520971
 20
143.3726854539289
 30
0.0
 10
129.5968957619185
 20
142.9644445997299
 30
0.0
 10
129.6942351200148
 20
142.4774887977137
 30
0.0
 10
129.7916291101029
 20
141.9224009743789
 30
0.0
 10
129.8891087765685
 20
141.3119315895483
 30
0.0
 10
129.9540039243872
 20
140.8725522876378
 30
0.0
 10
129.9864622669534
 20
140.6527897263787
 30
0.0
  0
SPLINE
  5
17E
330
1F
100
AcDbEntity
  8
0
  6
Continuous
 62
     8
370
    15
100
AcDbSpline
210
0.0
220
0.0
230
1.0
 70
     8
 71
     3
 72
    12
 73
     8
 74
     0
 42
0.00000001
 43
0.00000001
 12
1.0
 22
0.0
 32
0.0
 13
1.0
 23
0.0
 33
0.0
 40
0.0
 40
0.0
 40
0.0
 40
0.0
 40
0.2885107077626774
 40
0.5786884332787176
 40
0.7234745726483751
 40
0.8678679777635604
 40
1.0
 40
1.0
 40
1.0
 40
1.0
 10
117.5197956002934
 20
143.2797885789357
 30
0.0
 10
117.5522991901215
 20
143.2763939654103
 30
0.0
 10
117.6174941758444
 20
143.2695851242484
 30
0.0
 10
117.6872241007946
 20
143.2295519635812
 30
0.0
 10
117.728695823643
 20
143.1879605927934
 30
0.0
 10
117.7532001371683
 20
143.1532337209645
 30
0.0
 10
117.7570755649953
 20
143.1273216327651
 30
0.0
 10
117.7589273589541
 20
143.11494007116
 30
0.0
  0
SPLINE
  5
17F
330
1F
100
AcDbEntity
  8
0
  6
Continuous
 62
     8
370
    15
100
AcDbSpline
210
0.0
220
0.0
230
1.0
 70
     8
 71
     3
 72
    13
 73
     9
 74
     0
 42
0.00000001
 43
0.00000001
 12
1.0
 22
0.0
 32
0.0
 13
1.0
 23
0.0
 33
0.0
 40
0.0
 40
0.0
 40
0.0
 40
0.0
 40
0.0278446063328164
 40
0.2709812242158506
 40
0.3922727745478884
 40
0.5138930515275755
 40
0.7576442720724405
 40
0.9999999999999999
 40
0.9999999999999999
 40
0.9999999999999999
 40
0.9999999999999999
 10
129.7396530942412
 20
140.5877782614768
 30
0.0
 10
129.7388904238388
 20
140.5886876518433
 30
0.0
 10
129.7314681835372
 20
140.5975377577437
 30
0.0
 10
129.7477136614647
 20
140.6109552943679
 30
0.0
 10
129.7770188234374
 20
140.6253290136279
 30
0.0
 10
129.8195210995076
 20
140.6377389023031
 30
0.0
 10
129.8886906590464
 20
140.6497269833761
 30
0.0
 10
129.9539341636303
 20
140.6517707677774
 30
0.0
 10
129.9864622669534
 20
140.6527897263787
 30
0.0
  0
SPLINE
  5
180
330
1F
100
AcDbEntity
  8
0
  6
Continuous
 62
     8
370
    15
100
AcDbSpline
210
0.0
220
0.0
230
1.0
 70
     8
 71
     3
 72
    13
 73
     9
 74
     0
 42
0.00000001
 43
0.00000001
 12
1.0
 22
0.0
 32
0.0
 13
1.0
 23
0.0
 33
0.0
 40
0.0
 40
0.0
 40
0.0
 40
0.0
 40
0.2172229037933233
 40
0.435700923691456
 40
0.544712009852026
 40
0.6534274020477041
 40
0.8713532891432811
 40
0.9999999999999999
 40
0.9999999999999999
 40
0.9999999999999999
 40
0.9999999999999999
 10
117.5197943145657
 20
143.2797862049813
 30
0.0
 10
117.487257001553
 20
143.2763956733691
 30
0.0
 10
117.4219943746084
 20
143.2695950196191
 30
0.0
 10
117.3526887397732
 20
143.2295105545476
 30
0.0
 10
117.3103351672637
 20
143.1880258944916
 30
0.0
 10
117.2802666064106
 20
143.139898732721
 30
0.0
 10
117.2639543094075
 20
143.0821393506634
 30
0.0
 10
117.2767637492294
 20
143.0400671295132
 30
0.0
 10
117.2815185749448
 20
143.0244500469701
 30
0.0
  0
SPLINE
  5
181
330
1F
100
AcDbEntity
  8
0
  6
Continuous
 62
     8
370
    15
100
AcDbSpline
210
0.0
220
0.0
230
1.0
 70
     8
 71
     3
 72
    11
 73
     7
 74
     0
 42
0.00000001
 43
0.00000001
 12
1.0
 22
0.0
 32
0.0
 13
1.0
 23
0.0
 33
0.0
 40
0.0
 40
0.0
 40
0.0
 40
0.0
 40
0.2593279880261741
 40
0.51848390231684
 40
0.7778226708500852
 40
1.0
 40
1.0
 40
1.0
 40
1.0
 10
117.5197956002933
 20
143.2797886868598
 30
0.0
 10
117.4873372707087
 20
143.3987398417135
 30
0.0
 10
117.4224421488446
 20
143.6365632229191
 30
0.0
 10
117.3249622877858
 20
143.8707110689889
 30
0.0
 10
117.2322452796682
 20
144.0105172995236
 30
0.0
 10
117.1720197810522
 20
144.0191816608242
 30
0.0
 10
117.1442310103474
 20
144.0231795015232
 30
0.0
  0
SPLINE
  5
182
330
1F
100
AcDbEntity
  8
0
  6
Continuous
 62
     8
370
    15
100
AcDbSpline
210
0.0
220
0.0
230
1.0
 70
     8
 71
     3
 72
    28
 73
    24
 74
     0
 42
0.00000001
 43
0.00000001
 12
1.0
 22
0.0
 32
0.0
 13
1.0
 23
0.0
 33
0.0
 40
0.0
 40
0.0
 40
0.0
 40
0.0
 40
0.0327599098311515
 40
0.0813592512014198
 40
0.1299240617104725
 40
0.178517969594929
 40
0.2271429066375089
 40
0.2757490619619287
 40
0.3243158605732103
 40
0.3729025143963764
 40
0.421525455224497
 40
0.4701377285110148
 40
0.5187085699573223
 40
0.5672882599654012
 40
0.6159078352163082
 40
0.6645252713684072
 40
0.7131017571238676
 40
0.7616752339799558
 40
0.8102902000994527
 40
0.8589116372252114
 40
0.9074947754167826
 40
0.9560633438696816
 40
1.0
 40
1.0
 40
1.0
 40
1.0
 10
115.1505169295962
 20
135.0453175318734
 30
0.0
 10
115.1286459778695
 20
135.0445021997466
 30
0.0
 10
115.0743294591515
 20
135.0424773220331
 30
0.0
 10
114.9875455275599
 20
135.1574576688822
 30
0.0
 10
114.8900724679377
 20
135.3755740910752
 30
0.0
 10
114.792677795684
 20
135.6968169731615
 30
0.0
 10
114.6953363128117
 20
136.1050128611917
 30
0.0
 10
114.5979671595554
 20
136.5920446851231
 30
0.0
 10
114.5005002126385
 20
137.148377538863
 30
0.0
 10
114.4030878860326
 20
137.7619017978798
 30
0.0
 10
114.3057441192367
 20
138.4160377776428
 30
0.0
 10
114.2083855462382
 20
139.0957585808942
 30
0.0
 10
114.110930236522
 20
139.7858794691976
 30
0.0
 10
114.0134996363025
 20
140.4698284945518
 30
0.0
 10
113.9161516622703
 20
141.1318781120925
 30
0.0
 10
113.8188007958896
 20
141.7573002692799
 30
0.0
 10
113.7213614034329
 20
142.3312543144801
 30
0.0
 10
113.6239135587335
 20
142.837692294488
 30
0.0
 10
113.5265592098477
 20
143.2668503704081
 30
0.0
 10
113.4292133571407
 20
143.6111426714587
 30
0.0
 10
113.3317929189761
 20
143.858856983088
 30
0.0
 10
113.2374519515343
 20
144.0068149470376
 30
0.0
 10
113.175682994343
 20
144.019325417112
 30
0.0
 10
113.1463449602604
 20
144.0252674406481
 30
0.0
  0
SPLINE
  5
183
330
1F
100
AcDbEntity
  8
0
  6
Continuous
 62
     8
370
    15
100
AcDbSpline
210
0.0
220
0.0
230
1.0
 70
     8
 71
     3
 72
    28
 73
    24
 74
     0
 42
0.00000001
 43
0.00000001
 12
1.0
 22
0.0
 32
0.0
 13
1.0
 23
0.0
 33
0.0
 40
0.0
 40
0.0
 40
0.0
 40
0.0
 40
0.0288405871792125
 40
0.0774884035102708
 40
0.1260970451860671
 40
0.1746939352426067
 40
0.2233320107314996
 40
0.2719828588692428
 40
0.3205985823886235
 40
0.3691919114993694
 40
0.417823662557309
 40
0.4664761488310813
 40
0.5150991377941958
 40
0.5636910386417416
 40
0.6123158409476548
 40
0.6609685120203709
 40
0.7095985578921411
 40
0.7581913155897537
 40
0.8068088701573067
 40
0.8554602660137992
 40
0.9040968214786375
 40
0.952692630055153
 40
1.0
 40
1.0
 40
1.0
 40
1.0
 10
111.1494156404528
 20
135.0460476607346
 30
0.0
 10
111.1301660046584
 20
135.0443372499307
 30
0.0
 10
111.0784464076685
 20
135.0397417470129
 30
0.0
 10
110.9943206381002
 20
135.1476698111415
 30
0.0
 10
110.8968921040462
 20
135.3566455157057
 30
0.0
 10
110.7994340559468
 20
135.6708839718229
 30
0.0
 10
110.7020729165482
 20
136.0741426955828
 30
0.0
 10
110.6047299487966
 20
136.5568888284458
 30
0.0
 10
110.507322163089
 20
137.1081381917429
 30
0.0
 10
110.4098531673801
 20
137.7176465954076
 30
0.0
 10
110.312480859316
 20
138.369772336969
 30
0.0
 10
110.215139711034
 20
139.0484527334636
 30
0.0
 10
110.1177491079928
 20
139.7383498156092
 30
0.0
 10
110.0202759535411
 20
140.4234816744296
 30
0.0
 10
109.9228893654105
 20
141.0872391206329
 30
0.0
 10
109.8255484196835
 20
141.7152024893892
 30
0.0
 10
109.7281727849028
 20
142.2931839673204
 30
0.0
 10
109.630702093154
 20
142.8060666145178
 30
0.0
 10
109.5332989251227
 20
143.2402815315709
 30
0.0
 10
109.435956092004
 20
143.5896923103516
 30
0.0
 10
109.3385942417537
 20
143.8440467361667
 30
0.0
 10
109.2419969507438
 20
144.003863376432
 30
0.0
 10
109.1779547161568
 20
144.0207020733517
 30
0.0
 10
109.1463637957055
 20
144.029008309671
 30
0.0
  0
SPLINE
  5
184
330
1F
100
AcDbEntity
  8
0
  6
Continuous
 62
     8
370
    15
100
AcDbSpline
210
0.0
220
0.0
230
1.0
 70
     8
 71
     3
 72
    25
 73
    21
 74
     0
 42
0.00000001
 43
0.00000001
 12
1.0
 22
0.0
 32
0.0
 13
1.0
 23
0.0
 33
0.0
 40
0.0
 40
0.0
 40
0.0
 40
0.0
 40
0.0328167086095616
 40
0.0924464388118538
 40
0.1520555192057924
 40
0.2116154570633392
 40
0.2711966592820105
 40
0.3308236111893599
 40
0.3904399012083497
 40
0.4500051065106076
 40
0.5095775507535896
 40
0.5691997030049053
 40
0.6288220274472173
 40
0.6883949452794108
 40
0.7479607326799428
 40
0.8075772552488183
 40
0.8672040949166383
 40
0.9267854598103615
 40
0.9863469065596082
 40
1.0
 40
1.0
 40
1.0
 40
1.0
 10
107.1520771187533
 20
135.0458362133265
 30
0.0
 10
107.1341957744942
 20
135.0431008900555
 30
0.0
 10
107.0838230629104
 20
135.0353953368139
 30
0.0
 10
107.0010651669542
 20
135.137654210629
 30
0.0
 10
106.9036955358615
 20
135.3396685035025
 30
0.0
 10
106.8062318223297
 20
135.6453438636515
 30
0.0
 10
106.7088148742045
 20
136.0430930174352
 30
0.0
 10
106.6114703872911
 20
136.5215357356628
 30
0.0
 10
106.5141139699542
 20
137.0688297589465
 30
0.0
 10
106.4166622079466
 20
137.6737637819355
 30
0.0
 10
106.3192270630431
 20
138.323498713947
 30
0.0
 10
106.22187762752
 20
139.0010296974215
 30
0.0
 10
106.1245282172041
 20
139.6907238188977
 30
0.0
 10
106.0270932403707
 20
140.376903351348
 30
0.0
 10
105.9296417899267
 20
141.0428641411536
 30
0.0
 10
105.8322858097301
 20
141.6728575839106
 30
0.0
 10
105.7349391543293
 20
142.2557773842839
 30
0.0
 10
105.6375274893824
 20
142.7686245804548
 30
0.0
 10
105.5651048651844
 20
143.1122844508406
 30
0.0
 10
105.5252348462371
 20
143.2539198983491
 30
0.0
 10
105.5177998600616
 20
143.2803321655612
 30
0.0
  0
SPLINE
  5
185
330
1F
100
AcDbEntity
  8
0
  6
Continuous
 62
     8
370
    15
100
AcDbSpline
210
0.0
220
0.0
230
1.0
 70
     8
 71
     3
 72
    10
 73
     6
 74
     0
 42
0.00000001
 43
0.00000001
 12
1.0
 22
0.0
 32
0.0
 13
1.0
 23
0.0
 33
0.0
 40
0.0
 40
0.0
 40
0.0
 40
0.0
 40
0.2156844700851735
 40
0.656632704253033
 40
1.0
 40
1.0
 40
1.0
 40
1.0
 10
107.1482233942376
 20
135.5443112567837
 30
0.0
 10
107.1640924074945
 20
135.5421215969747
 30
0.0
 10
107.2124042450812
 20
135.5354553671751
 30
0.0
 10
107.286072124636
 20
135.6113502845763
 30
0.0
 10
107.3437627919544
 20
135.7298770675396
 30
0.0
 10
107.3690193215926
 20
135.7817671798571
 30
0.0
  0
SPLINE
  5
186
330
1F
100
AcDbEntity
  8
0
  6
Continuous
 62
     8
370
    15
100
AcDbSpline
210
0.0
220
0.0
230
1.0
 70
     8
 71
     3
 72
    10
 73
     6
 74
     0
 42
0.00000001
 43
0.00000001
 12
1.0
 22
0.0
 32
0.0
 13
1.0
 23
0.0
 33
0.0
 40
0.0
 40
0.0
 40
0.0
 40
0.0
 40
0.1352484166085083
 40
0.6781347741991611
 40
1.0
 40
1.0
 40
1.0
 40
1.0
 10
108.9246771570692
 20
143.2817671798571
 30
0.0
 10
108.9327727974184
 20
143.3014479801785
 30
0.0
 10
108.9733642910405
 20
143.400127398516
 30
0.0
 10
109.0331389417987
 20
143.4819291296194
 30
0.0
 10
109.0848475942762
 20
143.5023764748734
 30
0.0
 10
109.1040938349599
 20
143.50998708759
 30
0.0
  0
SPLINE
  5
187
330
1F
100
AcDbEntity
  8
0
  6
Continuous
 62
     8
370
    15
100
AcDbSpline
210
0.0
220
0.0
230
1.0
 70
     8
 71
     3
 72
    10
 73
     6
 74
     0
 42
0.00000001
 43
0.00000001
 12
1.0
 22
0.0
 32
0.0
 13
1.0
 23
0.0
 33
0.0
 40
0.0
 40
0.0
 40
0.0
 40
0.0
 40
0.1836755657553726
 40
0.6223614887134737
 40
1.0
 40
1.0
 40
1.0
 40
1.0
 10
111.1483211185454
 20
135.5445400101348
 30
0.0
 10
111.1619008069299
 20
135.5420104246231
 30
0.0
 10
111.2079138682996
 20
135.5334392431574
 30
0.0
 10
111.2819504881763
 20
135.605363518202
 30
0.0
 10
111.3423585826593
 20
135.7259724699608
 30
0.0
 10
111.3703038724402
 20
135.7817671798571
 30
0.0
  0
SPLINE
  5
188
330
1F
100
AcDbEntity
  8
0
  6
Continuous
 62
     8
370
    15
100
AcDbSpline
210
0.0
220
0.0
230
1.0
 70
     8
 71
     3
 72
    10
 73
     6
 74
     0
 42
0.00000001
 43
0.00000001
 12
1.0
 22
0.0
 32
0.0
 13
1.0
 23
0.0
 33
0.0
 40
0.0
 40
0.0
 40
0.0
 40
0.0
 40
0.3078942756902421
 40
0.800317773359549
 40
1.0
 40
1.0
 40
1.0
 40
1.0
 10
111.5177998600616
 20
136.2025040726454
 30
0.0
 10
111.5380798018035
 20
136.2722643314216
 30
0.0
 10
111.5907939933302
 20
136.4535940259982
 30
0.0
 10
111.65674002513
 20
136.7366841734571
 30
0.0
 10
111.7023811986732
 20
136.9656944865684
 30
0.0
 10
111.7155493185709
 20
137.0317671798571
 30
0.0
  0
SPLINE
  5
189
330
1F
100
AcDbEntity
  8
0
  6
Continuous
 62
     8
370
    15
100
AcDbSpline
210
0.0
220
0.0
230
1.0
 70
     8
 71
     3
 72
    14
 73
    10
 74
     0
 42
0.00000001
 43
0.00000001
 12
1.0
 22
0.0
 32
0.0
 13
1.0
 23
0.0
 33
0.0
 40
0.0
 40
0.0
 40
0.0
 40
0.0
 40
0.1265002777798167
 40
0.2974973613784868
 40
0.4684153382133817
 40
0.6392029410949757
 40
0.8100772434522653
 40
0.9810698684206518
 40
1.0
 40
1.0
 40
1.0
 40
1.0
 10
112.5779105685535
 20
142.0317671798571
 30
0.0
 10
112.6019449413278
 20
142.1484031191735
 30
0.0
 10
112.6584678407887
 20
142.4227019965952
 30
0.0
 10
112.7473726001941
 20
142.7800143300593
 30
0.0
 10
112.844751236604
 20
143.1036872251779
 30
0.0
 10
112.9422193533931
 20
143.34346898781
 30
0.0
 10
113.0396282205572
 20
143.4830658753234
 30
0.0
 10
113.1081013981474
 20
143.5419119549137
 30
0.0
 10
113.1441726630453
 20
143.5269507006299
 30
0.0
 10
113.1477679867609
 20
143.5254594706302
 30
0.0
  0
SPLINE
  5
18A
330
1F
100
AcDbEntity
  8
0
  6
Continuous
 62
     8
370
    15
100
AcDbSpline
210
0.0
220
0.0
230
1.0
 70
     8
 71
     3
 72
    14
 73
    10
 74
     0
 42
0.00000001
 43
0.00000001
 12
1.0
 22
0.0
 32
0.0
 13
1.0
 23
0.0
 33
0.0
 40
0.0
 40
0.0
 40
0.0
 40
0.0
 40
0.0598512257238496
 40
0.2316352636209162
 40
0.4032928322567246
 40
0.5750454822240075
 40
0.7469122368690716
 40
0.9187197829785161
 40
0.9999999999999999
 40
0.9999999999999999
 40
0.9999999999999999
 40
0.9999999999999999
 10
115.1483779171262
 20
135.5440887283736
 30
0.0
 10
115.1596830284594
 20
135.5414190738042
 30
0.0
 10
115.2034358908654
 20
135.5310870190722
 30
0.0
 10
115.2796476583419
 20
135.6074593416745
 30
0.0
 10
115.3771189521661
 20
135.7750610982609
 30
0.0
 10
115.4745174986824
 20
136.0378044171194
 30
0.0
 10
115.5718611627782
 20
136.3823812406318
 30
0.0
 10
115.6521456065251
 20
136.7163727867614
 30
0.0
 10
115.7000149579844
 20
136.9550991786134
 30
0.0
 10
115.7153884048359
 20
137.0317671798571
 30
0.0
  0
SPLINE
  5
18B
330
1F
100
AcDbEntity
  8
0
  6
Continuous
 62
     8
370
    15
100
AcDbSpline
210
0.0
220
0.0
230
1.0
 70
     8
 71
     3
 72
    14
 73
    10
 74
     0
 42
0.00000001
 43
0.00000001
 12
1.0
 22
0.0
 32
0.0
 13
1.0
 23
0.0
 33
0.0
 40
0.0
 40
0.0
 40
0.0
 40
0.0
 40
0.1148149406140996
 40
0.2862342042090862
 40
0.4576829791616358
 40
0.6290016767816358
 40
0.8002634002279448
 40
0.971668366206593
 40
1.0
 40
1.0
 40
1.0
 40
1.0
 10
116.5779419167376
 20
142.0317671798571
 30
0.0
 10
116.5997088529225
 20
142.1382116045278
 30
0.0
 10
116.6539739304781
 20
142.4035780718633
 30
0.0
 10
116.7406357499844
 20
142.7545950132219
 30
0.0
 10
116.8379822274011
 20
143.0832020087231
 30
0.0
 10
116.9353993006902
 20
143.3299103186476
 30
0.0
 10
117.0328640659677
 20
143.4773985400435
 30
0.0
 10
117.1031210016423
 20
143.5396350370752
 30
0.0
 10
117.1409400868622
 20
143.5254879369527
 30
0.0
 10
117.1463045342097
 20
143.5234812418334
 30
0.0
  0
SPLINE
  5
18C
330
1F
100
AcDbEntity
  8
0
  6
Continuous
 62
     8
370
    15
100
AcDbSpline
210
0.0
220
0.0
230
1.0
 70
     8
 71
     3
 72
    14
 73
    10
 74
     0
 42
0.00000001
 43
0.00000001
 12
1.0
 22
0.0
 32
0.0
 13
1.0
 23
0.0
 33
0.0
 40
0.0
 40
0.0
 40
0.0
 40
0.0
 40
0.0151565256597909
 40
0.1863178217349903
 40
0.3573371589773259
 40
0.5283358228276479
 40
0.6994803770571306
 40
0.8706553801583903
 40
1.0
 40
1.0
 40
1.0
 40
1.0
 10
131.1465876102302
 20
135.5373681419588
 30
0.0
 10
131.1494624648499
 20
135.5361474871614
 30
0.0
 10
131.1848027969658
 20
135.5211420863168
 30
0.0
 10
131.2525588894949
 20
135.578687682339
 30
0.0
 10
131.3499973611816
 20
135.7168160373227
 30
0.0
 10
131.4474474012115
 20
135.9561962039728
 30
0.0
 10
131.5448061055041
 20
136.2782515434681
 30
0.0
 10
131.6342372595675
 20
136.636417646604
 30
0.0
 10
131.691287733322
 20
136.9128079132013
 30
0.0
 10
131.7158424421537
 20
137.0317671798571
 30
0.0
  0
SPLINE
  5
18D
330
1F
100
AcDbEntity
  8
0
  6
Continuous
 62
     8
370
    15
100
AcDbSpline
210
0.0
220
0.0
230
1.0
 70
     8
 71
     3
 72
    14
 73
    10
 74
     0
 42
0.00000001
 43
0.00000001
 12
1.0
 22
0.0
 32
0.0
 13
1.0
 23
0.0
 33
0.0
 40
0.0
 40
0.0
 40
0.0
 40
0.0
 40
0.0670558936160404
 40
0.2388194202732726
 40
0.4106920549274541
 40
0.5824986472864618
 40
0.7541668497297016
 40
0.9259048688663437
 40
1.0
 40
1.0
 40
1.0
 40
1.0
 10
132.5781037998774
 20
142.0317671798571
 30
0.0
 10
132.5907865029835
 20
142.0955630796573
 30
0.0
 10
132.6359559227012
 20
142.3227720389969
 30
0.0
 10
132.7135792601459
 20
142.6488667744506
 30
0.0
 10
132.810920952291
 20
142.9998718115341
 30
0.0
 10
132.9082907109504
 20
143.2691742869558
 30
0.0
 10
133.0057553821445
 20
143.4461209885553
 30
0.0
 10
133.0846898033716
 20
143.5294464766486
 30
0.0
 10
133.1311229635422
 20
143.5211817480284
 30
0.0
 10
133.1451181106085
 20
143.5186907245427
 30
0.0
  0
SPLINE
  5
18E
330
1F
100
AcDbEntity
  8
0
  6
Continuous
 62
     8
370
    15
100
AcDbSpline
210
0.0
220
0.0
230
1.0
 70
     8
 71
     3
 72
    13
 73
     9
 74
     0
 42
0.00000001
 43
0.00000001
 12
1.0
 22
0.0
 32
0.0
 13
1.0
 23
0.0
 33
0.0
 40
0.0
 40
0.0
 40
0.0
 40
0.0
 40
0.1717002692421061
 40
0.3433277414538157
 40
0.5148203226147007
 40
0.6863915255602335
 40
0.8580860436211394
 40
1.0
 40
1.0
 40
1.0
 40
1.0
 10
135.1484408904674
 20
135.5333619087222
 30
0.0
 10
135.1809044641026
 20
135.5430796652965
 30
0.0
 10
135.245817847552
 20
135.5625110583361
 30
0.0
 10
135.3431861338165
 20
135.707337622117
 30
0.0
 10
135.440655272856
 20
135.935416922182
 30
0.0
 10
135.5380649287811
 20
136.2531820861532
 30
0.0
 10
135.6297788318277
 20
136.6172236733648
 30
0.0
 10
135.6890996493968
 20
136.9026198423884
 30
0.0
 10
135.7159434773
 20
137.0317671798571
 30
0.0
  0
SPLINE
  5
18F
330
1F
100
AcDbEntity
  8
0
  6
Continuous
 62
     8
370
    15
100
AcDbSpline
210
0.0
220
0.0
230
1.0
 70
     8
 71
     3
 72
    14
 73
    10
 74
     0
 42
0.00000001
 43
0.00000001
 12
1.0
 22
0.0
 32
0.0
 13
1.0
 23
0.0
 33
0.0
 40
0.0
 40
0.0
 40
0.0
 40
0.0
 40
0.0553209406084304
 40
0.2264480704991003
 40
0.3977194748571335
 40
0.5690356225193176
 40
0.7402287268208392
 40
0.9113433825998553
 40
1.0
 40
1.0
 40
1.0
 40
1.0
 10
136.5779002955103
 20
142.0317671798571
 30
0.0
 10
136.5883923247207
 20
142.0849456956599
 30
0.0
 10
136.6313398911249
 20
142.3026240677754
 30
0.0
 10
136.7068254283535
 20
142.6226000715565
 30
0.0
 10
136.8041824283535
 20
142.9783321580068
 30
0.0
 10
136.9015276553812
 20
143.252262864388
 30
0.0
 10
136.9989316503083
 20
143.4369920174371
 30
0.0
 10
137.080735661617
 20
143.5279515035938
 30
0.0
 10
137.1299749536446
 20
143.5212099417579
 30
0.0
 10
137.1467796950655
 20
143.5189091328152
 30
0.0
  0
SPLINE
  5
190
330
1F
100
AcDbEntity
  8
0
  6
Continuous
 62
     8
370
    15
100
AcDbSpline
210
0.0
220
0.0
230
1.0
 70
     8
 71
     3
 72
    13
 73
     9
 74
     0
 42
0.00000001
 43
0.00000001
 12
1.0
 22
0.0
 32
0.0
 13
1.0
 23
0.0
 33
0.0
 40
0.0
 40
0.0
 40
0.0
 40
0.0
 40
0.1643026041617785
 40
0.3349868116340482
 40
0.5055443000800427
 40
0.6760324517540713
 40
0.8466580420487516
 40
1.0
 40
1.0
 40
1.0
 40
1.0
 10
139.1452906892972
 20
135.5343222263163
 30
0.0
 10
139.176552044681
 20
135.5419610754118
 30
0.0
 10
139.2402889636471
 20
135.5575354706937
 30
0.0
 10
139.3364193344398
 20
135.6959332197038
 30
0.0
 10
139.4338332153013
 20
135.9167531003254
 30
0.0
 10
139.5313003878517
 20
136.2278421713768
 30
0.0
 10
139.6253650463092
 20
136.597798400333
 30
0.0
 10
139.6869808969642
 20
136.892349000504
 30
0.0
 10
139.7161452229328
 20
137.0317671798571
 30
0.0
  0
SPLINE
  5
191
330
1F
100
AcDbEntity
  8
0
  6
Continuous
 62
     8
370
    15
100
AcDbSpline
210
0.0
220
0.0
230
1.0
 70
     8
 71
     3
 72
    14
 73
    10
 74
     0
 42
0.00000001
 43
0.00000001
 12
1.0
 22
0.0
 32
0.0
 13
1.0
 23
0.0
 33
0.0
 40
0.0
 40
0.0
 40
0.0
 40
0.0
 40
0.0438372634868441
 40
0.2152710225532787
 40
0.3867656693366834
 40
0.5583913146031848
 40
0.7299864308369703
 40
0.9014352726147133
 40
1.0
 40
1.0
 40
1.0
 40
1.0
 10
140.5777224244564
 20
142.0317671798571
 30
0.0
 10
140.5860164841095
 20
142.0740501144186
 30
0.0
 10
140.6267460041709
 20
142.2816883161581
 30
0.0
 10
140.7000284837229
 20
142.5960911508693
 30
0.0
 10
140.7974391889668
 20
142.9570058328866
 30
0.0
 10
140.8947862137201
 20
143.2355372816154
 30
0.0
 10
140.9921397762458
 20
143.4261295196447
 30
0.0
 10
141.0757911515324
 20
143.525425686043
 30
0.0
 10
141.1269109839438
 20
143.5212271535733
 30
0.0
 10
141.1455715733402
 20
143.5196945372326
 30
0.0
  0
SPLINE
  5
192
330
1F
100
AcDbEntity
  8
0
  6
Continuous
 62
     8
370
    15
100
AcDbSpline
210
0.0
220
0.0
230
1.0
 70
     8
 71
     3
 72
    21
 73
    17
 74
     0
 42
0.00000001
 43
0.00000001
 12
1.0
 22
0.0
 32
0.0
 13
1.0
 23
0.0
 33
0.0
 40
0.0
 40
0.0
 40
0.0
 40
0.0
 40
0.0743072158764927
 40
0.148565002527825
 40
0.2228751837053374
 40
0.2972411908490165
 40
0.3715832254670534
 40
0.4458628081909497
 40
0.5201672310008666
 40
0.5945283657852046
 40
0.6688766340284147
 40
0.7431616300151661
 40
0.8174555184234038
 40
0.8918110222319396
 40
0.9661663112996371
 40
1.0
 40
1.0
 40
1.0
 40
1.0
 10
142.4531290960135
 20
137.4499088654021
 30
0.0
 10
142.4206706995472
 20
137.6577322165073
 30
0.0
 10
142.3557754979683
 20
138.0732406744421
 30
0.0
 10
142.2582957739911
 20
138.7442784928974
 30
0.0
 10
142.1609017972063
 20
139.4306151659595
 30
0.0
 10
142.0635623892626
 20
140.1201143535753
 30
0.0
 10
141.9661981654333
 20
140.7959803442969
 30
0.0
 10
141.8687338617762
 20
141.4424093516151
 30
0.0
 10
141.7713161510852
 20
142.0427762007435
 30
0.0
 10
141.6739711018873
 20
142.5850514051009
 30
0.0
 10
141.5766147476108
 20
143.0575369931132
 30
0.0
 10
141.4791631875186
 20
143.4475118902448
 30
0.0
 10
141.3817290232196
 20
143.744601137205
 30
0.0
 10
141.2843764698523
 20
143.9379960895513
 30
0.0
 10
141.2046987568703
 20
144.0321075686284
 30
0.0
 10
141.1574151216204
 20
144.0213194599019
 30
0.0
 10
141.142628219769
 20
144.0179457196203
 30
0.0
  0
SPLINE
  5
193
330
1F
100
AcDbEntity
  8
0
  6
Continuous
 62
     8
370
    15
100
AcDbSpline
210
0.0
220
0.0
230
1.0
 70
     8
 71
     3
 72
    28
 73
    24
 74
     0
 42
0.00000001
 43
0.00000001
 12
1.0
 22
0.0
 32
0.0
 13
1.0
 23
0.0
 33
0.0
 40
0.0
 40
0.0
 40
0.0
 40
0.0
 40
0.0487366507637923
 40
0.0974821802962333
 40
0.1462677312302458
 40
0.1950511357630773
 40
0.2437934501043493
 40
0.2925327452745941
 40
0.3413136713427471
 40
0.3901010905076451
 40
0.4388500799948902
 40
0.4875844500058347
 40
0.536359683086876
 40
0.5851497988740442
 40
0.6339059768804592
 40
0.6826372873135114
 40
0.7314059922406477
 40
0.7801973868800584
 40
0.8289608332903344
 40
0.8776912844301801
 40
0.9264529123272781
 40
0.9752441216408474
 40
1.0
 40
1.0
 40
1.0
 40
1.0
 10
139.1416702587631
 20
135.0328505098792
 30
0.0
 10
139.1092052027415
 20
135.0443508166416
 30
0.0
 10
139.044269176264
 20
135.0673535252748
 30
0.0
 10
138.9468314659339
 20
135.2376731993421
 30
0.0
 10
138.849485398348
 20
135.4997437627834
 30
0.0
 10
138.7521340223373
 20
135.8561595838253
 30
0.0
 10
138.6546947617442
 20
136.2974361259595
 30
0.0
 10
138.5572468987973
 20
136.8169403072868
 30
0.0
 10
138.4598924910065
 20
137.3994288733638
 30
0.0
 10
138.3625468921854
 20
138.0307347723236
 30
0.0
 10
138.2651254981785
 20
138.696858843782
 30
0.0
 10
138.1676636675076
 20
139.3831573135581
 30
0.0
 10
138.0703001334576
 20
140.0727287633079
 30
0.0
 10
137.9729577520328
 20
140.749860375735
 30
0.0
 10
137.8755544618406
 20
141.3991202089158
 30
0.0
 10
137.7780838073351
 20
142.0037722228462
 30
0.0
 10
137.6807081456602
 20
142.5497866420919
 30
0.0
 10
137.5833672702811
 20
143.0266664635923
 30
0.0
 10
137.4859804278516
 20
143.4230382502577
 30
0.0
 10
137.3885082197699
 20
143.7283900755901
 30
0.0
 10
137.291114082993
 20
143.9282667117675
 30
0.0
 10
137.2097595703029
 20
144.0278438954254
 30
0.0
 10
137.1607962393976
 20
144.0199456342494
 30
0.0
 10
137.1443152297165
 20
144.0172870872001
 30
0.0
  0
SPLINE
  5
194
330
1F
100
AcDbEntity
  8
0
  6
Continuous
 62
     8
370
    15
100
AcDbSpline
210
0.0
220
0.0
230
1.0
 70
     8
 71
     3
 72
    28
 73
    24
 74
     0
 42
0.00000001
 43
0.00000001
 12
1.0
 22
0.0
 32
0.0
 13
1.0
 23
0.0
 33
0.0
 40
0.0
 40
0.0
 40
0.0
 40
0.0
 40
0.0474930556211538
 40
0.0960828918020184
 40
0.1447056280432708
 40
0.1933562318671861
 40
0.2419842114514994
 40
0.2905749044460212
 40
0.3391903932568575
 40
0.3878397219187126
 40
0.4364742108194732
 40
0.4850679545632371
 40
0.5336762755978255
 40
0.5823229154186726
 40
0.6309630808790396
 40
0.6795617355702289
 40
0.7281634007204328
 40
0.7768060374937199
 40
0.8254508144746029
 40
0.8740556855383252
 40
0.9226517034536653
 40
0.9712891746852138
 40
1.0
 40
1.0
 40
1.0
 40
1.0
 10
135.1461813732519
 20
135.0347076814136
 30
0.0
 10
135.1144757139912
 20
135.0435907618792
 30
0.0
 10
135.0503322010416
 20
135.0615620641693
 30
0.0
 10
134.9536083093048
 20
135.221929877573
 30
0.0
 10
134.8562229604237
 20
135.4781506054808
 30
0.0
 10
134.758881684572
 20
135.8294392454914
 30
0.0
 10
134.6615061301556
 20
136.2650720274775
 30
0.0
 10
134.5640354469323
 20
136.7782275839897
 30
0.0
 10
134.4666321644334
 20
137.357199226497
 30
0.0
 10
134.3692897809586
 20
137.9860623118867
 30
0.0
 10
134.2719262474084
 20
138.6503721163236
 30
0.0
 10
134.1744644167903
 20
139.3355621897851
 30
0.0
 10
134.077043022079
 20
140.0254039955314
 30
0.0
 10
133.9796974260337
 20
140.7036689719162
 30
0.0
 10
133.8823430078565
 20
141.3551184837664
 30
0.0
 10
133.7848951836548
 20
141.9643274631494
 30
0.0
 10
133.687455778438
 20
142.5147815448596
 30
0.0
 10
133.5901049426265
 20
142.9959560757262
 30
0.0
 10
133.4927568590939
 20
143.3974762893762
 30
0.0
 10
133.3953266659581
 20
143.7108933986426
 30
0.0
 10
133.2978698374064
 20
143.9189162973067
 30
0.0
 10
133.2138219422957
 20
144.0248798986509
 30
0.0
 10
133.162203571328
 20
144.0192658896804
 30
0.0
 10
133.1430434075226
 20
144.0171820321416
 30
0.0
  0
SPLINE
  5
195
330
1F
100
AcDbEntity
  8
0
  6
Continuous
 62
     8
370
    15
100
AcDbSpline
210
0.0
220
0.0
230
1.0
 70
     8
 71
     3
 72
    19
 73
    15
 74
     0
 42
0.00000001
 43
0.00000001
 12
1.0
 22
0.0
 32
0.0
 13
1.0
 23
0.0
 33
0.0
 40
0.0
 40
0.0
 40
0.0
 40
0.0
 40
0.0777905831451392
 40
0.1616049709984025
 40
0.2454093268977582
 40
0.3292850631697887
 40
0.4131753147847369
 40
0.4970015869859893
 40
0.5807998359319002
 40
0.6646685397616368
 40
0.7485642881115221
 40
0.8323970565948214
 40
0.9161707163784466
 40
1.0
 40
1.0
 40
1.0
 40
1.0
 10
131.1481362799166
 20
135.0373882545141
 30
0.0
 10
131.1180350559139
 20
135.044064041319
 30
0.0
 10
131.0555016844531
 20
135.057932562281
 30
0.0
 10
130.9604263424821
 20
135.2074968034675
 30
0.0
 10
130.8629752704408
 20
135.4563162197997
 30
0.0
 10
130.7656187852827
 20
135.8024331768761
 30
0.0
 10
130.6682737711648
 20
136.2333086882994
 30
0.0
 10
130.5708560510822
 20
136.7405514817297
 30
0.0
 10
130.4733917499416
 20
137.31498827257
 30
0.0
 10
130.3760275254415
 20
137.9413071311158
 30
0.0
 10
130.2786881176729
 20
138.6040940701565
 30
0.0
 10
130.181294140869
 20
139.287771792847
 30
0.0
 10
130.0838144709116
 20
139.9792180191686
 30
0.0
 10
130.018919323559
 20
140.4282131299094
 30
0.0
 10
129.9864609812259
 20
140.6527851912245
 30
0.0
  0
DIMENSION
  5
196
330
1F
100
AcDbEntity
  8
0
  6
Continuous
 62
     7
370
     0
100
AcDbDimension
  2
_D_3
 10
82.0177998601
 20
136.0317671799
 30
0.0
 11
82.0177998601
 21
139.5317671799
 31
0.0
 70
   160
  1
%%c<>
 71
     2
 42
-1.0
  3
SLDDIMSTYLE2
100
AcDbAlignedDimension
 13
92.0177998601
 23
143.0317671799
 33
0.0
 14
92.0177998601
 24
136.0317671799
 34
0.0
 50
90.0
100
AcDbRotatedDimension
  0
DIMENSION
  5
1A4
330
1F
100
AcDbEntity
  8
0
  6
Continuous
 62
     7
370
     0
100
AcDbDimension
  2
_D_4
 10
92.0177998601
 20
157.0572838065
 30
0.0
 11
103.6705092739
 21
157.0572838065
 31
0.0
 70
   160
  1
<>
 71
     2
 42
-1.0
  3
SLDDIMSTYLE2
100
AcDbAlignedDimension
 13
97.5177998601
 23
145.5317671799
 33
0.0
 14
92.0177998601
 24
143.0317671799
 34
0.0
100
AcDbRotatedDimension
  0
DIMENSION
  5
1B0
330
1F
100
AcDbEntity
  8
0
  6
Continuous
 62
     7
370
     0
100
AcDbDimension
  2
_D_5
 10
165.5177998601
 20
167.7686035626
 30
0.0
 11
128.7677998601
 21
167.7686035626
 31
0.0
 70
   160
  1
<>
 71
     2
 42
-1.0
  3
SLDDIMSTYLE0
100
AcDbAlignedDimension
 13
92.0177998601
 23
143.0317671799
 33
0.0
 14
165.5177998601
 24
141.5317671799
 34
0.0
100
AcDbRotatedDimension
  0
DIMENSION
  5
1BA
330
1F
100
AcDbEntity
  8
0
  6
Continuous
 62
     7
370
     0
100
AcDbDimension
  2
_D_6
 10
163.5177998601
 20
116.9330632805
 30
0.0
 11
154.5177998601
 21
116.9330632805
 31
0.0
 70
   160
  1
<>
 71
     2
 42
-1.0
  3
SLDDIMSTYLE0
100
AcDbAlignedDimension
 13
145.5177998601
 23
131.8317671799
 33
0.0
 14
163.5177998601
 24
133.8317671799
 34
0.0
100
AcDbRotatedDimension
  0
DIMENSION
  5
1C4
330
1F
100
AcDbEntity
  8
0
  6
Continuous
 62
     7
370
     0
100
AcDbDimension
  2
_D_7
 10
111.5177998601
 20
116.9330632805
 30
0.0
 11
126.5177998601
 21
116.9330632805
 31
0.0
 70
   160
  1
<>st
 71
     2
 42
-1.0
  3
SLDDIMSTYLE0
100
AcDbAlignedDimension
 13
141.5177998601
 23
136.0817671799
 33
0.0
 14
111.5177998601
 24
135.7817671799
 34
0.0
100
AcDbRotatedDimension
  0
DIMENSION
  5
1CF
330
1F
100
AcDbEntity
  8
0
  6
Continuous
 62
     7
370
     0
100
AcDbDimension
  2
_D_8
 10
172.6625172188
 20
137.0317671799
 30
0.0
 11
172.6625172188
 21
127.6595871311
 31
0.0
 70
   160
  1
%%c<>
 71
     2
 42
-1.0
  3
SLDDIMSTYLE2
100
AcDbAlignedDimension
 13
165.0177998601
 23
142.0317671799
 33
0.0
 14
165.0177998601
 24
137.0317671799
 34
0.0
 50
90.0
100
AcDbRotatedDimension
  0
DIMENSION
  5
1DC
330
1F
100
AcDbEntity
  8
0
  6
Continuous
 62
     7
370
     0
100
AcDbDimension
  2
_D_9
 10
183.2160276495
 20
133.5317671799
 30
0.0
 11
183.2160276495
 21
139.5317671799
 31
0.0
 70
   160
  1
%%c<>
 71
     2
 42
-1.0
  3
SLDDIMSTYLE0
100
AcDbAlignedDimension
 13
163.2177998601
 23
145.5317671799
 33
0.0
 14
163.2177998601
 24
133.5317671799
 34
0.0
 50
90.0
100
AcDbRotatedDimension
  0
MTEXT
  5
1E7
330
1F
100
AcDbEntity
  8
0
  6
Continuous
 62
     7
370
     0
100
AcDbMText
 10
71.513309119
 20
121.8533604589
 30
0.0
 40
3.5
 41
0.0
 71
     1
 72
     1
  1
BF-6
  7
SLDTEXTSTYLE1
 73
     1
 44
1.0
  0
LEADER
  5
1E8
330
1F
100
AcDbEntity
  8
0
  6
Continuous
 62
     7
370
     0
100
AcDbLeader
  3
SLDDIMSTYLE1
 76
     3
 10
101.0378493319
 20
126.4112599208
 30
0.0
 10
81.0392731536
 20
117.2332942556
 30
0.0
 10
71.5123094959
 20
117.2332942556
 30
0.0
  0
ENDSEC
  0
SECTION
  2
OBJECTS
  0
DICTIONARY
  5
C
330
0
100
AcDbDictionary
281
     1
  3
ACAD_GROUP
350
D
  3
ACAD_LAYOUT
350
1A
  3
ACAD_MLINESTYLE
350
17
  3
ACAD_PLOTSETTINGS
350
19
  3
ACAD_PLOTSTYLENAME
350
E
  0
DICTIONARY
  5
D
102
{ACAD_REACTORS
330
C
102
}
330
C
100
AcDbDictionary
281
     1
  0
DICTIONARY
  5
1A
102
{ACAD_REACTORS
330
C
102
}
330
C
100
AcDbDictionary
281
     1
  3
Layout1
350
1E
  3
Layout2
350
26
  3
Model
350
22
  0
DICTIONARY
  5
17
102
{ACAD_REACTORS
330
C
102
}
330
C
100
AcDbDictionary
281
     1
  3
Standard
350
18
  0
DICTIONARY
  5
19
102
{ACAD_REACTORS
330
C
102
}
330
C
100
AcDbDictionary
281
     1
  0
ACDBDICTIONARYWDFLT
  5
E
102
{ACAD_REACTORS
330
C
102
}
330
C
100
AcDbDictionary
281
     1
  3
Normal
350
F
100
AcDbDictionaryWithDefault
340
F
  0
LAYOUT
  5
1E
102
{ACAD_REACTORS
330
1A
102
}
330
1A
100
AcDbPlotSettings
  1

  2
none_device
  4

  6

 40
0.0
 41
0.0
 42
0.0
 43
0.0
 44
0.0
 45
0.0
 46
0.0
 47
0.0
 48
0.0
 49
0.0
140
0.0
141
0.0
142
1.0
143
1.0
 70
   688
 72
     0
 73
     0
 74
     5
  7

 75
    16
147
1.0
148
0.0
149
0.0
100
AcDbLayout
  1
Layout1
 70
     1
 71
     1
 10
0.0
 20
0.0
 11
420.0
 21
297.0
 12
0.0
 22
0.0
 32
0.0
 14
1.0000000000E+20
 24
1.0000000000E+20
 34
1.0000000000E+20
 15
-1.0000000000E+20
 25
-1.0000000000E+20
 35
-1.0000000000E+20
146
0.0
 13
0.0
 23
0.0
 33
0.0
 16
1.0
 26
0.0
 36
0.0
 17
0.0
 27
1.0
 37
0.0
 76
     0
330
1B
  0
LAYOUT
  5
26
102
{ACAD_REACTORS
330
1A
102
}
330
1A
100
AcDbPlotSettings
  1

  2
none_device
  4

  6

 40
0.0
 41
0.0
 42
0.0
 43
0.0
 44
0.0
 45
0.0
 46
0.0
 47
0.0
 48
0.0
 49
0.0
140
0.0
141
0.0
142
1.0
143
1.0
 70
   688
 72
     0
 73
     0
 74
     5
  7

 75
    16
147
1.0
148
0.0
149
0.0
100
AcDbLayout
  1
Layout2
 70
     1
 71
     2
 10
0.0
 20
0.0
 11
0.0
 21
0.0
 12
0.0
 22
0.0
 32
0.0
 14
0.0
 24
0.0
 34
0.0
 15
0.0
 25
0.0
 35
0.0
146
0.0
 13
0.0
 23
0.0
 33
0.0
 16
1.0
 26
0.0
 36
0.0
 17
0.0
 27
1.0
 37
0.0
 76
     0
330
23
  0
LAYOUT
  5
22
102
{ACAD_REACTORS
330
1A
102
}
330
1A
100
AcDbPlotSettings
  1

  2
none_device
  4

  6

 40
0.0
 41
0.0
 42
0.0
 43
0.0
 44
0.0
 45
0.0
 46
0.0
 47
0.0
 48
0.0
 49
0.0
140
0.0
141
0.0
142
1.0
143
1.0
 70
  1712
 72
     0
 73
     0
 74
     0
  7

 75
     0
147
1.0
148
0.0
149
0.0
100
AcDbLayout
  1
Model
 70
     1
 71
     0
 10
0.0
 20
0.0
 11
210.0
 21
297.0
 12
0.0
 22
0.0
 32
0.0
 14
0.0
 24
0.0
 34
0.0
 15
210.0
 25
297.0
 35
0.0
146
0.0
 13
0.0
 23
0.0
 33
0.0
 16
1.0
 26
0.0
 36
0.0
 17
0.0
 27
1.0
 37
0.0
 76
     0
330
1F
331
29
  0
MLINESTYLE
  5
18
102
{ACAD_REACTORS
330
17
102
}
330
17
100
AcDbMlineStyle
  2
Standard
 70
     0
  3

 62
   256
 51
90.0
 52
90.0
 71
     2
 49
0.5
 62
   256
  6
BYLAYER
 49
-0.5
 62
   256
  6
BYLAYER
  0
ACDBPLACEHOLDER
  5
F
102
{ACAD_REACTORS
330
E
102
}
330
E
  0
ENDSEC
  0
EOF
