  0
SECTION
  2
HEADER
  9
$ACADVER
  1
AC1015
  9
$ACADMAINTVER
 70
     6
  9
$DWGCODEPAGE
  3
DOS932
  9
$INSBASE
 10
0.0
 20
0.0
 30
0.0
  9
$EXTMIN
 10
0.0
 20
0.0
 30
0.0
  9
$EXTMAX
 10
210.0
 20
297.0
 30
0.0
  9
$LIMMIN
 10
0.0
 20
0.0
  9
$LIMMAX
 10
210.0
 20
297.0
  9
$ORTHOMODE
 70
     0
  9
$REGENMODE
 70
     1
  9
$FILLMODE
 70
     1
  9
$QTEXTMODE
 70
     0
  9
$MIRRTEXT
 70
     1
  9
$LTSCALE
 40
1.0
  9
$ATTMODE
 70
     1
  9
$TEXTSIZE
 40
3.5
  9
$TRACEWID
 40
1.0
  9
$TEXTSTYLE
  7
Standard
  9
$CLAYER
  8
0
  9
$CELTYPE
  6
ByLayer
  9
$CECOLOR
 62
   256
  9
$CELTSCALE
 40
1.0
  9
$DISPSILH
 70
     0
  9
$DIMSCALE
 40
1.0
  9
$DIMASZ
 40
3.302
  9
$DIMEXO
 40
1.0
  9
$DIMDLI
 40
3.75
  9
$DIMRND
 40
0.0
  9
$DIMDLE
 40
0.0
  9
$DIMEXE
 40
1.0
  9
$DIMTP
 40
0.0
  9
$DIMTM
 40
0.0
  9
$DIMTXT
 40
3.5
  9
$DIMCEN
 40
2.5
  9
$DIMTSZ
 40
0.0
  9
$DIMTOL
 70
     0
  9
$DIMLIM
 70
     0
  9
$DIMTIH
 70
     1
  9
$DIMTOH
 70
     1
  9
$DIMSE1
 70
     0
  9
$DIMSE2
 70
     0
  9
$DIMTAD
 70
     1
  9
$DIMZIN
 70
     0
  9
$DIMBLK
  1

  9
$DIMASO
 70
     1
  9
$DIMSHO
 70
     1
  9
$DIMPOST
  1

  9
$DIMAPOST
  1

  9
$DIMALT
 70
     0
  9
$DIMALTD
 70
     3
  9
$DIMALTF
 40
0.0393700787
  9
$DIMLFAC
 40
1.0
  9
$DIMTOFL
 70
     1
  9
$DIMTVP
 40
0.0
  9
$DIMTIX
 70
     0
  9
$DIMSOXD
 70
     0
  9
$DIMSAH
 70
     0
  9
$DIMBLK1
  1

  9
$DIMBLK2
  1

  9
$DIMSTYLE
  2
ISO-25
  9
$DIMCLRD
 70
     0
  9
$DIMCLRE
 70
     0
  9
$DIMCLRT
 70
     0
  9
$DIMTFAC
 40
1.0
  9
$DIMGAP
 40
1.524
  9
$DIMJUST
 70
     0
  9
$DIMSD1
 70
     0
  9
$DIMSD2
 70
     0
  9
$DIMTOLJ
 70
     0
  9
$DIMTZIN
 70
     0
  9
$DIMALTZ
 70
     0
  9
$DIMALTTZ
 70
     0
  9
$DIMUPT
 70
     0
  9
$DIMDEC
 70
     2
  9
$DIMTDEC
 70
     2
  9
$DIMALTU
 70
     2
  9
$DIMALTTD
 70
     3
  9
$DIMTXSTY
  7
Standard
  9
$DIMAUNIT
 70
     0
  9
$DIMADEC
 70
     2
  9
$DIMALTRND
 40
0.0
  9
$DIMAZIN
 70
     0
  9
$DIMDSEP
 70
    44
  9
$DIMATFIT
 70
     3
  9
$DIMFRAC
 70
     0
  9
$DIMLDRBLK
  1

  9
$DIMLUNIT
 70
     2
  9
$DIMLWD
 70
    -2
  9
$DIMLWE
 70
    -2
  9
$DIMTMOVE
 70
     0
  9
$LUNITS
 70
     2
  9
$LUPREC
 70
     2
  9
$SKETCHINC
 40
1.0
  9
$FILLETRAD
 40
10.0
  9
$AUNITS
 70
     0
  9
$AUPREC
 70
     2
  9
$MENU
  1
.
  9
$ELEVATION
 40
0.0
  9
$PELEVATION
 40
0.0
  9
$THICKNESS
 40
0.0
  9
$LIMCHECK
 70
     0
  9
$CHAMFERA
 40
10.0
  9
$CHAMFERB
 40
10.0
  9
$CHAMFERC
 40
20.0
  9
$CHAMFERD
 40
0.0
  9
$SKPOLY
 70
     0
  9
$TDCREATE
 40
2456878.461089341
  9
$TDUCREATE
 40
2456878.086089341
  9
$TDUPDATE
 40
2456878.461091504
  9
$TDUUPDATE
 40
2456878.086091504
  9
$TDINDWG
 40
0.0000000116
  9
$TDUSRTIMER
 40
0.0000000116
  9
$USRTIMER
 70
     1
  9
$ANGBASE
 50
0.0
  9
$ANGDIR
 70
     0
  9
$PDMODE
 70
     0
  9
$PDSIZE
 40
-1.0
  9
$PLINEWID
 40
0.0
  9
$SPLFRAME
 70
     0
  9
$SPLINETYPE
 70
     6
  9
$SPLINESEGS
 70
     8
  9
$HANDSEED
  5
31D
  9
$SURFTAB1
 70
     6
  9
$SURFTAB2
 70
     6
  9
$SURFTYPE
 70
     6
  9
$SURFU
 70
     6
  9
$SURFV
 70
     6
  9
$UCSBASE
  2

  9
$UCSNAME
  2

  9
$UCSORG
 10
0.0
 20
0.0
 30
0.0
  9
$UCSXDIR
 10
1.0
 20
0.0
 30
0.0
  9
$UCSYDIR
 10
0.0
 20
1.0
 30
0.0
  9
$UCSORTHOREF
  2

  9
$UCSORTHOVIEW
 70
     0
  9
$UCSORGTOP
 10
0.0
 20
0.0
 30
0.0
  9
$UCSORGBOTTOM
 10
0.0
 20
0.0
 30
0.0
  9
$UCSORGLEFT
 10
0.0
 20
0.0
 30
0.0
  9
$UCSORGRIGHT
 10
0.0
 20
0.0
 30
0.0
  9
$UCSORGFRONT
 10
0.0
 20
0.0
 30
0.0
  9
$UCSORGBACK
 10
0.0
 20
0.0
 30
0.0
  9
$PUCSBASE
  2

  9
$PUCSNAME
  2

  9
$PUCSORG
 10
0.0
 20
0.0
 30
0.0
  9
$PUCSXDIR
 10
1.0
 20
0.0
 30
0.0
  9
$PUCSYDIR
 10
0.0
 20
1.0
 30
0.0
  9
$PUCSORTHOREF
  2

  9
$PUCSORTHOVIEW
 70
     0
  9
$PUCSORGTOP
 10
0.0
 20
0.0
 30
0.0
  9
$PUCSORGBOTTOM
 10
0.0
 20
0.0
 30
0.0
  9
$PUCSORGLEFT
 10
0.0
 20
0.0
 30
0.0
  9
$PUCSORGRIGHT
 10
0.0
 20
0.0
 30
0.0
  9
$PUCSORGFRONT
 10
0.0
 20
0.0
 30
0.0
  9
$PUCSORGBACK
 10
0.0
 20
0.0
 30
0.0
  9
$USERI1
 70
     0
  9
$USERI2
 70
     0
  9
$USERI3
 70
     0
  9
$USERI4
 70
     0
  9
$USERI5
 70
     0
  9
$USERR1
 40
0.0
  9
$USERR2
 40
0.0
  9
$USERR3
 40
0.0
  9
$USERR4
 40
0.0
  9
$USERR5
 40
0.0
  9
$WORLDVIEW
 70
     1
  9
$SHADEDGE
 70
     3
  9
$SHADEDIF
 70
    70
  9
$TILEMODE
 70
     1
  9
$MAXACTVP
 70
    64
  9
$PINSBASE
 10
0.0
 20
0.0
 30
0.0
  9
$PLIMCHECK
 70
     0
  9
$PEXTMIN
 10
1.0000000000E+20
 20
1.0000000000E+20
 30
1.0000000000E+20
  9
$PEXTMAX
 10
-1.0000000000E+20
 20
-1.0000000000E+20
 30
-1.0000000000E+20
  9
$PLIMMIN
 10
0.0
 20
0.0
  9
$PLIMMAX
 10
420.0
 20
297.0
  9
$UNITMODE
 70
     0
  9
$VISRETAIN
 70
     1
  9
$PLINEGEN
 70
     0
  9
$PSLTSCALE
 70
     1
  9
$TREEDEPTH
 70
  3020
  9
$CMLSTYLE
  2
Standard
  9
$CMLJUST
 70
     0
  9
$CMLSCALE
 40
20.0
  9
$PROXYGRAPHICS
 70
     1
  9
$MEASUREMENT
 70
     1
  9
$CELWEIGHT
370
    -1
  9
$ENDCAPS
280
     0
  9
$JOINSTYLE
280
     0
  9
$LWDISPLAY
290
     1
  9
$INSUNITS
 70
     4
  9
$HYPERLINKBASE
  1

  9
$STYLESHEET
  1

  9
$XEDIT
290
     1
  9
$CEPSNTYPE
380
     0
  9
$PSTYLEMODE
290
     1
  9
$FINGERPRINTGUID
  2
{E43995A2-8402-412A-B438-F98C346858E0}
  9
$VERSIONGUID
  2
{FAEB1C32-E019-11D5-929B-00C0DF256EC4}
  9
$EXTNAMES
290
     1
  9
$PSVPSCALE
 40
0.0
  9
$OLESTARTUP
290
     0
  0
ENDSEC
  0
SECTION
  2
CLASSES
  0
CLASS
  1
ACDBDICTIONARYWDFLT
  2
AcDbDictionaryWithDefault
  3
ObjectDBX Classes
 90
        0
280
     0
281
     0
  0
CLASS
  1
VISUALSTYLE
  2
AcDbVisualStyle
  3
ObjectDBX Classes
 90
     4095
280
     0
281
     0
  0
CLASS
  1
MATERIAL
  2
AcDbMaterial
  3
ObjectDBX Classes
 90
     1153
280
     0
281
     0
  0
CLASS
  1
ACDBPLACEHOLDER
  2
AcDbPlaceHolder
  3
ObjectDBX Classes
 90
        0
280
     0
281
     0
  0
CLASS
  1
LAYOUT
  2
AcDbLayout
  3
ObjectDBX Classes
 90
        0
280
     0
281
     0
  0
ENDSEC
  0
SECTION
  2
TABLES
  0
TABLE
  2
VPORT
  5
8
330
0
100
AcDbSymbolTable
 70
     1
  0
VPORT
  5
29
330
8
100
AcDbSymbolTableRecord
100
AcDbViewportTableRecord
  2
*Active
 70
     0
 10
0.0
 20
0.0
 11
1.0
 21
1.0
 12
105.0
 22
148.5
 13
0.0
 23
0.0
 14
10.0
 24
10.0
 15
10.0
 25
10.0
 16
0.0
 26
0.0
 36
1.0
 17
0.0
 27
0.0
 37
0.0
 40
297.0
 41
0.7070707071
 42
50.0
 43
0.0
 44
0.0
 50
0.0
 51
0.0
 71
     0
 72
  2000
 73
     1
 74
     3
 75
     0
 76
     0
 77
     0
 78
     0
281
     0
 65
     1
110
0.0
120
0.0
130
0.0
111
1.0
121
0.0
131
0.0
112
0.0
122
1.0
132
0.0
 79
     0
146
0.0
  0
ENDTAB
  0
TABLE
  2
LTYPE
  5
5
330
0
100
AcDbSymbolTable
 70
     6
  0
LTYPE
  5
14
330
5
100
AcDbSymbolTableRecord
100
AcDbLinetypeTableRecord
  2
ByBlock
 70
     0
  3

 72
    65
 73
     0
 40
0.0
  0
LTYPE
  5
15
330
5
100
AcDbSymbolTableRecord
100
AcDbLinetypeTableRecord
  2
ByLayer
 70
     0
  3

 72
    65
 73
     0
 40
0.0
  0
LTYPE
  5
16
330
5
100
AcDbSymbolTableRecord
100
AcDbLinetypeTableRecord
  2
Continuous
 70
     0
  3
Solid line
 72
    65
 73
     0
 40
0.0
  0
LTYPE
  5
3F
330
5
100
AcDbSymbolTableRecord
100
AcDbLinetypeTableRecord
  2
HIDDEN
 70
     0
  3
Hidden __ __ __ __ __ __ __ __ __ __ __ __ __ __
 72
    65
 73
     2
 40
1.905
 49
1.27
 74
     0
 49
-0.635
 74
     0
  0
LTYPE
  5
40
330
5
100
AcDbSymbolTableRecord
100
AcDbLinetypeTableRecord
  2
PHANTOM
 70
     0
  3
Phantom ______  __  __  ______  __  __  ______
 72
    65
 73
     6
 40
12.7
 49
6.35
 74
     0
 49
-1.27
 74
     0
 49
1.27
 74
     0
 49
-1.27
 74
     0
 49
1.27
 74
     0
 49
-1.27
 74
     0
  0
LTYPE
  5
41
330
5
100
AcDbSymbolTableRecord
100
AcDbLinetypeTableRecord
  2
CENTER
 70
     0
  3
Center ____ _ ____ _ ____ _ ____ _ ____ _ ____
 72
    65
 73
     4
 40
10.16
 49
6.35
 74
     0
 49
-1.27
 74
     0
 49
1.27
 74
     0
 49
-1.27
 74
     0
  0
LTYPE
  5
42
330
5
100
AcDbSymbolTableRecord
100
AcDbLinetypeTableRecord
  2
CENTERX2
 70
     0
  3
Center (2x) ________  __  ________  __  _____
 72
    65
 73
     4
 40
20.32
 49
12.7
 74
     0
 49
-2.54
 74
     0
 49
2.54
 74
     0
 49
-2.54
 74
     0
  0
LTYPE
  5
43
330
5
100
AcDbSymbolTableRecord
100
AcDbLinetypeTableRecord
  2
DOT2
 70
     0
  3
Dot (.5x) ........................................
 72
    65
 73
     2
 40
0.635
 49
0.0
 74
     0
 49
-0.635
 74
     0
  0
ENDTAB
  0
TABLE
  2
LAYER
  5
2
330
0
100
AcDbSymbolTable
 70
     1
  0
LAYER
  5
10
330
2
100
AcDbSymbolTableRecord
100
AcDbLayerTableRecord
  2
0
 70
     0
 62
     7
  6
Continuous
370
    -3
390
F
  0
ENDTAB
  0
TABLE
  2
STYLE
  5
3
330
0
100
AcDbSymbolTable
 70
     3
  0
STYLE
  5
11
330
3
100
AcDbSymbolTableRecord
100
AcDbTextStyleTableRecord
  2
Standard
 70
     0
 40
0.0
 41
1.0
 50
0.0
 71
     0
 42
3.5
  3
txt
  4
bigfont
  0
STYLE
  5
4C
330
3
100
AcDbSymbolTableRecord
100
AcDbTextStyleTableRecord
  2
SLDTEXTSTYLE0
 70
     0
 40
0.0
 41
0.7
 50
0.0
 71
     0
 42
0.2
  3
TXT
  4
bigfont
  0
STYLE
  5
242
330
3
100
AcDbSymbolTableRecord
100
AcDbTextStyleTableRecord
  2
SLDTEXTSTYLE1
 70
     0
 40
0.0
 41
0.75
 50
0.0
 71
     0
 42
0.2
  3
TXT
  4
bigfont
  0
ENDTAB
  0
TABLE
  2
VIEW
  5
6
330
0
100
AcDbSymbolTable
 70
     0
  0
ENDTAB
  0
TABLE
  2
UCS
  5
7
330
0
100
AcDbSymbolTable
 70
     0
  0
ENDTAB
  0
TABLE
  2
APPID
  5
9
330
0
100
AcDbSymbolTable
 70
     1
  0
APPID
  5
12
330
9
100
AcDbSymbolTableRecord
100
AcDbRegAppTableRecord
  2
ACAD
 70
     0
  0
ENDTAB
  0
TABLE
  2
DIMSTYLE
  5
A
330
0
100
AcDbSymbolTable
 70
     6
100
AcDbDimStyleTable
  0
DIMSTYLE
105
27
330
A
100
AcDbSymbolTableRecord
100
AcDbDimStyleTableRecord
  2
ISO-25
 70
     0
 41
2.5
 42
0.625
 43
3.75
 44
1.25
 73
     0
 74
     0
 77
     1
 78
     8
140
2.5
141
2.5
143
0.0393700787
147
0.625
171
     3
172
     1
178
     0
271
     2
272
     2
274
     3
278
    44
283
     0
284
     8
340
11
  0
DIMSTYLE
105
243
102
{ACAD_REACTORS
330
241
330
265
330
27D
102
}
330
A
100
AcDbSymbolTableRecord
100
AcDbDimStyleTableRecord
  2
SLDDIMSTYLE0
 70
     0
 41
3.302
 44
0.0
 45
0.000000001
 73
     0
 74
     0
 77
     3
 78
    12
 79
     3
140
3.5
147
0.875
172
     1
173
     1
178
     0
271
     2
272
     2
276
     2
284
    12
289
     0
340
242
  0
DIMSTYLE
105
251
102
{ACAD_REACTORS
330
250
330
25B
102
}
330
A
100
AcDbSymbolTableRecord
100
AcDbDimStyleTableRecord
  2
SLDDIMSTYLE1
 70
     0
 41
3.302
 44
0.0
 45
0.000000001
 73
     0
 74
     0
 77
     3
 78
    12
 79
     3
140
3.5
147
0.875
173
     1
178
     0
271
     1
272
     2
276
     2
284
    12
340
242
  0
DIMSTYLE
105
273
102
{ACAD_REACTORS
330
272
330
289
330
294
330
29E
330
2FC
102
}
330
A
100
AcDbSymbolTableRecord
100
AcDbDimStyleTableRecord
  2
SLDDIMSTYLE2
 70
     0
 41
3.302
 44
0.0
 45
0.000000001
 73
     0
 74
     0
 77
     3
 78
    12
 79
     3
140
3.5
147
0.875
173
     1
178
     0
271
     2
272
     2
276
     2
284
    12
340
242
  0
DIMSTYLE
105
2AA
330
A
100
AcDbSymbolTableRecord
100
AcDbDimStyleTableRecord
  2
SLDDIMSTYLE3
 70
     0
 41
3.302
 44
0.0
 45
0.000000001
140
0.0
146
3.302
147
0.0
173
     1
178
     0
271
     0
272
     0
276
     2
340
11
  0
DIMSTYLE
105
307
102
{ACAD_REACTORS
330
306
102
}
330
A
100
AcDbSymbolTableRecord
100
AcDbDimStyleTableRecord
  2
SLDDIMSTYLE4
 70
     0
 41
3.302
 44
0.0
 45
0.000000001
 73
     0
 74
     0
 77
     3
 78
    12
 79
     3
140
3.5
147
0.875
173
     1
178
     0
271
     1
272
     1
276
     2
284
    12
340
242
  0
ENDTAB
  0
TABLE
  2
BLOCK_RECORD
  5
1
330
0
100
AcDbSymbolTable
 70
    13
  0
BLOCK_RECORD
  5
1F
330
1
100
AcDbSymbolTableRecord
100
AcDbBlockTableRecord
  2
*Model_Space
340
22
  0
BLOCK_RECORD
  5
1B
330
1
100
AcDbSymbolTableRecord
100
AcDbBlockTableRecord
  2
*Paper_Space
340
1E
  0
BLOCK_RECORD
  5
23
330
1
100
AcDbSymbolTableRecord
100
AcDbBlockTableRecord
  2
*Paper_Space0
340
26
  0
BLOCK_RECORD
  5
244
330
1
100
AcDbSymbolTableRecord
100
AcDbBlockTableRecord
  2
_D
340
0
  0
BLOCK_RECORD
  5
252
330
1
100
AcDbSymbolTableRecord
100
AcDbBlockTableRecord
  2
_D_1
340
0
  0
BLOCK_RECORD
  5
25C
330
1
100
AcDbSymbolTableRecord
100
AcDbBlockTableRecord
  2
_D_2
340
0
  0
BLOCK_RECORD
  5
266
330
1
100
AcDbSymbolTableRecord
100
AcDbBlockTableRecord
  2
_D_3
340
0
  0
BLOCK_RECORD
  5
274
330
1
100
AcDbSymbolTableRecord
100
AcDbBlockTableRecord
  2
_D_4
340
0
  0
BLOCK_RECORD
  5
27E
330
1
100
AcDbSymbolTableRecord
100
AcDbBlockTableRecord
  2
_D_5
340
0
  0
BLOCK_RECORD
  5
28A
330
1
100
AcDbSymbolTableRecord
100
AcDbBlockTableRecord
  2
_D_6
340
0
  0
BLOCK_RECORD
  5
295
330
1
100
AcDbSymbolTableRecord
100
AcDbBlockTableRecord
  2
_D_7
340
0
  0
BLOCK_RECORD
  5
29F
330
1
100
AcDbSymbolTableRecord
100
AcDbBlockTableRecord
  2
_D_8
340
0
  0
BLOCK_RECORD
  5
2FD
330
1
100
AcDbSymbolTableRecord
100
AcDbBlockTableRecord
  2
_D_9
340
0
  0
BLOCK_RECORD
  5
308
330
1
100
AcDbSymbolTableRecord
100
AcDbBlockTableRecord
  2
_D_10
340
0
  0
BLOCK_RECORD
  5
311
330
1
100
AcDbSymbolTableRecord
100
AcDbBlockTableRecord
  2
SW_NOTE_0
340
0
102
{BLKREFS
331
31B
102
}
  0
ENDTAB
  0
ENDSEC
  0
SECTION
  2
BLOCKS
  0
BLOCK
  5
20
330
1F
100
AcDbEntity
  8
0
100
AcDbBlockBegin
  2
*Model_Space
 70
     0
 10
0.0
 20
0.0
 30
0.0
  3
*Model_Space
  1

  0
ENDBLK
  5
21
330
1F
100
AcDbEntity
  8
0
100
AcDbBlockEnd
  0
BLOCK
  5
1C
330
1B
100
AcDbEntity
 67
     1
  8
0
100
AcDbBlockBegin
  2
*Paper_Space
 70
     0
 10
0.0
 20
0.0
 30
0.0
  3
*Paper_Space
  1

  0
ENDBLK
  5
1D
330
1B
100
AcDbEntity
 67
     1
  8
0
100
AcDbBlockEnd
  0
BLOCK
  5
24
330
23
100
AcDbEntity
  8
0
100
AcDbBlockBegin
  2
*Paper_Space0
 70
     0
 10
0.0
 20
0.0
 30
0.0
  3
*Paper_Space0
  1

  0
ENDBLK
  5
25
330
23
100
AcDbEntity
  8
0
100
AcDbBlockEnd
  0
BLOCK
  5
245
330
244
100
AcDbEntity
  8
0
100
AcDbBlockBegin
  2
_D
 70
     0
 10
0.0
 20
0.0
 30
0.0
  3
_D
  1

  0
SOLID
  5
247
330
244
100
AcDbEntity
  8
0
  6
Continuous
 62
     7
370
     0
100
AcDbTrace
 10
100.3688637783
 20
214.6931422138
 30
0.0
 11
98.3688637783
 21
215.4431422138
 31
0.0
 12
98.3688637783
 22
213.9431422138
 32
0.0
 13
98.3688637783
 23
213.9431422138
 33
0.0
  0
SOLID
  5
248
330
244
100
AcDbEntity
  8
0
  6
Continuous
 62
     7
370
     0
100
AcDbTrace
 10
112.3688637783
 20
214.6931422138
 30
0.0
 11
114.3688637783
 21
213.9431422138
 31
0.0
 12
114.3688637783
 22
215.4431422138
 32
0.0
 13
114.3688637783
 23
215.4431422138
 33
0.0
  0
LINE
  5
249
330
244
100
AcDbEntity
  8
0
  6
Continuous
 62
     7
370
     0
100
AcDbLine
 10
100.3688637783
 20
199.3426883031
 30
0.0
 11
100.3688637783
 21
215.6931422138
 31
0.0
  0
LINE
  5
24A
330
244
100
AcDbEntity
  8
0
  6
Continuous
 62
     7
370
     0
100
AcDbLine
 10
112.3688637783
 20
199.3426883031
 30
0.0
 11
112.3688637783
 21
215.6931422138
 31
0.0
  0
LINE
  5
24B
330
244
100
AcDbEntity
  8
0
  6
Continuous
 62
     7
370
     0
100
AcDbLine
 10
100.3688637783
 20
214.6931422138
 30
0.0
 11
97.3688637783
 21
214.6931422138
 31
0.0
  0
LINE
  5
24C
330
244
100
AcDbEntity
  8
0
  6
Continuous
 62
     7
370
     0
100
AcDbLine
 10
100.3688637783
 20
214.6931422138
 30
0.0
 11
112.3688637783
 21
214.6931422138
 31
0.0
  0
LINE
  5
24D
330
244
100
AcDbEntity
  8
0
  6
Continuous
 62
     7
370
     0
100
AcDbLine
 10
112.3688637783
 20
214.6931422138
 30
0.0
 11
115.3688637783
 21
214.6931422138
 31
0.0
  0
MTEXT
  5
24E
330
244
100
AcDbEntity
  8
0
  6
Continuous
 62
     7
370
     0
100
AcDbMText
 10
101.715960628
 20
219.204879303
 30
0.43810855
 40
3.5
 41
0.0
 71
     1
 72
     1
  1
%%c
  7
SLDTEXTSTYLE1
 73
     1
 44
1.0
  0
MTEXT
  5
24F
330
244
100
AcDbEntity
  8
0
  6
Continuous
 62
     7
370
     0
100
AcDbMText
 10
106.9943980264
 20
219.2583514797
 30
0.43810855
 40
3.5
 41
0.0
 71
     1
 72
     1
  1
12
  7
SLDTEXTSTYLE1
 73
     1
 44
1.0
  0
ENDBLK
  5
246
330
244
100
AcDbEntity
  8
0
100
AcDbBlockEnd
  0
BLOCK
  5
253
330
252
100
AcDbEntity
  8
0
100
AcDbBlockBegin
  2
_D_1
 70
     0
 10
0.0
 20
0.0
 30
0.0
  3
_D_1
  1

  0
SOLID
  5
255
330
252
100
AcDbEntity
  8
0
  6
Continuous
 62
     7
370
     0
100
AcDbTrace
 10
123.0229521272
 20
209.6426883031
 30
0.0
 11
122.2729521272
 21
207.6426883031
 31
0.0
 12
123.7729521272
 22
207.6426883031
 32
0.0
 13
123.7729521272
 23
207.6426883031
 33
0.0
  0
SOLID
  5
256
330
252
100
AcDbEntity
  8
0
  6
Continuous
 62
     7
370
     0
100
AcDbTrace
 10
123.0229521272
 20
183.8426883031
 30
0.0
 11
123.7729521272
 21
185.8426883031
 31
0.0
 12
122.2729521272
 22
185.8426883031
 32
0.0
 13
122.2729521272
 23
185.8426883031
 33
0.0
  0
LINE
  5
257
330
252
100
AcDbEntity
  8
0
  6
Continuous
 62
     7
370
     0
100
AcDbLine
 10
109.3688637783
 20
209.6426883031
 30
0.0
 11
124.0229521272
 21
209.6426883031
 31
0.0
  0
LINE
  5
258
330
252
100
AcDbEntity
  8
0
  6
Continuous
 62
     7
370
     0
100
AcDbLine
 10
114.3688637783
 20
183.8426883031
 30
0.0
 11
124.0229521272
 21
183.8426883031
 31
0.0
  0
LINE
  5
259
330
252
100
AcDbEntity
  8
0
  6
Continuous
 62
     7
370
     0
100
AcDbLine
 10
123.0229521272
 20
209.6426883031
 30
0.0
 11
123.0229521272
 21
183.8426883031
 31
0.0
  0
MTEXT
  5
25A
330
252
100
AcDbEntity
  8
0
  6
Continuous
 62
     7
370
     0
100
AcDbMText
 10
118.5112152126
 20
191.3161840786
 30
0.43810855
 40
3.5
 41
0.0
 71
     1
 72
     1
  1
25.8
  7
SLDTEXTSTYLE1
 11
-7.044195017643634E-15
 21
1.0
 31
0.0
 73
     1
 44
1.0
  0
ENDBLK
  5
254
330
252
100
AcDbEntity
  8
0
100
AcDbBlockEnd
  0
BLOCK
  5
25D
330
25C
100
AcDbEntity
  8
0
100
AcDbBlockBegin
  2
_D_2
 70
     0
 10
0.0
 20
0.0
 30
0.0
  3
_D_2
  1

  0
SOLID
  5
25F
330
25C
100
AcDbEntity
  8
0
  6
Continuous
 62
     7
370
     0
100
AcDbTrace
 10
132.1688637783
 20
209.6426883031
 30
0.0
 11
131.4188637783
 21
207.6426883031
 31
0.0
 12
132.9188637783
 22
207.6426883031
 32
0.0
 13
132.9188637783
 23
207.6426883031
 33
0.0
  0
SOLID
  5
260
330
25C
100
AcDbEntity
  8
0
  6
Continuous
 62
     7
370
     0
100
AcDbTrace
 10
132.1688637783
 20
129.0426883031
 30
0.0
 11
132.9188637783
 21
131.0426883031
 31
0.0
 12
131.4188637783
 22
131.0426883031
 32
0.0
 13
131.4188637783
 23
131.0426883031
 33
0.0
  0
LINE
  5
261
330
25C
100
AcDbEntity
  8
0
  6
Continuous
 62
     7
370
     0
100
AcDbLine
 10
109.3688637783
 20
209.6426883031
 30
0.0
 11
133.1688637783
 21
209.6426883031
 31
0.0
  0
LINE
  5
262
330
25C
100
AcDbEntity
  8
0
  6
Continuous
 62
     7
370
     0
100
AcDbLine
 10
112.5688637783
 20
129.0426883031
 30
0.0
 11
133.1688637783
 21
129.0426883031
 31
0.0
  0
LINE
  5
263
330
25C
100
AcDbEntity
  8
0
  6
Continuous
 62
     7
370
     0
100
AcDbLine
 10
132.1688637783
 20
209.6426883031
 30
0.0
 11
132.1688637783
 21
129.0426883031
 31
0.0
  0
MTEXT
  5
264
330
25C
100
AcDbEntity
  8
0
  6
Continuous
 62
     7
370
     0
100
AcDbMText
 10
127.6571268637
 20
164.8169937726
 30
0.43810855
 40
3.5
 41
0.0
 71
     1
 72
     1
  1
80.6
  7
SLDTEXTSTYLE1
 11
-7.044195017643634E-15
 21
1.0
 31
0.0
 73
     1
 44
1.0
  0
ENDBLK
  5
25E
330
25C
100
AcDbEntity
  8
0
100
AcDbBlockEnd
  0
BLOCK
  5
267
330
266
100
AcDbEntity
  8
0
100
AcDbBlockBegin
  2
_D_3
 70
     0
 10
0.0
 20
0.0
 30
0.0
  3
_D_3
  1

  0
SOLID
  5
269
330
266
100
AcDbEntity
  8
0
  6
Continuous
 62
     7
370
     0
100
AcDbTrace
 10
99.3688637783
 20
225.6426883031
 30
0.0
 11
97.3688637783
 21
226.3926883031
 31
0.0
 12
97.3688637783
 22
224.8926883031
 32
0.0
 13
97.3688637783
 23
224.8926883031
 33
0.0
  0
SOLID
  5
26A
330
266
100
AcDbEntity
  8
0
  6
Continuous
 62
     7
370
     0
100
AcDbTrace
 10
113.3688637783
 20
225.6426883031
 30
0.0
 11
115.3688637783
 21
224.8926883031
 31
0.0
 12
115.3688637783
 22
226.3926883031
 32
0.0
 13
115.3688637783
 23
226.3926883031
 33
0.0
  0
LINE
  5
26B
330
266
100
AcDbEntity
  8
0
  6
Continuous
 62
     7
370
     0
100
AcDbLine
 10
99.3688637783
 20
184.8426883031
 30
0.0
 11
99.3688637783
 21
226.6426883031
 31
0.0
  0
LINE
  5
26C
330
266
100
AcDbEntity
  8
0
  6
Continuous
 62
     7
370
     0
100
AcDbLine
 10
113.3688637783
 20
184.8426883031
 30
0.0
 11
113.3688637783
 21
226.6426883031
 31
0.0
  0
LINE
  5
26D
330
266
100
AcDbEntity
  8
0
  6
Continuous
 62
     7
370
     0
100
AcDbLine
 10
99.3688637783
 20
225.6426883031
 30
0.0
 11
96.3688637783
 21
225.6426883031
 31
0.0
  0
LINE
  5
26E
330
266
100
AcDbEntity
  8
0
  6
Continuous
 62
     7
370
     0
100
AcDbLine
 10
99.3688637783
 20
225.6426883031
 30
0.0
 11
113.3688637783
 21
225.6426883031
 31
0.0
  0
LINE
  5
26F
330
266
100
AcDbEntity
  8
0
  6
Continuous
 62
     7
370
     0
100
AcDbLine
 10
113.3688637783
 20
225.6426883031
 30
0.0
 11
116.3688637783
 21
225.6426883031
 31
0.0
  0
MTEXT
  5
270
330
266
100
AcDbEntity
  8
0
  6
Continuous
 62
     7
370
     0
100
AcDbMText
 10
101.715960628
 20
230.1544253923
 30
0.43810855
 40
3.5
 41
0.0
 71
     1
 72
     1
  1
%%c
  7
SLDTEXTSTYLE1
 73
     1
 44
1.0
  0
MTEXT
  5
271
330
266
100
AcDbEntity
  8
0
  6
Continuous
 62
     7
370
     0
100
AcDbMText
 10
106.9943980264
 20
230.2078975689
 30
0.43810855
 40
3.5
 41
0.0
 71
     1
 72
     1
  1
14
  7
SLDTEXTSTYLE1
 73
     1
 44
1.0
  0
ENDBLK
  5
268
330
266
100
AcDbEntity
  8
0
100
AcDbBlockEnd
  0
BLOCK
  5
275
330
274
100
AcDbEntity
  8
0
100
AcDbBlockBegin
  2
_D_4
 70
     0
 10
0.0
 20
0.0
 30
0.0
  3
_D_4
  1

  0
SOLID
  5
277
330
274
100
AcDbEntity
  8
0
  6
Continuous
 62
     7
370
     0
100
AcDbTrace
 10
91.9789540487
 20
198.8426883031
 30
0.0
 11
91.2289540487
 21
196.8426883031
 31
0.0
 12
92.7289540487
 22
196.8426883031
 32
0.0
 13
92.7289540487
 23
196.8426883031
 33
0.0
  0
SOLID
  5
278
330
274
100
AcDbEntity
  8
0
  6
Continuous
 62
     7
370
     0
100
AcDbTrace
 10
91.9789540487
 20
183.8426883031
 30
0.0
 11
92.7289540487
 21
185.8426883031
 31
0.0
 12
91.2289540487
 22
185.8426883031
 32
0.0
 13
91.2289540487
 23
185.8426883031
 33
0.0
  0
LINE
  5
279
330
274
100
AcDbEntity
  8
0
  6
Continuous
 62
     7
370
     0
100
AcDbLine
 10
99.8688637783
 20
198.8426883031
 30
0.0
 11
90.9789540487
 21
198.8426883031
 31
0.0
  0
LINE
  5
27A
330
274
100
AcDbEntity
  8
0
  6
Continuous
 62
     7
370
     0
100
AcDbLine
 10
98.3688637783
 20
183.8426883031
 30
0.0
 11
90.9789540487
 21
183.8426883031
 31
0.0
  0
LINE
  5
27B
330
274
100
AcDbEntity
  8
0
  6
Continuous
 62
     7
370
     0
100
AcDbLine
 10
91.9789540487
 20
198.8426883031
 30
0.0
 11
91.9789540487
 21
183.8426883031
 31
0.0
  0
MTEXT
  5
27C
330
274
100
AcDbEntity
  8
0
  6
Continuous
 62
     7
370
     0
100
AcDbMText
 10
87.4672171341
 20
188.1244003448
 30
0.43810855
 40
3.5
 41
0.0
 71
     1
 72
     1
  1
15
  7
SLDTEXTSTYLE1
 11
-7.044195017643634E-15
 21
1.0
 31
0.0
 73
     1
 44
1.0
  0
ENDBLK
  5
276
330
274
100
AcDbEntity
  8
0
100
AcDbBlockEnd
  0
BLOCK
  5
27F
330
27E
100
AcDbEntity
  8
0
100
AcDbBlockBegin
  2
_D_5
 70
     0
 10
0.0
 20
0.0
 30
0.0
  3
_D_5
  1

  0
SOLID
  5
281
330
27E
100
AcDbEntity
  8
0
  6
Continuous
 62
     7
370
     0
100
AcDbTrace
 10
91.9789540487
 20
179.8426883031
 30
0.0
 11
91.2289540487
 21
177.8426883031
 31
0.0
 12
92.7289540487
 22
177.8426883031
 32
0.0
 13
92.7289540487
 23
177.8426883031
 33
0.0
  0
SOLID
  5
282
330
27E
100
AcDbEntity
  8
0
  6
Continuous
 62
     7
370
     0
100
AcDbTrace
 10
91.9789540487
 20
183.8426883031
 30
0.0
 11
92.7289540487
 21
185.8426883031
 31
0.0
 12
91.2289540487
 22
185.8426883031
 32
0.0
 13
91.2289540487
 23
185.8426883031
 33
0.0
  0
LINE
  5
283
330
27E
100
AcDbEntity
  8
0
  6
Continuous
 62
     7
370
     0
100
AcDbLine
 10
101.5688637783
 20
179.8426883031
 30
0.0
 11
90.9789540487
 21
179.8426883031
 31
0.0
  0
LINE
  5
284
330
27E
100
AcDbEntity
  8
0
  6
Continuous
 62
     7
370
     0
100
AcDbLine
 10
98.3688637783
 20
183.8426883031
 30
0.0
 11
90.9789540487
 21
183.8426883031
 31
0.0
  0
LINE
  5
285
330
27E
100
AcDbEntity
  8
0
  6
Continuous
 62
     7
370
     0
100
AcDbLine
 10
91.9789540487
 20
179.8426883031
 30
0.0
 11
91.9789540487
 21
176.8426883031
 31
0.0
  0
LINE
  5
286
330
27E
100
AcDbEntity
  8
0
  6
Continuous
 62
     7
370
     0
100
AcDbLine
 10
91.9789540487
 20
179.8426883031
 30
0.0
 11
91.9789540487
 21
183.8426883031
 31
0.0
  0
LINE
  5
287
330
27E
100
AcDbEntity
  8
0
  6
Continuous
 62
     7
370
     0
100
AcDbLine
 10
91.9789540487
 20
183.8426883031
 30
0.0
 11
91.9789540487
 21
186.8426883031
 31
0.0
  0
MTEXT
  5
288
330
27E
100
AcDbEntity
  8
0
  6
Continuous
 62
     7
370
     0
100
AcDbMText
 10
87.4672171341
 20
180.8292762534
 30
0.43810855
 40
3.5
 41
0.0
 71
     1
 72
     1
  1
4
  7
SLDTEXTSTYLE1
 11
6.123233995736766E-17
 21
1.0
 31
0.0
 73
     1
 44
1.0
  0
ENDBLK
  5
280
330
27E
100
AcDbEntity
  8
0
100
AcDbBlockEnd
  0
BLOCK
  5
28B
330
28A
100
AcDbEntity
  8
0
100
AcDbBlockBegin
  2
_D_6
 70
     0
 10
0.0
 20
0.0
 30
0.0
  3
_D_6
  1

  0
SOLID
  5
28D
330
28A
100
AcDbEntity
  8
0
  6
Continuous
 62
     7
370
     0
100
AcDbTrace
 10
91.9789540487
 20
179.8426883031
 30
0.0
 11
91.2289540487
 21
177.8426883031
 31
0.0
 12
92.7289540487
 22
177.8426883031
 32
0.0
 13
92.7289540487
 23
177.8426883031
 33
0.0
  0
SOLID
  5
28E
330
28A
100
AcDbEntity
  8
0
  6
Continuous
 62
     7
370
     0
100
AcDbTrace
 10
91.9789540487
 20
159.8426883031
 30
0.0
 11
92.7289540487
 21
161.8426883031
 31
0.0
 12
91.2289540487
 22
161.8426883031
 32
0.0
 13
91.2289540487
 23
161.8426883031
 33
0.0
  0
LINE
  5
28F
330
28A
100
AcDbEntity
  8
0
  6
Continuous
 62
     7
370
     0
100
AcDbLine
 10
101.5688637783
 20
179.8426883031
 30
0.0
 11
90.9789540487
 21
179.8426883031
 31
0.0
  0
LINE
  5
290
330
28A
100
AcDbEntity
  8
0
  6
Continuous
 62
     7
370
     0
100
AcDbLine
 10
102.3688637783
 20
159.8426883031
 30
0.0
 11
90.9789540487
 21
159.8426883031
 31
0.0
  0
LINE
  5
291
330
28A
100
AcDbEntity
  8
0
  6
Continuous
 62
     7
370
     0
100
AcDbLine
 10
91.9789540487
 20
179.8426883031
 30
0.0
 11
91.9789540487
 21
159.8426883031
 31
0.0
  0
MTEXT
  5
292
330
28A
100
AcDbEntity
  8
0
  6
Continuous
 62
     7
370
     0
100
AcDbMText
 10
87.4672171341
 20
165.0600494068
 30
0.43810855
 40
3.5
 41
0.0
 71
     1
 72
     1
  1
20
  7
SLDTEXTSTYLE1
 11
-7.044195017643634E-15
 21
1.0
 31
0.0
 73
     1
 44
1.0
  0
MTEXT
  5
293
330
28A
100
AcDbEntity
  8
0
  6
Continuous
 62
     7
370
     0
100
AcDbMText
 10
87.4672171341
 20
170.2322717939
 30
0.43810855
 40
3.5
 41
0.0
 71
     1
 72
     1
  1
st
  7
SLDTEXTSTYLE1
 11
-7.044195017643634E-15
 21
1.0
 31
0.0
 73
     1
 44
1.0
  0
ENDBLK
  5
28C
330
28A
100
AcDbEntity
  8
0
100
AcDbBlockEnd
  0
BLOCK
  5
296
330
295
100
AcDbEntity
  8
0
100
AcDbBlockBegin
  2
_D_7
 70
     0
 10
0.0
 20
0.0
 30
0.0
  3
_D_7
  1

  0
SOLID
  5
298
330
295
100
AcDbEntity
  8
0
  6
Continuous
 62
     7
370
     0
100
AcDbTrace
 10
91.9789540487
 20
138.0426883031
 30
0.0
 11
91.2289540487
 21
136.0426883031
 31
0.0
 12
92.7289540487
 22
136.0426883031
 32
0.0
 13
92.7289540487
 23
136.0426883031
 33
0.0
  0
SOLID
  5
299
330
295
100
AcDbEntity
  8
0
  6
Continuous
 62
     7
370
     0
100
AcDbTrace
 10
91.9789540487
 20
129.0426883031
 30
0.0
 11
92.7289540487
 21
131.0426883031
 31
0.0
 12
91.2289540487
 22
131.0426883031
 32
0.0
 13
91.2289540487
 23
131.0426883031
 33
0.0
  0
LINE
  5
29A
330
295
100
AcDbEntity
  8
0
  6
Continuous
 62
     7
370
     0
100
AcDbLine
 10
99.3688637783
 20
138.0426883031
 30
0.0
 11
90.9789540487
 21
138.0426883031
 31
0.0
  0
LINE
  5
29B
330
295
100
AcDbEntity
  8
0
  6
Continuous
 62
     7
370
     0
100
AcDbLine
 10
100.1688637783
 20
129.0426883031
 30
0.0
 11
90.9789540487
 21
129.0426883031
 31
0.0
  0
LINE
  5
29C
330
295
100
AcDbEntity
  8
0
  6
Continuous
 62
     7
370
     0
100
AcDbLine
 10
91.9789540487
 20
138.0426883031
 30
0.0
 11
91.9789540487
 21
129.0426883031
 31
0.0
  0
MTEXT
  5
29D
330
295
100
AcDbEntity
  8
0
  6
Continuous
 62
     7
370
     0
100
AcDbMText
 10
87.4672171341
 20
132.4111852029
 30
0.43810855
 40
3.5
 41
0.0
 71
     1
 72
     1
  1
9
  7
SLDTEXTSTYLE1
 11
5.335193752196488E-14
 21
1.0
 31
0.0
 73
     1
 44
1.0
  0
ENDBLK
  5
297
330
295
100
AcDbEntity
  8
0
100
AcDbBlockEnd
  0
BLOCK
  5
2A0
330
29F
100
AcDbEntity
  8
0
100
AcDbBlockBegin
  2
_D_8
 70
     0
 10
0.0
 20
0.0
 30
0.0
  3
_D_8
  1

  0
SOLID
  5
2A2
330
29F
100
AcDbEntity
  8
0
  6
Continuous
 62
     7
370
     0
100
AcDbTrace
 10
100.8688637783
 20
119.0426883031
 30
0.0
 11
102.8688637783
 21
118.2926883031
 31
0.0
 12
102.8688637783
 22
119.7926883031
 32
0.0
 13
102.8688637783
 23
119.7926883031
 33
0.0
  0
SOLID
  5
2A3
330
29F
100
AcDbEntity
  8
0
  6
Continuous
 62
     7
370
     0
100
AcDbTrace
 10
111.8688637783
 20
119.0426883031
 30
0.0
 11
109.8688637783
 21
119.7926883031
 31
0.0
 12
109.8688637783
 22
118.2926883031
 32
0.0
 13
109.8688637783
 23
118.2926883031
 33
0.0
  0
LINE
  5
2A4
330
29F
100
AcDbEntity
  8
0
  6
Continuous
 62
     7
370
     0
100
AcDbLine
 10
100.8688637783
 20
128.3426883031
 30
0.0
 11
100.8688637783
 21
118.0426883031
 31
0.0
  0
LINE
  5
2A5
330
29F
100
AcDbEntity
  8
0
  6
Continuous
 62
     7
370
     0
100
AcDbLine
 10
111.8688637783
 20
128.3426883031
 30
0.0
 11
111.8688637783
 21
118.0426883031
 31
0.0
  0
LINE
  5
2A6
330
29F
100
AcDbEntity
  8
0
  6
Continuous
 62
     7
370
     0
100
AcDbLine
 10
100.8688637783
 20
119.0426883031
 30
0.0
 11
111.8688637783
 21
119.0426883031
 31
0.0
  0
MTEXT
  5
2A7
330
29F
100
AcDbEntity
  8
0
  6
Continuous
 62
     7
370
     0
100
AcDbMText
 10
101.1435336527
 20
123.5544253923
 30
0.43810855
 40
3.5
 41
0.0
 71
     1
 72
     1
  1
%%c
  7
SLDTEXTSTYLE1
 73
     1
 44
1.0
  0
MTEXT
  5
2A8
330
29F
100
AcDbEntity
  8
0
  6
Continuous
 62
     7
370
     0
100
AcDbMText
 10
106.4219710511
 20
123.6078975689
 30
0.43810855
 40
3.5
 41
0.0
 71
     1
 72
     1
  1
11
  7
SLDTEXTSTYLE1
 73
     1
 44
1.0
  0
ENDBLK
  5
2A1
330
29F
100
AcDbEntity
  8
0
100
AcDbBlockEnd
  0
BLOCK
  5
2FE
330
2FD
100
AcDbEntity
  8
0
100
AcDbBlockBegin
  2
_D_9
 70
     0
 10
0.0
 20
0.0
 30
0.0
  3
_D_9
  1

  0
SOLID
  5
300
330
2FD
100
AcDbEntity
  8
0
  6
Continuous
 62
     7
370
     0
100
AcDbTrace
 10
126.1688637783
 20
89.766738466
 30
0.0
 11
125.4188637783
 21
87.766738466
 31
0.0
 12
126.9188637783
 22
87.766738466
 32
0.0
 13
126.9188637783
 23
87.766738466
 33
0.0
  0
SOLID
  5
301
330
2FD
100
AcDbEntity
  8
0
  6
Continuous
 62
     7
370
     0
100
AcDbTrace
 10
126.1688637783
 20
75.766738466
 30
0.0
 11
126.9188637783
 21
77.766738466
 31
0.0
 12
125.4188637783
 22
77.766738466
 32
0.0
 13
125.4188637783
 23
77.766738466
 33
0.0
  0
LINE
  5
302
330
2FD
100
AcDbEntity
  8
0
  6
Continuous
 62
     7
370
     0
100
AcDbLine
 10
107.3688637783
 20
89.766738466
 30
0.0
 11
127.1688637783
 21
89.766738466
 31
0.0
  0
LINE
  5
303
330
2FD
100
AcDbEntity
  8
0
  6
Continuous
 62
     7
370
     0
100
AcDbLine
 10
107.3688637783
 20
75.766738466
 30
0.0
 11
127.1688637783
 21
75.766738466
 31
0.0
  0
LINE
  5
304
330
2FD
100
AcDbEntity
  8
0
  6
Continuous
 62
     7
370
     0
100
AcDbLine
 10
126.1688637783
 20
89.766738466
 30
0.0
 11
126.1688637783
 21
75.766738466
 31
0.0
  0
MTEXT
  5
305
330
2FD
100
AcDbEntity
  8
0
  6
Continuous
 62
     7
370
     0
100
AcDbMText
 10
121.6571268637
 20
80.1806272724
 30
27.6
 40
3.5
 41
0.0
 71
     1
 72
     1
  1
14
  7
SLDTEXTSTYLE1
 11
-7.044195017643634E-15
 21
1.0
 31
0.0
 73
     1
 44
1.0
  0
ENDBLK
  5
2FF
330
2FD
100
AcDbEntity
  8
0
100
AcDbBlockEnd
  0
BLOCK
  5
309
330
308
100
AcDbEntity
  8
0
100
AcDbBlockBegin
  2
_D_10
 70
     0
 10
0.0
 20
0.0
 30
0.0
  3
_D_10
  1

  0
SOLID
  5
30B
330
308
100
AcDbEntity
  8
0
  6
Continuous
 62
     7
370
     0
100
AcDbTrace
 10
96.5688637783
 20
66.4541385869
 30
0.0
 11
98.5688637783
 21
65.7041385869
 31
0.0
 12
98.5688637783
 22
67.2041385869
 32
0.0
 13
98.5688637783
 23
67.2041385869
 33
0.0
  0
SOLID
  5
30C
330
308
100
AcDbEntity
  8
0
  6
Continuous
 62
     7
370
     0
100
AcDbTrace
 10
116.1688637783
 20
66.4541385869
 30
0.0
 11
114.1688637783
 21
67.2041385869
 31
0.0
 12
114.1688637783
 22
65.7041385869
 32
0.0
 13
114.1688637783
 23
65.7041385869
 33
0.0
  0
LINE
  5
30D
330
308
100
AcDbEntity
  8
0
  6
Continuous
 62
     7
370
     0
100
AcDbLine
 10
96.5688637783
 20
77.628629916
 30
0.0
 11
96.5688637783
 21
65.4541385869
 31
0.0
  0
LINE
  5
30E
330
308
100
AcDbEntity
  8
0
  6
Continuous
 62
     7
370
     0
100
AcDbLine
 10
116.1688637783
 20
77.628629916
 30
0.0
 11
116.1688637783
 21
65.4541385869
 31
0.0
  0
LINE
  5
30F
330
308
100
AcDbEntity
  8
0
  6
Continuous
 62
     7
370
     0
100
AcDbLine
 10
96.5688637783
 20
66.4541385869
 30
0.0
 11
116.1688637783
 21
66.4541385869
 31
0.0
  0
MTEXT
  5
310
330
308
100
AcDbEntity
  8
0
  6
Continuous
 62
     7
370
     0
100
AcDbMText
 10
101.8431692478
 20
70.9658755015
 30
27.6
 40
3.5
 41
0.0
 71
     1
 72
     1
  1
19.6
  7
SLDTEXTSTYLE1
 73
     1
 44
1.0
  0
ENDBLK
  5
30A
330
308
100
AcDbEntity
  8
0
100
AcDbBlockEnd
  0
BLOCK
  5
312
330
311
100
AcDbEntity
  8
0
100
AcDbBlockBegin
  2
SW_NOTE_0
 70
     0
 10
0.0
 20
0.0
 30
0.0
  3
SW_NOTE_0
  1

  0
LINE
  5
314
330
311
100
AcDbEntity
  8
0
  6
Continuous
 62
     0
370
     0
100
AcDbLine
 10
0.0
 20
0.3435404455
 30
0.0
 11
10.082063306
 21
0.3435404455
 31
0.0
  0
LINE
  5
315
330
311
100
AcDbEntity
  8
0
  6
Continuous
 62
     0
370
     0
100
AcDbLine
 10
10.082063306
 20
0.3435404455
 30
0.0
 11
0.0
 21
0.3435404455
 31
0.0
  0
LINE
  5
316
330
311
100
AcDbEntity
  8
0
  6
Continuous
 62
     0
370
     0
100
AcDbLine
 10
0.0
 20
0.3435404455
 30
0.0
 11
10.082063306
 21
0.3435404455
 31
0.0
  0
LINE
  5
317
330
311
100
AcDbEntity
  8
0
  6
Continuous
 62
     0
370
     0
100
AcDbLine
 10
10.082063306
 20
0.3435404455
 30
0.0
 11
0.0
 21
0.3435404455
 31
0.0
  0
LINE
  5
318
330
311
100
AcDbEntity
  8
0
  6
Continuous
 62
     0
370
     0
100
AcDbLine
 10
0.0
 20
0.3435404455
 30
0.0
 11
10.082063306
 21
0.3435404455
 31
0.0
  0
LINE
  5
319
330
311
100
AcDbEntity
  8
0
  6
Continuous
 62
     0
370
     0
100
AcDbLine
 10
10.082063306
 20
0.3435404455
 30
0.0
 11
0.0
 21
0.3435404455
 31
0.0
  0
MTEXT
  5
31A
330
311
100
AcDbEntity
  8
0
  6
Continuous
 62
     0
370
     0
100
AcDbMText
 10
0.095773245
 20
4.6083908528
 30
0.0
 40
3.5
 41
0.0
 71
     1
 72
     1
  1
φ1.8
  7
SLDTEXTSTYLE1
 73
     1
 44
1.0
  0
ENDBLK
  5
313
330
311
100
AcDbEntity
  8
0
100
AcDbBlockEnd
  0
ENDSEC
  0
SECTION
  2
ENTITIES
  0
LINE
  5
44
330
1F
100
AcDbEntity
  8
0
  6
Continuous
 62
     7
370
     0
100
AcDbLine
 10
20.2604743903
 20
285.0
 30
0.0
 11
196.7604743903
 21
285.0
 31
0.0
  0
LINE
  5
45
330
1F
100
AcDbEntity
  8
0
  6
Continuous
 62
     7
370
     0
100
AcDbLine
 10
20.2604743903
 20
285.0
 30
0.0
 11
20.2604743903
 21
10.0
 31
0.0
  0
LINE
  5
46
330
1F
100
AcDbEntity
  8
0
  6
Continuous
 62
     7
370
     0
100
AcDbLine
 10
20.2604743903
 20
10.0
 30
0.0
 11
196.7604743903
 21
10.0
 31
0.0
  0
LINE
  5
47
330
1F
100
AcDbEntity
  8
0
  6
Continuous
 62
     7
370
     0
100
AcDbLine
 10
196.7604743903
 20
285.0
 30
0.0
 11
196.7604743903
 21
10.0
 31
0.0
  0
LINE
  5
48
330
1F
100
AcDbEntity
  8
0
  6
Continuous
 62
     7
370
     0
100
AcDbLine
 10
127.0104743903
 20
50.75
 30
0.0
 11
196.7604743903
 21
50.75
 31
0.0
  0
LINE
  5
49
330
1F
100
AcDbEntity
  8
0
  6
Continuous
 62
     7
370
     0
100
AcDbLine
 10
127.0104743903
 20
50.75
 30
0.0
 11
127.0104743903
 21
10.0
 31
0.0
  0
LINE
  5
4A
330
1F
100
AcDbEntity
  8
0
  6
Continuous
 62
     7
370
     0
100
AcDbLine
 10
127.0104743903
 20
22.75
 30
0.0
 11
196.7604743903
 21
22.75
 31
0.0
  0
LINE
  5
4B
330
1F
100
AcDbEntity
  8
0
  6
Continuous
 62
     7
370
     0
100
AcDbLine
 10
127.0104743903
 20
36.75
 30
0.0
 11
196.7604743903
 21
36.75
 31
0.0
  0
MTEXT
  5
4D
330
1F
100
AcDbEntity
  8
0
  6
Continuous
 62
     7
370
     0
100
AcDbMText
 10
160.7737300891
 20
30.4171582345
 30
0.0
 40
4.2333333333
 41
0.0
 71
     2
 72
     1
  1
VFILB2-SH-20-P12
  7
SLDTEXTSTYLE0
 73
     1
 44
1.0
  0
MTEXT
  5
4E
330
1F
100
AcDbEntity
  8
0
  6
Continuous
 62
     7
370
     0
100
AcDbMText
 10
158.0789286034
 20
46.7263684012
 30
0.0
 40
4.2333333333
 41
0.0
 71
     2
 72
     1
  1
吸着金具回り止め(スモール)
  7
SLDTEXTSTYLE0
 73
     1
 44
1.0
  0
MTEXT
  5
4F
330
1F
100
AcDbEntity
  8
0
  6
Continuous
 62
     7
370
     0
100
AcDbMText
 10
162.634881752
 20
16.8228189052
 30
0.0
 40
4.2333333333
 41
0.0
 71
     2
 72
     1
  1
211048
  7
SLDTEXTSTYLE0
 73
     1
 44
1.0
  0
LINE
  5
50
330
1F
100
AcDbEntity
  8
0
  6
Continuous
 62
     7
370
    15
100
AcDbLine
 10
108.7188637783
 20
204.6426883031
 30
0.0
 11
108.3688637783
 21
207.1426883031
 31
0.0
  0
LINE
  5
51
330
1F
100
AcDbEntity
  8
0
  6
Continuous
 62
     7
370
    15
100
AcDbLine
 10
104.3688637783
 20
207.1426883031
 30
0.0
 11
104.0188637783
 21
204.6426883031
 31
0.0
  0
LINE
  5
52
330
1F
100
AcDbEntity
  8
0
  6
Continuous
 62
     7
370
    15
100
AcDbLine
 10
108.7188637783
 20
207.1426883031
 30
0.0
 11
108.3688637783
 21
209.6426883031
 31
0.0
  0
LINE
  5
53
330
1F
100
AcDbEntity
  8
0
  6
Continuous
 62
     7
370
    15
100
AcDbLine
 10
104.3688637783
 20
209.6426883031
 30
0.0
 11
104.0188637783
 21
207.1426883031
 31
0.0
  0
LINE
  5
54
330
1F
100
AcDbEntity
  8
0
  6
Continuous
 62
     7
370
    15
100
AcDbLine
 10
104.2688637783
 20
204.6426883031
 30
0.0
 11
104.2688637783
 21
202.1426883031
 31
0.0
  0
LINE
  5
55
330
1F
100
AcDbEntity
  8
0
  6
Continuous
 62
     7
370
    15
100
AcDbLine
 10
108.4688637783
 20
202.1426883031
 30
0.0
 11
108.4688637783
 21
204.6426883031
 31
0.0
  0
LINE
  5
56
330
1F
100
AcDbEntity
  8
0
  6
Continuous
 62
     7
370
    15
100
AcDbLine
 10
115.6688637783
 20
145.0426883031
 30
0.0
 11
116.1688637783
 21
145.5426883031
 31
0.0
  0
LINE
  5
57
330
1F
100
AcDbEntity
  8
0
  6
Continuous
 62
     7
370
    15
100
AcDbLine
 10
116.1688637783
 20
153.1426883031
 30
0.0
 11
115.6688637783
 21
153.6426883031
 31
0.0
  0
LINE
  5
58
330
1F
100
AcDbEntity
  8
0
  6
Continuous
 62
     7
370
    15
100
AcDbLine
 10
115.6688637783
 20
153.6426883031
 30
0.0
 11
113.1688637783
 21
153.6426883031
 31
0.0
  0
LINE
  5
59
330
1F
100
AcDbEntity
  8
0
  6
Continuous
 62
     7
370
    15
100
AcDbLine
 10
113.1688637783
 20
145.0426883031
 30
0.0
 11
115.6688637783
 21
145.0426883031
 31
0.0
  0
LINE
  5
5A
330
1F
100
AcDbEntity
  8
0
  6
Continuous
 62
     7
370
    15
100
AcDbLine
 10
97.0688637783
 20
153.6426883031
 30
0.0
 11
96.5688637783
 21
153.1426883031
 31
0.0
  0
LINE
  5
5B
330
1F
100
AcDbEntity
  8
0
  6
Continuous
 62
     7
370
    15
100
AcDbLine
 10
96.5688637783
 20
145.5426883031
 30
0.0
 11
97.0688637783
 21
145.0426883031
 31
0.0
  0
LINE
  5
5C
330
1F
100
AcDbEntity
  8
0
  6
Continuous
 62
     7
370
    15
100
AcDbLine
 10
99.5688637783
 20
153.6426883031
 30
0.0
 11
97.0688637783
 21
153.6426883031
 31
0.0
  0
LINE
  5
5D
330
1F
100
AcDbEntity
  8
0
  6
Continuous
 62
     7
370
    15
100
AcDbLine
 10
97.0688637783
 20
145.0426883031
 30
0.0
 11
99.5688637783
 21
145.0426883031
 31
0.0
  0
LINE
  5
5E
330
1F
100
AcDbEntity
  8
0
  6
Continuous
 62
     7
370
    15
100
AcDbLine
 10
112.3688637783
 20
145.3426883031
 30
0.0
 11
113.1688637783
 21
145.3426883031
 31
0.0
  0
LINE
  5
5F
330
1F
100
AcDbEntity
  8
0
  6
Continuous
 62
     7
370
    15
100
AcDbLine
 10
113.1688637783
 20
153.3426883031
 30
0.0
 11
112.3688637783
 21
153.3426883031
 31
0.0
  0
LINE
  5
60
330
1F
100
AcDbEntity
  8
0
  6
Continuous
 62
     7
370
    15
100
AcDbLine
 10
110.3688637783
 20
198.8426883031
 30
0.0
 11
110.3688637783
 21
199.6426883031
 31
0.0
  0
LINE
  5
61
330
1F
100
AcDbEntity
  8
0
  6
Continuous
 62
     7
370
    15
100
AcDbLine
 10
102.3688637783
 20
199.6426883031
 30
0.0
 11
102.3688637783
 21
198.8426883031
 31
0.0
  0
LINE
  5
62
330
1F
100
AcDbEntity
  8
0
  6
Continuous
 62
     7
370
    15
100
AcDbLine
 10
110.3688637783
 20
141.0426883031
 30
0.0
 11
110.3688637783
 21
141.8426883031
 31
0.0
  0
LINE
  5
63
330
1F
100
AcDbEntity
  8
0
  6
Continuous
 62
     7
370
    15
100
AcDbLine
 10
102.3688637783
 20
141.8426883031
 30
0.0
 11
102.3688637783
 21
141.0426883031
 31
0.0
  0
LINE
  5
64
330
1F
100
AcDbEntity
  8
0
  6
Continuous
 62
     7
370
    15
100
AcDbLine
 10
100.3688637783
 20
153.3426883031
 30
0.0
 11
99.5688637783
 21
153.3426883031
 31
0.0
  0
LINE
  5
65
330
1F
100
AcDbEntity
  8
0
  6
Continuous
 62
     7
370
    15
100
AcDbLine
 10
99.5688637783
 20
145.3426883031
 30
0.0
 11
100.3688637783
 21
145.3426883031
 31
0.0
  0
LINE
  5
66
330
1F
100
AcDbEntity
  8
0
  6
Continuous
 62
     7
370
    15
100
AcDbLine
 10
100.8688637783
 20
130.8426883031
 30
0.0
 11
100.8688637783
 21
129.3426883031
 31
0.0
  0
LINE
  5
67
330
1F
100
AcDbEntity
  8
0
  6
Continuous
 62
     7
370
    15
100
AcDbLine
 10
111.8688637783
 20
129.3426883031
 30
0.0
 11
111.8688637783
 21
130.8426883031
 31
0.0
  0
LINE
  5
68
330
1F
100
AcDbEntity
  8
0
  6
Continuous
 62
     7
370
    15
100
AcDbLine
 10
100.8688637783
 20
129.3426883031
 30
0.0
 11
101.1688637783
 21
129.0426883031
 31
0.0
  0
LINE
  5
69
330
1F
100
AcDbEntity
  8
0
  6
Continuous
 62
     7
370
    15
100
AcDbLine
 10
111.5688637783
 20
129.0426883031
 30
0.0
 11
111.8688637783
 21
129.3426883031
 31
0.0
  0
ARC
  5
6A
330
1F
100
AcDbEntity
  8
0
  6
Continuous
 62
     7
370
    15
100
AcDbCircle
 10
101.0688637783
 20
130.8426883031
 30
0.0
 40
0.2000000000000028
100
AcDbArc
 50
90.0
 51
180.0
  0
ARC
  5
6B
330
1F
100
AcDbEntity
  8
0
  6
Continuous
 62
     7
370
    15
100
AcDbCircle
 10
111.6688637783
 20
130.8426883031
 30
0.0
 40
0.2000000000000028
100
AcDbArc
 50
0.0
 51
90.0
  0
LINE
  5
6C
330
1F
100
AcDbEntity
  8
0
  6
Continuous
 62
     7
370
    15
100
AcDbLine
 10
102.4688637783
 20
138.0426883031
 30
0.0
 11
102.4688637783
 21
131.0426883031
 31
0.0
  0
LINE
  5
6D
330
1F
100
AcDbEntity
  8
0
  6
Continuous
 62
     7
370
    15
100
AcDbLine
 10
110.2688637783
 20
131.0426883031
 30
0.0
 11
110.2688637783
 21
138.0426883031
 31
0.0
  0
SPLINE
  5
6E
330
1F
100
AcDbEntity
  8
0
  6
Continuous
 62
     7
370
    15
100
AcDbSpline
210
0.0
220
0.0
230
1.0
 70
     8
 71
     3
 72
    28
 73
    24
 74
     0
 42
0.00000001
 43
0.00000001
 12
1.0
 22
0.0
 32
0.0
 13
1.0
 23
0.0
 33
0.0
 40
0.0
 40
0.0
 40
0.0
 40
0.0
 40
0.0148062665376374
 40
0.0332036200583988
 40
0.0517013353175097
 40
0.0911861775167584
 40
0.1384344117092741
 40
0.1936950818796437
 40
0.2571416566154867
 40
0.3276377684469958
 40
0.3906931189337736
 40
0.4329741014241553
 40
0.4680269168276133
 40
0.4958748560149874
 40
0.5197913842742298
 40
0.5577873353037908
 40
0.6023009155504905
 40
0.6584992655219067
 40
0.7263882601625848
 40
0.7849822098033784
 40
0.8501231803673537
 40
0.9217877852825056
 40
1.0
 40
1.0
 40
1.0
 40
1.0
 10
101.523588901911
 20
180.8426883030882
 30
0.0
 10
101.527020486038
 20
180.8106918846213
 30
0.0
 10
101.5347159449343
 20
180.7389386901678
 30
0.0
 10
101.5896059332755
 20
180.6491737430664
 30
0.0
 10
101.6802645334218
 20
180.5639727149637
 30
0.0
 10
101.7466692334081
 20
180.5393957353156
 30
0.0
 10
101.8526424447838
 20
180.5077300111289
 30
0.0
 10
101.9822730446343
 20
180.4913154984216
 30
0.0
 10
102.151992820852
 20
180.4768586639172
 30
0.0
 10
102.3563549297422
 20
180.4648472753581
 30
0.0
 10
102.5783244404312
 20
180.4539390142691
 30
0.0
 10
102.7787296882202
 20
180.4453682309222
 30
0.0
 10
102.9411741505066
 20
180.4389763070329
 30
0.0
 10
103.0831246861278
 20
180.4337281970867
 30
0.0
 10
103.2358806527478
 20
180.4283387313052
 30
0.0
 10
103.4263525028539
 20
180.4219468599174
 30
0.0
 10
103.6894740165496
 20
180.4136155086836
 30
0.0
 10
104.0291407585252
 20
180.4034903831607
 30
0.0
 10
104.4199674267673
 20
180.3925224758434
 30
0.0
 10
104.8494148036285
 20
180.3810241384941
 30
0.0
 10
105.3030592613184
 20
180.3692962219214
 30
0.0
 10
105.8159838497662
 20
180.3563832766153
 30
0.0
 10
106.1792800755535
 20
180.3473843955049
 30
0.0
 10
106.3688637782701
 20
180.3426883896558
 30
0.0
  0
SPLINE
  5
6F
330
1F
100
AcDbEntity
  8
0
  6
Continuous
 62
     7
370
    15
100
AcDbSpline
210
0.0
220
0.0
230
1.0
 70
     8
 71
     3
 72
    43
 73
    39
 74
     0
 42
0.00000001
 43
0.00000001
 12
1.0
 22
0.0
 32
0.0
 13
1.0
 23
0.0
 33
0.0
 40
0.0
 40
0.0
 40
0.0
 40
0.0
 40
0.0041500158264086
 40
0.0350465520676792
 40
0.063665342345695
 40
0.0984081606136694
 40
0.1308388674340372
 40
0.160618515645503
 40
0.1989849519319924
 40
0.2200899681743851
 40
0.246032673848969
 40
0.2724018561545634
 40
0.2987973876144857
 40
0.3364295113714338
 40
0.3680847256155059
 40
0.3947259242145121
 40
0.4249125941953674
 40
0.4573074436274381
 40
0.4936535886715024
 40
0.5300559926421738
 40
0.5659293876414412
 40
0.5998421451262091
 40
0.6291084169067831
 40
0.6542608298230721
 40
0.6779716680922514
 40
0.703702930005444
 40
0.7271899035804005
 40
0.7542971443266467
 40
0.7849364046667473
 40
0.8185353315059838
 40
0.8509328698707783
 40
0.8808583945403154
 40
0.9082159397046564
 40
0.9333557678397738
 40
0.957109343930471
 40
0.9790335350529491
 40
0.9984070462224715
 40
1.0
 40
1.0
 40
1.0
 40
1.0
 10
103.3688637782701
 20
162.4179532106331
 30
0.0
 10
103.3495816534846
 20
162.4147614430929
 30
0.0
 10
103.1867456503132
 20
162.3878072212383
 30
0.0
 10
102.9279072402951
 20
162.33969954128
 30
0.0
 10
102.572676687576
 20
162.2693245921248
 30
0.0
 10
102.2631959800297
 20
162.1995780926738
 30
0.0
 10
102.0100873791505
 20
162.1230517586123
 30
0.0
 10
101.7920840021253
 20
162.0241736938173
 30
0.0
 10
101.6278408219318
 20
161.9130821921223
 30
0.0
 10
101.5076520238339
 20
161.6753275415158
 30
0.0
 10
101.5225277351637
 20
161.4590314311927
 30
0.0
 10
101.6294849371156
 20
161.2866645511596
 30
0.0
 10
101.8145757971578
 20
161.1448248483167
 30
0.0
 10
102.0206659157356
 20
161.0583229765837
 30
0.0
 10
102.3001947736356
 20
160.9754199173778
 30
0.0
 10
102.5829305291577
 20
160.9139822191216
 30
0.0
 10
102.9070264735396
 20
160.8489160519254
 30
0.0
 10
103.3168858439954
 20
160.7748053017741
 30
0.0
 10
103.8045815829135
 20
160.6940161183325
 30
0.0
 10
104.3573742867583
 20
160.6098345658051
 30
0.0
 10
104.9348512817536
 20
160.5283276639517
 30
0.0
 10
105.4973149928798
 20
160.4545176740089
 30
0.0
 10
106.0101503000589
 20
160.3911021675284
 30
0.0
 10
106.4672053416124
 20
160.3388167602858
 30
0.0
 10
106.9019513457824
 20
160.2871422781557
 30
0.0
 10
107.3214969470676
 20
160.2342949355501
 30
0.0
 10
107.7503462150594
 20
160.1774263724816
 30
0.0
 10
108.1917358380846
 20
160.1156212444269
 30
0.0
 10
108.6626703625045
 20
160.045374981335
 30
0.0
 10
109.1241186108336
 20
159.9711702573941
 30
0.0
 10
109.5336653251285
 20
159.8995496000169
 30
0.0
 10
109.8659516985606
 20
159.836080778656
 30
0.0
 10
110.1231042809294
 20
159.7824820118724
 30
0.0
 10
110.3148994636265
 20
159.7386056720319
 30
0.0
 10
110.453919612699
 20
159.6963945455152
 30
0.0
 10
110.5377795522621
 20
159.665327013711
 30
0.0
 10
110.5657130339717
 20
159.6489206260003
 30
0.0
 10
110.562643632166
 20
159.6559070022179
 30
0.0
 10
110.5624104304692
 20
159.6564378010156
 30
0.0
  0
SPLINE
  5
70
330
1F
100
AcDbEntity
  8
0
  6
Continuous
 62
     7
370
    15
100
AcDbSpline
210
0.0
220
0.0
230
1.0
 70
     8
 71
     3
 72
    43
 73
    39
 74
     0
 42
0.00000001
 43
0.00000001
 12
1.0
 22
0.0
 32
0.0
 13
1.0
 23
0.0
 33
0.0
 40
0.0
 40
0.0
 40
0.0
 40
0.0
 40
0.0041500158264084
 40
0.0350465520676797
 40
0.0636653423456956
 40
0.0984081606136694
 40
0.1308388674340379
 40
0.1606185156455035
 40
0.1989849519319928
 40
0.2200899681743864
 40
0.2460326738489694
 40
0.2724018561545637
 40
0.2987973876144856
 40
0.3364295113714337
 40
0.3680847256155054
 40
0.3947259242145129
 40
0.4249125941953671
 40
0.4573074436274381
 40
0.4936535886715031
 40
0.5300559926421745
 40
0.5659293876414412
 40
0.5998421451262091
 40
0.6291084169067831
 40
0.6542608298230715
 40
0.6779716680922516
 40
0.7037029300054439
 40
0.7271899035804005
 40
0.7542971443266469
 40
0.7849364046667477
 40
0.818535331505984
 40
0.8509328698707791
 40
0.8808583945403158
 40
0.908215939704657
 40
0.9333557678397744
 40
0.9571093439304721
 40
0.9790335350529495
 40
0.9984070462224722
 40
1.0
 40
1.0
 40
1.0
 40
1.0
 10
103.3688637782701
 20
165.9893817820617
 30
0.0
 10
103.3495816534846
 20
165.9861900145215
 30
0.0
 10
103.1867456503132
 20
165.9592357926668
 30
0.0
 10
102.9279072402951
 20
165.9111281127085
 30
0.0
 10
102.572676687576
 20
165.8407531635534
 30
0.0
 10
102.2631959800297
 20
165.7710066641023
 30
0.0
 10
102.0100873791505
 20
165.6944803300409
 30
0.0
 10
101.7920840021253
 20
165.5956022652458
 30
0.0
 10
101.6278408219318
 20
165.4845107635509
 30
0.0
 10
101.5076520238339
 20
165.2467561129443
 30
0.0
 10
101.5225277351637
 20
165.0304600026213
 30
0.0
 10
101.6294849371156
 20
164.8580931225881
 30
0.0
 10
101.8145757971578
 20
164.7162534197453
 30
0.0
 10
102.0206659157356
 20
164.6297515480123
 30
0.0
 10
102.3001947736356
 20
164.5468484888064
 30
0.0
 10
102.5829305291577
 20
164.4854107905501
 30
0.0
 10
102.9070264735396
 20
164.4203446233539
 30
0.0
 10
103.3168858439954
 20
164.3462338732026
 30
0.0
 10
103.8045815829135
 20
164.2654446897611
 30
0.0
 10
104.3573742867583
 20
164.1812631372337
 30
0.0
 10
104.9348512817536
 20
164.0997562353803
 30
0.0
 10
105.4973149928798
 20
164.0259462454375
 30
0.0
 10
106.0101503000589
 20
163.962530738957
 30
0.0
 10
106.4672053416124
 20
163.9102453317143
 30
0.0
 10
106.9019513457824
 20
163.8585708495843
 30
0.0
 10
107.3214969470676
 20
163.8057235069787
 30
0.0
 10
107.7503462150594
 20
163.7488549439102
 30
0.0
 10
108.1917358380846
 20
163.6870498158555
 30
0.0
 10
108.6626703625045
 20
163.6168035527636
 30
0.0
 10
109.1241186108336
 20
163.5425988288227
 30
0.0
 10
109.5336653251285
 20
163.4709781714454
 30
0.0
 10
109.8659516985606
 20
163.4075093500846
 30
0.0
 10
110.1231042809294
 20
163.3539105833009
 30
0.0
 10
110.3148994636265
 20
163.3100342434604
 30
0.0
 10
110.453919612699
 20
163.2678231169437
 30
0.0
 10
110.5377795522621
 20
163.2367555851395
 30
0.0
 10
110.5657130339717
 20
163.2203491974288
 30
0.0
 10
110.562643632166
 20
163.2273355736465
 30
0.0
 10
110.5624104304692
 20
163.2278663724442
 30
0.0
  0
SPLINE
  5
71
330
1F
100
AcDbEntity
  8
0
  6
Continuous
 62
     7
370
    15
100
AcDbSpline
210
0.0
220
0.0
230
1.0
 70
     8
 71
     3
 72
    11
 73
     7
 74
     0
 42
0.00000001
 43
0.00000001
 12
1.0
 22
0.0
 32
0.0
 13
1.0
 23
0.0
 33
0.0
 40
0.0
 40
0.0
 40
0.0
 40
0.0
 40
0.196915655527887
 40
0.5544031909992655
 40
0.955330956347627
 40
1.0
 40
1.0
 40
1.0
 40
1.0
 10
110.0005784225006
 20
163.3786654853309
 30
0.0
 10
109.9652053224273
 20
163.3711619469237
 30
0.0
 10
109.8656146651805
 20
163.3500362237021
 30
0.0
 10
109.6660445677136
 20
163.3114331597887
 30
0.0
 10
109.4908912767491
 20
163.2784241057822
 30
0.0
 10
109.3799819330974
 20
163.2594677564014
 30
0.0
 10
109.3688637782701
 20
163.2575674690096
 30
0.0
  0
SPLINE
  5
72
330
1F
100
AcDbEntity
  8
0
  6
Continuous
 62
     7
370
    15
100
AcDbSpline
210
0.0
220
0.0
230
1.0
 70
     8
 71
     3
 72
    43
 73
    39
 74
     0
 42
0.00000001
 43
0.00000001
 12
1.0
 22
0.0
 32
0.0
 13
1.0
 23
0.0
 33
0.0
 40
0.0
 40
0.0
 40
0.0
 40
0.0
 40
0.0041500158264086
 40
0.0350465520676792
 40
0.0636653423456945
 40
0.0984081606136687
 40
0.1308388674340365
 40
0.1606185156455029
 40
0.198984951931992
 40
0.2200899681743862
 40
0.2460326738489687
 40
0.2724018561545622
 40
0.2987973876144842
 40
0.3364295113714336
 40
0.3680847256155046
 40
0.3947259242145126
 40
0.4249125941953671
 40
0.457307443627437
 40
0.4936535886715022
 40
0.5300559926421737
 40
0.56592938764144
 40
0.5998421451262093
 40
0.6291084169067821
 40
0.6542608298230724
 40
0.6779716680922518
 40
0.7037029300054441
 40
0.7271899035803998
 40
0.7542971443266469
 40
0.784936404666747
 40
0.8185353315059838
 40
0.8509328698707783
 40
0.8808583945403154
 40
0.9082159397046566
 40
0.9333557678397739
 40
0.9571093439304712
 40
0.9790335350529495
 40
0.9984070462224711
 40
1.0
 40
1.0
 40
1.0
 40
1.0
 10
103.3688637782701
 20
169.5608103534902
 30
0.0
 10
103.3495816534846
 20
169.55761858595
 30
0.0
 10
103.1867456503132
 20
169.5306643640954
 30
0.0
 10
102.9279072402951
 20
169.4825566841371
 30
0.0
 10
102.572676687576
 20
169.4121817349819
 30
0.0
 10
102.2631959800298
 20
169.3424352355309
 30
0.0
 10
102.0100873791505
 20
169.2659089014695
 30
0.0
 10
101.7920840021253
 20
169.1670308366744
 30
0.0
 10
101.6278408219318
 20
169.0559393349795
 30
0.0
 10
101.5076520238339
 20
168.8181846843729
 30
0.0
 10
101.5225277351637
 20
168.6018885740498
 30
0.0
 10
101.6294849371156
 20
168.4295216940167
 30
0.0
 10
101.8145757971578
 20
168.2876819911739
 30
0.0
 10
102.0206659157356
 20
168.2011801194409
 30
0.0
 10
102.3001947736356
 20
168.118277060235
 30
0.0
 10
102.5829305291577
 20
168.0568393619787
 30
0.0
 10
102.9070264735396
 20
167.9917731947825
 30
0.0
 10
103.3168858439954
 20
167.9176624446312
 30
0.0
 10
103.8045815829135
 20
167.8368732611896
 30
0.0
 10
104.3573742867583
 20
167.7526917086623
 30
0.0
 10
104.9348512817536
 20
167.6711848068088
 30
0.0
 10
105.4973149928798
 20
167.5973748168661
 30
0.0
 10
106.0101503000589
 20
167.5339593103856
 30
0.0
 10
106.4672053416124
 20
167.4816739031429
 30
0.0
 10
106.9019513457824
 20
167.4299994210128
 30
0.0
 10
107.3214969470676
 20
167.3771520784072
 30
0.0
 10
107.7503462150594
 20
167.3202835153387
 30
0.0
 10
108.1917358380846
 20
167.258478387284
 30
0.0
 10
108.6626703625045
 20
167.1882321241921
 30
0.0
 10
109.1241186108336
 20
167.1140274002512
 30
0.0
 10
109.5336653251285
 20
167.042406742874
 30
0.0
 10
109.8659516985606
 20
166.9789379215131
 30
0.0
 10
110.1231042809294
 20
166.9253391547295
 30
0.0
 10
110.3148994636266
 20
166.881462814889
 30
0.0
 10
110.453919612699
 20
166.8392516883723
 30
0.0
 10
110.5377795522621
 20
166.8081841565681
 30
0.0
 10
110.5657130339717
 20
166.7917777688574
 30
0.0
 10
110.562643632166
 20
166.798764145075
 30
0.0
 10
110.5624104304692
 20
166.7992949438728
 30
0.0
  0
SPLINE
  5
73
330
1F
100
AcDbEntity
  8
0
  6
Continuous
 62
     7
370
    15
100
AcDbSpline
210
0.0
220
0.0
230
1.0
 70
     8
 71
     3
 72
    11
 73
     7
 74
     0
 42
0.00000001
 43
0.00000001
 12
1.0
 22
0.0
 32
0.0
 13
1.0
 23
0.0
 33
0.0
 40
0.0
 40
0.0
 40
0.0
 40
0.0
 40
0.1969156555278846
 40
0.5544031909992608
 40
0.9553309563476177
 40
1.0
 40
1.0
 40
1.0
 40
1.0
 10
110.0005784225006
 20
166.9500940567594
 30
0.0
 10
109.9652053224273
 20
166.9425905183523
 30
0.0
 10
109.8656146651805
 20
166.9214647951306
 30
0.0
 10
109.6660445677136
 20
166.8828617312172
 30
0.0
 10
109.4908912767491
 20
166.8498526772107
 30
0.0
 10
109.3799819330974
 20
166.8308963278299
 30
0.0
 10
109.3688637782701
 20
166.8289960404381
 30
0.0
  0
SPLINE
  5
74
330
1F
100
AcDbEntity
  8
0
  6
Continuous
 62
     7
370
    15
100
AcDbSpline
210
0.0
220
0.0
230
1.0
 70
     8
 71
     3
 72
    43
 73
    39
 74
     0
 42
0.00000001
 43
0.00000001
 12
1.0
 22
0.0
 32
0.0
 13
1.0
 23
0.0
 33
0.0
 40
0.0
 40
0.0
 40
0.0
 40
0.0
 40
0.0041500158264082
 40
0.0350465520676791
 40
0.0636653423456957
 40
0.0984081606136701
 40
0.1308388674340392
 40
0.1606185156455044
 40
0.1989849519319924
 40
0.2200899681743878
 40
0.2460326738489704
 40
0.2724018561545641
 40
0.2987973876144859
 40
0.3364295113714341
 40
0.3680847256155076
 40
0.3947259242145132
 40
0.4249125941953689
 40
0.4573074436274386
 40
0.4936535886715036
 40
0.5300559926421737
 40
0.5659293876414411
 40
0.5998421451262103
 40
0.6291084169067843
 40
0.6542608298230722
 40
0.6779716680922536
 40
0.7037029300054441
 40
0.7271899035804014
 40
0.7542971443266479
 40
0.7849364046667469
 40
0.8185353315059852
 40
0.8509328698707799
 40
0.8808583945403178
 40
0.9082159397046584
 40
0.933355767839777
 40
0.9571093439304731
 40
0.9790335350529521
 40
0.9984070462224734
 40
1.0
 40
1.0
 40
1.0
 40
1.0
 10
103.3688637782701
 20
173.1322389249188
 30
0.0
 10
103.3495816534846
 20
173.1290471573786
 30
0.0
 10
103.1867456503132
 20
173.102092935524
 30
0.0
 10
102.9279072402951
 20
173.0539852555657
 30
0.0
 10
102.572676687576
 20
172.9836103064105
 30
0.0
 10
102.2631959800297
 20
172.9138638069595
 30
0.0
 10
102.0100873791505
 20
172.837337472898
 30
0.0
 10
101.7920840021253
 20
172.738459408103
 30
0.0
 10
101.6278408219318
 20
172.627367906408
 30
0.0
 10
101.5076520238339
 20
172.3896132558015
 30
0.0
 10
101.5225277351637
 20
172.1733171454784
 30
0.0
 10
101.6294849371156
 20
172.0009502654452
 30
0.0
 10
101.8145757971578
 20
171.8591105626024
 30
0.0
 10
102.0206659157356
 20
171.7726086908694
 30
0.0
 10
102.3001947736356
 20
171.6897056316635
 30
0.0
 10
102.5829305291577
 20
171.6282679334073
 30
0.0
 10
102.9070264735396
 20
171.5632017662111
 30
0.0
 10
103.3168858439954
 20
171.4890910160597
 30
0.0
 10
103.8045815829135
 20
171.4083018326182
 30
0.0
 10
104.3573742867583
 20
171.3241202800908
 30
0.0
 10
104.9348512817536
 20
171.2426133782374
 30
0.0
 10
105.4973149928798
 20
171.1688033882947
 30
0.0
 10
106.0101503000589
 20
171.1053878818142
 30
0.0
 10
106.4672053416124
 20
171.0531024745715
 30
0.0
 10
106.9019513457824
 20
171.0014279924414
 30
0.0
 10
107.3214969470676
 20
170.9485806498358
 30
0.0
 10
107.7503462150594
 20
170.8917120867673
 30
0.0
 10
108.1917358380846
 20
170.8299069587126
 30
0.0
 10
108.6626703625045
 20
170.7596606956207
 30
0.0
 10
109.1241186108336
 20
170.6854559716798
 30
0.0
 10
109.5336653251285
 20
170.6138353143025
 30
0.0
 10
109.8659516985606
 20
170.5503664929417
 30
0.0
 10
110.1231042809294
 20
170.4967677261581
 30
0.0
 10
110.3148994636266
 20
170.4528913863175
 30
0.0
 10
110.453919612699
 20
170.4106802598009
 30
0.0
 10
110.5377795522621
 20
170.3796127279967
 30
0.0
 10
110.5657130339717
 20
170.363206340286
 30
0.0
 10
110.562643632166
 20
170.3701927165036
 30
0.0
 10
110.5624104304692
 20
170.3707235153014
 30
0.0
  0
SPLINE
  5
75
330
1F
100
AcDbEntity
  8
0
  6
Continuous
 62
     7
370
    15
100
AcDbSpline
210
0.0
220
0.0
230
1.0
 70
     8
 71
     3
 72
    11
 73
     7
 74
     0
 42
0.00000001
 43
0.00000001
 12
1.0
 22
0.0
 32
0.0
 13
1.0
 23
0.0
 33
0.0
 40
0.0
 40
0.0
 40
0.0
 40
0.0
 40
0.1969156555279061
 40
0.5544031909992705
 40
0.9553309563476275
 40
1.0
 40
1.0
 40
1.0
 40
1.0
 10
110.0005784225006
 20
170.521522628188
 30
0.0
 10
109.9652053224273
 20
170.5140190897809
 30
0.0
 10
109.8656146651805
 20
170.4928933665592
 30
0.0
 10
109.6660445677136
 20
170.4542903026458
 30
0.0
 10
109.4908912767491
 20
170.4212812486393
 30
0.0
 10
109.3799819330974
 20
170.4023248992585
 30
0.0
 10
109.3688637782701
 20
170.4004246118667
 30
0.0
  0
SPLINE
  5
76
330
1F
100
AcDbEntity
  8
0
  6
Continuous
 62
     7
370
    15
100
AcDbSpline
210
0.0
220
0.0
230
1.0
 70
     8
 71
     3
 72
    43
 73
    39
 74
     0
 42
0.00000001
 43
0.00000001
 12
1.0
 22
0.0
 32
0.0
 13
1.0
 23
0.0
 33
0.0
 40
0.0
 40
0.0
 40
0.0
 40
0.0
 40
0.0041500158264086
 40
0.0350465520676791
 40
0.0636653423456944
 40
0.0984081606136687
 40
0.130838867434038
 40
0.1606185156455044
 40
0.1989849519319926
 40
0.2200899681743867
 40
0.2460326738489707
 40
0.2724018561545657
 40
0.2987973876144878
 40
0.336429511371436
 40
0.3680847256155071
 40
0.394725924214514
 40
0.4249125941953695
 40
0.4573074436274393
 40
0.4936535886715043
 40
0.5300559926421744
 40
0.565929387641443
 40
0.5998421451262108
 40
0.6291084169067847
 40
0.6542608298230737
 40
0.6779716680922514
 40
0.7037029300054455
 40
0.7271899035804013
 40
0.7542971443266463
 40
0.7849364046667464
 40
0.8185353315059859
 40
0.8509328698707802
 40
0.8808583945403168
 40
0.9082159397046573
 40
0.9333557678397758
 40
0.9571093439304719
 40
0.9790335350529497
 40
0.9984070462224723
 40
1.0
 40
1.0
 40
1.0
 40
1.0
 10
103.3688637782701
 20
176.7036674963473
 30
0.0
 10
103.3495816534846
 20
176.7004757288072
 30
0.0
 10
103.1867456503132
 20
176.6735215069525
 30
0.0
 10
102.9279072402951
 20
176.6254138269942
 30
0.0
 10
102.572676687576
 20
176.555038877839
 30
0.0
 10
102.2631959800297
 20
176.4852923783881
 30
0.0
 10
102.0100873791505
 20
176.4087660443266
 30
0.0
 10
101.7920840021253
 20
176.3098879795315
 30
0.0
 10
101.6278408219318
 20
176.1987964778365
 30
0.0
 10
101.5076520238339
 20
175.96104182723
 30
0.0
 10
101.5225277351637
 20
175.7447457169069
 30
0.0
 10
101.6294849371156
 20
175.5723788368738
 30
0.0
 10
101.8145757971578
 20
175.430539134031
 30
0.0
 10
102.0206659157356
 20
175.344037262298
 30
0.0
 10
102.3001947736356
 20
175.2611342030921
 30
0.0
 10
102.5829305291577
 20
175.1996965048358
 30
0.0
 10
102.9070264735397
 20
175.1346303376396
 30
0.0
 10
103.3168858439954
 20
175.0605195874883
 30
0.0
 10
103.8045815829135
 20
174.9797304040468
 30
0.0
 10
104.3573742867583
 20
174.8955488515194
 30
0.0
 10
104.9348512817536
 20
174.814041949666
 30
0.0
 10
105.4973149928798
 20
174.7402319597232
 30
0.0
 10
106.010150300059
 20
174.6768164532427
 30
0.0
 10
106.4672053416124
 20
174.624531046
 30
0.0
 10
106.9019513457825
 20
174.5728565638699
 30
0.0
 10
107.3214969470677
 20
174.5200092212644
 30
0.0
 10
107.7503462150594
 20
174.4631406581958
 30
0.0
 10
108.1917358380846
 20
174.4013355301412
 30
0.0
 10
108.6626703625045
 20
174.3310892670493
 30
0.0
 10
109.1241186108336
 20
174.2568845431084
 30
0.0
 10
109.5336653251285
 20
174.1852638857311
 30
0.0
 10
109.8659516985606
 20
174.1217950643703
 30
0.0
 10
110.1231042809294
 20
174.0681962975866
 30
0.0
 10
110.3148994636266
 20
174.0243199577461
 30
0.0
 10
110.453919612699
 20
173.9821088312295
 30
0.0
 10
110.5377795522621
 20
173.9510412994252
 30
0.0
 10
110.5657130339717
 20
173.9346349117146
 30
0.0
 10
110.562643632166
 20
173.9416212879322
 30
0.0
 10
110.5624104304692
 20
173.9421520867299
 30
0.0
  0
SPLINE
  5
77
330
1F
100
AcDbEntity
  8
0
  6
Continuous
 62
     7
370
    15
100
AcDbSpline
210
0.0
220
0.0
230
1.0
 70
     8
 71
     3
 72
    11
 73
     7
 74
     0
 42
0.00000001
 43
0.00000001
 12
1.0
 22
0.0
 32
0.0
 13
1.0
 23
0.0
 33
0.0
 40
0.0
 40
0.0
 40
0.0
 40
0.0
 40
0.1969156555279141
 40
0.5544031909992745
 40
0.9553309563476279
 40
1.0
 40
1.0
 40
1.0
 40
1.0
 10
110.0005784225006
 20
174.0929511996166
 30
0.0
 10
109.9652053224273
 20
174.0854476612094
 30
0.0
 10
109.8656146651805
 20
174.0643219379878
 30
0.0
 10
109.6660445677136
 20
174.0257188740744
 30
0.0
 10
109.4908912767491
 20
173.9927098200679
 30
0.0
 10
109.3799819330974
 20
173.9737534706871
 30
0.0
 10
109.3688637782701
 20
173.9718531832953
 30
0.0
  0
SPLINE
  5
78
330
1F
100
AcDbEntity
  8
0
  6
Continuous
 62
     7
370
    15
100
AcDbSpline
210
0.0
220
0.0
230
1.0
 70
     8
 71
     3
 72
    40
 73
    36
 74
     0
 42
0.00000001
 43
0.00000001
 12
1.0
 22
0.0
 32
0.0
 13
1.0
 23
0.0
 33
0.0
 40
0.0
 40
0.0
 40
0.0
 40
0.0
 40
0.0108673110832747
 40
0.0464469057949288
 40
0.0791180350394575
 40
0.121209694070041
 40
0.1443639203546085
 40
0.1728255557650852
 40
0.2017550769287005
 40
0.230713505640864
 40
0.2719995534235203
 40
0.3067283584277713
 40
0.3359563075451222
 40
0.3690739786943282
 40
0.4046142344131543
 40
0.4444894402531533
 40
0.4844263675295261
 40
0.5237829212449485
 40
0.5609884676286896
 40
0.5930963737079975
 40
0.6206909821924385
 40
0.646704045076445
 40
0.6749337064082728
 40
0.7007011682594426
 40
0.7304404102946166
 40
0.764054616460514
 40
0.8009158605372476
 40
0.836459066273077
 40
0.8692902359781719
 40
0.8993040859582081
 40
0.926884887731124
 40
0.9529448381028691
 40
0.9769977777701832
 40
0.9982523769798547
 40
1.0
 40
1.0
 40
1.0
 40
1.0
 10
102.3626208414786
 20
180.0759884297084
 30
0.0
 10
102.3300761463431
 20
180.068683118301
 30
0.0
 10
102.1909800647554
 20
180.037460205094
 30
0.0
 10
102.0126194224025
 20
179.9800766357664
 30
0.0
 10
101.7912030968608
 20
179.8813575965438
 30
0.0
 10
101.627974408477
 20
179.77021882483
 30
0.0
 10
101.5076184007475
 20
179.5324719653188
 30
0.0
 10
101.5225376845875
 20
179.3161738247443
 30
0.0
 10
101.6294822801709
 20
179.1438075321021
 30
0.0
 10
101.8145768584056
 20
179.0019676560109
 30
0.0
 10
102.0206656449696
 20
178.9154658463428
 30
0.0
 10
102.300194828752
 20
178.8325627719525
 30
0.0
 10
102.5829305134597
 20
178.7711250769958
 30
0.0
 10
102.9070264783081
 20
178.706058908846
 30
0.0
 10
103.3168858425006
 20
178.6319481589865
 30
0.0
 10
103.8045815833343
 20
178.5511589754557
 30
0.0
 10
104.357374286647
 20
178.4669774229531
 30
0.0
 10
104.9348512817815
 20
178.3854705210933
 30
0.0
 10
105.4973149928736
 20
178.3116605311521
 30
0.0
 10
106.0101503000602
 20
178.2482450246712
 30
0.0
 10
106.4672053416121
 20
178.1959596174287
 30
0.0
 10
106.9019513457825
 20
178.1442851352985
 30
0.0
 10
107.3214969470676
 20
178.0914377926929
 30
0.0
 10
107.7503462150594
 20
178.0345692296244
 30
0.0
 10
108.1917358380846
 20
177.9727641015697
 30
0.0
 10
108.6626703625045
 20
177.9025178384778
 30
0.0
 10
109.1241186108336
 20
177.8283131145369
 30
0.0
 10
109.5336653251285
 20
177.7566924571596
 30
0.0
 10
109.8659516985606
 20
177.6932236357989
 30
0.0
 10
110.1231042809294
 20
177.6396248690152
 30
0.0
 10
110.3148994636265
 20
177.5957485291747
 30
0.0
 10
110.453919612699
 20
177.553537402658
 30
0.0
 10
110.5377795522621
 20
177.5224698708539
 30
0.0
 10
110.5657130339717
 20
177.5060634831431
 30
0.0
 10
110.562643632166
 20
177.5130498593607
 30
0.0
 10
110.5624104304692
 20
177.5135806581585
 30
0.0
  0
SPLINE
  5
79
330
1F
100
AcDbEntity
  8
0
  6
Continuous
 62
     7
370
    15
100
AcDbSpline
210
0.0
220
0.0
230
1.0
 70
     8
 71
     3
 72
    11
 73
     7
 74
     0
 42
0.00000001
 43
0.00000001
 12
1.0
 22
0.0
 32
0.0
 13
1.0
 23
0.0
 33
0.0
 40
0.0
 40
0.0
 40
0.0
 40
0.0
 40
0.1969156555278862
 40
0.5544031909992939
 40
0.9553309563476275
 40
1.0
 40
1.0
 40
1.0
 40
1.0
 10
110.0005784225006
 20
177.6643797710451
 30
0.0
 10
109.9652053224273
 20
177.656876232638
 30
0.0
 10
109.8656146651805
 20
177.6357505094163
 30
0.0
 10
109.6660445677136
 20
177.5971474455029
 30
0.0
 10
109.4908912767491
 20
177.5641383914965
 30
0.0
 10
109.3799819330974
 20
177.5451820421156
 30
0.0
 10
109.3688637782701
 20
177.5432817547238
 30
0.0
  0
SPLINE
  5
7A
330
1F
100
AcDbEntity
  8
0
  6
Continuous
 62
     7
370
    15
100
AcDbSpline
210
0.0
220
0.0
230
1.0
 70
     8
 71
     3
 72
    40
 73
    36
 74
     0
 42
0.00000001
 43
0.00000001
 12
1.0
 22
0.0
 32
0.0
 13
1.0
 23
0.0
 33
0.0
 40
0.0
 40
0.0
 40
0.0
 40
0.0
 40
0.011567656110767
 40
0.0471220590622633
 40
0.0797700558567061
 40
0.1218319123393432
 40
0.1449697445249367
 40
0.1734112279737972
 40
0.2023202658929651
 40
0.2312581908931926
 40
0.2725150065209392
 40
0.3072192221539478
 40
0.3364264767214033
 40
0.369520699246989
 40
0.4050357910596406
 40
0.444882763678421
 40
0.4847914140320582
 40
0.5241201017521808
 40
0.5612993051380275
 40
0.593384477550093
 40
0.6209595479607389
 40
0.6469541925676798
 40
0.6751638661850979
 40
0.7009130836562439
 40
0.7306312691341377
 40
0.7642216751150896
 40
0.8010568199750513
 40
0.8365748597161263
 40
0.8693827836552227
 40
0.8993753826430332
 40
0.9269366561177973
 40
0.9529781550142404
 40
0.977014064249822
 40
0.9982536143660663
 40
1.0
 40
1.0
 40
1.0
 40
1.0
 10
110.3688637782701
 20
159.1793790474017
 30
0.0
 10
110.4035620005333
 20
159.1871583927564
 30
0.0
 10
110.5449088441104
 20
159.2188483710687
 30
0.0
 10
110.7251900077611
 20
159.2767226739076
 30
0.0
 10
110.9464959755523
 20
159.3754496225022
 30
0.0
 10
111.1097574676079
 20
159.4865860431971
 30
0.0
 10
111.2301080686062
 20
159.7243332902704
 30
0.0
 10
111.2151901936451
 20
159.940631329867
 30
0.0
 10
111.1082451904035
 20
160.1129976517182
 30
0.0
 10
110.9231507323952
 20
160.2548375191607
 30
0.0
 10
110.7170619027618
 20
160.3413393319087
 30
0.0
 10
110.4375327295409
 20
160.4242424055308
 30
0.0
 10
110.1547970425914
 20
160.4856801006414
 30
0.0
 10
109.8307010784499
 20
160.5507462687358
 30
0.0
 10
109.4208417140823
 20
160.6248570186063
 30
0.0
 10
108.9331459733229
 20
160.7056462021319
 30
0.0
 10
108.3803532700011
 20
160.7898277546358
 30
0.0
 10
107.8028762748823
 20
160.871334656495
 30
0.0
 10
107.2404125638031
 20
160.9451446464355
 30
0.0
 10
106.7275772566315
 20
161.0085601529156
 30
0.0
 10
106.2705222150915
 20
161.0608455601578
 30
0.0
 10
105.8357762109189
 20
161.1125200422866
 30
0.0
 10
105.4162306096209
 20
161.165367384893
 30
0.0
 10
104.9873813416058
 20
161.2222359479635
 30
0.0
 10
104.5459917185569
 20
161.2840410760206
 30
0.0
 10
104.0750571941158
 20
161.3542873391148
 30
0.0
 10
103.6136089457742
 20
161.4284920630568
 30
0.0
 10
103.2040622314733
 20
161.5001127204342
 30
0.0
 10
102.8717758580354
 20
161.5635815417951
 30
0.0
 10
102.6146232756574
 20
161.6171803085806
 30
0.0
 10
102.4228280929493
 20
161.6610566484223
 30
0.0
 10
102.2838079438595
 20
161.7032677749432
 30
0.0
 10
102.1999480042843
 20
161.7343353067509
 30
0.0
 10
102.1720145225748
 20
161.7507416944603
 30
0.0
 10
102.1750839243802
 20
161.7437553182414
 30
0.0
 10
102.1753171260769
 20
161.7432245194436
 30
0.0
  0
SPLINE
  5
7B
330
1F
100
AcDbEntity
  8
0
  6
Continuous
 62
     7
370
    15
100
AcDbSpline
210
0.0
220
0.0
230
1.0
 70
     8
 71
     3
 72
    11
 73
     7
 74
     0
 42
0.00000001
 43
0.00000001
 12
1.0
 22
0.0
 32
0.0
 13
1.0
 23
0.0
 33
0.0
 40
0.0
 40
0.0
 40
0.0
 40
0.0
 40
0.1969156554199282
 40
0.5544031908557844
 40
0.9553309561865627
 40
1.0
 40
1.0
 40
1.0
 40
1.0
 10
102.7371491340406
 20
161.5924254065602
 30
0.0
 10
102.7725222340935
 20
161.599928944963
 30
0.0
 10
102.8721128913116
 20
161.6210546681789
 30
0.0
 10
103.0716829887356
 20
161.659657732085
 30
0.0
 10
103.2468362797187
 20
161.6926667860953
 30
0.0
 10
103.3577456234029
 20
161.711623135482
 30
0.0
 10
103.3688637782701
 20
161.7135234228807
 30
0.0
  0
SPLINE
  5
7C
330
1F
100
AcDbEntity
  8
0
  6
Continuous
 62
     7
370
    15
100
AcDbSpline
210
0.0
220
0.0
230
1.0
 70
     8
 71
     3
 72
    43
 73
    39
 74
     0
 42
0.00000001
 43
0.00000001
 12
1.0
 22
0.0
 32
0.0
 13
1.0
 23
0.0
 33
0.0
 40
0.0
 40
0.0
 40
0.0
 40
0.0
 40
0.0041500158192908
 40
0.0350465520609728
 40
0.0636653423392133
 40
0.0984081606069787
 40
0.1308388674264555
 40
0.1606185156384715
 40
0.1989849519342016
 40
0.2200899681841698
 40
0.246032673859732
 40
0.2724018561651886
 40
0.2987973876251502
 40
0.3364295113807927
 40
0.3680847256204864
 40
0.394725924213279
 40
0.4249125941908333
 40
0.4573074436223983
 40
0.493653588666834
 40
0.5300559926376018
 40
0.5659293876369791
 40
0.5998421451211375
 40
0.6291084169009665
 40
0.6542608298168595
 40
0.6779716680855905
 40
0.703702930000118
 40
0.727189903576272
 40
0.7542971443237882
 40
0.7849364046652304
 40
0.8185353315052072
 40
0.8509328698696325
 40
0.8808583945388565
 40
0.9082159397029471
 40
0.9333557678376189
 40
0.9571093439278267
 40
0.9790335350504317
 40
0.9984070462225134
 40
0.9999999999999999
 40
0.9999999999999999
 40
0.9999999999999999
 40
0.9999999999999999
 10
109.3688637782701
 20
162.5531376812571
 30
0.0
 10
109.3881459030227
 20
162.5563294487919
 30
0.0
 10
109.5509819061645
 20
162.5832836706413
 30
0.0
 10
109.809820316158
 20
162.6313913505945
 30
0.0
 10
110.1650508688864
 20
162.7017662997493
 30
0.0
 10
110.4745315764369
 20
162.771512799198
 30
0.0
 10
110.7276401773171
 20
162.8480391332506
 30
0.0
 10
110.9456435543863
 20
162.9469171980537
 30
0.0
 10
111.1098867346282
 20
163.0580086997716
 30
0.0
 10
111.2300755327233
 20
163.295763350439
 30
0.0
 10
111.215199821354
 20
163.5120594607617
 30
0.0
 10
111.1082426193712
 20
163.6844263407891
 30
0.0
 10
110.9231517593276
 20
163.8262660436001
 30
0.0
 10
110.7170616407511
 20
163.912767915326
 30
0.0
 10
110.4375327828751
 20
163.995670974519
 30
0.0
 10
110.154797027401
 20
164.0571086727651
 30
0.0
 10
109.8307010830641
 20
164.1221748399532
 30
0.0
 10
109.4208417126358
 20
164.196285590101
 30
0.0
 10
108.9331459737301
 20
164.2770747735419
 30
0.0
 10
108.3803532698934
 20
164.3612563260693
 30
0.0
 10
107.8028762749094
 20
164.4427632279223
 30
0.0
 10
107.2404125637971
 20
164.5165732178644
 30
0.0
 10
106.7275772566328
 20
164.5799887243442
 30
0.0
 10
106.2705222150912
 20
164.6322741315864
 30
0.0
 10
105.8357762109189
 20
164.6839486137152
 30
0.0
 10
105.4162306096209
 20
164.7367959563215
 30
0.0
 10
104.9873813416058
 20
164.7936645193921
 30
0.0
 10
104.5459917185569
 20
164.8554696474491
 30
0.0
 10
104.0750571941158
 20
164.9257159105433
 30
0.0
 10
103.6136089457742
 20
164.9999206344853
 30
0.0
 10
103.2040622314733
 20
165.0715412918628
 30
0.0
 10
102.8717758580354
 20
165.1350101132236
 30
0.0
 10
102.6146232756574
 20
165.1886088800091
 30
0.0
 10
102.4228280929493
 20
165.2324852198508
 30
0.0
 10
102.2838079438595
 20
165.2746963463718
 30
0.0
 10
102.1999480042843
 20
165.3057638781794
 30
0.0
 10
102.1720145225748
 20
165.3221702658889
 30
0.0
 10
102.1750839243802
 20
165.31518388967
 30
0.0
 10
102.1753171260769
 20
165.3146530908722
 30
0.0
  0
SPLINE
  5
7D
330
1F
100
AcDbEntity
  8
0
  6
Continuous
 62
     7
370
    15
100
AcDbSpline
210
0.0
220
0.0
230
1.0
 70
     8
 71
     3
 72
    11
 73
     7
 74
     0
 42
0.00000001
 43
0.00000001
 12
1.0
 22
0.0
 32
0.0
 13
1.0
 23
0.0
 33
0.0
 40
0.0
 40
0.0
 40
0.0
 40
0.0
 40
0.1969156554199247
 40
0.554403190855802
 40
0.9553309561865558
 40
1.0
 40
1.0
 40
1.0
 40
1.0
 10
102.7371491340405
 20
165.1638539779887
 30
0.0
 10
102.7725222340935
 20
165.1713575163916
 30
0.0
 10
102.8721128913116
 20
165.1924832396074
 30
0.0
 10
103.0716829887356
 20
165.2310863035135
 30
0.0
 10
103.2468362797187
 20
165.2640953575238
 30
0.0
 10
103.3577456234029
 20
165.2830517069106
 30
0.0
 10
103.3688637782701
 20
165.2849519943092
 30
0.0
  0
SPLINE
  5
7E
330
1F
100
AcDbEntity
  8
0
  6
Continuous
 62
     7
370
    15
100
AcDbSpline
210
0.0
220
0.0
230
1.0
 70
     8
 71
     3
 72
    43
 73
    39
 74
     0
 42
0.00000001
 43
0.00000001
 12
1.0
 22
0.0
 32
0.0
 13
1.0
 23
0.0
 33
0.0
 40
0.0
 40
0.0
 40
0.0
 40
0.0
 40
0.0041500158192911
 40
0.035046552060974
 40
0.0636653423392139
 40
0.0984081606069787
 40
0.130838867426456
 40
0.1606185156384708
 40
0.1989849519342028
 40
0.2200899681841708
 40
0.2460326738597332
 40
0.2724018561651896
 40
0.2987973876251506
 40
0.336429511380793
 40
0.3680847256204862
 40
0.3947259242132786
 40
0.4249125941908342
 40
0.4573074436223978
 40
0.4936535886668335
 40
0.5300559926376025
 40
0.5659293876369799
 40
0.5998421451211369
 40
0.6291084169009676
 40
0.6542608298168602
 40
0.6779716680855894
 40
0.7037029300001174
 40
0.7271899035762722
 40
0.7542971443237886
 40
0.7849364046652296
 40
0.8185353315052067
 40
0.8509328698696336
 40
0.8808583945388577
 40
0.9082159397029489
 40
0.9333557678376208
 40
0.9571093439278273
 40
0.9790335350504336
 40
0.9984070462225153
 40
1.0
 40
1.0
 40
1.0
 40
1.0
 10
109.3688637782701
 20
166.1245662526857
 30
0.0
 10
109.3881459030227
 20
166.1277580202204
 30
0.0
 10
109.5509819061645
 20
166.1547122420698
 30
0.0
 10
109.809820316158
 20
166.202819922023
 30
0.0
 10
110.1650508688864
 20
166.2731948711779
 30
0.0
 10
110.4745315764369
 20
166.3429413706266
 30
0.0
 10
110.7276401773171
 20
166.4194677046792
 30
0.0
 10
110.9456435543863
 20
166.5183457694823
 30
0.0
 10
111.1098867346282
 20
166.6294372712002
 30
0.0
 10
111.2300755327233
 20
166.8671919218676
 30
0.0
 10
111.215199821354
 20
167.0834880321903
 30
0.0
 10
111.1082426193712
 20
167.2558549122176
 30
0.0
 10
110.9231517593275
 20
167.3976946150286
 30
0.0
 10
110.7170616407511
 20
167.4841964867546
 30
0.0
 10
110.4375327828751
 20
167.5670995459475
 30
0.0
 10
110.154797027401
 20
167.6285372441936
 30
0.0
 10
109.8307010830641
 20
167.6936034113818
 30
0.0
 10
109.4208417126358
 20
167.7677141615296
 30
0.0
 10
108.9331459737301
 20
167.8485033449704
 30
0.0
 10
108.3803532698934
 20
167.9326848974979
 30
0.0
 10
107.8028762749094
 20
168.0141917993509
 30
0.0
 10
107.2404125637971
 20
168.0880017892929
 30
0.0
 10
106.7275772566328
 20
168.1514172957727
 30
0.0
 10
106.2705222150912
 20
168.203702703015
 30
0.0
 10
105.835776210919
 20
168.2553771851437
 30
0.0
 10
105.4162306096209
 20
168.3082245277501
 30
0.0
 10
104.9873813416058
 20
168.3650930908206
 30
0.0
 10
104.5459917185569
 20
168.4268982188777
 30
0.0
 10
104.0750571941158
 20
168.4971444819719
 30
0.0
 10
103.6136089457742
 20
168.5713492059139
 30
0.0
 10
103.2040622314733
 20
168.6429698632913
 30
0.0
 10
102.8717758580354
 20
168.7064386846522
 30
0.0
 10
102.6146232756574
 20
168.7600374514377
 30
0.0
 10
102.4228280929493
 20
168.8039137912794
 30
0.0
 10
102.2838079438595
 20
168.8461249178003
 30
0.0
 10
102.1999480042843
 20
168.877192449608
 30
0.0
 10
102.1720145225748
 20
168.8935988373174
 30
0.0
 10
102.1750839243802
 20
168.8866124610985
 30
0.0
 10
102.1753171260769
 20
168.8860816623007
 30
0.0
  0
SPLINE
  5
7F
330
1F
100
AcDbEntity
  8
0
  6
Continuous
 62
     7
370
    15
100
AcDbSpline
210
0.0
220
0.0
230
1.0
 70
     8
 71
     3
 72
    11
 73
     7
 74
     0
 42
0.00000001
 43
0.00000001
 12
1.0
 22
0.0
 32
0.0
 13
1.0
 23
0.0
 33
0.0
 40
0.0
 40
0.0
 40
0.0
 40
0.0
 40
0.1969156554199476
 40
0.5544031908558015
 40
0.9553309561865777
 40
1.0
 40
1.0
 40
1.0
 40
1.0
 10
102.7371491340405
 20
168.7352825494173
 30
0.0
 10
102.7725222340935
 20
168.7427860878201
 30
0.0
 10
102.8721128913116
 20
168.763911811036
 30
0.0
 10
103.0716829887356
 20
168.8025148749421
 30
0.0
 10
103.2468362797187
 20
168.8355239289525
 30
0.0
 10
103.3577456234029
 20
168.8544802783391
 30
0.0
 10
103.3688637782701
 20
168.8563805657378
 30
0.0
  0
SPLINE
  5
80
330
1F
100
AcDbEntity
  8
0
  6
Continuous
 62
     7
370
    15
100
AcDbSpline
210
0.0
220
0.0
230
1.0
 70
     8
 71
     3
 72
    43
 73
    39
 74
     0
 42
0.00000001
 43
0.00000001
 12
1.0
 22
0.0
 32
0.0
 13
1.0
 23
0.0
 33
0.0
 40
0.0
 40
0.0
 40
0.0
 40
0.0
 40
0.0041500158192908
 40
0.0350465520609729
 40
0.063665342339214
 40
0.0984081606069789
 40
0.1308388674264569
 40
0.160618515638471
 40
0.198984951934201
 40
0.2200899681841697
 40
0.2460326738597334
 40
0.2724018561651885
 40
0.2987973876251495
 40
0.3364295113807921
 40
0.3680847256204864
 40
0.3947259242132783
 40
0.4249125941908347
 40
0.4573074436223998
 40
0.4936535886668343
 40
0.5300559926376011
 40
0.5659293876369798
 40
0.5998421451211369
 40
0.6291084169009684
 40
0.6542608298168605
 40
0.677971668085591
 40
0.7037029300001189
 40
0.7271899035762723
 40
0.7542971443237899
 40
0.7849364046652308
 40
0.8185353315052091
 40
0.8509328698696345
 40
0.8808583945388573
 40
0.9082159397029484
 40
0.9333557678376202
 40
0.957109343927828
 40
0.979033535050433
 40
0.9984070462225149
 40
0.9999999999999999
 40
0.9999999999999999
 40
0.9999999999999999
 40
0.9999999999999999
 10
109.3688637782701
 20
169.6959948241143
 30
0.0
 10
109.3881459030227
 20
169.699186591649
 30
0.0
 10
109.5509819061645
 20
169.7261408134984
 30
0.0
 10
109.809820316158
 20
169.7742484934516
 30
0.0
 10
110.1650508688864
 20
169.8446234426065
 30
0.0
 10
110.4745315764369
 20
169.9143699420551
 30
0.0
 10
110.7276401773171
 20
169.9908962761078
 30
0.0
 10
110.9456435543863
 20
170.0897743409109
 30
0.0
 10
111.1098867346282
 20
170.2008658426288
 30
0.0
 10
111.2300755327233
 20
170.4386204932962
 30
0.0
 10
111.215199821354
 20
170.6549166036188
 30
0.0
 10
111.1082426193712
 20
170.8272834836462
 30
0.0
 10
110.9231517593276
 20
170.9691231864572
 30
0.0
 10
110.7170616407511
 20
171.0556250581832
 30
0.0
 10
110.4375327828751
 20
171.1385281173761
 30
0.0
 10
110.154797027401
 20
171.1999658156222
 30
0.0
 10
109.8307010830641
 20
171.2650319828103
 30
0.0
 10
109.4208417126358
 20
171.3391427329582
 30
0.0
 10
108.9331459737301
 20
171.419931916399
 30
0.0
 10
108.3803532698934
 20
171.5041134689264
 30
0.0
 10
107.8028762749094
 20
171.5856203707794
 30
0.0
 10
107.2404125637971
 20
171.6594303607215
 30
0.0
 10
106.7275772566328
 20
171.7228458672013
 30
0.0
 10
106.2705222150912
 20
171.7751312744436
 30
0.0
 10
105.835776210919
 20
171.8268057565723
 30
0.0
 10
105.4162306096209
 20
171.8796530991786
 30
0.0
 10
104.9873813416058
 20
171.9365216622492
 30
0.0
 10
104.5459917185569
 20
171.9983267903062
 30
0.0
 10
104.0750571941158
 20
172.0685730534005
 30
0.0
 10
103.6136089457742
 20
172.1427777773424
 30
0.0
 10
103.2040622314733
 20
172.2143984347199
 30
0.0
 10
102.8717758580354
 20
172.2778672560808
 30
0.0
 10
102.6146232756574
 20
172.3314660228662
 30
0.0
 10
102.4228280929493
 20
172.375342362708
 30
0.0
 10
102.2838079438595
 20
172.4175534892289
 30
0.0
 10
102.1999480042843
 20
172.4486210210366
 30
0.0
 10
102.1720145225748
 20
172.465027408746
 30
0.0
 10
102.1750839243802
 20
172.4580410325271
 30
0.0
 10
102.1753171260769
 20
172.4575102337293
 30
0.0
  0
SPLINE
  5
81
330
1F
100
AcDbEntity
  8
0
  6
Continuous
 62
     7
370
    15
100
AcDbSpline
210
0.0
220
0.0
230
1.0
 70
     8
 71
     3
 72
    11
 73
     7
 74
     0
 42
0.00000001
 43
0.00000001
 12
1.0
 22
0.0
 32
0.0
 13
1.0
 23
0.0
 33
0.0
 40
0.0
 40
0.0
 40
0.0
 40
0.0
 40
0.1969156554199455
 40
0.5544031908557935
 40
0.9553309561865639
 40
1.0
 40
1.0
 40
1.0
 40
1.0
 10
102.7371491340405
 20
172.3067111208458
 30
0.0
 10
102.7725222340935
 20
172.3142146592487
 30
0.0
 10
102.8721128913115
 20
172.3353403824646
 30
0.0
 10
103.0716829887356
 20
172.3739434463706
 30
0.0
 10
103.2468362797187
 20
172.406952500381
 30
0.0
 10
103.3577456234029
 20
172.4259088497677
 30
0.0
 10
103.3688637782701
 20
172.4278091371663
 30
0.0
  0
SPLINE
  5
82
330
1F
100
AcDbEntity
  8
0
  6
Continuous
 62
     7
370
    15
100
AcDbSpline
210
0.0
220
0.0
230
1.0
 70
     8
 71
     3
 72
    43
 73
    39
 74
     0
 42
0.00000001
 43
0.00000001
 12
1.0
 22
0.0
 32
0.0
 13
1.0
 23
0.0
 33
0.0
 40
0.0
 40
0.0
 40
0.0
 40
0.0
 40
0.0041500158192908
 40
0.0350465520609729
 40
0.0636653423392141
 40
0.098408160606979
 40
0.130838867426457
 40
0.1606185156384712
 40
0.1989849519342026
 40
0.22008996818417
 40
0.2460326738597337
 40
0.2724018561651875
 40
0.2987973876251498
 40
0.3364295113807912
 40
0.3680847256204868
 40
0.3947259242132787
 40
0.4249125941908349
 40
0.4573074436223999
 40
0.4936535886668343
 40
0.5300559926376022
 40
0.5659293876369794
 40
0.5998421451211365
 40
0.6291084169009681
 40
0.65426082981686
 40
0.6779716680855892
 40
0.7037029300001185
 40
0.7271899035762719
 40
0.7542971443237895
 40
0.7849364046652305
 40
0.8185353315052087
 40
0.8509328698696341
 40
0.8808583945388583
 40
0.9082159397029482
 40
0.933355767837619
 40
0.9571093439278281
 40
0.9790335350504346
 40
0.9984070462225152
 40
0.9999999999999999
 40
0.9999999999999999
 40
0.9999999999999999
 40
0.9999999999999999
 10
109.3688637782701
 20
173.2674233955429
 30
0.0
 10
109.3881459030227
 20
173.2706151630776
 30
0.0
 10
109.5509819061645
 20
173.297569384927
 30
0.0
 10
109.809820316158
 20
173.3456770648801
 30
0.0
 10
110.1650508688864
 20
173.416052014035
 30
0.0
 10
110.4745315764369
 20
173.4857985134837
 30
0.0
 10
110.7276401773171
 20
173.5623248475363
 30
0.0
 10
110.9456435543863
 20
173.6612029123394
 30
0.0
 10
111.1098867346282
 20
173.7722944140573
 30
0.0
 10
111.2300755327233
 20
174.0100490647247
 30
0.0
 10
111.215199821354
 20
174.2263451750474
 30
0.0
 10
111.1082426193712
 20
174.3987120550748
 30
0.0
 10
110.9231517593276
 20
174.5405517578857
 30
0.0
 10
110.7170616407511
 20
174.6270536296118
 30
0.0
 10
110.4375327828751
 20
174.7099566888047
 30
0.0
 10
110.154797027401
 20
174.7713943870507
 30
0.0
 10
109.8307010830641
 20
174.8364605542389
 30
0.0
 10
109.4208417126358
 20
174.9105713043867
 30
0.0
 10
108.9331459737301
 20
174.9913604878275
 30
0.0
 10
108.3803532698935
 20
175.075542040355
 30
0.0
 10
107.8028762749094
 20
175.157048942208
 30
0.0
 10
107.2404125637971
 20
175.2308589321501
 30
0.0
 10
106.7275772566328
 20
175.2942744386299
 30
0.0
 10
106.2705222150912
 20
175.3465598458721
 30
0.0
 10
105.835776210919
 20
175.3982343280009
 30
0.0
 10
105.4162306096209
 20
175.4510816706072
 30
0.0
 10
104.9873813416058
 20
175.5079502336777
 30
0.0
 10
104.545991718557
 20
175.5697553617348
 30
0.0
 10
104.0750571941159
 20
175.640001624829
 30
0.0
 10
103.6136089457742
 20
175.714206348771
 30
0.0
 10
103.2040622314733
 20
175.7858270061485
 30
0.0
 10
102.8717758580355
 20
175.8492958275093
 30
0.0
 10
102.6146232756574
 20
175.9028945942948
 30
0.0
 10
102.4228280929493
 20
175.9467709341365
 30
0.0
 10
102.2838079438596
 20
175.9889820606575
 30
0.0
 10
102.1999480042843
 20
176.0200495924651
 30
0.0
 10
102.1720145225748
 20
176.0364559801747
 30
0.0
 10
102.1750839243802
 20
176.0294696039556
 30
0.0
 10
102.1753171260769
 20
176.0289388051578
 30
0.0
  0
SPLINE
  5
83
330
1F
100
AcDbEntity
  8
0
  6
Continuous
 62
     7
370
    15
100
AcDbSpline
210
0.0
220
0.0
230
1.0
 70
     8
 71
     3
 72
    11
 73
     7
 74
     0
 42
0.00000001
 43
0.00000001
 12
1.0
 22
0.0
 32
0.0
 13
1.0
 23
0.0
 33
0.0
 40
0.0
 40
0.0
 40
0.0
 40
0.0
 40
0.196915655419936
 40
0.5544031908557848
 40
0.9553309561865558
 40
1.0
 40
1.0
 40
1.0
 40
1.0
 10
102.7371491340405
 20
175.8781396922744
 30
0.0
 10
102.7725222340935
 20
175.8856432306773
 30
0.0
 10
102.8721128913115
 20
175.9067689538931
 30
0.0
 10
103.0716829887356
 20
175.9453720177992
 30
0.0
 10
103.2468362797187
 20
175.9783810718096
 30
0.0
 10
103.3577456234029
 20
175.9973374211962
 30
0.0
 10
103.3688637782701
 20
175.9992377085949
 30
0.0
  0
SPLINE
  5
84
330
1F
100
AcDbEntity
  8
0
  6
Continuous
 62
     7
370
    15
100
AcDbSpline
210
0.0
220
0.0
230
1.0
 70
     8
 71
     3
 72
    43
 73
    39
 74
     0
 42
0.00000001
 43
0.00000001
 12
1.0
 22
0.0
 32
0.0
 13
1.0
 23
0.0
 33
0.0
 40
0.0
 40
0.0
 40
0.0
 40
0.0
 40
0.0041500158192909
 40
0.0350465520609729
 40
0.0636653423392129
 40
0.0984081606069779
 40
0.130838867426456
 40
0.1606185156384729
 40
0.198984951934203
 40
0.2200899681841719
 40
0.2460326738597345
 40
0.2724018561651911
 40
0.2987973876251521
 40
0.3364295113807923
 40
0.3680847256204881
 40
0.3947259242132787
 40
0.4249125941908349
 40
0.4573074436223999
 40
0.4936535886668356
 40
0.5300559926376035
 40
0.5659293876369821
 40
0.5998421451211391
 40
0.629108416900967
 40
0.6542608298168624
 40
0.6779716680855916
 40
0.7037029300001222
 40
0.7271899035762731
 40
0.7542971443237908
 40
0.7849364046652331
 40
0.8185353315052087
 40
0.8509328698696353
 40
0.8808583945388595
 40
0.9082159397029508
 40
0.9333557678376202
 40
0.9571093439278292
 40
0.9790335350504354
 40
0.998407046222515
 40
1.0
 40
1.0
 40
1.0
 40
1.0
 10
109.3688637782701
 20
176.8388519669714
 30
0.0
 10
109.3881459030227
 20
176.8420437345061
 30
0.0
 10
109.5509819061645
 20
176.8689979563555
 30
0.0
 10
109.809820316158
 20
176.9171056363087
 30
0.0
 10
110.1650508688864
 20
176.9874805854636
 30
0.0
 10
110.4745315764369
 20
177.0572270849123
 30
0.0
 10
110.7276401773171
 20
177.1337534189649
 30
0.0
 10
110.9456435543863
 20
177.232631483768
 30
0.0
 10
111.1098867346282
 20
177.3437229854859
 30
0.0
 10
111.2300755327233
 20
177.5814776361533
 30
0.0
 10
111.215199821354
 20
177.797773746476
 30
0.0
 10
111.1082426193712
 20
177.9701406265034
 30
0.0
 10
110.9231517593275
 20
178.1119803293143
 30
0.0
 10
110.7170616407511
 20
178.1984822010403
 30
0.0
 10
110.4375327828751
 20
178.2813852602332
 30
0.0
 10
110.154797027401
 20
178.3428229584793
 30
0.0
 10
109.8307010830641
 20
178.4078891256674
 30
0.0
 10
109.4208417126358
 20
178.4819998758153
 30
0.0
 10
108.9331459737301
 20
178.5627890592561
 30
0.0
 10
108.3803532698934
 20
178.6469706117836
 30
0.0
 10
107.8028762749094
 20
178.7284775136366
 30
0.0
 10
107.2404125637971
 20
178.8022875035786
 30
0.0
 10
106.7275772566328
 20
178.8657030100584
 30
0.0
 10
106.2705222150912
 20
178.9179884173007
 30
0.0
 10
105.8357762109189
 20
178.9696628994294
 30
0.0
 10
105.4162306096209
 20
179.0225102420357
 30
0.0
 10
104.9873813416058
 20
179.0793788051063
 30
0.0
 10
104.5459917185569
 20
179.1411839331634
 30
0.0
 10
104.0750571941158
 20
179.2114301962576
 30
0.0
 10
103.6136089457742
 20
179.2856349201996
 30
0.0
 10
103.2040622314732
 20
179.357255577577
 30
0.0
 10
102.8717758580354
 20
179.4207243989379
 30
0.0
 10
102.6146232756574
 20
179.4743231657234
 30
0.0
 10
102.4228280929493
 20
179.5181995055651
 30
0.0
 10
102.2838079438595
 20
179.560410632086
 30
0.0
 10
102.1999480042843
 20
179.5914781638937
 30
0.0
 10
102.1720145225748
 20
179.6078845516031
 30
0.0
 10
102.1750839243802
 20
179.6008981753842
 30
0.0
 10
102.1753171260769
 20
179.6003673765864
 30
0.0
  0
SPLINE
  5
85
330
1F
100
AcDbEntity
  8
0
  6
Continuous
 62
     7
370
    15
100
AcDbSpline
210
0.0
220
0.0
230
1.0
 70
     8
 71
     3
 72
    11
 73
     7
 74
     0
 42
0.00000001
 43
0.00000001
 12
1.0
 22
0.0
 32
0.0
 13
1.0
 23
0.0
 33
0.0
 40
0.0
 40
0.0
 40
0.0
 40
0.0
 40
0.1969156554199529
 40
0.5544031908558036
 40
0.9553309561865996
 40
1.0
 40
1.0
 40
1.0
 40
1.0
 10
102.7371491340405
 20
179.449568263703
 30
0.0
 10
102.7725222340935
 20
179.4570718021058
 30
0.0
 10
102.8721128913116
 20
179.4781975253217
 30
0.0
 10
103.0716829887356
 20
179.5168005892278
 30
0.0
 10
103.2468362797187
 20
179.5498096432381
 30
0.0
 10
103.357745623403
 20
179.5687659926248
 30
0.0
 10
103.3688637782701
 20
179.5706662800235
 30
0.0
  0
SPLINE
  5
86
330
1F
100
AcDbEntity
  8
0
  6
Continuous
 62
     7
370
    15
100
AcDbSpline
210
0.0
220
0.0
230
1.0
 70
     8
 71
     3
 72
    40
 73
    36
 74
     0
 42
0.00000001
 43
0.00000001
 12
1.0
 22
0.0
 32
0.0
 13
1.0
 23
0.0
 33
0.0
 40
0.0
 40
0.0
 40
0.0
 40
0.0
 40
0.0115676561107669
 40
0.0471220590622632
 40
0.0797700558567065
 40
0.1218319123393432
 40
0.1449697445249369
 40
0.1734112279737975
 40
0.2023202658929652
 40
0.2312581908931925
 40
0.2725150065209392
 40
0.3072192221539484
 40
0.3364264767214035
 40
0.3695206992469892
 40
0.4050357910596408
 40
0.4448827636784213
 40
0.4847914140320586
 40
0.524120101752181
 40
0.5612993051380281
 40
0.5933844775500936
 40
0.6209595479607392
 40
0.6469541925676798
 40
0.6751638661850977
 40
0.7009130836562445
 40
0.7306312691341382
 40
0.7642216751150899
 40
0.8010568199750516
 40
0.8365748597161264
 40
0.869382783655223
 40
0.8993753826430336
 40
0.9269366561177979
 40
0.9529781550142407
 40
0.9770140642498224
 40
0.9982536143660667
 40
1.0
 40
1.0
 40
1.0
 40
1.0
 10
110.3688637782701
 20
155.6079504759731
 30
0.0
 10
110.4035620005333
 20
155.6157298213278
 30
0.0
 10
110.5449088441104
 20
155.6474197996401
 30
0.0
 10
110.7251900077611
 20
155.7052941024791
 30
0.0
 10
110.9464959755523
 20
155.8040210510736
 30
0.0
 10
111.1097574676079
 20
155.9151574717685
 30
0.0
 10
111.2301080686062
 20
156.1529047188418
 30
0.0
 10
111.2151901936451
 20
156.3692027584384
 30
0.0
 10
111.1082451904035
 20
156.5415690802896
 30
0.0
 10
110.9231507323952
 20
156.6834089477321
 30
0.0
 10
110.7170619027618
 20
156.7699107604802
 30
0.0
 10
110.4375327295409
 20
156.8528138341023
 30
0.0
 10
110.1547970425914
 20
156.9142515292129
 30
0.0
 10
109.8307010784499
 20
156.9793176973072
 30
0.0
 10
109.4208417140823
 20
157.0534284471777
 30
0.0
 10
108.9331459733229
 20
157.1342176307034
 30
0.0
 10
108.3803532700011
 20
157.2183991832073
 30
0.0
 10
107.8028762748823
 20
157.2999060850664
 30
0.0
 10
107.2404125638031
 20
157.373716075007
 30
0.0
 10
106.7275772566315
 20
157.4371315814871
 30
0.0
 10
106.2705222150915
 20
157.4894169887293
 30
0.0
 10
105.8357762109189
 20
157.5410914708581
 30
0.0
 10
105.4162306096209
 20
157.5939388134644
 30
0.0
 10
104.9873813416058
 20
157.6508073765349
 30
0.0
 10
104.5459917185569
 20
157.712612504592
 30
0.0
 10
104.0750571941158
 20
157.7828587676862
 30
0.0
 10
103.6136089457742
 20
157.8570634916282
 30
0.0
 10
103.2040622314733
 20
157.9286841490056
 30
0.0
 10
102.8717758580354
 20
157.9921529703665
 30
0.0
 10
102.6146232756574
 20
158.045751737152
 30
0.0
 10
102.4228280929493
 20
158.0896280769937
 30
0.0
 10
102.2838079438595
 20
158.1318392035147
 30
0.0
 10
102.1999480042843
 20
158.1629067353223
 30
0.0
 10
102.1720145225748
 20
158.1793131230318
 30
0.0
 10
102.1750839243802
 20
158.1723267468128
 30
0.0
 10
102.1753171260769
 20
158.171795948015
 30
0.0
  0
SPLINE
  5
87
330
1F
100
AcDbEntity
  8
0
  6
Continuous
 62
     7
370
    15
100
AcDbSpline
210
0.0
220
0.0
230
1.0
 70
     8
 71
     3
 72
    40
 73
    36
 74
     0
 42
0.00000001
 43
0.00000001
 12
1.0
 22
0.0
 32
0.0
 13
1.0
 23
0.0
 33
0.0
 40
0.0
 40
0.0
 40
0.0
 40
0.0
 40
0.0115676561191605
 40
0.0471220590715955
 40
0.0797700558654013
 40
0.121831912337861
 40
0.1449697445151253
 40
0.1734112279628827
 40
0.2023202658821708
 40
0.2312581908823236
 40
0.272515006511458
 40
0.3072192221492295
 40
0.3364264767234662
 40
0.3695206992526346
 40
0.4050357910658028
 40
0.4448827636841338
 40
0.484791414037623
 40
0.5241201017575821
 40
0.5612993051440589
 40
0.5933844775569056
 40
0.6209595479679556
 40
0.6469541925753611
 40
0.6751638661912845
 40
0.7009130836610907
 40
0.7306312691375608
 40
0.7642216751170053
 40
0.8010568199761162
 40
0.8365748597175579
 40
0.8693827836569624
 40
0.8993753826450154
 40
0.9269366561202376
 40
0.9529781550171899
 40
0.9770140642526068
 40
0.9982536143660226
 40
1.0
 40
1.0
 40
1.0
 40
1.0
 10
102.3688637782701
 20
158.6488547016302
 30
0.0
 10
102.334165555982
 20
158.6410753562695
 30
0.0
 10
102.1928187123782
 20
158.6093853779501
 30
0.0
 10
102.0125375487054
 20
158.5515110750981
 30
0.0
 10
101.7912315809599
 20
158.4527841265117
 30
0.0
 10
101.6279700889519
 20
158.3416477058398
 30
0.0
 10
101.507619487951
 20
158.1039004588273
 30
0.0
 10
101.5225373628726
 20
157.8876024192303
 30
0.0
 10
101.6294823660833
 20
157.7152360973734
 30
0.0
 10
101.8145768240901
 20
157.573396229899
 30
0.0
 10
102.0206656537249
 20
157.486894417144
 30
0.0
 10
102.3001948269698
 20
157.4039913435089
 30
0.0
 10
102.5829305139673
 20
157.3425536483881
 30
0.0
 10
102.9070264781539
 20
157.2774874802857
 30
0.0
 10
103.3168858425489
 20
157.2033767304117
 30
0.0
 10
103.8045815833207
 20
157.1225875468853
 30
0.0
 10
104.3573742866506
 20
157.0384059943815
 30
0.0
 10
104.9348512817807
 20
156.9568990925219
 30
0.0
 10
105.4973149928738
 20
156.8830891025807
 30
0.0
 10
106.0101503000602
 20
156.8196735960998
 30
0.0
 10
106.4672053416121
 20
156.7673881888572
 30
0.0
 10
106.9019513457825
 20
156.7157137067271
 30
0.0
 10
107.3214969470676
 20
156.6628663641215
 30
0.0
 10
107.7503462150594
 20
156.6059978010531
 30
0.0
 10
108.1917358380846
 20
156.5441926729984
 30
0.0
 10
108.6626703625045
 20
156.4739464099064
 30
0.0
 10
109.1241186108336
 20
156.3997416859656
 30
0.0
 10
109.5336653251285
 20
156.3281210285883
 30
0.0
 10
109.8659516985606
 20
156.2646522072275
 30
0.0
 10
110.1231042809294
 20
156.2110534404438
 30
0.0
 10
110.3148994636265
 20
156.1671771006033
 30
0.0
 10
110.453919612699
 20
156.1249659740866
 30
0.0
 10
110.5377795522621
 20
156.0938984422824
 30
0.0
 10
110.5657130339717
 20
156.0774920545717
 30
0.0
 10
110.562643632166
 20
156.0844784307893
 30
0.0
 10
110.5624104304692
 20
156.0850092295871
 30
0.0
  0
SPLINE
  5
88
330
1F
100
AcDbEntity
  8
0
  6
Continuous
 62
     7
370
    15
100
AcDbSpline
210
0.0
220
0.0
230
1.0
 70
     8
 71
     3
 72
    11
 73
     7
 74
     0
 42
0.00000001
 43
0.00000001
 12
1.0
 22
0.0
 32
0.0
 13
1.0
 23
0.0
 33
0.0
 40
0.0
 40
0.0
 40
0.0
 40
0.0
 40
0.0471046511298007
 40
0.3399911086002959
 40
0.6575816810475035
 40
1.0
 40
1.0
 40
1.0
 40
1.0
 10
110.3688637782701
 20
180.114842758043
 30
0.0
 10
110.3864829429826
 20
180.11570902297
 30
0.0
 10
110.5136542349793
 20
180.1219615344698
 30
0.0
 10
110.6844286304487
 20
180.1341280922884
 30
0.0
 10
110.8722563357482
 20
180.1518332741516
 30
0.0
 10
110.8997790672157
 20
180.1642016456145
 30
0.0
 10
110.9140580982482
 20
180.1706184636599
 30
0.0
  0
SPLINE
  5
89
330
1F
100
AcDbEntity
  8
0
  6
Continuous
 62
     7
370
    15
100
AcDbSpline
210
0.0
220
0.0
230
1.0
 70
     8
 71
     3
 72
    20
 73
    16
 74
     0
 42
0.00000001
 43
0.00000001
 12
1.0
 22
0.0
 32
0.0
 13
1.0
 23
0.0
 33
0.0
 40
0.0
 40
0.0
 40
0.0
 40
0.0
 40
0.0809584539114284
 40
0.1480804032326978
 40
0.2013925781101813
 40
0.2421177089078587
 40
0.3200934408099185
 40
0.3999729329038554
 40
0.459763009693377
 40
0.5359092353268483
 40
0.6285054369337145
 40
0.7087771634640055
 40
0.7982593899822306
 40
0.8968497569167151
 40
1.0
 40
1.0
 40
1.0
 40
1.0
 10
106.3688637782701
 20
180.3426883030882
 30
0.0
 10
106.5579583938187
 20
180.3380038584314
 30
0.0
 10
106.9038297088786
 20
180.3294355814918
 30
0.0
 10
107.3667290300852
 20
180.3177832346342
 30
0.0
 10
107.7289265915846
 20
180.3084649600927
 30
0.0
 10
108.1063903083237
 20
180.2985244646187
 30
0.0
 10
108.5268378384038
 20
180.2870456030865
 30
0.0
 10
108.9581642640393
 20
180.2744657576062
 30
0.0
 10
109.3532050962604
 20
180.2620134248832
 30
0.0
 10
109.7322421873241
 20
180.2488922504521
 30
0.0
 10
110.0850918754792
 20
180.2346501287709
 30
0.0
 10
110.3877130494697
 20
180.2197585707034
 30
0.0
 10
110.6216792408914
 20
180.2046337220641
 30
0.0
 10
110.7913493732085
 20
180.1883297110406
 30
0.0
 10
110.8106452143914
 20
180.177170605859
 30
0.0
 10
110.8205112037346
 20
180.1714649404901
 30
0.0
  0
SPLINE
  5
8A
330
1F
100
AcDbEntity
  8
0
  6
Continuous
 62
     7
370
    15
100
AcDbSpline
210
0.0
220
0.0
230
1.0
 70
     8
 71
     3
 72
    16
 73
    12
 74
     0
 42
0.00000001
 43
0.00000001
 12
1.0
 22
0.0
 32
0.0
 13
1.0
 23
0.0
 33
0.0
 40
0.0
 40
0.0
 40
0.0
 40
0.0
 40
0.1185386371981592
 40
0.2229113614260087
 40
0.3839852180456811
 40
0.4853630077271854
 40
0.5389815248527815
 40
0.606121955463651
 40
0.7204459220314515
 40
0.8955127506110883
 40
1.0
 40
1.0
 40
1.0
 40
1.0
 10
110.8445098083333
 20
180.1562976805951
 30
0.0
 10
110.8852185681742
 20
180.1606847725758
 30
0.0
 10
110.9617712036068
 20
180.1689346788447
 30
0.0
 10
111.07770944508
 20
180.2269997624791
 30
0.0
 10
111.1613753538845
 20
180.3144191493334
 30
0.0
 10
111.2023347305767
 20
180.3994652362198
 30
0.0
 10
111.2197168703728
 20
180.4862060978088
 30
0.0
 10
111.2193000646377
 20
180.5609014967684
 30
0.0
 10
111.1939650231736
 20
180.666339116753
 30
0.0
 10
111.1171663305259
 20
180.7815046273911
 30
0.0
 10
111.027398494888
 20
180.8282017433374
 30
0.0
 10
110.9938465098926
 20
180.8456554440135
 30
0.0
  0
SPLINE
  5
8B
330
1F
100
AcDbEntity
  8
0
  6
Continuous
 62
     7
370
    15
100
AcDbSpline
210
0.0
220
0.0
230
1.0
 70
     8
 71
     3
 72
    14
 73
    10
 74
     0
 42
0.00000001
 43
0.00000001
 12
1.0
 22
0.0
 32
0.0
 13
1.0
 23
0.0
 33
0.0
 40
0.0
 40
0.0
 40
0.0
 40
0.0
 40
0.1297516947162882
 40
0.2010703612433656
 40
0.2901968862216278
 40
0.4418420656531443
 40
0.6745307965970947
 40
0.8265672566580515
 40
1.0
 40
1.0
 40
1.0
 40
1.0
 10
110.9819731789364
 20
154.8376868863364
 30
0.0
 10
110.9920625438047
 20
154.8560074381435
 30
0.0
 10
111.0076975784239
 20
154.8843979726801
 30
0.0
 10
111.019368788647
 20
154.945263381701
 30
0.0
 10
111.0192094488486
 20
154.9982179494678
 30
0.0
 10
111.0017252292897
 20
155.0738358907637
 30
0.0
 10
110.9449155894693
 20
155.1542674638356
 30
0.0
 10
110.8535153973292
 20
155.2118701075661
 30
0.0
 10
110.7897921087631
 20
155.219585341556
 30
0.0
 10
110.7558358860691
 20
155.2236965575555
 30
0.0
  0
SPLINE
  5
8C
330
1F
100
AcDbEntity
  8
0
  6
Continuous
 62
     7
370
    15
100
AcDbSpline
210
0.0
220
0.0
230
1.0
 70
     8
 71
     3
 72
    19
 73
    15
 74
     0
 42
0.00000001
 43
0.00000001
 12
1.0
 22
0.0
 32
0.0
 13
1.0
 23
0.0
 33
0.0
 40
0.0
 40
0.0
 40
0.0
 40
0.0
 40
0.1081181598040564
 40
0.2068785583171423
 40
0.296306403235934
 40
0.3763692308678184
 40
0.4685549070229817
 40
0.544246898080645
 40
0.6036218400833294
 40
0.6828897800522755
 40
0.7602179172750533
 40
0.8166712340578274
 40
0.8962021888822853
 40
1.0
 40
1.0
 40
1.0
 40
1.0
 10
110.7927761380176
 20
155.2165420735056
 30
0.0
 10
110.7786565900901
 20
155.2211638278637
 30
0.0
 10
110.7516395586808
 20
155.2300073179883
 30
0.0
 10
110.5714489728095
 20
155.2425917581929
 30
0.0
 10
110.331678302475
 20
155.2539355588527
 30
0.0
 10
110.0261504354876
 20
155.2649630698803
 30
0.0
 10
109.6732720112391
 20
155.2753903201692
 30
0.0
 10
109.2968881682111
 20
155.284907772718
 30
0.0
 10
108.9071615260327
 20
155.2938686554862
 30
0.0
 10
108.4830608430041
 20
155.302890697372
 30
0.0
 10
108.0366057426828
 20
155.3117842543456
 30
0.0
 10
107.5713650290574
 20
155.3206825916654
 30
0.0
 10
107.0316054264087
 20
155.3306939469348
 30
0.0
 10
106.6084484698641
 20
155.3383522784428
 30
0.0
 10
106.3688637782701
 20
155.3426883030883
 30
0.0
  0
SPLINE
  5
8D
330
1F
100
AcDbEntity
  8
0
  6
Continuous
 62
     7
370
    15
100
AcDbSpline
210
0.0
220
0.0
230
1.0
 70
     8
 71
     3
 72
    10
 73
     6
 74
     0
 42
0.00000001
 43
0.00000001
 12
1.0
 22
0.0
 32
0.0
 13
1.0
 23
0.0
 33
0.0
 40
0.0
 40
0.0
 40
0.0
 40
0.0
 40
0.2465375810993902
 40
0.6062280650294232
 40
1.0
 40
1.0
 40
1.0
 40
1.0
 10
102.3688637782701
 20
155.5015669716984
 30
0.0
 10
102.3048051526231
 20
155.4987062679809
 30
0.0
 10
102.14728703104
 20
155.491671888591
 30
0.0
 10
101.9879313910835
 20
155.4800062718662
 30
0.0
 10
101.9597036850521
 20
155.4711634687972
 30
0.0
 10
101.9449514185224
 20
155.4665420735057
 30
0.0
  0
SPLINE
  5
8E
330
1F
100
AcDbEntity
  8
0
  6
Continuous
 62
     7
370
    15
100
AcDbSpline
210
0.0
220
0.0
230
1.0
 70
     8
 71
     3
 72
    21
 73
    17
 74
     0
 42
0.00000001
 43
0.00000001
 12
1.0
 22
0.0
 32
0.0
 13
1.0
 23
0.0
 33
0.0
 40
0.0
 40
0.0
 40
0.0
 40
0.0
 40
0.0830581498691858
 40
0.1551212202078577
 40
0.2162147896818357
 40
0.2663210723140287
 40
0.312271442669915
 40
0.3708329973140442
 40
0.4235257661104284
 40
0.4837345635395446
 40
0.5514636503519252
 40
0.6266528586794688
 40
0.709338746026656
 40
0.7994996527783936
 40
0.8970616724438275
 40
0.9999999999999999
 40
0.9999999999999999
 40
0.9999999999999999
 40
0.9999999999999999
 10
106.3688637782701
 20
155.3426883030883
 30
0.0
 10
106.1783783556432
 20
155.3461355155407
 30
0.0
 10
105.822623607479
 20
155.3525736050332
 30
0.0
 10
105.3351677355146
 20
155.361547387073
 30
0.0
 10
104.9326387215427
 20
155.3691479742427
 30
0.0
 10
104.5977441793674
 20
155.3756635549817
 30
0.0
 10
104.2788718899234
 20
155.3820721050734
 30
0.0
 10
103.9683408494259
 20
155.388584032001
 30
0.0
 10
103.6484362373732
 20
155.3956794476524
 30
0.0
 10
103.3341950079561
 20
155.403144878328
 30
0.0
 10
103.0144479508325
 20
155.4115208602527
 30
0.0
 10
102.7050245609814
 20
155.4208133570982
 30
0.0
 10
102.4229433094133
 20
155.4309989811946
 30
0.0
 10
102.1913524267688
 20
155.4420681637103
 30
0.0
 10
102.0253764400664
 20
155.4539387297316
 30
0.0
 10
102.0047081892099
 20
155.4620904020026
 30
0.0
 10
101.9940969598223
 20
155.4662755294699
 30
0.0
  0
SPLINE
  5
8F
330
1F
100
AcDbEntity
  8
0
  6
Continuous
 62
     7
370
    15
100
AcDbSpline
210
0.0
220
0.0
230
1.0
 70
     8
 71
     3
 72
    19
 73
    15
 74
     0
 42
0.00000001
 43
0.00000001
 12
1.0
 22
0.0
 32
0.0
 13
1.0
 23
0.0
 33
0.0
 40
0.0
 40
0.0
 40
0.0
 40
0.0
 40
0.1081181598038406
 40
0.2068785583167875
 40
0.2963064032354614
 40
0.3763692308672255
 40
0.468554907022217
 40
0.5442468980796821
 40
0.6036218400821779
 40
0.6828897800509722
 40
0.7602179172734707
 40
0.8166712340562029
 40
0.8962021888802891
 40
1.0
 40
1.0
 40
1.0
 40
1.0
 10
101.9449514185244
 20
154.9688345326693
 30
0.0
 10
101.9590709664562
 20
154.9642127783112
 30
0.0
 10
101.9860879978736
 20
154.9553692881868
 30
0.0
 10
102.1662785837521
 20
154.9427848479824
 30
0.0
 10
102.4060492540906
 20
154.9314410473228
 30
0.0
 10
102.7115771210795
 20
154.9204135362953
 30
0.0
 10
103.0644555453273
 20
154.9099862860066
 30
0.0
 10
103.4408393883529
 20
154.900468833458
 30
0.0
 10
103.8305660305275
 20
154.8915079506899
 30
0.0
 10
104.254666713551
 20
154.8824859088042
 30
0.0
 10
104.7011218138666
 20
154.8735923518308
 30
0.0
 10
105.1663625274852
 20
154.8646940145111
 30
0.0
 10
105.706122130131
 20
154.8546826592417
 30
0.0
 10
106.1292790866743
 20
154.8470243277337
 30
0.0
 10
106.3688637782701
 20
154.8426883030883
 30
0.0
  0
SPLINE
  5
90
330
1F
100
AcDbEntity
  8
0
  6
Continuous
 62
     7
370
    15
100
AcDbSpline
210
0.0
220
0.0
230
1.0
 70
     8
 71
     3
 72
    17
 73
    13
 74
     0
 42
0.00000001
 43
0.00000001
 12
1.0
 22
0.0
 32
0.0
 13
1.0
 23
0.0
 33
0.0
 40
0.0
 40
0.0
 40
0.0
 40
0.0
 40
0.1046061425703485
 40
0.1963953054820514
 40
0.3376043059230002
 40
0.4263216352516188
 40
0.4733357756257203
 40
0.5320890748787781
 40
0.6320554385384166
 40
0.78544670612843
 40
0.8856710067801531
 40
1.0
 40
1.0
 40
1.0
 40
1.0
 10
101.9818916704716
 20
155.4736965575556
 30
0.0
 10
101.953394835563
 20
155.4707330645303
 30
0.0
 10
101.8998927709651
 20
155.4651691836369
 30
0.0
 10
101.8184516498513
 20
155.4242492130899
 30
0.0
 10
101.7595674041253
 20
155.3622948414604
 30
0.0
 10
101.7306067092811
 20
155.3018182554085
 30
0.0
 10
101.7182640532515
 20
155.2401561185706
 30
0.0
 10
101.718567415829
 20
155.1871363261793
 30
0.0
 10
101.7359765507936
 20
155.1115523889813
 30
0.0
 10
101.7928169840615
 20
155.0311068702607
 30
0.0
 10
101.8842109589191
 20
154.9735070421956
 30
0.0
 10
101.9479350305245
 20
154.9657914535857
 30
0.0
 10
101.9818916704765
 20
154.9616800486198
 30
0.0
  0
LINE
  5
91
330
1F
100
AcDbEntity
  8
0
  6
Continuous
 62
     7
370
    15
100
AcDbLine
 10
101.3688637783
 20
144.8426883031
 30
0.0
 11
101.3688637783
 21
142.1426883031
 31
0.0
  0
LINE
  5
92
330
1F
100
AcDbEntity
  8
0
  6
Continuous
 62
     7
370
    15
100
AcDbLine
 10
111.3688637783
 20
142.1426883031
 30
0.0
 11
111.3688637783
 21
144.8426883031
 31
0.0
  0
LINE
  5
93
330
1F
100
AcDbEntity
  8
0
  6
Continuous
 62
     7
370
    15
100
AcDbLine
 10
101.3688637783
 20
142.1426883031
 30
0.0
 11
101.6688637783
 21
141.8426883031
 31
0.0
  0
LINE
  5
94
330
1F
100
AcDbEntity
  8
0
  6
Continuous
 62
     7
370
    15
100
AcDbLine
 10
111.0688637783
 20
141.8426883031
 30
0.0
 11
111.3688637783
 21
142.1426883031
 31
0.0
  0
LINE
  5
95
330
1F
100
AcDbEntity
  8
0
  6
Continuous
 62
     7
370
    15
100
AcDbLine
 10
110.3688637783
 20
155.2515669717
 30
0.0
 11
110.3688637783
 21
156.1490817617
 31
0.0
  0
LINE
  5
96
330
1F
100
AcDbEntity
  8
0
  6
Continuous
 62
     7
370
    15
100
AcDbLine
 10
110.3688637783
 20
156.8653170567
 30
0.0
 11
110.3688637783
 21
159.5426883031
 31
0.0
  0
LINE
  5
97
330
1F
100
AcDbEntity
  8
0
  6
Continuous
 62
     7
370
    15
100
AcDbLine
 10
102.3688637783
 20
159.5426883031
 30
0.0
 11
102.3688637783
 21
158.107723416
 31
0.0
  0
LINE
  5
98
330
1F
100
AcDbEntity
  8
0
  6
Continuous
 62
     7
370
    15
100
AcDbLine
 10
102.3688637783
 20
157.3914881209
 30
0.0
 11
102.3688637783
 21
155.4341966904
 31
0.0
  0
LINE
  5
99
330
1F
100
AcDbEntity
  8
0
  6
Continuous
 62
     7
370
    15
100
AcDbLine
 10
102.3688637783
 20
154.9338096345
 30
0.0
 11
102.3688637783
 21
154.8426883031
 31
0.0
  0
LINE
  5
9A
330
1F
100
AcDbEntity
  8
0
  6
Continuous
 62
     7
370
    15
100
AcDbLine
 10
110.3688637783
 20
159.5426883031
 30
0.0
 11
110.131911537
 21
159.7796405444
 31
0.0
  0
LINE
  5
9B
330
1F
100
AcDbEntity
  8
0
  6
Continuous
 62
     7
370
    15
100
AcDbLine
 10
102.6688637783
 20
159.8426883031
 30
0.0
 11
102.3688637783
 21
159.5426883031
 31
0.0
  0
LINE
  5
9C
330
1F
100
AcDbEntity
  8
0
  6
Continuous
 62
     7
370
    15
100
AcDbLine
 10
99.3688637783
 20
183.8426883031
 30
0.0
 11
99.3688637783
 21
181.8426883031
 31
0.0
  0
LINE
  5
9D
330
1F
100
AcDbEntity
  8
0
  6
Continuous
 62
     7
370
    15
100
AcDbLine
 10
113.3688637783
 20
181.8426883031
 30
0.0
 11
113.3688637783
 21
183.8426883031
 31
0.0
  0
LINE
  5
9E
330
1F
100
AcDbEntity
  8
0
  6
Continuous
 62
     7
370
    15
100
AcDbLine
 10
99.3688637783
 20
181.8426883031
 30
0.0
 11
100.3688637783
 21
180.8426883031
 31
0.0
  0
LINE
  5
9F
330
1F
100
AcDbEntity
  8
0
  6
Continuous
 62
     7
370
    15
100
AcDbLine
 10
112.3688637783
 20
180.8426883031
 30
0.0
 11
113.3688637783
 21
181.8426883031
 31
0.0
  0
LINE
  5
A0
330
1F
100
AcDbEntity
  8
0
  6
Continuous
 62
     7
370
    15
100
AcDbLine
 10
100.3688637783
 20
198.3426883031
 30
0.0
 11
100.3688637783
 21
183.8426883031
 31
0.0
  0
LINE
  5
A1
330
1F
100
AcDbEntity
  8
0
  6
Continuous
 62
     7
370
    15
100
AcDbLine
 10
112.3688637783
 20
183.8426883031
 30
0.0
 11
112.3688637783
 21
198.3426883031
 31
0.0
  0
LINE
  5
A2
330
1F
100
AcDbEntity
  8
0
  6
Continuous
 62
     7
370
    15
100
AcDbLine
 10
112.3688637783
 20
198.3426883031
 30
0.0
 11
111.8688637783
 21
198.8426883031
 31
0.0
  0
LINE
  5
A3
330
1F
100
AcDbEntity
  8
0
  6
Continuous
 62
     7
370
    15
100
AcDbLine
 10
100.8688637783
 20
198.8426883031
 30
0.0
 11
100.3688637783
 21
198.3426883031
 31
0.0
  0
LINE
  5
A4
330
1F
100
AcDbEntity
  8
0
  6
Continuous
 62
     7
370
    15
100
AcDbLine
 10
102.3688637783
 20
180.4645714031
 30
0.0
 11
102.3688637783
 21
180.0426883031
 31
0.0
  0
LINE
  5
A5
330
1F
100
AcDbEntity
  8
0
  6
Continuous
 62
     7
370
    15
100
AcDbLine
 10
110.3688637783
 20
180.0426883031
 30
0.0
 11
110.3688637783
 21
180.220137812
 31
0.0
  0
LINE
  5
A6
330
1F
100
AcDbEntity
  8
0
  6
Continuous
 62
     7
370
    15
100
AcDbLine
 10
102.3688637783
 20
180.0426883031
 30
0.0
 11
102.5688637783
 21
179.8426883031
 31
0.0
  0
LINE
  5
A7
330
1F
100
AcDbEntity
  8
0
  6
Continuous
 62
     7
370
    15
100
AcDbLine
 10
110.1688637783
 20
179.8426883031
 30
0.0
 11
110.3688637783
 21
180.0426883031
 31
0.0
  0
LINE
  5
A8
330
1F
100
AcDbEntity
  8
0
  6
Continuous
 62
     7
370
    15
100
AcDbLine
 10
105.7641302081
 20
199.6426883031
 30
0.0
 11
105.7641302078
 21
202.1426883031
 31
0.0
  0
LINE
  5
A9
330
1F
100
AcDbEntity
  8
0
  6
Continuous
 62
     7
370
    15
100
AcDbLine
 10
105.7641302078
 20
202.1426883031
 30
0.0
 11
109.5345797461
 21
202.1426883031
 31
0.0
  0
LINE
  5
AA
330
1F
100
AcDbEntity
  8
0
  6
Continuous
 62
     7
370
    15
100
AcDbLine
 10
109.5345797461
 20
202.1426883031
 30
0.0
 11
109.5345797461
 21
199.6426883031
 31
0.0
  0
LINE
  5
AB
330
1F
100
AcDbEntity
  8
0
  6
Continuous
 62
     7
370
    15
100
AcDbLine
 10
105.7641302081
 20
199.6426883031
 30
0.0
 11
105.859042234
 21
199.6426883031
 31
0.0
  0
LINE
  5
AC
330
1F
100
AcDbEntity
  8
0
  6
Continuous
 62
     7
370
    15
100
AcDbLine
 10
109.43966772
 20
199.6426883031
 30
0.0
 11
109.5345797461
 21
199.6426883031
 31
0.0
  0
LINE
  5
AD
330
1F
100
AcDbEntity
  8
0
  6
Continuous
 62
     7
370
    15
100
AcDbLine
 10
102.5984142401
 20
199.6426883031
 30
0.0
 11
102.5984142401
 21
202.1426883031
 31
0.0
  0
LINE
  5
AE
330
1F
100
AcDbEntity
  8
0
  6
Continuous
 62
     7
370
    15
100
AcDbLine
 10
102.5984142401
 20
202.1426883031
 30
0.0
 11
105.7641302078
 21
202.1426883031
 31
0.0
  0
LINE
  5
AF
330
1F
100
AcDbEntity
  8
0
  6
Continuous
 62
     7
370
    15
100
AcDbLine
 10
102.5984142401
 20
199.6426883031
 30
0.0
 11
102.6781035486
 21
199.6426883031
 31
0.0
  0
LINE
  5
B0
330
1F
100
AcDbEntity
  8
0
  6
Continuous
 62
     7
370
    15
100
AcDbLine
 10
105.6844408994
 20
199.6426883031
 30
0.0
 11
105.7641302081
 21
199.6426883031
 31
0.0
  0
LINE
  5
B1
330
1F
100
AcDbEntity
  8
0
  6
Continuous
 62
     7
370
    15
100
AcDbLine
 10
106.0179689905
 20
204.6426883031
 30
0.0
 11
108.7188637783
 21
204.6426883031
 31
0.0
  0
LINE
  5
B2
330
1F
100
AcDbEntity
  8
0
  6
Continuous
 62
     7
370
    15
100
AcDbLine
 10
104.0188637783
 20
204.6426883031
 30
0.0
 11
106.0179689905
 21
204.6426883031
 31
0.0
  0
LINE
  5
B3
330
1F
100
AcDbEntity
  8
0
  6
Continuous
 62
     7
370
    15
100
AcDbLine
 10
106.0179689905
 20
207.1426883031
 30
0.0
 11
108.7188637783
 21
207.1426883031
 31
0.0
  0
LINE
  5
B4
330
1F
100
AcDbEntity
  8
0
  6
Continuous
 62
     7
370
    15
100
AcDbLine
 10
104.0188637783
 20
207.1426883031
 30
0.0
 11
106.0179689905
 21
207.1426883031
 31
0.0
  0
LINE
  5
B5
330
1F
100
AcDbEntity
  8
0
  6
Continuous
 62
     7
370
    15
100
AcDbLine
 10
104.3688637783
 20
209.6426883031
 30
0.0
 11
108.3688637783
 21
209.6426883031
 31
0.0
  0
LINE
  5
B6
330
1F
100
AcDbEntity
  8
0
  6
Continuous
 62
     7
370
    15
100
AcDbLine
 10
110.1393133164
 20
199.6426883031
 30
0.0
 11
110.1393133164
 21
202.1426883031
 31
0.0
  0
LINE
  5
B7
330
1F
100
AcDbEntity
  8
0
  6
Continuous
 62
     7
370
    15
100
AcDbLine
 10
109.5345797461
 20
202.1426883031
 30
0.0
 11
110.1393133164
 21
202.1426883031
 31
0.0
  0
LINE
  5
B8
330
1F
100
AcDbEntity
  8
0
  6
Continuous
 62
     7
370
    15
100
AcDbLine
 10
109.5345797461
 20
199.6426883031
 30
0.0
 11
109.5498024637
 21
199.6426883031
 31
0.0
  0
SPLINE
  5
B9
330
1F
100
AcDbEntity
  8
0
  6
Continuous
 62
     7
370
    15
100
AcDbSpline
210
0.0
220
0.0
230
1.0
 70
     8
 71
     3
 72
    12
 73
     8
 74
     0
 42
0.00000001
 43
0.00000001
 12
1.0
 22
0.0
 32
0.0
 13
1.0
 23
0.0
 33
0.0
 40
0.0
 40
0.0
 40
0.0
 40
0.0
 40
0.0226029295244037
 40
0.2627296704593384
 40
0.5098351696094083
 40
0.750981976074686
 40
1.0
 40
1.0
 40
1.0
 40
1.0
 10
115.6688637782701
 20
150.9206616868942
 30
0.0
 10
115.6771449118075
 20
150.8978162659464
 30
0.0
 10
115.7734023231741
 20
150.6322679479443
 30
0.0
 10
115.921533409259
 20
150.1017031483638
 30
0.0
 10
115.9941712595403
 20
149.3176083716276
 30
0.0
 10
115.9142545428451
 20
148.5224454444518
 30
0.0
 10
115.7515317175048
 20
148.0199813353577
 30
0.0
 10
115.6688637782701
 20
147.7647149192823
 30
0.0
  0
LINE
  5
BA
330
1F
100
AcDbEntity
  8
0
  6
Continuous
 62
     7
370
    15
100
AcDbLine
 10
115.6688637783
 20
150.9206616869
 30
0.0
 11
115.6688637783
 21
152.0178032263
 31
0.0
  0
SPLINE
  5
BB
330
1F
100
AcDbEntity
  8
0
  6
Continuous
 62
     7
370
    15
100
AcDbSpline
210
0.0
220
0.0
230
1.0
 70
     8
 71
     3
 72
    11
 73
     7
 74
     0
 42
0.00000001
 43
0.00000001
 12
1.0
 22
0.0
 32
0.0
 13
1.0
 23
0.0
 33
0.0
 40
0.0
 40
0.0
 40
0.0
 40
0.0
 40
0.2456323284991133
 40
0.4984917103771321
 40
0.7449965733615064
 40
1.0
 40
1.0
 40
1.0
 40
1.0
 10
115.6688637782701
 20
153.595776610129
 30
0.0
 10
115.7506046312943
 20
153.4699009327769
 30
0.0
 10
115.9164913363576
 20
153.2144460336538
 30
0.0
 10
115.9942172416626
 20
152.8126664676479
 30
0.0
 10
115.9196217218413
 20
152.4057522605698
 30
0.0
 10
115.7533887545434
 20
152.1485722956812
 30
0.0
 10
115.6688637782701
 20
152.0178032263231
 30
0.0
  0
LINE
  5
BC
330
1F
100
AcDbEntity
  8
0
  6
Continuous
 62
     7
370
    15
100
AcDbLine
 10
115.6688637783
 20
153.5957766101
 30
0.0
 11
115.6688637783
 21
153.6426883031
 31
0.0
  0
LINE
  5
BD
330
1F
100
AcDbEntity
  8
0
  6
Continuous
 62
     7
370
    15
100
AcDbLine
 10
115.6688637783
 20
145.0426883031
 30
0.0
 11
115.6688637783
 21
145.089599996
 31
0.0
  0
SPLINE
  5
BE
330
1F
100
AcDbEntity
  8
0
  6
Continuous
 62
     7
370
    15
100
AcDbSpline
210
0.0
220
0.0
230
1.0
 70
     8
 71
     3
 72
    11
 73
     7
 74
     0
 42
0.00000001
 43
0.00000001
 12
1.0
 22
0.0
 32
0.0
 13
1.0
 23
0.0
 33
0.0
 40
0.0
 40
0.0
 40
0.0
 40
0.0
 40
0.2456323284991243
 40
0.4984917103771549
 40
0.7449965733615181
 40
1.0
 40
1.0
 40
1.0
 40
1.0
 10
115.6688637782701
 20
146.6675733798535
 30
0.0
 10
115.7506046312943
 20
146.5416977025014
 30
0.0
 10
115.9164913363576
 20
146.2862428033783
 30
0.0
 10
115.9942172416626
 20
145.8844632373724
 30
0.0
 10
115.9196217218413
 20
145.4775490302943
 30
0.0
 10
115.7533887545434
 20
145.2203690654057
 30
0.0
 10
115.6688637782701
 20
145.0895999960475
 30
0.0
  0
LINE
  5
BF
330
1F
100
AcDbEntity
  8
0
  6
Continuous
 62
     7
370
    15
100
AcDbLine
 10
115.6688637783
 20
146.6675733799
 30
0.0
 11
115.6688637783
 21
147.7647149193
 31
0.0
  0
LINE
  5
C0
330
1F
100
AcDbEntity
  8
0
  6
Continuous
 62
     7
370
    15
100
AcDbLine
 10
116.1688637783
 20
149.3426883031
 30
0.0
 11
116.1688637783
 21
145.5426883031
 31
0.0
  0
LINE
  5
C1
330
1F
100
AcDbEntity
  8
0
  6
Continuous
 62
     7
370
    15
100
AcDbLine
 10
116.1688637783
 20
153.1426883031
 30
0.0
 11
116.1688637783
 21
149.3426883031
 31
0.0
  0
LINE
  5
C2
330
1F
100
AcDbEntity
  8
0
  6
Continuous
 62
     7
370
    15
100
AcDbLine
 10
113.1688637783
 20
150.9206616869
 30
0.0
 11
113.1688637783
 21
147.7647149193
 31
0.0
  0
LINE
  5
C3
330
1F
100
AcDbEntity
  8
0
  6
Continuous
 62
     7
370
    15
100
AcDbLine
 10
115.6688637783
 20
150.9206616869
 30
0.0
 11
113.1688637783
 21
150.9206616869
 31
0.0
  0
LINE
  5
C4
330
1F
100
AcDbEntity
  8
0
  6
Continuous
 62
     7
370
    15
100
AcDbLine
 10
113.1688637783
 20
147.7647149193
 30
0.0
 11
115.6688637783
 21
147.7647149193
 31
0.0
  0
LINE
  5
C5
330
1F
100
AcDbEntity
  8
0
  6
Continuous
 62
     7
370
    15
100
AcDbLine
 10
113.1688637783
 20
150.9206616869
 30
0.0
 11
113.1688637783
 21
152.0178032263
 31
0.0
  0
LINE
  5
C6
330
1F
100
AcDbEntity
  8
0
  6
Continuous
 62
     7
370
    15
100
AcDbLine
 10
113.1688637783
 20
152.0178032263
 30
0.0
 11
115.6688637783
 21
152.0178032263
 31
0.0
  0
LINE
  5
C7
330
1F
100
AcDbEntity
  8
0
  6
Continuous
 62
     7
370
    15
100
AcDbLine
 10
115.6688637783
 20
146.6675733799
 30
0.0
 11
113.1688637783
 21
146.6675733799
 31
0.0
  0
LINE
  5
C8
330
1F
100
AcDbEntity
  8
0
  6
Continuous
 62
     7
370
    15
100
AcDbLine
 10
113.1688637783
 20
146.6675733799
 30
0.0
 11
113.1688637783
 21
147.7647149193
 31
0.0
  0
LINE
  5
C9
330
1F
100
AcDbEntity
  8
0
  6
Continuous
 62
     7
370
    15
100
AcDbLine
 10
113.1688637783
 20
145.089599996
 30
0.0
 11
115.6688637783
 21
145.089599996
 31
0.0
  0
LINE
  5
CA
330
1F
100
AcDbEntity
  8
0
  6
Continuous
 62
     7
370
    15
100
AcDbLine
 10
113.1688637783
 20
146.6675733799
 30
0.0
 11
113.1688637783
 21
145.089599996
 31
0.0
  0
LINE
  5
CB
330
1F
100
AcDbEntity
  8
0
  6
Continuous
 62
     7
370
    15
100
AcDbLine
 10
115.6688637783
 20
153.5957766101
 30
0.0
 11
113.1688637783
 21
153.5957766101
 31
0.0
  0
LINE
  5
CC
330
1F
100
AcDbEntity
  8
0
  6
Continuous
 62
     7
370
    15
100
AcDbLine
 10
113.1688637783
 20
153.5957766101
 30
0.0
 11
113.1688637783
 21
152.0178032263
 31
0.0
  0
LINE
  5
CD
330
1F
100
AcDbEntity
  8
0
  6
Continuous
 62
     7
370
    15
100
AcDbLine
 10
113.1688637783
 20
153.5957766101
 30
0.0
 11
113.1688637783
 21
153.6426883031
 31
0.0
  0
LINE
  5
CE
330
1F
100
AcDbEntity
  8
0
  6
Continuous
 62
     7
370
    15
100
AcDbLine
 10
113.1688637783
 20
145.0426883031
 30
0.0
 11
113.1688637783
 21
145.089599996
 31
0.0
  0
LINE
  5
CF
330
1F
100
AcDbEntity
  8
0
  6
Continuous
 62
     7
370
    15
100
AcDbLine
 10
99.5688637783
 20
152.0178032263
 30
0.0
 11
99.5688637783
 21
150.9206616869
 31
0.0
  0
LINE
  5
D0
330
1F
100
AcDbEntity
  8
0
  6
Continuous
 62
     7
370
    15
100
AcDbLine
 10
99.5688637783
 20
150.9206616869
 30
0.0
 11
97.0688637783
 21
150.9206616869
 31
0.0
  0
LINE
  5
D1
330
1F
100
AcDbEntity
  8
0
  6
Continuous
 62
     7
370
    15
100
AcDbLine
 10
97.0688637783
 20
152.0178032263
 30
0.0
 11
97.0688637783
 21
150.9206616869
 31
0.0
  0
LINE
  5
D2
330
1F
100
AcDbEntity
  8
0
  6
Continuous
 62
     7
370
    15
100
AcDbLine
 10
97.0688637783
 20
152.0178032263
 30
0.0
 11
99.5688637783
 21
152.0178032263
 31
0.0
  0
LINE
  5
D3
330
1F
100
AcDbEntity
  8
0
  6
Continuous
 62
     7
370
    15
100
AcDbLine
 10
99.5688637783
 20
147.7647149193
 30
0.0
 11
99.5688637783
 21
150.9206616869
 31
0.0
  0
LINE
  5
D4
330
1F
100
AcDbEntity
  8
0
  6
Continuous
 62
     7
370
    15
100
AcDbLine
 10
97.0688637783
 20
147.7647149193
 30
0.0
 11
99.5688637783
 21
147.7647149193
 31
0.0
  0
SPLINE
  5
D5
330
1F
100
AcDbEntity
  8
0
  6
Continuous
 62
     7
370
    15
100
AcDbSpline
210
0.0
220
0.0
230
1.0
 70
     8
 71
     3
 72
    12
 73
     8
 74
     0
 42
0.00000001
 43
0.00000001
 12
1.0
 22
0.0
 32
0.0
 13
1.0
 23
0.0
 33
0.0
 40
0.0
 40
0.0
 40
0.0
 40
0.0
 40
0.2416624852724905
 40
0.490157221578655
 40
0.7297992712092934
 40
0.9773970637315835
 40
0.9999999999999999
 40
0.9999999999999999
 40
0.9999999999999999
 40
0.9999999999999999
 10
97.06886377827007
 20
147.7647149192823
 30
0.0
 10
96.98839218349347
 20
148.0123050902738
 30
0.0
 10
96.82517391125224
 20
148.5144852700669
 30
0.0
 10
96.74365970378501
 20
149.3016825565309
 30
0.0
 10
96.81455442331306
 20
150.0935865494187
 30
0.0
 10
96.9615880540703
 20
150.6247188922837
 30
0.0
 10
97.06058264436845
 20
150.8978164259774
 30
0.0
 10
97.06886377827007
 20
150.9206616868942
 30
0.0
  0
LINE
  5
D6
330
1F
100
AcDbEntity
  8
0
  6
Continuous
 62
     7
370
    15
100
AcDbLine
 10
97.0688637783
 20
153.6426883031
 30
0.0
 11
97.0688637783
 21
153.5957766101
 31
0.0
  0
SPLINE
  5
D7
330
1F
100
AcDbEntity
  8
0
  6
Continuous
 62
     7
370
    15
100
AcDbSpline
210
0.0
220
0.0
230
1.0
 70
     8
 71
     3
 72
    11
 73
     7
 74
     0
 42
0.00000001
 43
0.00000001
 12
1.0
 22
0.0
 32
0.0
 13
1.0
 23
0.0
 33
0.0
 40
0.0
 40
0.0
 40
0.0
 40
0.0
 40
0.2456323284991247
 40
0.4984917103771561
 40
0.7449965733615186
 40
0.9999999999999999
 40
0.9999999999999999
 40
0.9999999999999999
 40
0.9999999999999999
 10
97.06886377827007
 20
152.0178032263231
 30
0.0
 10
96.98712292524581
 20
152.1436789036751
 30
0.0
 10
96.8212362201825
 20
152.3991338027982
 30
0.0
 10
96.74351031487758
 20
152.8009133688041
 30
0.0
 10
96.81810583469888
 20
153.2078275758822
 30
0.0
 10
96.98433880199676
 20
153.4650075407709
 30
0.0
 10
97.06886377827007
 20
153.595776610129
 30
0.0
  0
LINE
  5
D8
330
1F
100
AcDbEntity
  8
0
  6
Continuous
 62
     7
370
    15
100
AcDbLine
 10
97.0688637783
 20
147.7647149193
 30
0.0
 11
97.0688637783
 21
146.6675733799
 31
0.0
  0
SPLINE
  5
D9
330
1F
100
AcDbEntity
  8
0
  6
Continuous
 62
     7
370
    15
100
AcDbSpline
210
0.0
220
0.0
230
1.0
 70
     8
 71
     3
 72
    11
 73
     7
 74
     0
 42
0.00000001
 43
0.00000001
 12
1.0
 22
0.0
 32
0.0
 13
1.0
 23
0.0
 33
0.0
 40
0.0
 40
0.0
 40
0.0
 40
0.0
 40
0.2456323284991131
 40
0.4984917103771319
 40
0.744996573361506
 40
1.0
 40
1.0
 40
1.0
 40
1.0
 10
97.06886377827007
 20
145.0895999960475
 30
0.0
 10
96.98712292524581
 20
145.2154756733996
 30
0.0
 10
96.82123622018251
 20
145.4709305725227
 30
0.0
 10
96.74351031487758
 20
145.8727101385286
 30
0.0
 10
96.81810583469886
 20
146.2796243456067
 30
0.0
 10
96.98433880199676
 20
146.5368043104953
 30
0.0
 10
97.06886377827007
 20
146.6675733798535
 30
0.0
  0
LINE
  5
DA
330
1F
100
AcDbEntity
  8
0
  6
Continuous
 62
     7
370
    15
100
AcDbLine
 10
97.0688637783
 20
145.089599996
 30
0.0
 11
97.0688637783
 21
145.0426883031
 31
0.0
  0
LINE
  5
DB
330
1F
100
AcDbEntity
  8
0
  6
Continuous
 62
     7
370
    15
100
AcDbLine
 10
96.5688637783
 20
145.5426883031
 30
0.0
 11
96.5688637783
 21
153.1426883031
 31
0.0
  0
LINE
  5
DC
330
1F
100
AcDbEntity
  8
0
  6
Continuous
 62
     7
370
    15
100
AcDbLine
 10
99.5688637783
 20
146.6675733799
 30
0.0
 11
97.0688637783
 21
146.6675733799
 31
0.0
  0
LINE
  5
DD
330
1F
100
AcDbEntity
  8
0
  6
Continuous
 62
     7
370
    15
100
AcDbLine
 10
99.5688637783
 20
147.7647149193
 30
0.0
 11
99.5688637783
 21
146.6675733799
 31
0.0
  0
LINE
  5
DE
330
1F
100
AcDbEntity
  8
0
  6
Continuous
 62
     7
370
    15
100
AcDbLine
 10
97.0688637783
 20
145.089599996
 30
0.0
 11
99.5688637783
 21
145.089599996
 31
0.0
  0
LINE
  5
DF
330
1F
100
AcDbEntity
  8
0
  6
Continuous
 62
     7
370
    15
100
AcDbLine
 10
99.5688637783
 20
145.089599996
 30
0.0
 11
99.5688637783
 21
146.6675733799
 31
0.0
  0
LINE
  5
E0
330
1F
100
AcDbEntity
  8
0
  6
Continuous
 62
     7
370
    15
100
AcDbLine
 10
99.5688637783
 20
153.5957766101
 30
0.0
 11
97.0688637783
 21
153.5957766101
 31
0.0
  0
LINE
  5
E1
330
1F
100
AcDbEntity
  8
0
  6
Continuous
 62
     7
370
    15
100
AcDbLine
 10
99.5688637783
 20
152.0178032263
 30
0.0
 11
99.5688637783
 21
153.5957766101
 31
0.0
  0
LINE
  5
E2
330
1F
100
AcDbEntity
  8
0
  6
Continuous
 62
     7
370
    15
100
AcDbLine
 10
99.5688637783
 20
153.6426883031
 30
0.0
 11
99.5688637783
 21
153.5957766101
 31
0.0
  0
LINE
  5
E3
330
1F
100
AcDbEntity
  8
0
  6
Continuous
 62
     7
370
    15
100
AcDbLine
 10
99.5688637783
 20
145.089599996
 30
0.0
 11
99.5688637783
 21
145.0426883031
 31
0.0
  0
LINE
  5
E4
330
1F
100
AcDbEntity
  8
0
  6
Continuous
 62
     7
370
    15
100
AcDbLine
 10
112.3688637783
 20
151.3426883031
 30
0.0
 11
112.3688637783
 21
147.3426883031
 31
0.0
  0
LINE
  5
E5
330
1F
100
AcDbEntity
  8
0
  6
Continuous
 62
     7
370
    15
100
AcDbLine
 10
102.3688637783
 20
199.6426883031
 30
0.0
 11
102.5984142401
 21
199.6426883031
 31
0.0
  0
LINE
  5
E6
330
1F
100
AcDbEntity
  8
0
  6
Continuous
 62
     7
370
    15
100
AcDbLine
 10
102.6781035486
 20
199.6426883031
 30
0.0
 11
105.6844408994
 21
199.6426883031
 31
0.0
  0
LINE
  5
E7
330
1F
100
AcDbEntity
  8
0
  6
Continuous
 62
     7
370
    15
100
AcDbLine
 10
105.859042234
 20
199.6426883031
 30
0.0
 11
109.43966772
 21
199.6426883031
 31
0.0
  0
LINE
  5
E8
330
1F
100
AcDbEntity
  8
0
  6
Continuous
 62
     7
370
    15
100
AcDbLine
 10
109.5345797461
 20
199.6426883031
 30
0.0
 11
110.3688637783
 21
199.6426883031
 31
0.0
  0
LINE
  5
E9
330
1F
100
AcDbEntity
  8
0
  6
Continuous
 62
     7
370
    15
100
AcDbLine
 10
100.3688637783
 20
149.3426883031
 30
0.0
 11
100.3688637783
 21
151.3426883031
 31
0.0
  0
LINE
  5
EA
330
1F
100
AcDbEntity
  8
0
  6
Continuous
 62
     7
370
    15
100
AcDbLine
 10
100.3688637783
 20
147.3426883031
 30
0.0
 11
100.3688637783
 21
149.3426883031
 31
0.0
  0
LINE
  5
EB
330
1F
100
AcDbEntity
  8
0
  6
Continuous
 62
     7
370
    15
100
AcDbLine
 10
106.3688637783
 20
138.9708915334
 30
0.0
 11
106.3688637783
 21
141.0426883031
 31
0.0
  0
LINE
  5
EC
330
1F
100
AcDbEntity
  8
0
  6
Continuous
 62
     7
370
    15
100
AcDbLine
 10
112.3688637783
 20
138.9708915334
 30
0.0
 11
112.3688637783
 21
141.0426883031
 31
0.0
  0
SPLINE
  5
ED
330
1F
100
AcDbEntity
  8
0
  6
Continuous
 62
     7
370
    15
100
AcDbSpline
210
0.0
220
0.0
230
1.0
 70
     8
 71
     3
 72
    11
 73
     7
 74
     0
 42
0.00000001
 43
0.00000001
 12
1.0
 22
0.0
 32
0.0
 13
1.0
 23
0.0
 33
0.0
 40
0.0
 40
0.0
 40
0.0
 40
0.0
 40
0.2495746411356406
 40
0.5043573698238735
 40
0.7510435045342285
 40
0.9999999999999999
 40
0.9999999999999999
 40
0.9999999999999999
 40
0.9999999999999999
 10
109.36886377827
 20
138.0426883030875
 30
0.0
 10
109.6297298081911
 20
138.055923712756
 30
0.0
 10
110.1569055826557
 20
138.0826707267095
 30
0.0
 10
110.9242381223853
 20
138.2895186852859
 30
0.0
 10
111.6661962382006
 20
138.584894358164
 30
0.0
 10
112.1339270959278
 20
138.8418334930195
 30
0.0
 10
112.3688637782701
 20
138.9708915333638
 30
0.0
  0
SPLINE
  5
EE
330
1F
100
AcDbEntity
  8
0
  6
Continuous
 62
     7
370
    15
100
AcDbSpline
210
0.0
220
0.0
230
1.0
 70
     8
 71
     3
 72
    12
 73
     8
 74
     0
 42
0.00000001
 43
0.00000001
 12
1.0
 22
0.0
 32
0.0
 13
1.0
 23
0.0
 33
0.0
 40
0.0
 40
0.0
 40
0.0
 40
0.0
 40
0.2161617805974025
 40
0.4322246319520704
 40
0.6544545557916429
 40
0.8796836492889357
 40
0.9999999999999999
 40
0.9999999999999999
 40
0.9999999999999999
 40
0.9999999999999999
 10
106.3688637782701
 20
138.9708915333638
 30
0.0
 10
106.5725993327912
 20
138.8583356995391
 30
0.0
 10
106.9799771996142
 20
138.6332755445272
 30
0.0
 10
107.6223354790139
 20
138.3594315010359
 30
0.0
 10
108.2931246291822
 20
138.154132589489
 30
0.0
 10
108.8822327655573
 20
138.055006300732
 30
0.0
 10
109.243183440816
 20
138.0458696254042
 30
0.0
 10
109.36886377827
 20
138.0426883030875
 30
0.0
  0
LINE
  5
EF
330
1F
100
AcDbEntity
  8
0
  6
Continuous
 62
     7
370
    15
100
AcDbLine
 10
106.3688637783
 20
141.0426883031
 30
0.0
 11
112.3688637783
 21
141.0426883031
 31
0.0
  0
SPLINE
  5
F0
330
1F
100
AcDbEntity
  8
0
  6
Continuous
 62
     7
370
    15
100
AcDbSpline
210
0.0
220
0.0
230
1.0
 70
     8
 71
     3
 72
    10
 73
     6
 74
     0
 42
0.00000001
 43
0.00000001
 12
1.0
 22
0.0
 32
0.0
 13
1.0
 23
0.0
 33
0.0
 40
0.0
 40
0.0
 40
0.0
 40
0.0
 40
0.3113230187034516
 40
0.6323256943808704
 40
0.9999999999999999
 40
0.9999999999999999
 40
0.9999999999999999
 40
0.9999999999999999
 10
103.3688637782701
 20
138.0426883030883
 30
0.0
 10
103.6940800413421
 20
138.0639175070867
 30
0.0
 10
104.354624193289
 20
138.1070359736086
 30
0.0
 10
105.3672626577509
 20
138.4369694525789
 30
0.0
 10
106.0202458506397
 20
138.785054271897
 30
0.0
 10
106.3688637782701
 20
138.9708915333638
 30
0.0
  0
LINE
  5
F1
330
1F
100
AcDbEntity
  8
0
  6
Continuous
 62
     7
370
    15
100
AcDbLine
 10
103.3688637783
 20
138.0426883031
 30
0.0
 11
109.3688637783
 21
138.0426883031
 31
0.0
  0
LINE
  5
F2
330
1F
100
AcDbEntity
  8
0
  6
Continuous
 62
     7
370
    15
100
AcDbLine
 10
100.8688637783
 20
129.3426883031
 30
0.0
 11
111.8688637783
 21
129.3426883031
 31
0.0
  0
LINE
  5
F3
330
1F
100
AcDbEntity
  8
0
  6
Continuous
 62
     7
370
    15
100
AcDbLine
 10
101.1688637783
 20
129.0426883031
 30
0.0
 11
111.5688637783
 21
129.0426883031
 31
0.0
  0
LINE
  5
F4
330
1F
100
AcDbEntity
  8
0
  6
Continuous
 62
     7
370
    15
100
AcDbLine
 10
101.0688637783
 20
131.0426883031
 30
0.0
 11
111.6688637783
 21
131.0426883031
 31
0.0
  0
LINE
  5
F5
330
1F
100
AcDbEntity
  8
0
  6
Continuous
 62
     7
370
    15
100
AcDbLine
 10
100.3688637783
 20
138.9708915334
 30
0.0
 11
100.3688637783
 21
141.0426883031
 31
0.0
  0
SPLINE
  5
F6
330
1F
100
AcDbEntity
  8
0
  6
Continuous
 62
     7
370
    15
100
AcDbSpline
210
0.0
220
0.0
230
1.0
 70
     8
 71
     3
 72
    12
 73
     8
 74
     0
 42
0.00000001
 43
0.00000001
 12
1.0
 22
0.0
 32
0.0
 13
1.0
 23
0.0
 33
0.0
 40
0.0
 40
0.0
 40
0.0
 40
0.0
 40
0.2664536042524872
 40
0.6104499115493718
 40
0.7878426659697736
 40
0.9651892191129728
 40
0.9999999999999999
 40
0.9999999999999999
 40
0.9999999999999999
 40
0.9999999999999999
 10
100.3688637782701
 20
138.9708915333638
 30
0.0
 10
100.6204759309708
 20
138.8334304545521
 30
0.0
 10
101.1969238149911
 20
138.5185046961356
 30
0.0
 10
101.985347849999
 20
138.2293132438204
 30
0.0
 10
102.7044184513458
 20
138.081053291318
 30
0.0
 10
103.110970759583
 20
138.0446583986217
 30
0.0
 10
103.3325131045452
 20
138.0429659930401
 30
0.0
 10
103.3688637782701
 20
138.0426883030883
 30
0.0
  0
LINE
  5
F7
330
1F
100
AcDbEntity
  8
0
  6
Continuous
 62
     7
370
    15
100
AcDbLine
 10
100.3688637783
 20
141.0426883031
 30
0.0
 11
106.3688637783
 21
141.0426883031
 31
0.0
  0
SPLINE
  5
F8
330
1F
100
AcDbEntity
  8
0
  6
Continuous
 62
     7
370
    15
100
AcDbSpline
210
0.0
220
0.0
230
1.0
 70
    24
 71
     3
 72
    12
 73
     8
 74
     0
 42
0.00000001
 43
0.00000001
 12
1.0
 22
0.0
 32
0.0
 13
1.0
 23
0.0
 33
0.0
 40
0.0
 40
0.0
 40
0.0
 40
0.0
 40
0.2161617805974026
 40
0.4322246319520709
 40
0.6544545557916432
 40
0.8796836492889356
 40
1.0
 40
1.0
 40
1.0
 40
1.0
 10
112.3688637782701
 20
138.9708915333638
 30
0.0
 10
112.3688637782701
 20
138.8583356995391
 30
0.0
 10
112.3688637782701
 20
138.6332755445272
 30
0.0
 10
112.3688637782701
 20
138.3594315010359
 30
0.0
 10
112.3688637782701
 20
138.154132589489
 30
0.0
 10
112.3688637782701
 20
138.055006300732
 30
0.0
 10
112.3688637782701
 20
138.0458696254042
 30
0.0
 10
112.3688637782701
 20
138.0426883030875
 30
0.0
  0
LINE
  5
F9
330
1F
100
AcDbEntity
  8
0
  6
Continuous
 62
     7
370
    15
100
AcDbLine
 10
109.3688637783
 20
138.0426883031
 30
0.0
 11
112.3688637783
 21
138.0426883031
 31
0.0
  0
SPLINE
  5
FA
330
1F
100
AcDbEntity
  8
0
  6
Continuous
 62
     7
370
    15
100
AcDbSpline
210
0.0
220
0.0
230
1.0
 70
    24
 71
     3
 72
    11
 73
     7
 74
     0
 42
0.00000001
 43
0.00000001
 12
1.0
 22
0.0
 32
0.0
 13
1.0
 23
0.0
 33
0.0
 40
0.0
 40
0.0
 40
0.0
 40
0.0
 40
0.2495746411356254
 40
0.5043573698238579
 40
0.7510435045342206
 40
1.0
 40
1.0
 40
1.0
 40
1.0
 10
100.3688637782701
 20
138.0426883030883
 30
0.0
 10
100.3688637782701
 20
138.0559237127564
 30
0.0
 10
100.3688637782701
 20
138.0826707267093
 30
0.0
 10
100.3688637782701
 20
138.289518685286
 30
0.0
 10
100.3688637782701
 20
138.584894358164
 30
0.0
 10
100.3688637782701
 20
138.8418334930195
 30
0.0
 10
100.3688637782701
 20
138.9708915333638
 30
0.0
  0
LINE
  5
FB
330
1F
100
AcDbEntity
  8
0
  6
Continuous
 62
     7
370
    15
100
AcDbLine
 10
100.3688637783
 20
138.0426883031
 30
0.0
 11
103.3688637783
 21
138.0426883031
 31
0.0
  0
SPLINE
  5
FC
330
1F
100
AcDbEntity
  8
0
  6
Continuous
 62
     7
370
    15
100
AcDbSpline
210
0.0
220
0.0
230
1.0
 70
     8
 71
     3
 72
    12
 73
     8
 74
     0
 42
0.00000001
 43
0.00000001
 12
1.0
 22
0.0
 32
0.0
 13
1.0
 23
0.0
 33
0.0
 40
0.0
 40
0.0
 40
0.0
 40
0.0
 40
0.2161644325500448
 40
0.4322299346436547
 40
0.6560318375279118
 40
0.8796821732034571
 40
0.9999999999999999
 40
0.9999999999999999
 40
0.9999999999999999
 40
0.9999999999999999
 10
106.3688637782701
 20
145.7708915333638
 30
0.0
 10
106.1651250356262
 20
145.6583500434733
 30
0.0
 10
105.7577407940166
 20
145.4333185697649
 30
0.0
 10
105.1138906498189
 20
145.1586003100474
 30
0.0
 10
104.442853878885
 20
144.9544194666606
 30
0.0
 10
103.8538551868314
 20
144.8548778795896
 30
0.0
 10
103.4945473303088
 20
144.8458471822879
 30
0.0
 10
103.3688637782701
 20
144.8426883030883
 30
0.0
  0
SPLINE
  5
FD
330
1F
100
AcDbEntity
  8
0
  6
Continuous
 62
     7
370
    15
100
AcDbSpline
210
0.0
220
0.0
230
1.0
 70
     8
 71
     3
 72
    11
 73
     7
 74
     0
 42
0.00000001
 43
0.00000001
 12
1.0
 22
0.0
 32
0.0
 13
1.0
 23
0.0
 33
0.0
 40
0.0
 40
0.0
 40
0.0
 40
0.0
 40
0.2495746411356284
 40
0.5043573698238638
 40
0.7510435045342237
 40
1.0
 40
1.0
 40
1.0
 40
1.0
 10
103.3688637782701
 20
144.8426883030883
 30
0.0
 10
103.107997748349
 20
144.8559237127564
 30
0.0
 10
102.5808219738844
 20
144.8826707267093
 30
0.0
 10
101.8134894341548
 20
145.089518685286
 30
0.0
 10
101.0715313183396
 20
145.384894358164
 30
0.0
 10
100.6038004606123
 20
145.6418334930194
 30
0.0
 10
100.3688637782701
 20
145.7708915333638
 30
0.0
  0
LINE
  5
FE
330
1F
100
AcDbEntity
  8
0
  6
Continuous
 62
     7
370
    15
100
AcDbLine
 10
100.3688637783
 20
145.7708915334
 30
0.0
 11
100.3688637783
 21
147.3426883031
 31
0.0
  0
LINE
  5
FF
330
1F
100
AcDbEntity
  8
0
  6
Continuous
 62
     7
370
    15
100
AcDbLine
 10
100.3688637783
 20
151.3426883031
 30
0.0
 11
100.3688637783
 21
153.9144850728
 31
0.0
  0
SPLINE
  5
100
330
1F
100
AcDbEntity
  8
0
  6
Continuous
 62
     7
370
    15
100
AcDbSpline
210
0.0
220
0.0
230
1.0
 70
     8
 71
     3
 72
    12
 73
     8
 74
     0
 42
0.00000001
 43
0.00000001
 12
1.0
 22
0.0
 32
0.0
 13
1.0
 23
0.0
 33
0.0
 40
0.0
 40
0.0
 40
0.0
 40
0.0
 40
0.2161644325500439
 40
0.432229934643652
 40
0.6560318375279075
 40
0.8796821732034513
 40
1.0
 40
1.0
 40
1.0
 40
1.0
 10
100.3688637782701
 20
153.9144850728127
 30
0.0
 10
100.572602520914
 20
154.0270265627033
 30
0.0
 10
100.9799867625235
 20
154.2520580364116
 30
0.0
 10
101.6238369067212
 20
154.5267762961292
 30
0.0
 10
102.2948736776551
 20
154.7309571395159
 30
0.0
 10
102.8838723697088
 20
154.830498726587
 30
0.0
 10
103.2431802262313
 20
154.8395294238886
 30
0.0
 10
103.3688637782701
 20
154.8426883030883
 30
0.0
  0
SPLINE
  5
101
330
1F
100
AcDbEntity
  8
0
  6
Continuous
 62
     7
370
    15
100
AcDbSpline
210
0.0
220
0.0
230
1.0
 70
     8
 71
     3
 72
    11
 73
     7
 74
     0
 42
0.00000001
 43
0.00000001
 12
1.0
 22
0.0
 32
0.0
 13
1.0
 23
0.0
 33
0.0
 40
0.0
 40
0.0
 40
0.0
 40
0.0
 40
0.2495746411356216
 40
0.50435736982385
 40
0.7510435045342168
 40
1.0
 40
1.0
 40
1.0
 40
1.0
 10
103.3688637782701
 20
154.8426883030883
 30
0.0
 10
103.6297298081911
 20
154.8294528934202
 30
0.0
 10
104.1569055826557
 20
154.8027058794672
 30
0.0
 10
104.9242381223853
 20
154.5958579208905
 30
0.0
 10
105.6661962382005
 20
154.3004822480126
 30
0.0
 10
106.1339270959278
 20
154.0435431131571
 30
0.0
 10
106.3688637782701
 20
153.9144850728127
 30
0.0
  0
LINE
  5
102
330
1F
100
AcDbEntity
  8
0
  6
Continuous
 62
     7
370
    15
100
AcDbLine
 10
106.3688637783
 20
145.7708915334
 30
0.0
 11
106.3688637783
 21
153.9144850728
 31
0.0
  0
LINE
  5
103
330
1F
100
AcDbEntity
  8
0
  6
Continuous
 62
     7
370
    15
100
AcDbLine
 10
109.3688637783
 20
144.8426883031
 30
0.0
 11
103.3688637783
 21
144.8426883031
 31
0.0
  0
SPLINE
  5
104
330
1F
100
AcDbEntity
  8
0
  6
Continuous
 62
     7
370
    15
100
AcDbSpline
210
0.0
220
0.0
230
1.0
 70
     8
 71
     3
 72
    11
 73
     7
 74
     0
 42
0.00000001
 43
0.00000001
 12
1.0
 22
0.0
 32
0.0
 13
1.0
 23
0.0
 33
0.0
 40
0.0
 40
0.0
 40
0.0
 40
0.0
 40
0.2495746411356286
 40
0.5043573698238639
 40
0.7510435045342239
 40
1.0
 40
1.0
 40
1.0
 40
1.0
 10
109.3688637782701
 20
144.8426883030883
 30
0.0
 10
109.107997748349
 20
144.8559237127564
 30
0.0
 10
108.5808219738844
 20
144.8826707267093
 30
0.0
 10
107.8134894341548
 20
145.089518685286
 30
0.0
 10
107.0715313183396
 20
145.384894358164
 30
0.0
 10
106.6038004606123
 20
145.6418334930194
 30
0.0
 10
106.3688637782701
 20
145.7708915333638
 30
0.0
  0
SPLINE
  5
105
330
1F
100
AcDbEntity
  8
0
  6
Continuous
 62
     7
370
    15
100
AcDbSpline
210
0.0
220
0.0
230
1.0
 70
     8
 71
     3
 72
    12
 73
     8
 74
     0
 42
0.00000001
 43
0.00000001
 12
1.0
 22
0.0
 32
0.0
 13
1.0
 23
0.0
 33
0.0
 40
0.0
 40
0.0
 40
0.0
 40
0.0
 40
0.2161644325500436
 40
0.4322299346436522
 40
0.6560318375279082
 40
0.8796821732034521
 40
1.0
 40
1.0
 40
1.0
 40
1.0
 10
106.3688637782701
 20
153.9144850728127
 30
0.0
 10
106.572602520914
 20
154.0270265627033
 30
0.0
 10
106.9799867625235
 20
154.2520580364116
 30
0.0
 10
107.6238369067212
 20
154.5267762961292
 30
0.0
 10
108.2948736776551
 20
154.7309571395159
 30
0.0
 10
108.8838723697088
 20
154.830498726587
 30
0.0
 10
109.2431802262313
 20
154.8395294238886
 30
0.0
 10
109.3688637782701
 20
154.8426883030883
 30
0.0
  0
LINE
  5
106
330
1F
100
AcDbEntity
  8
0
  6
Continuous
 62
     7
370
    15
100
AcDbLine
 10
103.3688637783
 20
154.8426883031
 30
0.0
 11
109.3688637783
 21
154.8426883031
 31
0.0
  0
SPLINE
  5
107
330
1F
100
AcDbEntity
  8
0
  6
Continuous
 62
     7
370
    15
100
AcDbSpline
210
0.0
220
0.0
230
1.0
 70
     8
 71
     3
 72
    12
 73
     8
 74
     0
 42
0.00000001
 43
0.00000001
 12
1.0
 22
0.0
 32
0.0
 13
1.0
 23
0.0
 33
0.0
 40
0.0
 40
0.0
 40
0.0
 40
0.0
 40
0.2161644325500451
 40
0.4322299346436552
 40
0.6560318375279125
 40
0.8796821732034579
 40
1.0
 40
1.0
 40
1.0
 40
1.0
 10
112.3688637782701
 20
145.7708915333638
 30
0.0
 10
112.1651250356262
 20
145.6583500434733
 30
0.0
 10
111.7577407940166
 20
145.4333185697649
 30
0.0
 10
111.1138906498189
 20
145.1586003100474
 30
0.0
 10
110.442853878885
 20
144.9544194666606
 30
0.0
 10
109.8538551868314
 20
144.8548778795896
 30
0.0
 10
109.4945473303088
 20
144.8458471822879
 30
0.0
 10
109.3688637782701
 20
144.8426883030883
 30
0.0
  0
SPLINE
  5
108
330
1F
100
AcDbEntity
  8
0
  6
Continuous
 62
     7
370
    15
100
AcDbSpline
210
0.0
220
0.0
230
1.0
 70
     8
 71
     3
 72
    11
 73
     7
 74
     0
 42
0.00000001
 43
0.00000001
 12
1.0
 22
0.0
 32
0.0
 13
1.0
 23
0.0
 33
0.0
 40
0.0
 40
0.0
 40
0.0
 40
0.0
 40
0.2495746411356219
 40
0.5043573698238512
 40
0.7510435045342173
 40
1.0
 40
1.0
 40
1.0
 40
1.0
 10
109.3688637782701
 20
154.8426883030883
 30
0.0
 10
109.6297298081911
 20
154.8294528934202
 30
0.0
 10
110.1569055826557
 20
154.8027058794672
 30
0.0
 10
110.9242381223853
 20
154.5958579208905
 30
0.0
 10
111.6661962382006
 20
154.3004822480126
 30
0.0
 10
112.1339270959278
 20
154.0435431131571
 30
0.0
 10
112.3688637782701
 20
153.9144850728127
 30
0.0
  0
LINE
  5
109
330
1F
100
AcDbEntity
  8
0
  6
Continuous
 62
     7
370
    15
100
AcDbLine
 10
112.3688637783
 20
145.7708915334
 30
0.0
 11
112.3688637783
 21
147.3426883031
 31
0.0
  0
LINE
  5
10A
330
1F
100
AcDbEntity
  8
0
  6
Continuous
 62
     7
370
    15
100
AcDbLine
 10
112.3688637783
 20
151.3426883031
 30
0.0
 11
112.3688637783
 21
153.9144850728
 31
0.0
  0
SPLINE
  5
10B
330
1F
100
AcDbEntity
  8
0
  6
Continuous
 62
     7
370
    15
100
AcDbSpline
210
0.0
220
0.0
230
1.0
 70
    24
 71
     3
 72
    13
 73
     9
 74
     0
 42
0.00000001
 43
0.00000001
 12
1.0
 22
0.0
 32
0.0
 13
1.0
 23
0.0
 33
0.0
 40
0.0
 40
0.0
 40
0.0
 40
0.0
 40
0.03480181971848
 40
0.206483453642356
 40
0.3782049938553648
 40
0.5558792066493827
 40
0.7336149875916513
 40
1.0
 40
1.0
 40
1.0
 40
1.0
 10
112.3688637782701
 20
144.8426883030883
 30
0.0
 10
112.3688637782701
 20
144.8429649989713
 30
0.0
 10
112.3688637782701
 20
144.8446066694932
 30
0.0
 10
112.3688637782701
 20
144.8792757690312
 30
0.0
 10
112.3688637782701
 20
144.9862748088076
 30
0.0
 10
112.3688637782701
 20
145.1529855732113
 30
0.0
 10
112.3688637782701
 20
145.4033603248506
 30
0.0
 10
112.3688637782701
 20
145.6330956072127
 30
0.0
 10
112.3688637782701
 20
145.7708915333638
 30
0.0
  0
LINE
  5
10C
330
1F
100
AcDbEntity
  8
0
  6
Continuous
 62
     7
370
    15
100
AcDbLine
 10
112.3688637783
 20
144.8426883031
 30
0.0
 11
109.3688637783
 21
144.8426883031
 31
0.0
  0
SPLINE
  5
10D
330
1F
100
AcDbEntity
  8
0
  6
Continuous
 62
     7
370
    15
100
AcDbSpline
210
0.0
220
0.0
230
1.0
 70
    24
 71
     3
 72
    13
 73
     9
 74
     0
 42
0.00000001
 43
0.00000001
 12
1.0
 22
0.0
 32
0.0
 13
1.0
 23
0.0
 33
0.0
 40
0.0
 40
0.0
 40
0.0
 40
0.0
 40
0.0348018197184867
 40
0.206483453642361
 40
0.3782049938553683
 40
0.5558792066493844
 40
0.733614987591651
 40
1.0
 40
1.0
 40
1.0
 40
1.0
 10
100.3688637782701
 20
154.8426883030883
 30
0.0
 10
100.3688637782701
 20
154.8424116072052
 30
0.0
 10
100.3688637782701
 20
154.8407699366833
 30
0.0
 10
100.3688637782701
 20
154.8061008371454
 30
0.0
 10
100.3688637782701
 20
154.6991017973689
 30
0.0
 10
100.3688637782701
 20
154.5323910329652
 30
0.0
 10
100.3688637782701
 20
154.2820162813259
 30
0.0
 10
100.3688637782701
 20
154.0522809989638
 30
0.0
 10
100.3688637782701
 20
153.9144850728127
 30
0.0
  0
LINE
  5
10E
330
1F
100
AcDbEntity
  8
0
  6
Continuous
 62
     7
370
    15
100
AcDbLine
 10
100.3688637783
 20
154.8426883031
 30
0.0
 11
103.3688637783
 21
154.8426883031
 31
0.0
  0
SPLINE
  5
10F
330
1F
100
AcDbEntity
  8
0
  6
Continuous
 62
     7
370
    15
100
AcDbSpline
210
0.0
220
0.0
230
1.0
 70
    24
 71
     3
 72
    12
 73
     8
 74
     0
 42
0.00000001
 43
0.00000001
 12
1.0
 22
0.0
 32
0.0
 13
1.0
 23
0.0
 33
0.0
 40
0.0
 40
0.0
 40
0.0
 40
0.0
 40
0.2664536042524867
 40
0.6104499115493724
 40
0.7878426659697756
 40
0.9651892191129756
 40
1.0
 40
1.0
 40
1.0
 40
1.0
 10
100.3688637782701
 20
145.7708915333638
 30
0.0
 10
100.3688637782701
 20
145.6334304545522
 30
0.0
 10
100.3688637782701
 20
145.3185046961356
 30
0.0
 10
100.3688637782701
 20
145.0293132438204
 30
0.0
 10
100.3688637782701
 20
144.881053291318
 30
0.0
 10
100.3688637782701
 20
144.8446583986217
 30
0.0
 10
100.3688637782701
 20
144.8429659930401
 30
0.0
 10
100.3688637782701
 20
144.8426883030883
 30
0.0
  0
LINE
  5
110
330
1F
100
AcDbEntity
  8
0
  6
Continuous
 62
     7
370
    15
100
AcDbLine
 10
103.3688637783
 20
144.8426883031
 30
0.0
 11
100.3688637783
 21
144.8426883031
 31
0.0
  0
SPLINE
  5
111
330
1F
100
AcDbEntity
  8
0
  6
Continuous
 62
     7
370
    15
100
AcDbSpline
210
0.0
220
0.0
230
1.0
 70
    24
 71
     3
 72
    12
 73
     8
 74
     0
 42
0.00000001
 43
0.00000001
 12
1.0
 22
0.0
 32
0.0
 13
1.0
 23
0.0
 33
0.0
 40
0.0
 40
0.0
 40
0.0
 40
0.0
 40
0.2664536042524875
 40
0.6104499115493702
 40
0.7878426659697717
 40
0.9651892191129703
 40
1.0
 40
1.0
 40
1.0
 40
1.0
 10
112.3688637782701
 20
153.9144850728127
 30
0.0
 10
112.3688637782701
 20
154.0519461516244
 30
0.0
 10
112.3688637782701
 20
154.3668719100409
 30
0.0
 10
112.3688637782701
 20
154.6560633623561
 30
0.0
 10
112.3688637782701
 20
154.8043233148585
 30
0.0
 10
112.3688637782701
 20
154.8407182075549
 30
0.0
 10
112.3688637782701
 20
154.8424106131364
 30
0.0
 10
112.3688637782701
 20
154.8426883030883
 30
0.0
  0
LINE
  5
112
330
1F
100
AcDbEntity
  8
0
  6
Continuous
 62
     7
370
    15
100
AcDbLine
 10
109.3688637783
 20
154.8426883031
 30
0.0
 11
112.3688637783
 21
154.8426883031
 31
0.0
  0
LINE
  5
113
330
1F
100
AcDbEntity
  8
0
  6
Continuous
 62
     7
370
    15
100
AcDbLine
 10
101.3688637783
 20
142.1426883031
 30
0.0
 11
111.3688637783
 21
142.1426883031
 31
0.0
  0
LINE
  5
114
330
1F
100
AcDbEntity
  8
0
  6
Continuous
 62
     7
370
    15
100
AcDbLine
 10
111.0688637783
 20
141.8426883031
 30
0.0
 11
101.6688637783
 21
141.8426883031
 31
0.0
  0
LINE
  5
115
330
1F
100
AcDbEntity
  8
0
  6
Continuous
 62
     7
370
    15
100
AcDbLine
 10
110.3688637783
 20
159.5426883031
 30
0.0
 11
102.3688637783
 21
159.5426883031
 31
0.0
  0
LINE
  5
116
330
1F
100
AcDbEntity
  8
0
  6
Continuous
 62
     7
370
    15
100
AcDbLine
 10
102.6688637783
 20
159.8426883031
 30
0.0
 11
106.1838101834
 21
159.8426883031
 31
0.0
  0
LINE
  5
117
330
1F
100
AcDbEntity
  8
0
  6
Continuous
 62
     7
370
    15
100
AcDbLine
 10
106.5539173732
 20
159.8426883031
 30
0.0
 11
109.8490931952
 21
159.8426883031
 31
0.0
  0
LINE
  5
118
330
1F
100
AcDbEntity
  8
0
  6
Continuous
 62
     7
370
    15
100
AcDbLine
 10
106.3688637783
 20
159.8426883031
 30
0.0
 11
106.3688637783
 21
160.3499622383
 31
0.0
  0
LINE
  5
119
330
1F
100
AcDbEntity
  8
0
  6
Continuous
 62
     7
370
    15
100
AcDbLine
 10
106.3688637783
 20
161.0497000822
 30
0.0
 11
106.3688637783
 21
163.9213908097
 31
0.0
  0
LINE
  5
11A
330
1F
100
AcDbEntity
  8
0
  6
Continuous
 62
     7
370
    15
100
AcDbLine
 10
106.3688637783
 20
164.6211286536
 30
0.0
 11
106.3688637783
 21
167.4928193811
 31
0.0
  0
LINE
  5
11B
330
1F
100
AcDbEntity
  8
0
  6
Continuous
 62
     7
370
    15
100
AcDbLine
 10
106.3688637783
 20
168.1925572251
 30
0.0
 11
106.3688637783
 21
171.0642479526
 31
0.0
  0
LINE
  5
11C
330
1F
100
AcDbEntity
  8
0
  6
Continuous
 62
     7
370
    15
100
AcDbLine
 10
106.3688637783
 20
171.7639857965
 30
0.0
 11
106.3688637783
 21
174.635676524
 31
0.0
  0
LINE
  5
11D
330
1F
100
AcDbEntity
  8
0
  6
Continuous
 62
     7
370
    15
100
AcDbLine
 10
106.3688637783
 20
175.3354143679
 30
0.0
 11
106.3688637783
 21
178.2071050954
 31
0.0
  0
LINE
  5
11E
330
1F
100
AcDbEntity
  8
0
  6
Continuous
 62
     7
370
    15
100
AcDbLine
 10
106.3688637783
 20
178.9068429393
 30
0.0
 11
106.3688637783
 21
179.8426883031
 31
0.0
  0
LINE
  5
11F
330
1F
100
AcDbEntity
  8
0
  6
Continuous
 62
     7
370
    15
100
AcDbLine
 10
103.3688637783
 20
159.8426883031
 30
0.0
 11
103.3688637783
 21
160.7674057332
 31
0.0
  0
LINE
  5
120
330
1F
100
AcDbEntity
  8
0
  6
Continuous
 62
     7
370
    15
100
AcDbLine
 10
103.3688637783
 20
161.4723238964
 30
0.0
 11
103.3688637783
 21
164.3388343046
 31
0.0
  0
LINE
  5
121
330
1F
100
AcDbEntity
  8
0
  6
Continuous
 62
     7
370
    15
100
AcDbLine
 10
103.3688637783
 20
165.0437524679
 30
0.0
 11
103.3688637783
 21
167.910262876
 31
0.0
  0
LINE
  5
122
330
1F
100
AcDbEntity
  8
0
  6
Continuous
 62
     7
370
    15
100
AcDbLine
 10
103.3688637783
 20
168.6151810393
 30
0.0
 11
103.3688637783
 21
171.4816914474
 31
0.0
  0
LINE
  5
123
330
1F
100
AcDbEntity
  8
0
  6
Continuous
 62
     7
370
    15
100
AcDbLine
 10
103.3688637783
 20
172.1866096107
 30
0.0
 11
103.3688637783
 21
175.0531200189
 31
0.0
  0
LINE
  5
124
330
1F
100
AcDbEntity
  8
0
  6
Continuous
 62
     7
370
    15
100
AcDbLine
 10
103.3688637783
 20
175.7580381821
 30
0.0
 11
103.3688637783
 21
178.6245485903
 31
0.0
  0
LINE
  5
125
330
1F
100
AcDbEntity
  8
0
  6
Continuous
 62
     7
370
    15
100
AcDbLine
 10
103.3688637783
 20
179.3294667536
 30
0.0
 11
103.3688637783
 21
179.8426883031
 31
0.0
  0
LINE
  5
126
330
1F
100
AcDbEntity
  8
0
  6
Continuous
 62
     7
370
    15
100
AcDbLine
 10
106.1838101834
 20
159.8426883031
 30
0.0
 11
106.3688637783
 21
159.8426883031
 31
0.0
  0
LINE
  5
127
330
1F
100
AcDbEntity
  8
0
  6
Continuous
 62
     7
370
    15
100
AcDbLine
 10
109.3688637783
 20
159.8426883031
 30
0.0
 11
109.3688637783
 21
159.927338424
 31
0.0
  0
LINE
  5
128
330
1F
100
AcDbEntity
  8
0
  6
Continuous
 62
     7
370
    15
100
AcDbLine
 10
109.3688637783
 20
160.6322565873
 30
0.0
 11
109.3688637783
 21
163.4987669955
 31
0.0
  0
LINE
  5
129
330
1F
100
AcDbEntity
  8
0
  6
Continuous
 62
     7
370
    15
100
AcDbLine
 10
109.3688637783
 20
164.2036851587
 30
0.0
 11
109.3688637783
 21
167.0701955669
 31
0.0
  0
LINE
  5
12A
330
1F
100
AcDbEntity
  8
0
  6
Continuous
 62
     7
370
    15
100
AcDbLine
 10
109.3688637783
 20
167.7751137302
 30
0.0
 11
109.3688637783
 21
170.6416241383
 31
0.0
  0
LINE
  5
12B
330
1F
100
AcDbEntity
  8
0
  6
Continuous
 62
     7
370
    15
100
AcDbLine
 10
109.3688637783
 20
171.3465423016
 30
0.0
 11
109.3688637783
 21
174.2130527097
 31
0.0
  0
LINE
  5
12C
330
1F
100
AcDbEntity
  8
0
  6
Continuous
 62
     7
370
    15
100
AcDbLine
 10
109.3688637783
 20
174.917970873
 30
0.0
 11
109.3688637783
 21
177.7844812812
 31
0.0
  0
LINE
  5
12D
330
1F
100
AcDbEntity
  8
0
  6
Continuous
 62
     7
370
    15
100
AcDbLine
 10
109.3688637783
 20
178.4893994444
 30
0.0
 11
109.3688637783
 21
179.8426883031
 31
0.0
  0
LINE
  5
12E
330
1F
100
AcDbEntity
  8
0
  6
Continuous
 62
     7
370
    15
100
AcDbLine
 10
106.3688637783
 20
159.8426883031
 30
0.0
 11
106.5539173732
 21
159.8426883031
 31
0.0
  0
LINE
  5
12F
330
1F
100
AcDbEntity
  8
0
  6
Continuous
 62
     7
370
    15
100
AcDbLine
 10
99.3688637783
 20
181.8426883031
 30
0.0
 11
113.3688637783
 21
181.8426883031
 31
0.0
  0
LINE
  5
130
330
1F
100
AcDbEntity
  8
0
  6
Continuous
 62
     7
370
    15
100
AcDbLine
 10
99.3688637783
 20
183.8426883031
 30
0.0
 11
113.3688637783
 21
183.8426883031
 31
0.0
  0
LINE
  5
131
330
1F
100
AcDbEntity
  8
0
  6
Continuous
 62
     7
370
    15
100
AcDbLine
 10
100.3688637783
 20
180.8426883031
 30
0.0
 11
112.3688637783
 21
180.8426883031
 31
0.0
  0
LINE
  5
132
330
1F
100
AcDbEntity
  8
0
  6
Continuous
 62
     7
370
    15
100
AcDbLine
 10
112.3688637783
 20
198.3426883031
 30
0.0
 11
100.3688637783
 21
198.3426883031
 31
0.0
  0
LINE
  5
133
330
1F
100
AcDbEntity
  8
0
  6
Continuous
 62
     7
370
    15
100
AcDbLine
 10
100.8688637783
 20
198.8426883031
 30
0.0
 11
111.8688637783
 21
198.8426883031
 31
0.0
  0
LINE
  5
134
330
1F
100
AcDbEntity
  8
0
  6
Continuous
 62
     7
370
    15
100
AcDbLine
 10
102.3688637783
 20
180.0426883031
 30
0.0
 11
110.3688637783
 21
180.0426883031
 31
0.0
  0
LINE
  5
135
330
1F
100
AcDbEntity
  8
0
  6
Continuous
 62
     7
370
    15
100
AcDbLine
 10
110.1688637783
 20
179.8426883031
 30
0.0
 11
102.5688637783
 21
179.8426883031
 31
0.0
  0
LINE
  5
136
330
1F
100
AcDbEntity
  8
0
  6
Continuous
 62
     8
370
    15
100
AcDbLine
 10
100.8688637783
 20
130.8426883031
 30
0.0
 11
111.8688637783
 21
130.8426883031
 31
0.0
  0
LINE
  5
137
330
1F
100
AcDbEntity
  8
0
  6
Continuous
 62
     8
370
    15
100
AcDbLine
 10
106.3688637783
 20
180.3426883585
 30
0.0
 11
106.3688637783
 21
180.8426883031
 31
0.0
  0
LINE
  5
138
330
1F
100
AcDbEntity
  8
0
  6
Continuous
 62
     8
370
    15
100
AcDbLine
 10
106.3688637783
 20
154.8426883031
 30
0.0
 11
106.3688637783
 21
155.3426883031
 31
0.0
  0
SPLINE
  5
139
330
1F
100
AcDbEntity
  8
0
  6
HIDDEN
 62
     7
370
     0
100
AcDbSpline
210
0.0
220
0.0
230
1.0
 70
     8
 71
     3
 72
    14
 73
    10
 74
     0
 42
0.00000001
 43
0.00000001
 12
1.0
 22
0.0
 32
0.0
 13
1.0
 23
0.0
 33
0.0
 40
0.0
 40
0.0
 40
0.0
 40
0.0
 40
0.1433635271216577
 40
0.2867269873776211
 40
0.4300906708689807
 40
0.5734544691947958
 40
0.7168247875300776
 40
0.8601951071248168
 40
1.0
 40
1.0
 40
1.0
 40
1.0
 10
103.9422014904966
 20
197.7430203472804
 30
0.0
 10
103.9828503968393
 20
197.7502347002135
 30
0.0
 10
104.064148190566
 20
197.7646634027149
 30
0.0
 10
104.269234164902
 20
197.7856449266247
 30
0.0
 10
104.5302423277687
 20
197.8073294366662
 30
0.0
 10
104.8437912362803
 20
197.8293707450178
 30
0.0
 10
105.201507740441
 20
197.8504426987317
 30
0.0
 10
105.58793271977
 20
197.8714066220438
 30
0.0
 10
105.860824937373
 20
197.8858946217322
 30
0.0
 10
105.9955530688209
 20
197.8930474132027
 30
0.0
  0
SPLINE
  5
13A
330
1F
100
AcDbEntity
  8
0
  6
HIDDEN
 62
     7
370
     0
100
AcDbSpline
210
0.0
220
0.0
230
1.0
 70
     8
 71
     3
 72
    18
 73
    14
 74
     0
 42
0.00000001
 43
0.00000001
 12
1.0
 22
0.0
 32
0.0
 13
1.0
 23
0.0
 33
0.0
 40
0.0
 40
0.0
 40
0.0
 40
0.0
 40
0.0967567865691755
 40
0.1963194999353655
 40
0.2930766455208525
 40
0.3926394757889007
 40
0.4894008441699865
 40
0.5889685788129572
 40
0.6857250995706579
 40
0.7852870586667783
 40
0.8820496637761248
 40
0.9816187107909321
 40
1.0
 40
1.0
 40
1.0
 40
1.0
 10
105.9955530688209
 20
197.8930474132027
 30
0.0
 10
106.1337215728738
 20
197.9001868280866
 30
0.0
 10
106.414065439018
 20
197.9146726994094
 30
0.0
 10
106.8343150183545
 20
197.9354224802095
 30
0.0
 10
107.2442785547254
 20
197.9572128631684
 30
0.0
 10
107.6259442801601
 20
197.9791289562808
 30
0.0
 10
107.9751050823251
 20
198.0003898418491
 30
0.0
 10
108.2757381781078
 20
198.021344595754
 30
0.0
 10
108.5241032383761
 20
198.0435945630284
 30
0.0
 10
108.7108628396793
 20
198.0650775205506
 30
0.0
 10
108.8261713380334
 20
198.0860299825394
 30
0.0
 10
108.8758858030759
 20
198.1019209382052
 30
0.0
 10
108.8652042093434
 20
198.1106531314303
 30
0.0
 10
108.8635395980342
 20
198.1120139496716
 30
0.0
  0
SPLINE
  5
13B
330
1F
100
AcDbEntity
  8
0
  6
HIDDEN
 62
     7
370
     0
100
AcDbSpline
210
0.0
220
0.0
230
1.0
 70
     8
 71
     3
 72
    25
 73
    21
 74
     0
 42
0.00000001
 43
0.00000001
 12
1.0
 22
0.0
 32
0.0
 13
1.0
 23
0.0
 33
0.0
 40
0.0
 40
0.0
 40
0.0
 40
0.0
 40
0.0586717181866475
 40
0.1156909600064128
 40
0.1743638194836863
 40
0.2313833117532383
 40
0.290056482577044
 40
0.3470742158995544
 40
0.4057452559678753
 40
0.4627658590510276
 40
0.5214402307994404
 40
0.5784578435066813
 40
0.6371286900445793
 40
0.6941496333593656
 40
0.7528243671298926
 40
0.8098428751019855
 40
0.8685148708073195
 40
0.9255337226580294
 40
0.9842061354944862
 40
1.0
 40
1.0
 40
1.0
 40
1.0
 10
108.8461804210554
 20
198.1294209592897
 30
0.0
 10
108.8199895438366
 20
198.136624654254
 30
0.0
 10
108.7683454498422
 20
198.1508291536578
 30
0.0
 10
108.6027220159618
 20
198.1719865803866
 30
0.0
 10
108.3803706954467
 20
198.1940588983446
 30
0.0
 10
108.0970961351485
 20
198.2156924058512
 30
0.0
 10
107.7677469816778
 20
198.2364503092435
 30
0.0
 10
107.3953503246593
 20
198.2583576734256
 30
0.0
 10
106.9972680804033
 20
198.2802068512979
 30
0.0
 10
106.5775383499945
 20
198.3013913756526
 30
0.0
 10
106.1556870113189
 20
198.3224552327693
 30
0.0
 10
105.7361506823992
 20
198.3447161794956
 30
0.0
 10
105.3382808670644
 20
198.3661090942842
 30
0.0
 10
104.9662463918224
 20
198.3870660972022
 30
0.0
 10
104.6372469767015
 20
198.4088324439606
 30
0.0
 10
104.3551418990443
 20
198.4308419680588
 30
0.0
 10
104.1311714661446
 20
198.4518004718882
 30
0.0
 10
103.9744987266803
 20
198.4730834472404
 30
0.0
 10
103.8926957938054
 20
198.4899896596234
 30
0.0
 10
103.8865289165503
 20
198.4991746010967
 30
0.0
 10
103.8852209577364
 20
198.5011226737854
 30
0.0
  0
SPLINE
  5
13C
330
1F
100
AcDbEntity
  8
0
  6
HIDDEN
 62
     7
370
     0
100
AcDbSpline
210
0.0
220
0.0
230
1.0
 70
     8
 71
     3
 72
    14
 73
    10
 74
     0
 42
0.00000001
 43
0.00000001
 12
1.0
 22
0.0
 32
0.0
 13
1.0
 23
0.0
 33
0.0
 40
0.0
 40
0.0
 40
0.0
 40
0.0
 40
0.0325045242160374
 40
0.1991223066906183
 40
0.3610381348803607
 40
0.5276488212659491
 40
0.6895736786020926
 40
0.8561948586083064
 40
1.0
 40
1.0
 40
1.0
 40
1.0
 10
103.8744159730022
 20
198.5121751002146
 30
0.0
 10
103.8726915490442
 20
198.5135940939666
 30
0.0
 10
103.8621277495575
 20
198.5222868318517
 30
0.0
 10
103.9123917651976
 20
198.5374492217996
 30
0.0
 10
104.028540944957
 20
198.5595141936201
 30
0.0
 10
104.2157967511106
 20
198.5812763812356
 30
0.0
 10
104.4653397394529
 20
198.6023864408006
 30
0.0
 10
104.75350692125
 20
198.6228193433967
 30
0.0
 10
104.975258762016
 20
198.6366751108588
 30
0.0
 10
105.077985407977
 20
198.6430938017417
 30
0.0
  0
SPLINE
  5
13D
330
1F
100
AcDbEntity
  8
0
  6
HIDDEN
 62
     7
370
     0
100
AcDbSpline
210
0.0
220
0.0
230
1.0
 70
    24
 71
     3
 72
    18
 73
    14
 74
     0
 42
0.00000001
 43
0.00000001
 12
1.0
 22
0.0
 32
0.0
 13
1.0
 23
0.0
 33
0.0
 40
0.0
 40
0.0
 40
0.0
 40
0.0
 40
0.0998299306392034
 40
0.2025819119145082
 40
0.3013835849439592
 40
0.4033125634050604
 40
0.4981818722294674
 40
0.5959757075330746
 40
0.6875572102569069
 40
0.7818972247193585
 40
0.8716425060384876
 40
0.9642963404690582
 40
1.0
 40
1.0
 40
1.0
 40
1.0
 10
105.0783104823956
 20
198.6426883030883
 30
0.0
 10
105.2055154892319
 20
198.6426883030882
 30
0.0
 10
105.4636488298543
 20
198.6426883030882
 30
0.0
 10
105.8760778279665
 20
198.6426883030882
 30
0.0
 10
106.297550191279
 20
198.6426883030882
 30
0.0
 10
106.7042282015731
 20
198.6426883030883
 30
0.0
 10
107.0926231395269
 20
198.6426883030882
 30
0.0
 10
107.4403105807689
 20
198.6426883030882
 30
0.0
 10
107.7479138601834
 20
198.6426883030882
 30
0.0
 10
108.0035800294141
 20
198.6426883030882
 30
0.0
 10
108.2007522365947
 20
198.6426883030882
 30
0.0
 10
108.3248863574366
 20
198.6426883030883
 30
0.0
 10
108.3492105364114
 20
198.6426883030882
 30
0.0
 10
108.3559765005766
 20
198.6426883030882
 30
0.0
  0
SPLINE
  5
13E
330
1F
100
AcDbEntity
  8
0
  6
HIDDEN
 62
     7
370
     0
100
AcDbSpline
210
0.0
220
0.0
230
1.0
 70
     8
 71
     3
 72
    25
 73
    21
 74
     0
 42
0.00000001
 43
0.00000001
 12
1.0
 22
0.0
 32
0.0
 13
1.0
 23
0.0
 33
0.0
 40
0.0
 40
0.0
 40
0.0
 40
0.0
 40
0.0840881848579825
 40
0.1389925636055654
 40
0.195480899381285
 40
0.2507845405451941
 40
0.3076245257679446
 40
0.3637988437095484
 40
0.4216841995115043
 40
0.4768530282261974
 40
0.533542289340189
 40
0.5898136543259898
 40
0.6478122024222184
 40
0.7028897401647556
 40
0.7594765286862192
 40
0.8158307303202756
 40
0.873925997144595
 40
0.9289241832172995
 40
0.9854221838402991
 40
1.0
 40
1.0
 40
1.0
 40
1.0
 10
108.4114332449137
 20
198.6422379408764
 30
0.0
 10
108.373862747166
 20
198.6319222042263
 30
0.0
 10
108.3117610404078
 20
198.614870930199
 30
0.0
 10
108.1186492219279
 20
198.5890914042849
 30
0.0
 10
107.9100661983449
 20
198.5677873422904
 30
0.0
 10
107.6557408426239
 20
198.5467242219967
 30
0.0
 10
107.3664125074535
 20
198.5256692048661
 30
0.0
 10
107.0429157719935
 20
198.5037272496166
 30
0.0
 10
106.703134941453
 20
198.4819942966534
 30
0.0
 10
106.3533884714881
 20
198.4603430933842
 30
0.0
 10
106.0069539617128
 20
198.4393867772686
 30
0.0
 10
105.6652708688078
 20
198.4180275960756
 30
0.0
 10
105.3475473244881
 20
198.3958912794395
 30
0.0
 10
105.0580977376464
 20
198.3738935139042
 30
0.0
 10
104.8068074322511
 20
198.3534737462469
 30
0.0
 10
104.5972735233686
 20
198.3321556653727
 30
0.0
 10
104.4406866969021
 20
198.3095970572969
 30
0.0
 10
104.3425849927059
 20
198.2876027434163
 30
0.0
 10
104.2978392056262
 20
198.2727809051078
 30
0.0
 10
104.3060884972759
 20
198.2637582146193
 30
0.0
 10
104.3077804462757
 20
198.2619076397098
 30
0.0
  0
SPLINE
  5
13F
330
1F
100
AcDbEntity
  8
0
  6
HIDDEN
 62
     7
370
     0
100
AcDbSpline
210
0.0
220
0.0
230
1.0
 70
     8
 71
     3
 72
    24
 73
    20
 74
     0
 42
0.00000001
 43
0.00000001
 12
1.0
 22
0.0
 32
0.0
 13
1.0
 23
0.0
 33
0.0
 40
0.0
 40
0.0
 40
0.0
 40
0.0
 40
0.0070664807097858
 40
0.0644348992624663
 40
0.1186020560506494
 40
0.1742402913064519
 40
0.2299436156243604
 40
0.28738456885679
 40
0.3414989539973624
 40
0.3970780275012991
 40
0.4528374302413841
 40
0.5103422115909931
 40
0.6195825419050671
 40
0.675387521894187
 40
0.7329437155504049
 40
0.8421147483593249
 40
0.8979523787155319
 40
0.955544730543318
 40
1.0
 40
1.0
 40
1.0
 40
1.0
 10
104.316506297697
 20
198.2487660101084
 30
0.0
 10
104.3169807456167
 20
198.2478638831123
 30
0.0
 10
104.3213069449186
 20
198.2396379408779
 30
0.0
 10
104.3873729180982
 20
198.2231132746251
 30
0.0
 10
104.5133687694758
 20
198.2018140992401
 30
0.0
 10
104.6944417776356
 20
198.1816008808269
 30
0.0
 10
104.9265115549363
 20
198.1597908096425
 30
0.0
 10
105.1998592390418
 20
198.1370789944554
 30
0.0
 10
105.5051819264199
 20
198.1159535203451
 30
0.0
 10
105.8311284413148
 20
198.0953745644799
 30
0.0
 10
106.1797325414437
 20
198.0734202802896
 30
0.0
 10
106.6459798899629
 20
198.0440362861462
 30
0.0
 10
107.1059912406278
 20
198.0157886708333
 30
0.0
 10
107.5162645436474
 20
197.9873373461778
 30
0.0
 10
107.8802630210847
 20
197.9583464649579
 30
0.0
 10
108.1687167791798
 20
197.9290543978125
 30
0.0
 10
108.3444703375298
 20
197.901596443317
 30
0.0
 10
108.4318470675591
 20
197.8806505934513
 30
0.0
 10
108.4149429131477
 20
197.8674427535164
 30
0.0
 10
108.4075789125975
 20
197.8616889880111
 30
0.0
  0
SPLINE
  5
140
330
1F
100
AcDbEntity
  8
0
  6
HIDDEN
 62
     7
370
     0
100
AcDbSpline
210
0.0
220
0.0
230
1.0
 70
     8
 71
     3
 72
    20
 73
    16
 74
     0
 42
0.00000001
 43
0.00000001
 12
1.0
 22
0.0
 32
0.0
 13
1.0
 23
0.0
 33
0.0
 40
0.0
 40
0.0
 40
0.0
 40
0.0
 40
0.0306248716218592
 40
0.0914957276944567
 40
0.1542800240230568
 40
0.2731611446391489
 40
0.3340406454503088
 40
0.3968314597406211
 40
0.5157227930255602
 40
0.5765882516024452
 40
0.6393611672045412
 40
0.758233226292727
 40
0.8191311103598045
 40
0.881930598728854
 40
1.0
 40
1.0
 40
1.0
 40
1.0
 10
108.4008623936841
 20
197.8474407383523
 30
0.0
 10
108.4014093512088
 20
197.8437535172361
 30
0.0
 10
108.4030434568911
 20
197.8327374717368
 30
0.0
 10
108.3034072273815
 20
197.8158296885732
 30
0.0
 10
108.1052482670201
 20
197.7858142480768
 30
0.0
 10
107.794728133324
 20
197.7568072829743
 30
0.0
 10
107.4147070271037
 20
197.7297505436613
 30
0.0
 10
106.9922275269785
 20
197.6994196655285
 30
0.0
 10
106.5264857183126
 20
197.67103493778
 30
0.0
 10
106.0607859227999
 20
197.643464156255
 30
0.0
 10
105.6074815555121
 20
197.6131862089692
 30
0.0
 10
105.1882380241337
 20
197.5850870523261
 30
0.0
 10
104.8435329875549
 20
197.5570005007832
 30
0.0
 10
104.5534180256864
 20
197.5276391778271
 30
0.0
 10
104.4384566252418
 20
197.5063382880209
 30
0.0
 10
104.3634109734065
 20
197.4924332803053
 30
0.0
  0
LINE
  5
141
330
1F
100
AcDbEntity
  8
0
  6
HIDDEN
 62
     7
370
     0
100
AcDbLine
 10
104.3629534257
 20
197.4934905176
 30
0.0
 11
103.9427380712
 21
197.74365833
 31
0.0
  0
SPLINE
  5
142
330
1F
100
AcDbEntity
  8
0
  6
HIDDEN
 62
     7
370
     0
100
AcDbSpline
210
0.0
220
0.0
230
1.0
 70
     8
 71
     3
 72
    15
 73
    11
 74
     0
 42
0.00000001
 43
0.00000001
 12
1.0
 22
0.0
 32
0.0
 13
1.0
 23
0.0
 33
0.0
 40
0.0
 40
0.0
 40
0.0
 40
0.0
 40
0.1244309186529657
 40
0.2524703684464205
 40
0.3768980449095051
 40
0.5049345441565875
 40
0.6293552986494971
 40
0.7573839040915931
 40
0.8818085673701316
 40
1.0
 40
1.0
 40
1.0
 40
1.0
 10
105.9955717123982
 20
196.3926880602278
 30
0.0
 10
105.8593920075736
 20
196.385506922697
 30
0.0
 10
105.5830833487274
 20
196.370936392656
 30
0.0
 10
105.1954917355675
 20
196.3492745789449
 30
0.0
 10
104.8370829572132
 20
196.3282875152131
 30
0.0
 10
104.5256700528124
 20
196.3068159846478
 30
0.0
 10
104.2636390327034
 20
196.2846477430919
 30
0.0
 10
104.0652536710627
 20
196.263522801634
 30
0.0
 10
103.9284133200895
 20
196.2429717500648
 30
0.0
 10
103.8958707321147
 20
196.2288643553918
 30
0.0
 10
103.8800174760484
 20
196.2219918798422
 30
0.0
  0
LINE
  5
143
330
1F
100
AcDbEntity
  8
0
  6
HIDDEN
 62
     7
370
     0
100
AcDbLine
 10
103.8749301749
 20
196.220288015
 30
0.0
 11
103.8772892837
 21
196.2113777303
 31
0.0
  0
SPLINE
  5
144
330
1F
100
AcDbEntity
  8
0
  6
HIDDEN
 62
     7
370
     0
100
AcDbSpline
210
0.0
220
0.0
230
1.0
 70
     8
 71
     3
 72
     9
 73
     5
 74
     0
 42
0.00000001
 43
0.00000001
 12
1.0
 22
0.0
 32
0.0
 13
1.0
 23
0.0
 33
0.0
 40
0.0
 40
0.0
 40
0.0
 40
0.0
 40
0.3847858594097752
 40
1.0
 40
1.0
 40
1.0
 40
1.0
 10
103.8805679586419
 20
196.1989942715277
 30
0.0
 10
103.9006039515684
 20
196.1918865244322
 30
0.0
 10
103.9526744537362
 20
196.173414569391
 30
0.0
 10
104.1230701902157
 20
196.1541404904785
 30
0.0
 10
104.2279000567942
 20
196.1422828045846
 30
0.0
  0
SPLINE
  5
145
330
1F
100
AcDbEntity
  8
0
  6
HIDDEN
 62
     7
370
     0
100
AcDbSpline
210
0.0
220
0.0
230
1.0
 70
     8
 71
     3
 72
    15
 73
    11
 74
     0
 42
0.00000001
 43
0.00000001
 12
1.0
 22
0.0
 32
0.0
 13
1.0
 23
0.0
 33
0.0
 40
0.0
 40
0.0
 40
0.0
 40
0.0
 40
0.1232078274662496
 40
0.2499883730571397
 40
0.3732026702784882
 40
0.4999901051142142
 40
0.6232047806557447
 40
0.749992680769285
 40
0.8732095456626412
 40
1.0
 40
1.0
 40
1.0
 40
1.0
 10
106.742136584942
 20
196.7922948102214
 30
0.0
 10
106.8783137561504
 20
196.7854002373529
 30
0.0
 10
107.1546168951472
 20
196.7714111662867
 30
0.0
 10
107.542167531603
 20
196.7496474197399
 30
0.0
 10
107.9005136230221
 20
196.7276506416459
 30
0.0
 10
108.211974614033
 20
196.7067248411565
 30
0.0
 10
108.4739862262966
 20
196.6853680120443
 30
0.0
 10
108.6725847605133
 20
196.663297910154
 30
0.0
 10
108.8122772879485
 20
196.6418350933954
 30
0.0
 10
108.8457922188398
 20
196.6277697079627
 30
0.0
 10
108.8627892144792
 20
196.6206364903636
 30
0.0
  0
SPLINE
  5
146
330
1F
100
AcDbEntity
  8
0
  6
HIDDEN
 62
     7
370
     0
100
AcDbSpline
210
0.0
220
0.0
230
1.0
 70
     8
 71
     3
 72
    18
 73
    14
 74
     0
 42
0.00000001
 43
0.00000001
 12
1.0
 22
0.0
 32
0.0
 13
1.0
 23
0.0
 33
0.0
 40
0.0
 40
0.0
 40
0.0
 40
0.0
 40
0.0562361426515603
 40
0.1557914413997984
 40
0.2525469657279862
 40
0.3521087041278536
 40
0.448858884392304
 40
0.5484144178983005
 40
0.6451693377495109
 40
0.7447304228262085
 40
0.8414824332620546
 40
0.9410402676047521
 40
1.0
 40
1.0
 40
1.0
 40
1.0
 10
108.8604373565521
 20
196.6116568453121
 30
0.0
 10
108.8614583788585
 20
196.6075064669084
 30
0.0
 10
108.8642869252225
 20
196.5960086400061
 30
0.0
 10
108.7901504019197
 20
196.5772050117471
 30
0.0
 10
108.6461685295403
 20
196.5561287233441
 30
0.0
 10
108.4357955707214
 20
196.5348972742284
 30
0.0
 10
108.1653170175097
 20
196.5126566132104
 30
0.0
 10
107.846132805077
 20
196.4913755172113
 30
0.0
 10
107.4818523603863
 20
196.4703964107324
 30
0.0
 10
107.0893024258038
 20
196.4484951395765
 30
0.0
 10
106.672782922043
 20
196.4265902311344
 30
0.0
 10
106.305066067204
 20
196.4084094984015
 30
0.0
 10
106.07947796105
 20
196.3969502604265
 30
0.0
 10
105.9955717123982
 20
196.3926880602278
 30
0.0
  0
SPLINE
  5
147
330
1F
100
AcDbEntity
  8
0
  6
HIDDEN
 62
     7
370
     0
100
AcDbSpline
210
0.0
220
0.0
230
1.0
 70
     8
 71
     3
 72
     9
 73
     5
 74
     0
 42
0.00000001
 43
0.00000001
 12
1.0
 22
0.0
 32
0.0
 13
1.0
 23
0.0
 33
0.0
 40
0.0
 40
0.0
 40
0.0
 40
0.0
 40
0.6856347866498104
 40
1.0
 40
1.0
 40
1.0
 40
1.0
 10
103.9422090037966
 20
197.0423562383023
 30
0.0
 10
103.9121968865647
 20
197.0352145277291
 30
0.0
 10
103.8684241407585
 20
197.0247983255291
 30
0.0
 10
103.8756503529292
 20
197.0146907502371
 30
0.0
 10
103.8779220226599
 20
197.011513280174
 30
0.0
  0
SPLINE
  5
148
330
1F
100
AcDbEntity
  8
0
  6
HIDDEN
 62
     7
370
     0
100
AcDbSpline
210
0.0
220
0.0
230
1.0
 70
     8
 71
     3
 72
    16
 73
    12
 74
     0
 42
0.00000001
 43
0.00000001
 12
1.0
 22
0.0
 32
0.0
 13
1.0
 23
0.0
 33
0.0
 40
0.0
 40
0.0
 40
0.0
 40
0.0
 40
0.1024420074925402
 40
0.2078545490241153
 40
0.3103010109421765
 40
0.4157187599143999
 40
0.5181595296381798
 40
0.6235705368551251
 40
0.7260180073877982
 40
0.8314367943406655
 40
1.0
 40
1.0
 40
1.0
 40
1.0
 10
103.8801306040728
 20
196.9996145085602
 30
0.0
 10
103.8999507924853
 20
196.9925451496741
 30
0.0
 10
103.9401658997923
 20
196.978201440105
 30
0.0
 10
104.0876799925455
 20
196.9562182877073
 30
0.0
 10
104.2966658689621
 20
196.9349597556335
 30
0.0
 10
104.5638327150031
 20
196.9140399539357
 30
0.0
 10
104.884608840832
 20
196.8918025678339
 30
0.0
 10
105.2446987499153
 20
196.8702939211336
 30
0.0
 10
105.6400530404879
 20
196.849341872344
 30
0.0
 10
106.1411195230556
 20
196.8230163373971
 30
0.0
 10
106.5132122558493
 20
196.8039964830081
 30
0.0
 10
106.742136584942
 20
196.7922948102214
 30
0.0
  0
SPLINE
  5
149
330
1F
100
AcDbEntity
  8
0
  6
HIDDEN
 62
     7
370
     0
100
AcDbSpline
210
0.0
220
0.0
230
1.0
 70
     8
 71
     3
 72
    14
 73
    10
 74
     0
 42
0.00000001
 43
0.00000001
 12
1.0
 22
0.0
 32
0.0
 13
1.0
 23
0.0
 33
0.0
 40
0.0
 40
0.0
 40
0.0
 40
0.0
 40
0.1433687048641007
 40
0.2867369508477336
 40
0.430094258620341
 40
0.5734514349472573
 40
0.7167830447166302
 40
0.8601144277005071
 40
1.0
 40
1.0
 40
1.0
 40
1.0
 10
105.9956356946269
 20
197.1914846851166
 30
0.0
 10
105.8575537765684
 20
197.1839723586432
 30
0.0
 10
105.5813903824105
 20
197.1689477297413
 30
0.0
 10
105.191913211052
 20
197.1478361363756
 30
0.0
 10
104.8359067472003
 20
197.1278939709363
 30
0.0
 10
104.5225736432078
 20
197.1068497180233
 30
0.0
 10
104.2641320322138
 20
197.0839559899033
 30
0.0
 10
104.0612677102008
 20
197.0617582353998
 30
0.0
 10
103.981579637675
 20
197.0481275399461
 30
0.0
 10
103.9422203711383
 20
197.0413951123891
 30
0.0
  0
SPLINE
  5
14A
330
1F
100
AcDbEntity
  8
0
  6
HIDDEN
 62
     7
370
     0
100
AcDbSpline
210
0.0
220
0.0
230
1.0
 70
     8
 71
     3
 72
    15
 73
    11
 74
     0
 42
0.00000001
 43
0.00000001
 12
1.0
 22
0.0
 32
0.0
 13
1.0
 23
0.0
 33
0.0
 40
0.0
 40
0.0
 40
0.0
 40
0.0
 40
0.1232045601227778
 40
0.2499819574227804
 40
0.3731885792954774
 40
0.4999683833280519
 40
0.623184857435701
 40
0.7499737077067028
 40
0.8731995601108287
 40
1.0
 40
1.0
 40
1.0
 40
1.0
 10
106.7420608916339
 20
197.5908469427097
 30
0.0
 10
106.8782084311068
 20
197.5837217646751
 30
0.0
 10
107.1544516836438
 20
197.5692647839407
 30
0.0
 10
107.5420386898421
 20
197.5493133837956
 30
0.0
 10
107.9003925835681
 20
197.5286711522219
 30
0.0
 10
108.2117537602546
 20
197.5058144895971
 30
0.0
 10
108.4737440761125
 20
197.4831390998565
 30
0.0
 10
108.6724190485357
 20
197.4620382690742
 30
0.0
 10
108.8121876073671
 20
197.4420621952232
 30
0.0
 10
108.8457431301278
 20
197.4277978799839
 30
0.0
 10
108.8627607605847
 20
197.4205637550027
 30
0.0
  0
SPLINE
  5
14B
330
1F
100
AcDbEntity
  8
0
  6
HIDDEN
 62
     7
370
     0
100
AcDbSpline
210
0.0
220
0.0
230
1.0
 70
     8
 71
     3
 72
    18
 73
    14
 74
     0
 42
0.00000001
 43
0.00000001
 12
1.0
 22
0.0
 32
0.0
 13
1.0
 23
0.0
 33
0.0
 40
0.0
 40
0.0
 40
0.0
 40
0.0
 40
0.0561186805013054
 40
0.1556533321103103
 40
0.2524227968696031
 40
0.3520007845806581
 40
0.4487346785944367
 40
0.5482732991925443
 40
0.6450241095436664
 40
0.744581131561067
 40
0.8413227095408007
 40
0.9408702840879483
 40
1.0
 40
1.0
 40
1.0
 40
1.0
 10
108.8604361837742
 20
197.4112052259301
 30
0.0
 10
108.8614670919368
 20
197.4068914582476
 30
0.0
 10
108.8643264658418
 20
197.3949265954295
 30
0.0
 10
108.7903057316607
 20
197.3756465661808
 30
0.0
 10
108.6464255795934
 20
197.3546361909977
 30
0.0
 10
108.4360864634711
 20
197.3348000063128
 30
0.0
 10
108.165656815646
 20
197.3133179732116
 30
0.0
 10
107.8466451747037
 20
197.2903097596148
 30
0.0
 10
107.4825170160195
 20
197.2680810307502
 30
0.0
 10
107.0899784382492
 20
197.247468306264
 30
0.0
 10
106.6734263555565
 20
197.227433266294
 30
0.0
 10
106.3055414528658
 20
197.2084141256221
 30
0.0
 10
106.0797681555127
 20
197.196080648416
 30
0.0
 10
105.9956356946269
 20
197.1914846851166
 30
0.0
  0
SPLINE
  5
14C
330
1F
100
AcDbEntity
  8
0
  6
HIDDEN
 62
     7
370
     0
100
AcDbSpline
210
0.0
220
0.0
230
1.0
 70
     8
 71
     3
 72
    16
 73
    12
 74
     0
 42
0.00000001
 43
0.00000001
 12
1.0
 22
0.0
 32
0.0
 13
1.0
 23
0.0
 33
0.0
 40
0.0
 40
0.0
 40
0.0
 40
0.0
 40
0.1171392650976405
 40
0.2376751135955239
 40
0.3548199003176623
 40
0.4753596141776975
 40
0.5925401399835444
 40
0.7131209815475589
 40
0.8302675472916223
 40
0.9508116793600038
 40
1.0
 40
1.0
 40
1.0
 40
1.0
 10
105.9956651975134
 20
197.9907893577999
 30
0.0
 10
105.8595075972809
 20
197.9839936707252
 30
0.0
 10
105.5832443556156
 20
197.9702052480636
 30
0.0
 10
105.1956609377617
 20
197.9502965196731
 30
0.0
 10
104.8374380616278
 20
197.9276559579183
 30
0.0
 10
104.5258982556964
 20
197.9048888439056
 30
0.0
 10
104.264360620055
 20
197.8832486200262
 30
0.0
 10
104.0636657652491
 20
197.8631163436019
 30
0.0
 10
103.9313015262052
 20
197.8427159959184
 30
0.0
 10
103.8683376234786
 20
197.8242334488318
 30
0.0
 10
103.8752809821842
 20
197.813554538741
 30
0.0
 10
103.87729316164
 20
197.8104597996663
 30
0.0
  0
SPLINE
  5
14D
330
1F
100
AcDbEntity
  8
0
  6
HIDDEN
 62
     7
370
     0
100
AcDbSpline
210
0.0
220
0.0
230
1.0
 70
     8
 71
     3
 72
    17
 73
    13
 74
     0
 42
0.00000001
 43
0.00000001
 12
1.0
 22
0.0
 32
0.0
 13
1.0
 23
0.0
 33
0.0
 40
0.0
 40
0.0
 40
0.0
 40
0.0
 40
0.105464626173709
 40
0.2079708828328435
 40
0.3134508429111453
 40
0.4159356871309617
 40
0.521389854179854
 40
0.6239141633948856
 40
0.7294140233607723
 40
0.8319006488790972
 40
0.9373590565895887
 40
1.0
 40
1.0
 40
1.0
 40
1.0
 10
103.8805053718231
 20
197.7976018987374
 30
0.0
 10
103.901295754326
 20
197.7902992800254
 30
0.0
 10
103.9422933320012
 20
197.7758988870632
 30
0.0
 10
104.0927472868638
 20
197.7558112029795
 30
0.0
 10
104.3012725161896
 20
197.7351948650245
 30
0.0
 10
104.5720814390779
 20
197.7120673609481
 30
0.0
 10
104.8909885701775
 20
197.689677546304
 30
0.0
 10
105.2552397553385
 20
197.6685109693516
 30
0.0
 10
105.6478531589733
 20
197.6486427495298
 30
0.0
 10
106.064362684685
 20
197.6274305019586
 30
0.0
 10
106.4321562119943
 20
197.6073169417607
 30
0.0
 10
106.6579285490825
 20
197.5953181872343
 30
0.0
 10
106.7420608916339
 20
197.5908469427097
 30
0.0
  0
SPLINE
  5
14E
330
1F
100
AcDbEntity
  8
0
  6
HIDDEN
 62
     7
370
     0
100
AcDbSpline
210
0.0
220
0.0
230
1.0
 70
     8
 71
     3
 72
     9
 73
     5
 74
     0
 42
0.00000001
 43
0.00000001
 12
1.0
 22
0.0
 32
0.0
 13
1.0
 23
0.0
 33
0.0
 40
0.0
 40
0.0
 40
0.0
 40
0.0
 40
0.6855194660263104
 40
1.0
 40
1.0
 40
1.0
 40
1.0
 10
103.9422236879272
 20
198.6414098821345
 30
0.0
 10
103.9122117024503
 20
198.6340706074695
 30
0.0
 10
103.8684317852279
 20
198.6233644568366
 30
0.0
 10
103.8756521517162
 20
198.6134672292891
 30
0.0
 10
103.877922816425
 20
198.6103547438851
 30
0.0
  0
SPLINE
  5
14F
330
1F
100
AcDbEntity
  8
0
  6
HIDDEN
 62
     7
370
     0
100
AcDbSpline
210
0.0
220
0.0
230
1.0
 70
     8
 71
     3
 72
    24
 73
    20
 74
     0
 42
0.00000001
 43
0.00000001
 12
1.0
 22
0.0
 32
0.0
 13
1.0
 23
0.0
 33
0.0
 40
0.0
 40
0.0
 40
0.0
 40
0.0
 40
0.0580301344753316
 40
0.1177434056824814
 40
0.175770309461853
 40
0.2354788161012265
 40
0.293521115713575
 40
0.3532477025899221
 40
0.4112718569335584
 40
0.4709776640938453
 40
0.5290189186513825
 40
0.5887442830214582
 40
0.6467705123671811
 40
0.7064796826176004
 40
0.7645080940785961
 40
0.8242186325820616
 40
0.8822554573446186
 40
0.9419759767279429
 40
1.0
 40
1.0
 40
1.0
 40
1.0
 10
103.8801207643929
 20
198.5986482297889
 30
0.0
 10
103.899937237242
 20
198.5920042683457
 30
0.0
 10
103.9401449504062
 20
198.5785236404855
 30
0.0
 10
104.0876334248874
 20
198.55653471424
 30
0.0
 10
104.2965062358007
 20
198.5333193800897
 30
0.0
 10
104.5635672448032
 20
198.511592364765
 30
0.0
 10
104.8843860166274
 20
198.4910982491063
 30
0.0
 10
105.2445008246205
 20
198.4712229779178
 30
0.0
 10
105.6398601219316
 20
198.4487411860605
 30
0.0
 10
106.0522626220938
 20
198.4259309365461
 30
0.0
 10
106.4775811998498
 20
198.4042134973255
 30
0.0
 10
106.8960585079687
 20
198.3840270766464
 30
0.0
 10
107.3032257614533
 20
198.3636605080015
 30
0.0
 10
107.6801321463869
 20
198.3409999619868
 30
0.0
 10
108.0229163453397
 20
198.3181543822343
 30
0.0
 10
108.3161996281458
 20
198.296888686174
 30
0.0
 10
108.5551939078473
 20
198.2766918137719
 30
0.0
 10
108.7350539179494
 20
198.25617984519
 30
0.0
 10
108.7982346746047
 20
198.2409170550262
 30
0.0
 10
108.8293698899772
 20
198.2333956152067
 30
0.0
  0
SPLINE
  5
150
330
1F
100
AcDbEntity
  8
0
  6
HIDDEN
 62
     7
370
     0
100
AcDbSpline
210
0.0
220
0.0
230
1.0
 70
     8
 71
     3
 72
    18
 73
    14
 74
     0
 42
0.00000001
 43
0.00000001
 12
1.0
 22
0.0
 32
0.0
 13
1.0
 23
0.0
 33
0.0
 40
0.0
 40
0.0
 40
0.0
 40
0.0
 40
0.0454608917157166
 40
0.1374833823694505
 40
0.2321766150804885
 40
0.3241655404182505
 40
0.4188219516876754
 40
0.5108233652033979
 40
0.6054927858815145
 40
0.6974918815861699
 40
0.7921595129057669
 40
0.8942363509510153
 40
1.0
 40
1.0
 40
1.0
 40
1.0
 10
108.849865831669
 20
198.2215971285828
 30
0.0
 10
108.8578414156455
 20
198.2179342867547
 30
0.0
 10
108.8819612738373
 20
198.2068570758903
 30
0.0
 10
108.8456952041915
 20
198.1894612684692
 30
0.0
 10
108.7462485661736
 20
198.1695328558934
 30
0.0
 10
108.5740194923122
 20
198.148441762435
 30
0.0
 10
108.3420001052227
 20
198.1254359202061
 30
0.0
 10
108.0511704863215
 20
198.103001784636
 30
0.0
 10
107.7153367343759
 20
198.082201064979
 30
0.0
 10
107.3378151969437
 20
198.0621788654385
 30
0.0
 10
106.9220802892625
 20
198.0400552881624
 30
0.0
 10
106.4673225974183
 20
198.0149151056016
 30
0.0
 10
106.1547326394432
 20
197.998925816569
 30
0.0
 10
105.9956651975134
 20
197.9907893577999
 30
0.0
  0
SPLINE
  5
151
330
1F
100
AcDbEntity
  8
0
  6
HIDDEN
 62
     7
370
     0
100
AcDbSpline
210
0.0
220
0.0
230
1.0
 70
     8
 71
     3
 72
    16
 73
    12
 74
     0
 42
0.00000001
 43
0.00000001
 12
1.0
 22
0.0
 32
0.0
 13
1.0
 23
0.0
 33
0.0
 40
0.0
 40
0.0
 40
0.0
 40
0.0
 40
0.1096993119069262
 40
0.2225800923287817
 40
0.3322736366012251
 40
0.4451488803475682
 40
0.5548319310773252
 40
0.6676930666133175
 40
0.7774132481551764
 40
0.8903175944266537
 40
0.9999999999999999
 40
0.9999999999999999
 40
0.9999999999999999
 40
0.9999999999999999
 10
106.7422267712922
 20
197.4940223344557
 30
0.0
 10
106.6040740653398
 20
197.5013771632207
 30
0.0
 10
106.3237619876081
 20
197.5163001234208
 30
0.0
 10
105.9035223479646
 20
197.5369230179651
 30
0.0
 10
105.4935006671635
 20
197.5569650606002
 30
0.0
 10
105.111856917255
 20
197.5786352749294
 30
0.0
 10
104.7628838625008
 20
197.6019020806523
 30
0.0
 10
104.4620828738687
 20
197.6238149381976
 30
0.0
 10
104.2143054115812
 20
197.644480441787
 30
0.0
 10
104.0248421837361
 20
197.6642229081343
 30
0.0
 10
103.954774753136
 20
197.6790406219324
 30
0.0
 10
103.9202481504659
 20
197.6863422357122
 30
0.0
  0
LINE
  5
152
330
1F
100
AcDbEntity
  8
0
  6
HIDDEN
 62
     7
370
     0
100
AcDbLine
 10
103.8887037852
 20
197.7007529872
 30
0.0
 11
103.8701307205
 21
197.7092379201
 31
0.0
  0
LINE
  5
153
330
1F
100
AcDbEntity
  8
0
  6
HIDDEN
 62
     7
370
     0
100
AcDbLine
 10
103.8784486868
 20
197.7132484406
 30
0.0
 11
103.9421901246
 21
197.7439814745
 31
0.0
  0
SPLINE
  5
154
330
1F
100
AcDbEntity
  8
0
  6
HIDDEN
 62
     7
370
     0
100
AcDbSpline
210
0.0
220
0.0
230
1.0
 70
     8
 71
     3
 72
    18
 73
    14
 74
     0
 42
0.00000001
 43
0.00000001
 12
1.0
 22
0.0
 32
0.0
 13
1.0
 23
0.0
 33
0.0
 40
0.0
 40
0.0
 40
0.0
 40
0.0
 40
0.0967348120845954
 40
0.1962747699990362
 40
0.2930129555800889
 40
0.3925563537161518
 40
0.4893075724202711
 40
0.5888645285047054
 40
0.6856134883646761
 40
0.7851687621927393
 40
0.8819054418146612
 40
0.9814449828294844
 40
1.0
 40
1.0
 40
1.0
 40
1.0
 10
105.9954729308773
 20
197.0946146223468
 30
0.0
 10
106.1336173598941
 20
197.1016546706835
 30
0.0
 10
106.413912172564
 20
197.1159389168435
 30
0.0
 10
106.8341275686865
 20
197.1357436255121
 30
0.0
 10
107.2440575736052
 20
197.1568538372797
 30
0.0
 10
107.625634740627
 20
197.1798496841318
 30
0.0
 10
107.9747457026431
 20
197.2022904318823
 30
0.0
 10
108.2754222117115
 20
197.2230983758787
 30
0.0
 10
108.5239003515068
 20
197.2431112793782
 30
0.0
 10
108.7106912346311
 20
197.2644894379821
 30
0.0
 10
108.826042326793
 20
197.2876336022376
 30
0.0
 10
108.875839221133
 20
197.3039918833547
 30
0.0
 10
108.8651743546552
 20
197.3122955270922
 30
0.0
 10
108.8634986908172
 20
197.3136001956094
 30
0.0
  0
SPLINE
  5
155
330
1F
100
AcDbEntity
  8
0
  6
HIDDEN
 62
     7
370
     0
100
AcDbSpline
210
0.0
220
0.0
230
1.0
 70
     8
 71
     3
 72
    15
 73
    11
 74
     0
 42
0.00000001
 43
0.00000001
 12
1.0
 22
0.0
 32
0.0
 13
1.0
 23
0.0
 33
0.0
 40
0.0
 40
0.0
 40
0.0
 40
0.0
 40
0.1331962125372065
 40
0.2625914989434821
 40
0.3957377345896896
 40
0.5251630296211519
 40
0.6583430751145642
 40
0.7877438074177454
 40
0.9208977079379436
 40
1.0
 40
1.0
 40
1.0
 40
1.0
 10
108.8462664632155
 20
197.3301708731452
 30
0.0
 10
108.8201000697066
 20
197.3369631060909
 30
0.0
 10
108.7685139745575
 20
197.3503537468337
 30
0.0
 10
108.6030016683264
 20
197.372338693499
 30
0.0
 10
108.3808082098358
 20
197.3953128476938
 30
0.0
 10
108.0976507051899
 20
197.4172902705251
 30
0.0
 10
107.7683991892964
 20
197.4376759081583
 30
0.0
 10
107.3959202326973
 20
197.45778661997
 30
0.0
 10
107.0493140732881
 20
197.4771989857153
 30
0.0
 10
106.8255993543171
 20
197.4894548839929
 30
0.0
 10
106.7422267712922
 20
197.4940223344557
 30
0.0
  0
SPLINE
  5
156
330
1F
100
AcDbEntity
  8
0
  6
HIDDEN
 62
     7
370
     0
100
AcDbSpline
210
0.0
220
0.0
230
1.0
 70
     8
 71
     3
 72
    17
 73
    13
 74
     0
 42
0.00000001
 43
0.00000001
 12
1.0
 22
0.0
 32
0.0
 13
1.0
 23
0.0
 33
0.0
 40
0.0
 40
0.0
 40
0.0
 40
0.0
 40
0.0985583340575931
 40
0.1999744370901423
 40
0.2985361573115219
 40
0.3999537461457052
 40
0.4985512051522766
 40
0.6000101308497185
 40
0.6985731475501071
 40
0.7999944883510515
 40
0.8985681179907163
 40
1.0
 40
1.0
 40
1.0
 40
1.0
 10
106.7422438584967
 20
196.6944855863756
 30
0.0
 10
106.6040851330208
 20
196.7012104405332
 30
0.0
 10
106.3237616715876
 20
196.7148551407765
 30
0.0
 10
105.9035714905684
 20
196.7350583173045
 30
0.0
 10
105.493739779696
 20
196.7580474379883
 30
0.0
 10
105.1121251281041
 20
196.7806060494465
 30
0.0
 10
104.7628724763069
 20
196.8019784027004
 30
0.0
 10
104.4623248682836
 20
196.8219309726127
 30
0.0
 10
104.2132576150335
 20
196.8427839744607
 30
0.0
 10
104.0289398780885
 20
196.8657158919346
 30
0.0
 10
103.9046485192897
 20
196.888339634289
 30
0.0
 10
103.8817480270035
 20
196.9022080019228
 30
0.0
 10
103.870134146904
 20
196.9092412812455
 30
0.0
  0
SPLINE
  5
157
330
1F
100
AcDbEntity
  8
0
  6
HIDDEN
 62
     7
370
     0
100
AcDbSpline
210
0.0
220
0.0
230
1.0
 70
     8
 71
     3
 72
    16
 73
    12
 74
     0
 42
0.00000001
 43
0.00000001
 12
1.0
 22
0.0
 32
0.0
 13
1.0
 23
0.0
 33
0.0
 40
0.0
 40
0.0
 40
0.0
 40
0.0
 40
0.0947478536061767
 40
0.2153011508092969
 40
0.3324379006920469
 40
0.4529684739649187
 40
0.5701494091371593
 40
0.6907311803181521
 40
0.8078701512451784
 40
0.9284051372340529
 40
1.0
 40
1.0
 40
1.0
 40
1.0
 10
103.8742169441585
 20
196.913074918362
 30
0.0
 10
103.8764452065251
 20
196.9184409061408
 30
0.0
 10
103.8815086188725
 20
196.9306343574966
 30
0.0
 10
103.9736741361078
 20
196.9503584419123
 30
0.0
 10
104.1334812049856
 20
196.9735922561741
 30
0.0
 10
104.3572267518006
 20
196.9957282808359
 30
0.0
 10
104.6400392416813
 20
197.0166368101137
 30
0.0
 10
104.9694621862184
 20
197.0364568084231
 30
0.0
 10
105.3418561057446
 20
197.0582050085432
 30
0.0
 10
105.6884023087499
 20
197.0783096917069
 30
0.0
 10
105.9121107046988
 20
197.0901882291399
 30
0.0
 10
105.9954729308773
 20
197.0946146223468
 30
0.0
  0
SPLINE
  5
158
330
1F
100
AcDbEntity
  8
0
  6
HIDDEN
 62
     7
370
     0
100
AcDbSpline
210
0.0
220
0.0
230
1.0
 70
     8
 71
     3
 72
    18
 73
    14
 74
     0
 42
0.00000001
 43
0.00000001
 12
1.0
 22
0.0
 32
0.0
 13
1.0
 23
0.0
 33
0.0
 40
0.0
 40
0.0
 40
0.0
 40
0.0
 40
0.096727920599592
 40
0.1962604853669233
 40
0.2930006595518196
 40
0.3925444049002876
 40
0.4893097893786437
 40
0.5888827928110424
 40
0.6856224116339474
 40
0.7851653442021225
 40
0.8819371602786624
 40
0.9815172996523084
 40
1.0
 40
1.0
 40
1.0
 40
1.0
 10
105.9955182393011
 20
196.2938125914571
 30
0.0
 10
106.1336732117794
 20
196.300399351618
 30
0.0
 10
106.4139889860292
 20
196.3137638562836
 30
0.0
 10
106.8340597539155
 20
196.3359495887624
 30
0.0
 10
107.2438842918682
 20
196.3589916496755
 30
0.0
 10
107.6255607450179
 20
196.3805399201187
 30
0.0
 10
107.9747901416426
 20
196.4009497034908
 30
0.0
 10
108.2754900258337
 20
196.4210777874062
 30
0.0
 10
108.5238651156512
 20
196.443903846259
 30
0.0
 10
108.7106559753861
 20
196.466552263514
 30
0.0
 10
108.8260666014234
 20
196.488136027006
 30
0.0
 10
108.8758588097867
 20
196.5025940975373
 30
0.0
 10
108.8651876318089
 20
196.5109827701357
 30
0.0
 10
108.8635170622597
 20
196.5122960141871
 30
0.0
  0
SPLINE
  5
159
330
1F
100
AcDbEntity
  8
0
  6
HIDDEN
 62
     7
370
     0
100
AcDbSpline
210
0.0
220
0.0
230
1.0
 70
     8
 71
     3
 72
    15
 73
    11
 74
     0
 42
0.00000001
 43
0.00000001
 12
1.0
 22
0.0
 32
0.0
 13
1.0
 23
0.0
 33
0.0
 40
0.0
 40
0.0
 40
0.0
 40
0.0
 40
0.1331529390484824
 40
0.2625634828251247
 40
0.3957259905509463
 40
0.525146310822929
 40
0.6583209079532437
 40
0.7877175550253623
 40
0.9208631928708363
 40
1.0
 40
1.0
 40
1.0
 40
1.0
 10
108.8462437499873
 20
196.5289312707615
 30
0.0
 10
108.8200892515644
 20
196.5365200470187
 30
0.0
 10
108.7685153528092
 20
196.5514843094578
 30
0.0
 10
108.6030574646965
 20
196.574303744855
 30
0.0
 10
108.3808097062367
 20
196.5953328249376
 30
0.0
 10
108.0975842727377
 20
196.615438687535
 30
0.0
 10
107.7683591008474
 20
196.6362757593641
 30
0.0
 10
107.3960520734682
 20
196.6594553717934
 30
0.0
 10
107.0494491374771
 20
196.6789131403658
 30
0.0
 10
106.8256674646456
 20
196.6902567866395
 30
0.0
 10
106.7422438584967
 20
196.6944855863756
 30
0.0
  0
SPLINE
  5
15A
330
1F
100
AcDbEntity
  8
0
  6
HIDDEN
 62
     7
370
     0
100
AcDbSpline
210
0.0
220
0.0
230
1.0
 70
     8
 71
     3
 72
    14
 73
    10
 74
     0
 42
0.00000001
 43
0.00000001
 12
1.0
 22
0.0
 32
0.0
 13
1.0
 23
0.0
 33
0.0
 40
0.0
 40
0.0
 40
0.0
 40
0.0
 40
0.1433561234581583
 40
0.286711966724045
 40
0.43006269492229
 40
0.5734134965434096
 40
0.716754921734329
 40
0.8600958514031304
 40
1.0
 40
1.0
 40
1.0
 40
1.0
 10
103.9421889438687
 20
196.1439671751603
 30
0.0
 10
103.9828297189648
 20
196.1513409241214
 30
0.0
 10
104.0641111897236
 20
196.1660884076313
 30
0.0
 10
104.2691722692942
 20
196.1867815321073
 30
0.0
 10
104.5301941960516
 20
196.2071564644075
 30
0.0
 10
104.8437019381619
 20
196.2290329569852
 30
0.0
 10
105.2012531090213
 20
196.2520689641373
 30
0.0
 10
105.587653751028
 20
196.2738509303185
 30
0.0
 10
105.86066762313
 20
196.2872127467005
 30
0.0
 10
105.9955182393011
 20
196.2938125914571
 30
0.0
  0
LINE
  5
15B
330
1F
100
AcDbEntity
  8
0
  6
HIDDEN
 62
     7
370
     0
100
AcDbLine
 10
105.078003345
 20
198.6426883031
 30
0.0
 11
103.942205295
 21
198.6426883031
 31
0.0
  0
LINE
  5
15C
330
1F
100
AcDbEntity
  8
0
  6
HIDDEN
 62
     7
370
     0
100
AcDbLine
 10
103.9423476304
 20
197.042439226
 30
0.0
 11
104.3626328804
 21
197.2924827181
 31
0.0
  0
SPLINE
  5
15D
330
1F
100
AcDbEntity
  8
0
  6
HIDDEN
 62
     7
370
     0
100
AcDbSpline
210
0.0
220
0.0
230
1.0
 70
     8
 71
     3
 72
    14
 73
    10
 74
     0
 42
0.00000001
 43
0.00000001
 12
1.0
 22
0.0
 32
0.0
 13
1.0
 23
0.0
 33
0.0
 40
0.0
 40
0.0
 40
0.0
 40
0.0
 40
0.1994520073421948
 40
0.3298175173062703
 40
0.4639685060700279
 40
0.5941057456916466
 40
0.7277956442455794
 40
0.8618481813804911
 40
1.0
 40
1.0
 40
1.0
 40
1.0
 10
106.6773319464183
 20
198.6421848802336
 30
0.0
 10
106.8470545770992
 20
198.6321684491587
 30
0.0
 10
107.1277110489382
 20
198.6156050940266
 30
0.0
 10
107.4853909618912
 20
198.5885117524812
 30
0.0
 10
107.7590261291416
 20
198.5667686402007
 30
0.0
 10
107.9955747539804
 20
198.5464205832689
 30
0.0
 10
108.1868725181887
 20
198.5262603701773
 30
0.0
 10
108.3353485907491
 20
198.5042323689228
 30
0.0
 10
108.3844134938331
 20
198.4890040938292
 30
0.0
 10
108.4093153936305
 20
198.4812752906189
 30
0.0
  0
SPLINE
  5
15E
330
1F
100
AcDbEntity
  8
0
  6
HIDDEN
 62
     7
370
     0
100
AcDbSpline
210
0.0
220
0.0
230
1.0
 70
     8
 71
     3
 72
    27
 73
    23
 74
     0
 42
0.00000001
 43
0.00000001
 12
1.0
 22
0.0
 32
0.0
 13
1.0
 23
0.0
 33
0.0
 40
0.0
 40
0.0
 40
0.0
 40
0.0
 40
0.0017816942507514
 40
0.0555428135536882
 40
0.1092308521828389
 40
0.164546157192497
 40
0.2169320269234703
 40
0.2707685006395735
 40
0.3244087249607362
 40
0.3796639418626084
 40
0.432116761928369
 40
0.486033285575016
 40
0.5395719929721058
 40
0.5947074020259026
 40
0.6472484509525583
 40
0.7012680297594246
 40
0.7546960703583628
 40
0.8097010822765224
 40
0.862353595723539
 40
0.9165014719010416
 40
0.9698253707058194
 40
1.0
 40
1.0
 40
1.0
 40
1.0
 10
108.4337864450704
 20
198.4609333749146
 30
0.0
 10
108.4340831951811
 20
198.4606942364002
 30
0.0
 10
108.4433341292626
 20
198.4532392951753
 30
0.0
 10
108.4088944313562
 20
198.439102548181
 30
0.0
 10
108.3251929576276
 20
198.4178566693457
 30
0.0
 10
108.1777359553755
 20
198.3965016505177
 30
0.0
 10
107.9792824870133
 20
198.374417459029
 30
0.0
 10
107.7385428137005
 20
198.3525765839777
 30
0.0
 10
107.4550850744877
 20
198.3307243614886
 30
0.0
 10
107.1417023959826
 20
198.31035029332
 30
0.0
 10
106.8055175267358
 20
198.2894074549174
 30
0.0
 10
106.4611641582208
 20
198.2668986737192
 30
0.0
 10
106.1083560556471
 20
198.2441194955118
 30
0.0
 10
105.7655475954154
 20
198.223109900064
 30
0.0
 10
105.4398415336604
 20
198.2036271768401
 30
0.0
 10
105.1433758925603
 20
198.1819125269832
 30
0.0
 10
104.8765853329326
 20
198.15835513959
 30
0.0
 10
104.6549062329969
 20
198.136278611363
 30
0.0
 10
104.4823713542816
 20
198.11646070588
 30
0.0
 10
104.3667720835796
 20
198.0965334194161
 30
0.0
 10
104.305597566416
 20
198.0767563689829
 30
0.0
 10
104.3086541295052
 20
198.0650367829917
 30
0.0
 10
104.3097587077563
 20
198.0608015686614
 30
0.0
  0
SPLINE
  5
15F
330
1F
100
AcDbEntity
  8
0
  6
HIDDEN
 62
     7
370
     0
100
AcDbSpline
210
0.0
220
0.0
230
1.0
 70
     8
 71
     3
 72
    24
 73
    20
 74
     0
 42
0.00000001
 43
0.00000001
 12
1.0
 22
0.0
 32
0.0
 13
1.0
 23
0.0
 33
0.0
 40
0.0
 40
0.0
 40
0.0
 40
0.0
 40
0.0577733146411802
 40
0.1172035050519974
 40
0.1754690540382242
 40
0.2354242508241778
 40
0.2933162037271994
 40
0.3528842552996848
 40
0.4110277420105309
 40
0.4708418286121556
 40
0.5288705606530978
 40
0.5885970439679136
 40
0.6466096556295917
 40
0.7062737966623831
 40
0.7644464457196367
 40
0.8243411993178121
 40
0.8821984341383955
 40
0.9416863095420644
 40
1.0
 40
1.0
 40
1.0
 40
1.0
 10
104.308176893057
 20
198.0503678266551
 30
0.0
 10
104.3228280309837
 20
198.0434344646441
 30
0.0
 10
104.3525504855232
 20
198.0293688993476
 30
0.0
 10
104.469032910747
 20
198.0095426160305
 30
0.0
 10
104.6356099852896
 20
197.9882433040137
 30
0.0
 10
104.8513629032747
 20
197.9650224962151
 30
0.0
 10
105.1134681172766
 20
197.9432322930474
 30
0.0
 10
105.4079977282982
 20
197.9224514361359
 30
0.0
 10
105.7324507636326
 20
197.9015785917252
 30
0.0
 10
106.0724856411314
 20
197.880019615764
 30
0.0
 10
106.4242095608701
 20
197.8577996402452
 30
0.0
 10
106.7706615788578
 20
197.8360809119312
 30
0.0
 10
107.1089660380102
 20
197.8144925873136
 30
0.0
 10
107.424053632098
 20
197.7936058845796
 30
0.0
 10
107.710868588531
 20
197.7727840786425
 30
0.0
 10
107.9567846979808
 20
197.7505297134912
 30
0.0
 10
108.1590286685611
 20
197.7280114668897
 30
0.0
 10
108.3140329592574
 20
197.706507052135
 30
0.0
 10
108.3693236002124
 20
197.6931837831411
 30
0.0
 10
108.3966933664654
 20
197.6865885483638
 30
0.0
  0
LINE
  5
160
330
1F
100
AcDbEntity
  8
0
  6
HIDDEN
 62
     7
370
     0
100
AcDbLine
 10
108.4183028599
 20
197.6740617679
 30
0.0
 11
108.434047367
 21
197.6649348541
 31
0.0
  0
SPLINE
  5
161
330
1F
100
AcDbEntity
  8
0
  6
HIDDEN
 62
     7
370
     0
100
AcDbSpline
210
0.0
220
0.0
230
1.0
 70
     8
 71
     3
 72
    24
 73
    20
 74
     0
 42
0.00000001
 43
0.00000001
 12
1.0
 22
0.0
 32
0.0
 13
1.0
 23
0.0
 33
0.0
 40
0.0
 40
0.0
 40
0.0
 40
0.0
 40
0.0501715057263459
 40
0.108891033139789
 40
0.1667489278851181
 40
0.22635619561064
 40
0.2833586317514503
 40
0.3419410853357604
 40
0.3999050933875267
 40
0.4596362059515246
 40
0.5165383056951224
 40
0.5750097332520476
 40
0.6330395417327656
 40
0.6928493657834344
 40
0.7496671807501726
 40
0.8080396032551146
 40
0.8662165324064679
 40
0.9261923059373749
 40
1.0
 40
1.0
 40
1.0
 40
1.0
 10
108.4315277785075
 20
197.6622246643971
 30
0.0
 10
108.4286729674257
 20
197.6557123048574
 30
0.0
 10
108.4224769538992
 20
197.6415780358498
 30
0.0
 10
108.3436259184541
 20
197.6198005187777
 30
0.0
 10
108.2070065902543
 20
197.5993699354292
 30
0.0
 10
108.0172653894393
 20
197.5797995751286
 30
0.0
 10
107.7815136773291
 20
197.5574522305284
 30
0.0
 10
107.5087623687121
 20
197.5340627285387
 30
0.0
 10
107.1977785731954
 20
197.5125049102587
 30
0.0
 10
106.8656825676605
 20
197.4926675946298
 30
0.0
 10
106.5192021984311
 20
197.4720658483683
 30
0.0
 10
106.1717281636501
 20
197.4489634647186
 30
0.0
 10
105.8240842311618
 20
197.4263131287594
 30
0.0
 10
105.4956099026584
 20
197.4056048508275
 30
0.0
 10
105.191298430324
 20
197.3851258517461
 30
0.0
 10
104.9213864833064
 20
197.3639473436801
 30
0.0
 10
104.6902905950494
 20
197.3411742157771
 30
0.0
 10
104.4883815317985
 20
197.3173761118635
 30
0.0
 10
104.407845956965
 20
197.3011180524323
 30
0.0
 10
104.3634148686147
 20
197.2921485594289
 30
0.0
  0
SPLINE
  5
162
330
1F
100
AcDbEntity
  8
0
  6
HIDDEN
 62
     7
370
     0
100
AcDbSpline
210
0.0
220
0.0
230
1.0
 70
     8
 71
     3
 72
    21
 73
    17
 74
     0
 42
0.00000001
 43
0.00000001
 12
1.0
 22
0.0
 32
0.0
 13
1.0
 23
0.0
 33
0.0
 40
0.0
 40
0.0
 40
0.0
 40
0.0
 40
0.1030706311379796
 40
0.1703693576062413
 40
0.239609610347161
 40
0.3073977314489203
 40
0.377069016080175
 40
0.4459243912762929
 40
0.5168770638877149
 40
0.5844999410470295
 40
0.6539864783400303
 40
0.7229608071131736
 40
0.7940522230199871
 40
0.8615632022674146
 40
0.9309241360493044
 40
1.0
 40
1.0
 40
1.0
 40
1.0
 10
108.0312977614078
 20
196.1431385111685
 30
0.0
 10
107.9187272325468
 20
196.1534542466241
 30
0.0
 10
107.7326551334851
 20
196.1705055172276
 30
0.0
 10
107.3954325567431
 20
196.1962850325039
 30
0.0
 10
107.0831638132772
 20
196.2175890984887
 30
0.0
 10
106.7468897594505
 20
196.238652215845
 30
0.0
 10
106.4006739793494
 20
196.2597072263639
 30
0.0
 10
106.0480914559472
 20
196.2816491877536
 30
0.0
 10
105.7084151680667
 20
196.303382113705
 30
0.0
 10
105.3864814828435
 20
196.3250334260125
 30
0.0
 10
105.0941381925401
 20
196.3459893352621
 30
0.0
 10
104.8345536227885
 20
196.3673500611831
 30
0.0
 10
104.6221237040918
 20
196.3894805168877
 30
0.0
 10
104.4593500904712
 20
196.4114994217238
 30
0.0
 10
104.3458680947035
 20
196.4318392373167
 30
0.0
 10
104.3196221750292
 20
196.4461157648305
 30
0.0
 10
104.3065262380646
 20
196.4532393294346
 30
0.0
  0
SPLINE
  5
163
330
1F
100
AcDbEntity
  8
0
  6
HIDDEN
 62
     7
370
     0
100
AcDbSpline
210
0.0
220
0.0
230
1.0
 70
     8
 71
     3
 72
    25
 73
    21
 74
     0
 42
0.00000001
 43
0.00000001
 12
1.0
 22
0.0
 32
0.0
 13
1.0
 23
0.0
 33
0.0
 40
0.0
 40
0.0
 40
0.0
 40
0.0
 40
0.0335288919288964
 40
0.084152035244869
 40
0.1361556839244726
 40
0.1880939475210108
 40
0.2416454765883888
 40
0.2922087200527177
 40
0.344145165923292
 40
0.3961423824617811
 40
0.4497616189694352
 40
0.50027560294324
 40
0.5521568245234532
 40
0.6042063873481903
 40
0.6578852040093256
 40
0.7598574316036786
 40
0.8119495382372842
 40
0.8656763453230122
 40
0.9675838881288004
 40
0.9999999999999999
 40
0.9999999999999999
 40
0.9999999999999999
 40
0.9999999999999999
 10
104.3097888923351
 20
196.4617619338818
 30
0.0
 10
104.3094690342227
 20
196.4665459090914
 30
0.0
 10
104.3086662426719
 20
196.4785529044703
 30
0.0
 10
104.3730482705963
 20
196.497726752463
 30
0.0
 10
104.491443228867
 20
196.5177468493243
 30
0.0
 10
104.6697569276899
 20
196.5392951538751
 30
0.0
 10
104.896063783911
 20
196.5621806401824
 30
0.0
 10
105.163342085737
 20
196.5835845668618
 30
0.0
 10
105.4609759074445
 20
196.6037695371212
 30
0.0
 10
105.7911830876192
 20
196.6255872895986
 30
0.0
 10
106.1355558581804
 20
196.6482970139556
 30
0.0
 10
106.4857334824626
 20
196.6694230386059
 30
0.0
 10
106.8295053059411
 20
196.690001831075
 30
0.0
 10
107.1672462037359
 20
196.7119562063993
 30
0.0
 10
107.5800298626569
 20
196.7413398770344
 30
0.0
 10
107.9328129605133
 20
196.7695893733222
 30
0.0
 10
108.1923137032635
 20
196.7980362436294
 30
0.0
 10
108.3762623781758
 20
196.8270454393106
 30
0.0
 10
108.4581353317126
 20
196.8534618468312
 30
0.0
 10
108.4242503458417
 20
196.8714987633276
 30
0.0
 10
108.4160729366179
 20
196.87585158342
 30
0.0
  0
SPLINE
  5
164
330
1F
100
AcDbEntity
  8
0
  6
HIDDEN
 62
     7
370
     0
100
AcDbSpline
210
0.0
220
0.0
230
1.0
 70
     8
 71
     3
 72
    20
 73
    16
 74
     0
 42
0.00000001
 43
0.00000001
 12
1.0
 22
0.0
 32
0.0
 13
1.0
 23
0.0
 33
0.0
 40
0.0
 40
0.0
 40
0.0
 40
0.0
 40
0.0607601749625564
 40
0.1758812095313988
 40
0.2348081216777118
 40
0.2955873672437948
 40
0.4106719495793719
 40
0.4696072291725807
 40
0.5303927830749829
 40
0.6454872541767175
 40
0.7044089388842297
 40
0.7651771643744403
 40
0.8802529789148342
 40
0.9392060521143397
 40
1.0
 40
1.0
 40
1.0
 40
1.0
 10
108.404429489685
 20
196.8838195749067
 30
0.0
 10
108.3770258754068
 20
196.8913128830355
 30
0.0
 10
108.2977012054606
 20
196.9130036055835
 30
0.0
 10
108.057564723444
 20
196.9426770847744
 30
0.0
 10
107.7360721743658
 20
196.9696022625805
 30
0.0
 10
107.3586004666754
 20
196.999531227591
 30
0.0
 10
106.9183233096522
 20
197.028574149
 30
0.0
 10
106.4557532624257
 20
197.055624929912
 30
0.0
 10
105.9897248604563
 20
197.0859572636551
 30
0.0
 10
105.5363337175037
 20
197.1143416250995
 30
0.0
 10
105.137430984299
 20
197.1419119402484
 30
0.0
 10
104.7873316766278
 20
197.1721921340563
 30
0.0
 10
104.5227623474312
 20
197.2002779743007
 30
0.0
 10
104.3585053645356
 20
197.2283962538147
 30
0.0
 10
104.3264849142632
 20
197.2433520313522
 30
0.0
 10
104.3102285634371
 20
197.250944877938
 30
0.0
  0
LINE
  5
165
330
1F
100
AcDbEntity
  8
0
  6
HIDDEN
 62
     7
370
     0
100
AcDbLine
 10
104.3182635795
 20
197.257291058
 30
0.0
 11
104.3634035493
 21
197.2929433047
 31
0.0
  0
SPLINE
  5
166
330
1F
100
AcDbEntity
  8
0
  6
HIDDEN
 62
     7
370
     0
100
AcDbSpline
210
0.0
220
0.0
230
1.0
 70
     8
 71
     3
 72
    12
 73
     8
 74
     0
 42
0.00000001
 43
0.00000001
 12
1.0
 22
0.0
 32
0.0
 13
1.0
 23
0.0
 33
0.0
 40
0.0
 40
0.0
 40
0.0
 40
0.0
 40
0.3034581738517572
 40
0.5018041342130469
 40
0.7059095515467437
 40
0.9039081453217482
 40
0.9999999999999999
 40
0.9999999999999999
 40
0.9999999999999999
 40
0.9999999999999999
 10
107.595245044159
 20
196.1431913837705
 30
0.0
 10
107.7273860425612
 20
196.15320861566
 30
0.0
 10
107.9458968786859
 20
196.1697732984028
 30
0.0
 10
108.173741548393
 20
196.1968591311802
 30
0.0
 10
108.3163572695502
 20
196.2186283102034
 30
0.0
 10
108.3981605824044
 20
196.2352910296582
 30
0.0
 10
108.4113734802237
 20
196.245226817947
 30
0.0
 10
108.4156906957736
 20
196.2484732624657
 30
0.0
  0
LINE
  5
167
330
1F
100
AcDbEntity
  8
0
  6
HIDDEN
 62
     7
370
     0
100
AcDbLine
 10
108.4343366833
 20
196.2593379292
 30
0.0
 11
108.431741207
 21
196.2618368453
 31
0.0
  0
SPLINE
  5
168
330
1F
100
AcDbEntity
  8
0
  6
HIDDEN
 62
     7
370
     0
100
AcDbSpline
210
0.0
220
0.0
230
1.0
 70
     8
 71
     3
 72
    24
 73
    20
 74
     0
 42
0.00000001
 43
0.00000001
 12
1.0
 22
0.0
 32
0.0
 13
1.0
 23
0.0
 33
0.0
 40
0.0
 40
0.0
 40
0.0
 40
0.0
 40
0.0605591186754186
 40
0.1177124029007499
 40
0.1764399858523477
 40
0.2350877051551768
 40
0.2955130142750638
 40
0.3527383018560724
 40
0.4115482027257663
 40
0.4701436883693642
 40
0.5305033559038543
 40
0.5878017812120172
 40
0.646699129933688
 40
0.705183717966028
 40
0.7654125069976727
 40
0.8228073144667581
 40
0.8818172416516911
 40
0.9401809375444804
 40
1.0
 40
1.0
 40
1.0
 40
1.0
 10
108.4118044150732
 20
196.2810319243279
 30
0.0
 10
108.3877633718688
 20
196.2887795601481
 30
0.0
 10
108.3410333496074
 20
196.3038391060786
 30
0.0
 10
108.1971699654502
 20
196.3254273155379
 30
0.0
 10
108.0093704624786
 20
196.3463194090412
 30
0.0
 10
107.7707125865265
 20
196.3675069348666
 30
0.0
 10
107.4927451481472
 20
196.388877840546
 30
0.0
 10
107.1820135004333
 20
196.410957923678
 30
0.0
 10
106.8524200037632
 20
196.4327999119681
 30
0.0
 10
106.5031885943824
 20
196.4546518440802
 30
0.0
 10
106.1524642992779
 20
196.4750260031365
 30
0.0
 10
105.8079989146465
 20
196.4959688308045
 30
0.0
 10
105.4827587316998
 20
196.5184774264724
 30
0.0
 10
105.176747666373
 20
196.5412573092519
 30
0.0
 10
104.9076234552991
 20
196.5622643012323
 30
0.0
 10
104.6807699462775
 20
196.5817565805493
 30
0.0
 10
104.5040689456224
 20
196.6034350365946
 30
0.0
 10
104.3725170591423
 20
196.6270923591526
 30
0.0
 10
104.3344901958795
 20
196.6415785675433
 30
0.0
 10
104.3152426225422
 20
196.6489108672508
 30
0.0
  0
SPLINE
  5
169
330
1F
100
AcDbEntity
  8
0
  6
HIDDEN
 62
     7
370
     0
100
AcDbSpline
210
0.0
220
0.0
230
1.0
 70
     8
 71
     3
 72
    26
 73
    22
 74
     0
 42
0.00000001
 43
0.00000001
 12
1.0
 22
0.0
 32
0.0
 13
1.0
 23
0.0
 33
0.0
 40
0.0
 40
0.0
 40
0.0
 40
0.0
 40
0.0176387434805103
 40
0.0736606184732337
 40
0.128829950466657
 40
0.1856125939958114
 40
0.2402034920998878
 40
0.2963600009359202
 40
0.351415969517023
 40
0.4080685078753659
 40
0.4627715112143095
 40
0.5190582896317941
 40
0.5739989179776726
 40
0.6305181174006369
 40
0.6853503678772016
 40
0.741786853697091
 40
0.7966038143545803
 40
0.8529813260519589
 40
0.9079495645688481
 40
0.9645450500082253
 40
1.0
 40
1.0
 40
1.0
 40
1.0
 10
104.3087381178484
 20
196.6623811389321
 30
0.0
 10
104.3071044456704
 20
196.6645174053096
 30
0.0
 10
104.3002821171327
 20
196.6734386021493
 30
0.0
 10
104.3474358326663
 20
196.6888463289067
 30
0.0
 10
104.4498380205802
 20
196.712040625785
 30
0.0
 10
104.6105836427682
 20
196.7351288000213
 30
0.0
 10
104.8233299383241
 20
196.755898898503
 30
0.0
 10
105.0770702678273
 20
196.7758624211511
 30
0.0
 10
105.369874692402
 20
196.7971250462455
 30
0.0
 10
105.6888726739489
 20
196.8203558009385
 30
0.0
 10
106.0303353086482
 20
196.8421434155597
 30
0.0
 10
106.3776680922292
 20
196.8629249916471
 30
0.0
 10
106.728439248992
 20
196.8837976355921
 30
0.0
 10
107.066449924425
 20
196.9053566578348
 30
0.0
 10
107.3864997421001
 20
196.9275765577277
 30
0.0
 10
107.6745668756115
 20
196.949295566916
 30
0.0
 10
107.9286028587024
 20
196.9708829006718
 30
0.0
 10
108.1376219959218
 20
196.9917733598998
 30
0.0
 10
108.2937690270668
 20
197.0125812902416
 30
0.0
 10
108.389631399345
 20
197.0323094947124
 30
0.0
 10
108.4094696082859
 20
197.0445947837389
 30
0.0
 10
108.4171106661759
 20
197.0493266930017
 30
0.0
  0
LINE
  5
16A
330
1F
100
AcDbEntity
  8
0
  6
HIDDEN
 62
     7
370
     0
100
AcDbLine
 10
108.4327649098
 20
197.0570255937
 30
0.0
 11
108.4290903524
 21
197.063161945
 31
0.0
  0
LWPOLYLINE
  5
16B
330
1F
100
AcDbEntity
  8
0
  6
HIDDEN
 62
     7
370
     0
100
AcDbPolyline
 90
       21
 70
   128
 43
0.0
 10
108.4197661767
 20
197.0787329135
 10
108.3477480538
 20
197.0987877341
 10
108.2156360579
 20
197.120441408
 10
108.0380928239
 20
197.1427071199
 10
107.8083727963
 20
197.1652552752
 10
107.5402691907
 20
197.1856955057
 10
107.2295751736
 20
197.2063377337
 10
106.9089368336
 20
197.2279252286
 10
106.5642674703
 20
197.2510294499
 10
106.2174157259
 20
197.2724075553
 10
105.864598971
 20
197.2931535936
 10
105.5422662559
 20
197.313562879
 10
105.2342197228
 20
197.336331881
 10
104.9611766934
 20
197.3585514671
 10
104.7219183728
 20
197.3800788774
 10
104.5396008182
 20
197.4002124676
 10
104.4031408068
 20
197.4216529886
 10
104.3238838096
 20
197.4438257783
 10
104.3038338985
 20
197.4662195172
 10
104.3633997277
 20
197.4932280257
 10
104.3633997277
 20
197.4932280257
  0
SPLINE
  5
16C
330
1F
100
AcDbEntity
  8
0
  6
HIDDEN
 62
     7
370
     0
100
AcDbSpline
210
0.0
220
0.0
230
1.0
 70
    24
 71
     3
 72
    18
 73
    14
 74
     0
 42
0.00000001
 43
0.00000001
 12
1.0
 22
0.0
 32
0.0
 13
1.0
 23
0.0
 33
0.0
 40
0.0
 40
0.0
 40
0.0
 40
0.0
 40
0.0948028093399453
 40
0.1895865634262105
 40
0.2839639210379564
 40
0.3783082373820169
 40
0.4649113011372052
 40
0.551516862320334
 40
0.6397754607744177
 40
0.7279722943616336
 40
0.8106359070727501
 40
0.8933216710034552
 40
1.0
 40
1.0
 40
1.0
 40
1.0
 10
103.9442927554836
 20
196.1426883030883
 30
0.0
 10
103.9976036572152
 20
196.1426883030882
 30
0.0
 10
104.1042147452497
 20
196.1426883030883
 30
0.0
 10
104.3443429681031
 20
196.1426883030882
 30
0.0
 10
104.6390466866657
 20
196.1426883030882
 30
0.0
 10
104.9759380785357
 20
196.1426883030882
 30
0.0
 10
105.339739454931
 20
196.1426883030883
 30
0.0
 10
105.7177756004866
 20
196.1426883030882
 30
0.0
 10
106.1113946724347
 20
196.1426883030883
 30
0.0
 10
106.501294750744
 20
196.1426883030883
 30
0.0
 10
106.8700535320705
 20
196.1426883030882
 30
0.0
 10
107.2459969557531
 20
196.1426883030883
 30
0.0
 10
107.4690142204192
 20
196.1426883030882
 30
0.0
 10
107.5946510756656
 20
196.1426883030882
 30
0.0
  0
LINE
  5
16D
330
1F
100
AcDbEntity
  8
0
  6
HIDDEN
 62
     7
370
     0
100
AcDbLine
 10
104.3634067536
 20
197.2926851069
 30
0.0
 11
104.3634067536
 21
197.4926883031
 31
0.0
  0
SPLINE
  5
16E
330
1F
100
AcDbEntity
  8
0
  6
HIDDEN
 62
     7
370
     0
100
AcDbSpline
210
0.0
220
0.0
230
1.0
 70
    24
 71
     3
 72
    13
 73
     9
 74
     0
 42
0.00000001
 43
0.00000001
 12
1.0
 22
0.0
 32
0.0
 13
1.0
 23
0.0
 33
0.0
 40
0.0
 40
0.0
 40
0.0
 40
0.0
 40
0.2688868405842659
 40
0.4464321783203197
 40
0.6239448224972507
 40
0.8010442914159821
 40
0.9781647821141581
 40
0.9999999999999999
 40
0.9999999999999999
 40
0.9999999999999999
 40
0.9999999999999999
 10
107.5952470443453
 20
196.1426883030882
 30
0.0
 10
107.7277957643414
 20
196.1426883030882
 30
0.0
 10
107.9478660871315
 20
196.1426883030882
 30
0.0
 10
108.173404249558
 20
196.1426883030883
 30
0.0
 10
108.3203549883083
 20
196.1426883030882
 30
0.0
 10
108.4047758009777
 20
196.1426883030883
 30
0.0
 10
108.4420618169211
 20
196.1426883030882
 30
0.0
 10
108.4325632037559
 20
196.1426883030882
 30
0.0
 10
108.4315207391313
 20
196.1426883030882
 30
0.0
  0
LINE
  5
16F
330
1F
100
AcDbEntity
  8
0
  6
HIDDEN
 62
     7
370
     0
100
AcDbLine
 10
106.9735973487
 20
199.6426883031
 30
0.0
 11
106.9735973487
 21
202.1426883031
 31
0.0
  0
LINE
  5
170
330
1F
100
AcDbEntity
  8
0
  6
HIDDEN
 62
     7
370
     0
100
AcDbLine
 10
103.2031478104
 20
199.6426883031
 30
0.0
 11
103.2031478104
 21
202.1426883031
 31
0.0
  0
LINE
  5
171
330
1F
100
AcDbEntity
  8
0
  6
HIDDEN
 62
     7
370
     0
100
AcDbLine
 10
108.6688637783
 20
149.3426883031
 30
0.0
 11
108.6688637783
 21
147.3426883031
 31
0.0
  0
LINE
  5
172
330
1F
100
AcDbEntity
  8
0
  6
HIDDEN
 62
     7
370
     0
100
AcDbLine
 10
108.6688637783
 20
151.3426883031
 30
0.0
 11
108.6688637783
 21
149.3426883031
 31
0.0
  0
LINE
  5
173
330
1F
100
AcDbEntity
  8
0
  6
HIDDEN
 62
     7
370
     0
100
AcDbLine
 10
112.6688637783
 20
149.3426883031
 30
0.0
 11
112.6688637783
 21
151.3426883031
 31
0.0
  0
LINE
  5
174
330
1F
100
AcDbEntity
  8
0
  6
HIDDEN
 62
     7
370
     0
100
AcDbLine
 10
112.6688637783
 20
147.3426883031
 30
0.0
 11
112.6688637783
 21
149.3426883031
 31
0.0
  0
LINE
  5
175
330
1F
100
AcDbEntity
  8
0
  6
HIDDEN
 62
     7
370
     0
100
AcDbLine
 10
108.1688637783
 20
149.3426883031
 30
0.0
 11
108.1688637783
 21
150.8426883031
 31
0.0
  0
LINE
  5
176
330
1F
100
AcDbEntity
  8
0
  6
HIDDEN
 62
     7
370
     0
100
AcDbLine
 10
108.1688637783
 20
147.8426883031
 30
0.0
 11
108.1688637783
 21
149.3426883031
 31
0.0
  0
LINE
  5
177
330
1F
100
AcDbEntity
  8
0
  6
HIDDEN
 62
     7
370
     0
100
AcDbLine
 10
100.0688637783
 20
151.3426883031
 30
0.0
 11
100.0688637783
 21
147.3426883031
 31
0.0
  0
LINE
  5
178
330
1F
100
AcDbEntity
  8
0
  6
HIDDEN
 62
     7
370
     0
100
AcDbLine
 10
104.0688637783
 20
147.3426883031
 30
0.0
 11
104.0688637783
 21
151.3426883031
 31
0.0
  0
LINE
  5
179
330
1F
100
AcDbEntity
  8
0
  6
HIDDEN
 62
     7
370
     0
100
AcDbLine
 10
104.5688637783
 20
150.8426883031
 30
0.0
 11
104.5688637783
 21
147.8426883031
 31
0.0
  0
LINE
  5
17A
330
1F
100
AcDbEntity
  8
0
  6
HIDDEN
 62
     7
370
     0
100
AcDbLine
 10
100.3688637783
 20
145.3426883031
 30
0.0
 11
100.3688637783
 21
145.7708915334
 31
0.0
  0
LINE
  5
17B
330
1F
100
AcDbEntity
  8
0
  6
HIDDEN
 62
     7
370
     0
100
AcDbLine
 10
103.8688637783
 20
142.0426883031
 30
0.0
 11
108.8688637783
 21
142.0426883031
 31
0.0
  0
LINE
  5
17C
330
1F
100
AcDbEntity
  8
0
  6
HIDDEN
 62
     7
370
     0
100
AcDbLine
 10
108.5339272877
 20
145.0426883031
 30
0.0
 11
103.8688637783
 21
145.0426883031
 31
0.0
  0
LINE
  5
17D
330
1F
100
AcDbEntity
  8
0
  6
HIDDEN
 62
     7
370
     0
100
AcDbLine
 10
108.8688637783
 20
145.0426883031
 30
0.0
 11
108.5339272877
 21
145.0426883031
 31
0.0
  0
LINE
  5
17E
330
1F
100
AcDbEntity
  8
0
  6
HIDDEN
 62
     7
370
     0
100
AcDbLine
 10
108.1009145858
 20
145.5426883031
 30
0.0
 11
108.3688637783
 21
145.5426883031
 31
0.0
  0
LINE
  5
17F
330
1F
100
AcDbEntity
  8
0
  6
HIDDEN
 62
     7
370
     0
100
AcDbLine
 10
104.3688637783
 20
145.5426883031
 30
0.0
 11
108.1009145858
 21
145.5426883031
 31
0.0
  0
SPLINE
  5
180
330
1F
100
AcDbEntity
  8
0
  6
HIDDEN
 62
     7
370
     0
100
AcDbSpline
210
0.0
220
0.0
230
1.0
 70
     8
 71
     3
 72
    17
 73
    13
 74
     0
 42
0.00000001
 43
0.00000001
 12
1.0
 22
0.0
 32
0.0
 13
1.0
 23
0.0
 33
0.0
 40
0.0
 40
0.0
 40
0.0
 40
0.0
 40
0.0940248043337873
 40
0.1880493657703701
 40
0.2842021536623693
 40
0.3900471443801766
 40
0.4989591430140731
 40
0.6048338458243648
 40
0.713779915379495
 40
0.8196317053417562
 40
0.9285527710434733
 40
1.0
 40
1.0
 40
1.0
 40
1.0
 10
106.3688637782066
 20
180.9376372773681
 30
0.0
 10
106.1350469521501
 20
180.9426420329935
 30
0.0
 10
105.6674139040635
 20
180.9526515313155
 30
0.0
 10
104.9760218590219
 20
180.9659288648772
 30
0.0
 10
104.287987253241
 20
180.9827494394164
 30
0.0
 10
103.6183145510669
 20
181.0038072735656
 30
0.0
 10
103.0051031381219
 20
181.0258611510432
 30
0.0
 10
102.4824279464597
 20
181.0415619076998
 30
0.0
 10
102.0729978311267
 20
181.0571421107748
 30
0.0
 10
101.7875731916834
 20
181.0765067883181
 30
0.0
 10
101.6335933480002
 20
181.0971610971111
 30
0.0
 10
101.633357746897
 20
181.1078422283617
 30
0.0
 10
101.6332644209275
 20
181.1120732226805
 30
0.0
  0
SPLINE
  5
181
330
1F
100
AcDbEntity
  8
0
  6
HIDDEN
 62
     7
370
     0
100
AcDbSpline
210
0.0
220
0.0
230
1.0
 70
     8
 71
     3
 72
    17
 73
    13
 74
     0
 42
0.00000001
 43
0.00000001
 12
1.0
 22
0.0
 32
0.0
 13
1.0
 23
0.0
 33
0.0
 40
0.0
 40
0.0
 40
0.0
 40
0.0
 40
0.1128340453183673
 40
0.2224589078160738
 40
0.3352628903108808
 40
0.4448938790140623
 40
0.5577033684723097
 40
0.6673381296195172
 40
0.7801520857839985
 40
0.8876793592774973
 40
0.9981980932085583
 40
1.0
 40
1.0
 40
1.0
 40
1.0
 10
101.625812518381
 20
181.1183644641025
 30
0.0
 10
101.6538455307532
 20
181.1237201417786
 30
0.0
 10
101.7091142512669
 20
181.1342791729919
 30
0.0
 10
101.9619954769065
 20
181.1508576813181
 30
0.0
 10
102.3274459943521
 20
181.1716080206389
 30
0.0
 10
102.814048623336
 20
181.1945944902765
 30
0.0
 10
103.3961314186642
 20
181.2120413236502
 30
0.0
 10
104.0685242002289
 20
181.2269798658855
 30
0.0
 10
104.7952117958091
 20
181.2449315013238
 30
0.0
 10
105.5668941128469
 20
181.2666291091585
 30
0.0
 10
106.0951297484799
 20
181.2812045637599
 30
0.0
 10
106.3645417295771
 20
181.2875357097922
 30
0.0
 10
106.3688637782701
 20
181.2876372773666
 30
0.0
  0
LINE
  5
182
330
1F
100
AcDbEntity
  8
0
  6
HIDDEN
 62
     7
370
     0
100
AcDbLine
 10
106.3688637783
 20
155.6926800469
 30
0.0
 11
106.3688637783
 21
155.3426883031
 31
0.0
  0
SPLINE
  5
183
330
1F
100
AcDbEntity
  8
0
  6
HIDDEN
 62
     7
370
     0
100
AcDbSpline
210
0.0
220
0.0
230
1.0
 70
     8
 71
     3
 72
    22
 73
    18
 74
     0
 42
0.00000001
 43
0.00000001
 12
1.0
 22
0.0
 32
0.0
 13
1.0
 23
0.0
 33
0.0
 40
0.0
 40
0.0
 40
0.0
 40
0.0
 40
0.261531024861382
 40
0.3922261918227773
 40
0.44233661033655
 40
0.4640174502539235
 40
0.4722360148450547
 40
0.4805037408245766
 40
0.4840887578503518
 40
0.4877089909819236
 40
0.4909163512059355
 40
0.494982796908586
 40
0.5023282902163059
 40
0.5265079909913977
 40
0.6388189122059662
 40
0.9452900502537195
 40
1.0
 40
1.0
 40
1.0
 40
1.0
 10
106.36886377827
 20
155.0654025113591
 30
0.0
 10
106.5261325029858
 20
155.0747350413358
 30
0.0
 10
106.7619932886069
 20
155.0887313260778
 30
0.0
 10
107.0285778440788
 20
155.1026637643163
 30
0.0
 10
107.1504170211444
 20
155.1070794791973
 30
0.0
 10
107.1981435049275
 20
155.1077301159136
 30
0.0
 10
107.2199494356261
 20
155.1073642713067
 30
0.0
 10
107.2308123419214
 20
155.1067912140581
 30
0.0
 10
107.2373995586178
 20
155.1058505168921
 30
0.0
 10
107.2401797015505
 20
155.1049088907802
 30
0.0
 10
107.2404240825628
 20
155.1036918500704
 30
0.0
 10
107.2375598329123
 20
155.10201023561
 30
0.0
 10
107.2244024131342
 20
155.0982549086991
 30
0.0
 10
107.1517762517754
 20
155.0858952865039
 30
0.0
 10
106.899367184507
 20
155.0563887222005
 30
0.0
 10
106.617921809247
 20
155.0282635392454
 30
0.0
 10
106.4016270531177
 20
155.0077037726177
 30
0.0
 10
106.3688637783003
 20
155.0045894794362
 30
0.0
  0
LINE
  5
184
330
1F
100
AcDbEntity
  8
0
  6
HIDDEN
 62
     7
370
     0
100
AcDbLine
 10
106.3688637783
 20
155.3426883031
 30
0.0
 11
106.3688637783
 21
155.0654025114
 31
0.0
  0
SPLINE
  5
185
330
1F
100
AcDbEntity
  8
0
  6
HIDDEN
 62
     7
370
     0
100
AcDbSpline
210
0.0
220
0.0
230
1.0
 70
     8
 71
     3
 72
    13
 73
     9
 74
     0
 42
0.00000001
 43
0.00000001
 12
1.0
 22
0.0
 32
0.0
 13
1.0
 23
0.0
 33
0.0
 40
0.0
 40
0.0
 40
0.0
 40
0.0
 40
0.1740180169280119
 40
0.3480355311830496
 40
0.5259911048923086
 40
0.7218984130425985
 40
0.923484687000791
 40
1.0
 40
1.0
 40
1.0
 40
1.0
 10
109.933123284275
 20
180.8426883030882
 30
0.0
 10
109.7710820819013
 20
180.8483045727027
 30
0.0
 10
109.4470001452304
 20
180.8595370957083
 30
0.0
 10
108.8687163832091
 20
180.8724688231004
 30
0.0
 10
108.2143407575339
 20
180.8879705266638
 30
0.0
 10
107.4772391865564
 20
180.9077538091719
 30
0.0
 10
106.8448906772842
 20
180.9259987234385
 30
0.0
 10
106.4715755982047
 20
180.9351260389099
 30
0.0
 10
106.3688637782701
 20
180.9376372773669
 30
0.0
  0
SPLINE
  5
186
330
1F
100
AcDbEntity
  8
0
  6
HIDDEN
 62
     7
370
     0
100
AcDbSpline
210
0.0
220
0.0
230
1.0
 70
    24
 71
     3
 72
     9
 73
     5
 74
     0
 42
0.00000001
 43
0.00000001
 12
1.0
 22
0.0
 32
0.0
 13
1.0
 23
0.0
 33
0.0
 40
0.0
 40
0.0
 40
0.0
 40
0.0
 40
0.0095723481836104
 40
1.0
 40
1.0
 40
1.0
 40
1.0
 10
110.7249264884169
 20
180.8426883030882
 30
0.0
 10
110.7252310848753
 20
180.8426883030882
 30
0.0
 10
110.757051538173
 20
180.8426883030882
 30
0.0
 10
110.747616595858
 20
180.8426883030844
 30
0.0
 10
110.7382719680959
 20
180.8426883030807
 30
0.0
  0
LINE
  5
187
330
1F
100
AcDbEntity
  8
0
  6
HIDDEN
 62
     7
370
     0
100
AcDbLine
 10
106.3688637783
 20
155.0654025114
 30
0.0
 11
106.3688637783
 21
154.8426883031
 31
0.0
  0
LINE
  5
188
330
1F
100
AcDbEntity
  8
0
  6
HIDDEN
 62
     7
370
     0
100
AcDbLine
 10
109.8490931952
 20
159.8426883031
 30
0.0
 11
110.0688637783
 21
159.8426883031
 31
0.0
  0
LWPOLYLINE
  5
189
330
1F
100
AcDbEntity
  8
0
  6
HIDDEN
 62
     7
370
     0
100
AcDbPolyline
 90
       21
 70
   128
 43
0.0
 10
108.4028727549
 20
147.2582949887
 10
108.3928048078
 20
147.2681191211
 10
108.2617858212
 20
147.3957281442
 10
108.1231471331
 20
147.5302286238
 10
107.9489905232
 20
147.6982125416
 10
107.6805514286
 20
147.9541550871
 10
107.3723016603
 20
148.2406957518
 10
107.0336365377
 20
148.5368205585
 10
106.6422098437
 20
148.8114462947
 10
106.4682421752
 20
148.8764522408
 10
106.3127913991
 20
148.8837284882
 10
106.1319382798
 20
148.8292355868
 10
105.9126816968
 20
148.6980162225
 10
105.708099929
 20
148.5401243714
 10
105.3170811992
 20
148.1965004504
 10
104.9547826623
 20
147.8570485747
 10
104.7531047159
 20
147.6639455152
 10
104.5752935589
 20
147.4921764464
 10
104.3773811568
 20
147.2997729765
 10
104.3188637783
 20
147.2426883031
 10
104.3188637783
 20
147.2426883031
  0
SPLINE
  5
18A
330
1F
100
AcDbEntity
  8
0
  6
HIDDEN
 62
     7
370
     0
100
AcDbSpline
210
0.0
220
0.0
230
1.0
 70
     8
 71
     3
 72
    25
 73
    21
 74
     0
 42
0.00000001
 43
0.00000001
 12
1.0
 22
0.0
 32
0.0
 13
1.0
 23
0.0
 33
0.0
 40
0.0
 40
0.0
 40
0.0
 40
0.0
 40
0.0748928488758279
 40
0.1494376129763345
 40
0.2014599681174128
 40
0.2549616154300426
 40
0.3261180669700168
 40
0.3992979660088041
 40
0.4464403863605636
 40
0.4796803762478012
 40
0.5015832698843331
 40
0.5235252957055908
 40
0.5630063965392
 40
0.6295459135813009
 40
0.6978220774603833
 40
0.7564543358100821
 40
0.8165666183886873
 40
0.9014143704478664
 40
0.9727975216756117
 40
0.9999999999999999
 40
0.9999999999999999
 40
0.9999999999999999
 40
0.9999999999999999
 10
104.3188637782701
 20
151.4426883030883
 30
0.0
 10
104.3336800034788
 20
151.4282134159042
 30
0.0
 10
104.3632435914814
 20
151.39933091749
 30
0.0
 10
104.5554086712875
 20
151.2122245647186
 30
0.0
 10
104.7750206624634
 20
151.0000298314423
 30
0.0
 10
105.0268443826792
 20
150.7590184738703
 30
0.0
 10
105.3419123438911
 20
150.4634360214893
 30
0.0
 10
105.6756968877082
 20
150.1652911768796
 30
0.0
 10
105.9683752013333
 20
149.939753635315
 30
0.0
 10
106.190265154884
 20
149.8196413610312
 30
0.0
 10
106.3806681306215
 20
149.7880401117263
 30
0.0
 10
106.5840744289905
 20
149.8322909487766
 30
0.0
 10
106.8536295599929
 20
149.995624543197
 30
0.0
 10
107.1730051344699
 20
150.2624006795016
 30
0.0
 10
107.5003683654889
 20
150.5607276444364
 30
0.0
 10
107.7895276077443
 20
150.8339213680301
 30
0.0
 10
108.0713268481466
 20
151.1045436052986
 30
0.0
 10
108.2985337583952
 20
151.3252461349338
 30
0.0
 10
108.4219161073082
 20
151.4456655343831
 30
0.0
 10
108.4069910009949
 20
151.4311005077316
 30
0.0
 10
108.4028727549298
 20
151.4270816175182
 30
0.0
  0
LINE
  5
18B
330
1F
100
AcDbEntity
  8
0
  6
HIDDEN
 62
     7
370
     0
100
AcDbLine
 10
106.3688637783
 20
145.7708915334
 30
0.0
 11
106.3688637783
 21
153.9144850728
 31
0.0
  0
LINE
  5
18C
330
1F
100
AcDbEntity
  8
0
  6
HIDDEN
 62
     7
370
     0
100
AcDbLine
 10
103.6782756883
 20
198.8426883031
 30
0.0
 11
103.3688637783
 21
198.678586688
 31
0.0
  0
LINE
  5
18D
330
1F
100
AcDbEntity
  8
0
  6
HIDDEN
 62
     7
370
     0
100
AcDbLine
 10
106.3688637783
 20
198.678586688
 30
0.0
 11
106.0594518682
 21
198.8426883031
 31
0.0
  0
LINE
  5
18E
330
1F
100
AcDbEntity
  8
0
  6
HIDDEN
 62
     7
370
     0
100
AcDbLine
 10
106.3688637783
 20
160.3499622383
 30
0.0
 11
106.3688637783
 21
161.0497000822
 31
0.0
  0
LINE
  5
18F
330
1F
100
AcDbEntity
  8
0
  6
HIDDEN
 62
     7
370
     0
100
AcDbLine
 10
106.3688637783
 20
163.9213908097
 30
0.0
 11
106.3688637783
 21
164.6211286536
 31
0.0
  0
LINE
  5
190
330
1F
100
AcDbEntity
  8
0
  6
HIDDEN
 62
     7
370
     0
100
AcDbLine
 10
106.3688637783
 20
167.4928193811
 30
0.0
 11
106.3688637783
 21
168.1925572251
 31
0.0
  0
LINE
  5
191
330
1F
100
AcDbEntity
  8
0
  6
HIDDEN
 62
     7
370
     0
100
AcDbLine
 10
106.3688637783
 20
171.0642479526
 30
0.0
 11
106.3688637783
 21
171.7639857965
 31
0.0
  0
LINE
  5
192
330
1F
100
AcDbEntity
  8
0
  6
HIDDEN
 62
     7
370
     0
100
AcDbLine
 10
106.3688637783
 20
174.635676524
 30
0.0
 11
106.3688637783
 21
175.3354143679
 31
0.0
  0
LINE
  5
193
330
1F
100
AcDbEntity
  8
0
  6
HIDDEN
 62
     7
370
     0
100
AcDbLine
 10
106.3688637783
 20
178.2071050954
 30
0.0
 11
106.3688637783
 21
178.9068429393
 31
0.0
  0
LINE
  5
194
330
1F
100
AcDbEntity
  8
0
  6
HIDDEN
 62
     7
370
     0
100
AcDbLine
 10
106.3688637783
 20
179.8426883031
 30
0.0
 11
106.3688637783
 21
198.678586688
 31
0.0
  0
LINE
  5
195
330
1F
100
AcDbEntity
  8
0
  6
HIDDEN
 62
     7
370
     0
100
AcDbLine
 10
103.3688637783
 20
160.7674057332
 30
0.0
 11
103.3688637783
 21
161.4723238964
 31
0.0
  0
LINE
  5
196
330
1F
100
AcDbEntity
  8
0
  6
HIDDEN
 62
     7
370
     0
100
AcDbLine
 10
103.3688637783
 20
164.3388343046
 30
0.0
 11
103.3688637783
 21
165.0437524679
 31
0.0
  0
LINE
  5
197
330
1F
100
AcDbEntity
  8
0
  6
HIDDEN
 62
     7
370
     0
100
AcDbLine
 10
103.3688637783
 20
167.910262876
 30
0.0
 11
103.3688637783
 21
168.6151810393
 31
0.0
  0
LINE
  5
198
330
1F
100
AcDbEntity
  8
0
  6
HIDDEN
 62
     7
370
     0
100
AcDbLine
 10
103.3688637783
 20
171.4816914474
 30
0.0
 11
103.3688637783
 21
172.1866096107
 31
0.0
  0
LINE
  5
199
330
1F
100
AcDbEntity
  8
0
  6
HIDDEN
 62
     7
370
     0
100
AcDbLine
 10
103.3688637783
 20
175.0531200189
 30
0.0
 11
103.3688637783
 21
175.7580381821
 31
0.0
  0
LINE
  5
19A
330
1F
100
AcDbEntity
  8
0
  6
HIDDEN
 62
     7
370
     0
100
AcDbLine
 10
103.3688637783
 20
178.6245485903
 30
0.0
 11
103.3688637783
 21
179.3294667536
 31
0.0
  0
LINE
  5
19B
330
1F
100
AcDbEntity
  8
0
  6
HIDDEN
 62
     7
370
     0
100
AcDbLine
 10
103.3688637783
 20
179.8426883031
 30
0.0
 11
103.3688637783
 21
198.678586688
 31
0.0
  0
LINE
  5
19C
330
1F
100
AcDbEntity
  8
0
  6
HIDDEN
 62
     7
370
     0
100
AcDbLine
 10
106.6782756883
 20
198.8426883031
 30
0.0
 11
106.3688637783
 21
198.678586688
 31
0.0
  0
SPLINE
  5
19D
330
1F
100
AcDbEntity
  8
0
  6
HIDDEN
 62
     7
370
     0
100
AcDbSpline
210
0.0
220
0.0
230
1.0
 70
     8
 71
     3
 72
     9
 73
     5
 74
     0
 42
0.00000001
 43
0.00000001
 12
1.0
 22
0.0
 32
0.0
 13
1.0
 23
0.0
 33
0.0
 40
0.0
 40
0.0
 40
0.0
 40
0.0
 40
0.4785843059117888
 40
1.0
 40
1.0
 40
1.0
 40
1.0
 10
109.3688637782701
 20
198.6785866879505
 30
0.0
 10
109.3200975416091
 20
198.7062550640325
 30
0.0
 10
109.2182006844438
 20
198.7640680255948
 30
0.0
 10
109.1138578563716
 20
198.8157437627382
 30
0.0
 10
109.0594518682491
 20
198.8426883030883
 30
0.0
  0
LINE
  5
19E
330
1F
100
AcDbEntity
  8
0
  6
HIDDEN
 62
     7
370
     0
100
AcDbLine
 10
109.3688637783
 20
159.927338424
 30
0.0
 11
109.3688637783
 21
160.6322565873
 31
0.0
  0
LINE
  5
19F
330
1F
100
AcDbEntity
  8
0
  6
HIDDEN
 62
     7
370
     0
100
AcDbLine
 10
109.3688637783
 20
163.4987669955
 30
0.0
 11
109.3688637783
 21
164.2036851587
 31
0.0
  0
LINE
  5
1A0
330
1F
100
AcDbEntity
  8
0
  6
HIDDEN
 62
     7
370
     0
100
AcDbLine
 10
109.3688637783
 20
167.0701955669
 30
0.0
 11
109.3688637783
 21
167.7751137302
 31
0.0
  0
LINE
  5
1A1
330
1F
100
AcDbEntity
  8
0
  6
HIDDEN
 62
     7
370
     0
100
AcDbLine
 10
109.3688637783
 20
170.6416241383
 30
0.0
 11
109.3688637783
 21
171.3465423016
 31
0.0
  0
LINE
  5
1A2
330
1F
100
AcDbEntity
  8
0
  6
HIDDEN
 62
     7
370
     0
100
AcDbLine
 10
109.3688637783
 20
174.2130527097
 30
0.0
 11
109.3688637783
 21
174.917970873
 31
0.0
  0
LINE
  5
1A3
330
1F
100
AcDbEntity
  8
0
  6
HIDDEN
 62
     7
370
     0
100
AcDbLine
 10
109.3688637783
 20
177.7844812812
 30
0.0
 11
109.3688637783
 21
178.4893994444
 31
0.0
  0
LINE
  5
1A4
330
1F
100
AcDbEntity
  8
0
  6
HIDDEN
 62
     7
370
     0
100
AcDbLine
 10
109.3688637783
 20
179.8426883031
 30
0.0
 11
109.3688637783
 21
198.678586688
 31
0.0
  0
LINE
  5
1A5
330
1F
100
AcDbEntity
  8
0
  6
HIDDEN
 62
     7
370
     0
100
AcDbLine
 10
104.6368129707
 20
152.8426883031
 30
0.0
 11
104.3688637783
 21
152.8426883031
 31
0.0
  0
LINE
  5
1A6
330
1F
100
AcDbEntity
  8
0
  6
HIDDEN
 62
     7
370
     0
100
AcDbLine
 10
108.3688637783
 20
152.8426883031
 30
0.0
 11
104.6368129707
 21
152.8426883031
 31
0.0
  0
LINE
  5
1A7
330
1F
100
AcDbEntity
  8
0
  6
HIDDEN
 62
     7
370
     0
100
AcDbLine
 10
104.2038002688
 20
153.3426883031
 30
0.0
 11
108.8688637783
 21
153.3426883031
 31
0.0
  0
LINE
  5
1A8
330
1F
100
AcDbEntity
  8
0
  6
HIDDEN
 62
     7
370
     0
100
AcDbLine
 10
103.8688637783
 20
153.3426883031
 30
0.0
 11
104.2038002688
 21
153.3426883031
 31
0.0
  0
LINE
  5
1A9
330
1F
100
AcDbEntity
  8
0
  6
HIDDEN
 62
     7
370
     0
100
AcDbLine
 10
104.2038002688
 20
158.8426883031
 30
0.0
 11
103.8688637783
 21
158.8426883031
 31
0.0
  0
LINE
  5
1AA
330
1F
100
AcDbEntity
  8
0
  6
HIDDEN
 62
     7
370
     0
100
AcDbLine
 10
108.8688637783
 20
158.8426883031
 30
0.0
 11
104.2038002688
 21
158.8426883031
 31
0.0
  0
LINE
  5
1AB
330
1F
100
AcDbEntity
  8
0
  6
HIDDEN
 62
     7
370
     0
100
AcDbLine
 10
104.2688637783
 20
184.8426883031
 30
0.0
 11
108.4688637783
 21
184.8426883031
 31
0.0
  0
LINE
  5
1AC
330
1F
100
AcDbEntity
  8
0
  6
HIDDEN
 62
     7
370
     0
100
AcDbLine
 10
105.1188637783
 20
184.3319567769
 30
0.0
 11
107.6188637783
 21
184.3319567769
 31
0.0
  0
LINE
  5
1AD
330
1F
100
AcDbEntity
  8
0
  6
HIDDEN
 62
     7
370
     0
100
AcDbLine
 10
103.3688637783
 20
198.678586688
 30
0.0
 11
103.3688637783
 21
198.8426883031
 31
0.0
  0
LINE
  5
1AE
330
1F
100
AcDbEntity
  8
0
  6
HIDDEN
 62
     7
370
     0
100
AcDbLine
 10
109.3688637783
 20
198.8426883031
 30
0.0
 11
109.3688637783
 21
198.678586688
 31
0.0
  0
LINE
  5
1AF
330
1F
100
AcDbEntity
  8
0
  6
HIDDEN
 62
     7
370
     0
100
AcDbLine
 10
106.3688637783
 20
198.8426883031
 30
0.0
 11
106.3688637783
 21
198.3426883031
 31
0.0
  0
LINE
  5
1B0
330
1F
100
AcDbEntity
  8
0
  6
HIDDEN
 62
     7
370
     0
100
AcDbLine
 10
106.3688637783
 20
180.0426883031
 30
0.0
 11
106.3688637783
 21
179.8426883031
 31
0.0
  0
LINE
  5
1B1
330
1F
100
AcDbEntity
  8
0
  6
HIDDEN
 62
     7
370
     0
100
AcDbLine
 10
106.3688637783
 20
198.3426883031
 30
0.0
 11
106.3688637783
 21
180.0426883031
 31
0.0
  0
LINE
  5
1B2
330
1F
100
AcDbEntity
  8
0
  6
HIDDEN
 62
     7
370
     0
100
AcDbLine
 10
109.8688637783
 20
198.8426883031
 30
0.0
 11
109.3688637783
 21
198.3426883031
 31
0.0
  0
LINE
  5
1B3
330
1F
100
AcDbEntity
  8
0
  6
HIDDEN
 62
     7
370
     0
100
AcDbLine
 10
103.3688637783
 20
198.3426883031
 30
0.0
 11
102.8688637783
 21
198.8426883031
 31
0.0
  0
LINE
  5
1B4
330
1F
100
AcDbEntity
  8
0
  6
HIDDEN
 62
     7
370
     0
100
AcDbLine
 10
109.3688637783
 20
180.0426883031
 30
0.0
 11
109.5688637783
 21
179.8426883031
 31
0.0
  0
LINE
  5
1B5
330
1F
100
AcDbEntity
  8
0
  6
HIDDEN
 62
     7
370
     0
100
AcDbLine
 10
103.3688637783
 20
180.0426883031
 30
0.0
 11
103.1688637783
 21
179.8426883031
 31
0.0
  0
LINE
  5
1B6
330
1F
100
AcDbEntity
  8
0
  6
HIDDEN
 62
     7
370
     0
100
AcDbLine
 10
109.3688637783
 20
198.3426883031
 30
0.0
 11
109.3688637783
 21
180.0426883031
 31
0.0
  0
LINE
  5
1B7
330
1F
100
AcDbEntity
  8
0
  6
HIDDEN
 62
     7
370
     0
100
AcDbLine
 10
103.3688637783
 20
198.3426883031
 30
0.0
 11
103.3688637783
 21
180.0426883031
 31
0.0
  0
LINE
  5
1B8
330
1F
100
AcDbEntity
  8
0
  6
HIDDEN
 62
     7
370
     0
100
AcDbLine
 10
103.8754101892
 20
198.502859341
 30
0.0
 11
104.3181237513
 21
198.2459646384
 31
0.0
  0
LINE
  5
1B9
330
1F
100
AcDbEntity
  8
0
  6
HIDDEN
 62
     7
370
     0
100
AcDbLine
 10
108.2812821909
 20
198.6104122368
 30
0.0
 11
108.3554038602
 21
198.6436223905
 31
0.0
  0
LINE
  5
1BA
330
1F
100
AcDbEntity
  8
0
  6
HIDDEN
 62
     7
370
     0
100
AcDbLine
 10
108.4188631278
 20
197.845176964
 30
0.0
 11
108.8621210999
 21
198.1023281928
 31
0.0
  0
LINE
  5
1BB
330
1F
100
AcDbEntity
  8
0
  6
HIDDEN
 62
     7
370
     0
100
AcDbLine
 10
103.8688637783
 20
196.2113777303
 30
0.0
 11
103.8688637783
 21
196.1426883031
 31
0.0
  0
LINE
  5
1BC
330
1F
100
AcDbEntity
  8
0
  6
HIDDEN
 62
     7
370
     0
100
AcDbLine
 10
103.8688637783
 20
197.0115132802
 30
0.0
 11
103.8688637783
 21
196.9130749184
 31
0.0
  0
LINE
  5
1BD
330
1F
100
AcDbEntity
  8
0
  6
HIDDEN
 62
     7
370
     0
100
AcDbLine
 10
103.8688637783
 20
197.8104597997
 30
0.0
 11
103.8688637783
 21
197.7132484406
 31
0.0
  0
LINE
  5
1BE
330
1F
100
AcDbEntity
  8
0
  6
HIDDEN
 62
     7
370
     0
100
AcDbLine
 10
103.8688637783
 20
198.6103547439
 30
0.0
 11
103.8688637783
 21
198.5121751002
 31
0.0
  0
LINE
  5
1BF
330
1F
100
AcDbEntity
  8
0
  6
HIDDEN
 62
     7
370
     0
100
AcDbLine
 10
108.8688637783
 20
198.1120139497
 30
0.0
 11
108.8688637783
 21
198.209852369
 31
0.0
  0
LINE
  5
1C0
330
1F
100
AcDbEntity
  8
0
  6
HIDDEN
 62
     7
370
     0
100
AcDbLine
 10
108.8688637783
 20
197.3136001956
 30
0.0
 11
108.8688637783
 21
197.4112052259
 31
0.0
  0
LINE
  5
1C1
330
1F
100
AcDbEntity
  8
0
  6
HIDDEN
 62
     7
370
     0
100
AcDbLine
 10
108.8688637783
 20
196.5122960142
 30
0.0
 11
108.8688637783
 21
196.6116568453
 31
0.0
  0
LINE
  5
1C2
330
1F
100
AcDbEntity
  8
0
  6
HIDDEN
 62
     7
370
     0
100
AcDbLine
 10
104.316970829
 20
198.0766392128
 30
0.0
 11
103.8729428997
 21
197.8189546511
 31
0.0
  0
LINE
  5
1C3
330
1F
100
AcDbEntity
  8
0
  6
HIDDEN
 62
     7
370
     0
100
AcDbLine
 10
108.862958743
 20
198.2191617452
 30
0.0
 11
108.4190923502
 21
198.4769182826
 31
0.0
  0
LINE
  5
1C4
330
1F
100
AcDbEntity
  8
0
  6
HIDDEN
 62
     7
370
     0
100
AcDbLine
 10
108.8666494512
 20
197.4185849173
 30
0.0
 11
108.4220287314
 21
197.6764430951
 31
0.0
  0
LINE
  5
1C5
330
1F
100
AcDbEntity
  8
0
  6
HIDDEN
 62
     7
370
     0
100
AcDbLine
 10
104.3171829724
 20
196.477166065
 30
0.0
 11
103.8742970922
 21
196.2201718846
 31
0.0
  0
LINE
  5
1C6
330
1F
100
AcDbEntity
  8
0
  6
HIDDEN
 62
     7
370
     0
100
AcDbLine
 10
104.3111644645
 20
197.2557671667
 30
0.0
 11
103.8725440447
 21
197.0000466738
 31
0.0
  0
LINE
  5
1C7
330
1F
100
AcDbEntity
  8
0
  6
HIDDEN
 62
     7
370
     0
100
AcDbLine
 10
108.8618572043
 20
196.6213761619
 30
0.0
 11
108.4185543969
 21
196.8784991032
 31
0.0
  0
SPLINE
  5
1C8
330
1F
100
AcDbEntity
  8
0
  6
HIDDEN
 62
     7
370
     0
100
AcDbSpline
210
0.0
220
0.0
230
1.0
 70
     8
 71
     3
 72
    14
 73
    10
 74
     0
 42
0.00000001
 43
0.00000001
 12
1.0
 22
0.0
 32
0.0
 13
1.0
 23
0.0
 33
0.0
 40
0.0
 40
0.0
 40
0.0
 40
0.0
 40
0.1600991960428891
 40
0.2938363423525896
 40
0.408254318237674
 40
0.5123843370165344
 40
0.6162595267040102
 40
0.7286546449739038
 40
1.0
 40
1.0
 40
1.0
 40
1.0
 10
103.8746061046433
 20
196.9046482260208
 30
0.0
 10
103.8936412455064
 20
196.8937338729833
 30
0.0
 10
103.9285771871328
 20
196.8737023321952
 30
0.0
 10
103.9899339970122
 20
196.8394493050586
 30
0.0
 10
104.0505947562514
 20
196.8052583402614
 30
0.0
 10
104.1102380044364
 20
196.7708981453877
 30
0.0
 10
104.1670814098894
 20
196.7373121076362
 30
0.0
 10
104.2438194457379
 20
196.6909957175757
 30
0.0
 10
104.2898522794131
 20
196.6638604741296
 30
0.0
 10
104.3224023919648
 20
196.6446729690866
 30
0.0
  0
SPLINE
  5
1C9
330
1F
100
AcDbEntity
  8
0
  6
HIDDEN
 62
     7
370
     0
100
AcDbSpline
210
0.0
220
0.0
230
1.0
 70
     8
 71
     3
 72
    12
 73
     8
 74
     0
 42
0.00000001
 43
0.00000001
 12
1.0
 22
0.0
 32
0.0
 13
1.0
 23
0.0
 33
0.0
 40
0.0
 40
0.0
 40
0.0
 40
0.0
 40
0.3544185447100153
 40
0.623569704875436
 40
0.8284589922143317
 40
0.9163017845437341
 40
1.0
 40
1.0
 40
1.0
 40
1.0
 10
103.873996983186
 20
197.7044030976633
 30
0.0
 10
103.9190132050394
 20
197.6790138960362
 30
0.0
 10
103.9982154719489
 20
197.6343437251269
 30
0.0
 10
104.1389990898867
 20
197.5603949620759
 30
0.0
 10
104.250636549833
 20
197.499580438052
 30
0.0
 10
104.3270480978142
 20
197.4554621649441
 30
0.0
 10
104.3592085217945
 20
197.4358525540142
 30
0.0
 10
104.3749002221653
 20
197.4262846410013
 30
0.0
  0
SPLINE
  5
1CA
330
1F
100
AcDbEntity
  8
0
  6
HIDDEN
 62
     7
370
     0
100
AcDbSpline
210
0.0
220
0.0
230
1.0
 70
     8
 71
     3
 72
    14
 73
    10
 74
     0
 42
0.00000001
 43
0.00000001
 12
1.0
 22
0.0
 32
0.0
 13
1.0
 23
0.0
 33
0.0
 40
0.0
 40
0.0
 40
0.0
 40
0.0
 40
0.2737792758281913
 40
0.3801949580869881
 40
0.4756159980645959
 40
0.5728480512800755
 40
0.6858938568294858
 40
0.8257585386574003
 40
1.0
 40
1.0
 40
1.0
 40
1.0
 10
108.417129538684
 20
197.045700798315
 30
0.0
 10
108.4477991457084
 20
197.0642932734458
 30
0.0
 10
108.4903897688368
 20
197.0901124859546
 30
0.0
 10
108.5668061829142
 20
197.1374076151384
 30
0.0
 10
108.624380205007
 20
197.1716738756765
 30
0.0
 10
108.6856540155374
 20
197.2065661448615
 30
0.0
 10
108.7472588748515
 20
197.2404534988469
 30
0.0
 10
108.8093023752732
 20
197.2741640506496
 30
0.0
 10
108.8433039333078
 20
197.2934981122357
 30
0.0
 10
108.8621653318785
 20
197.3042231337538
 30
0.0
  0
SPLINE
  5
1CB
330
1F
100
AcDbEntity
  8
0
  6
HIDDEN
 62
     7
370
     0
100
AcDbSpline
210
0.0
220
0.0
230
1.0
 70
     8
 71
     3
 72
    12
 73
     8
 74
     0
 42
0.00000001
 43
0.00000001
 12
1.0
 22
0.0
 32
0.0
 13
1.0
 23
0.0
 33
0.0
 40
0.0
 40
0.0
 40
0.0
 40
0.0
 40
0.2666774663213053
 40
0.4955807221222828
 40
0.6073674916243844
 40
0.7249010395242581
 40
1.0
 40
1.0
 40
1.0
 40
1.0
 10
108.4146328359896
 20
196.2438437342185
 30
0.0
 10
108.4487201695893
 20
196.2636244116306
 30
0.0
 10
108.512066449399
 20
196.3003838819047
 30
0.0
 10
108.6112212222241
 20
196.3591818198262
 30
0.0
 10
108.6892658641155
 20
196.4043824279399
 30
0.0
 10
108.773659569324
 20
196.4526333979473
 30
0.0
 10
108.8272609204162
 20
196.4833507243412
 30
0.0
 10
108.8648168426871
 20
196.5048728968034
 30
0.0
  0
LINE
  5
1CC
330
1F
100
AcDbEntity
  8
0
  6
HIDDEN
 62
     7
370
     0
100
AcDbLine
 10
104.3019710601
 20
198.2636416399
 30
0.0
 11
104.3019710601
 21
198.0585236608
 31
0.0
  0
LINE
  5
1CD
330
1F
100
AcDbEntity
  8
0
  6
HIDDEN
 62
     7
370
     0
100
AcDbLine
 10
108.4346944766
 20
198.4586331173
 30
0.0
 11
108.4346944766
 21
198.6637510964
 31
0.0
  0
LINE
  5
1CE
330
1F
100
AcDbEntity
  8
0
  6
HIDDEN
 62
     7
370
     0
100
AcDbLine
 10
108.4344883991
 20
197.6586685
 30
0.0
 11
108.4344883991
 21
197.8637864791
 31
0.0
  0
LINE
  5
1CF
330
1F
100
AcDbEntity
  8
0
  6
HIDDEN
 62
     7
370
     0
100
AcDbLine
 10
104.3025243611
 20
196.6649735943
 30
0.0
 11
104.3025243611
 21
196.4598556147
 31
0.0
  0
LINE
  5
1D0
330
1F
100
AcDbEntity
  8
0
  6
HIDDEN
 62
     7
370
     0
100
AcDbLine
 10
104.3041020844
 20
197.4603217613
 30
0.0
 11
104.3041020844
 21
197.2552037816
 31
0.0
  0
LINE
  5
1D1
330
1F
100
AcDbEntity
  8
0
  6
HIDDEN
 62
     7
370
     0
100
AcDbLine
 10
108.4352303018
 20
196.8601519989
 30
0.0
 11
108.4352303018
 21
197.0652699786
 31
0.0
  0
LINE
  5
1D2
330
1F
100
AcDbEntity
  8
0
  6
HIDDEN
 62
     7
370
     0
100
AcDbLine
 10
108.4347239448
 20
196.1426883031
 30
0.0
 11
108.4347239448
 21
196.2652846351
 31
0.0
  0
LINE
  5
1D3
330
1F
100
AcDbEntity
  8
0
  6
HIDDEN
 62
     7
370
     0
100
AcDbLine
 10
108.3688637783
 20
198.6426883031
 30
0.0
 11
108.3688637783
 21
199.6426883031
 31
0.0
  0
LINE
  5
1D4
330
1F
100
AcDbEntity
  8
0
  6
HIDDEN
 62
     7
370
     0
100
AcDbLine
 10
104.3688637783
 20
199.6426883031
 30
0.0
 11
104.3688637783
 21
198.6426883031
 31
0.0
  0
LINE
  5
1D5
330
1F
100
AcDbEntity
  8
0
  6
HIDDEN
 62
     7
370
     0
100
AcDbLine
 10
104.8688637783
 20
209.6426883031
 30
0.0
 11
104.8688637783
 21
196.1426883031
 31
0.0
  0
LINE
  5
1D6
330
1F
100
AcDbEntity
  8
0
  6
HIDDEN
 62
     7
370
     0
100
AcDbLine
 10
107.8688637783
 20
196.1426883031
 30
0.0
 11
107.8688637783
 21
209.6426883031
 31
0.0
  0
LINE
  5
1D7
330
1F
100
AcDbEntity
  8
0
  6
HIDDEN
 62
     7
370
     0
100
AcDbLine
 10
112.6688637783
 20
151.3426883031
 30
0.0
 11
108.6688637783
 21
151.3426883031
 31
0.0
  0
LINE
  5
1D8
330
1F
100
AcDbEntity
  8
0
  6
HIDDEN
 62
     7
370
     0
100
AcDbLine
 10
108.6688637783
 20
147.3426883031
 30
0.0
 11
112.6688637783
 21
147.3426883031
 31
0.0
  0
LINE
  5
1D9
330
1F
100
AcDbEntity
  8
0
  6
HIDDEN
 62
     7
370
     0
100
AcDbLine
 10
108.6688637783
 20
151.3426883031
 30
0.0
 11
108.1688637783
 21
150.8426883031
 31
0.0
  0
LINE
  5
1DA
330
1F
100
AcDbEntity
  8
0
  6
HIDDEN
 62
     7
370
     0
100
AcDbLine
 10
108.1688637783
 20
147.8426883031
 30
0.0
 11
108.6688637783
 21
147.3426883031
 31
0.0
  0
LINE
  5
1DB
330
1F
100
AcDbEntity
  8
0
  6
HIDDEN
 62
     7
370
     0
100
AcDbLine
 10
113.1688637783
 20
150.9676883031
 30
0.0
 11
112.6688637783
 21
150.9676883031
 31
0.0
  0
LINE
  5
1DC
330
1F
100
AcDbEntity
  8
0
  6
HIDDEN
 62
     7
370
     0
100
AcDbLine
 10
112.6688637783
 20
147.7176883031
 30
0.0
 11
113.1688637783
 21
147.7176883031
 31
0.0
  0
LINE
  5
1DD
330
1F
100
AcDbEntity
  8
0
  6
HIDDEN
 62
     7
370
     0
100
AcDbLine
 10
100.0688637783
 20
147.3426883031
 30
0.0
 11
104.0688637783
 21
147.3426883031
 31
0.0
  0
LINE
  5
1DE
330
1F
100
AcDbEntity
  8
0
  6
HIDDEN
 62
     7
370
     0
100
AcDbLine
 10
104.0688637783
 20
151.3426883031
 30
0.0
 11
100.0688637783
 21
151.3426883031
 31
0.0
  0
LINE
  5
1DF
330
1F
100
AcDbEntity
  8
0
  6
HIDDEN
 62
     7
370
     0
100
AcDbLine
 10
104.0688637783
 20
147.3426883031
 30
0.0
 11
104.5688637783
 21
147.8426883031
 31
0.0
  0
LINE
  5
1E0
330
1F
100
AcDbEntity
  8
0
  6
HIDDEN
 62
     7
370
     0
100
AcDbLine
 10
104.5688637783
 20
150.8426883031
 30
0.0
 11
104.0688637783
 21
151.3426883031
 31
0.0
  0
LINE
  5
1E1
330
1F
100
AcDbEntity
  8
0
  6
HIDDEN
 62
     7
370
     0
100
AcDbLine
 10
99.5688637783
 20
147.7176883031
 30
0.0
 11
100.0688637783
 21
147.7176883031
 31
0.0
  0
LINE
  5
1E2
330
1F
100
AcDbEntity
  8
0
  6
HIDDEN
 62
     7
370
     0
100
AcDbLine
 10
100.0688637783
 20
150.9676883031
 30
0.0
 11
99.5688637783
 21
150.9676883031
 31
0.0
  0
LINE
  5
1E3
330
1F
100
AcDbEntity
  8
0
  6
HIDDEN
 62
     7
370
     0
100
AcDbLine
 10
112.3688637783
 20
146.9426883031
 30
0.0
 11
113.1688637783
 21
146.9426883031
 31
0.0
  0
LINE
  5
1E4
330
1F
100
AcDbEntity
  8
0
  6
HIDDEN
 62
     7
370
     0
100
AcDbLine
 10
113.1688637783
 20
151.7426883031
 30
0.0
 11
112.3688637783
 21
151.7426883031
 31
0.0
  0
LINE
  5
1E5
330
1F
100
AcDbEntity
  8
0
  6
HIDDEN
 62
     7
370
     0
100
AcDbLine
 10
108.7688637783
 20
198.8426883031
 30
0.0
 11
108.7688637783
 21
199.6426883031
 31
0.0
  0
LINE
  5
1E6
330
1F
100
AcDbEntity
  8
0
  6
HIDDEN
 62
     7
370
     0
100
AcDbLine
 10
103.9688637783
 20
199.6426883031
 30
0.0
 11
103.9688637783
 21
198.8426883031
 31
0.0
  0
LINE
  5
1E7
330
1F
100
AcDbEntity
  8
0
  6
HIDDEN
 62
     7
370
     0
100
AcDbLine
 10
108.7688637783
 20
141.0426883031
 30
0.0
 11
108.7688637783
 21
141.8426883031
 31
0.0
  0
LINE
  5
1E8
330
1F
100
AcDbEntity
  8
0
  6
HIDDEN
 62
     7
370
     0
100
AcDbLine
 10
103.9688637783
 20
141.8426883031
 30
0.0
 11
103.9688637783
 21
141.0426883031
 31
0.0
  0
LINE
  5
1E9
330
1F
100
AcDbEntity
  8
0
  6
HIDDEN
 62
     7
370
     0
100
AcDbLine
 10
100.3688637783
 20
151.7426883031
 30
0.0
 11
99.5688637783
 21
151.7426883031
 31
0.0
  0
LINE
  5
1EA
330
1F
100
AcDbEntity
  8
0
  6
HIDDEN
 62
     7
370
     0
100
AcDbLine
 10
99.5688637783
 20
146.9426883031
 30
0.0
 11
100.3688637783
 21
146.9426883031
 31
0.0
  0
LINE
  5
1EB
330
1F
100
AcDbEntity
  8
0
  6
HIDDEN
 62
     7
370
     0
100
AcDbLine
 10
103.8688637783
 20
145.0426883031
 30
0.0
 11
103.8688637783
 21
142.0426883031
 31
0.0
  0
LINE
  5
1EC
330
1F
100
AcDbEntity
  8
0
  6
HIDDEN
 62
     7
370
     0
100
AcDbLine
 10
108.8688637783
 20
142.0426883031
 30
0.0
 11
108.8688637783
 21
145.0426883031
 31
0.0
  0
LINE
  5
1ED
330
1F
100
AcDbEntity
  8
0
  6
HIDDEN
 62
     7
370
     0
100
AcDbLine
 10
108.8688637783
 20
145.0426883031
 30
0.0
 11
108.3688637783
 21
145.5426883031
 31
0.0
  0
LINE
  5
1EE
330
1F
100
AcDbEntity
  8
0
  6
HIDDEN
 62
     7
370
     0
100
AcDbLine
 10
104.3688637783
 20
145.5426883031
 30
0.0
 11
103.8688637783
 21
145.0426883031
 31
0.0
  0
LINE
  5
1EF
330
1F
100
AcDbEntity
  8
0
  6
HIDDEN
 62
     7
370
     0
100
AcDbLine
 10
104.1188637783
 20
142.0426883031
 30
0.0
 11
104.1188637783
 21
141.0426883031
 31
0.0
  0
LINE
  5
1F0
330
1F
100
AcDbEntity
  8
0
  6
HIDDEN
 62
     7
370
     0
100
AcDbLine
 10
108.6188637783
 20
141.0426883031
 30
0.0
 11
108.6188637783
 21
142.0426883031
 31
0.0
  0
LINE
  5
1F1
330
1F
100
AcDbEntity
  8
0
  6
HIDDEN
 62
     7
370
     0
100
AcDbLine
 10
105.4688637783
 20
145.5426883031
 30
0.0
 11
105.4688637783
 21
129.0426883031
 31
0.0
  0
LINE
  5
1F2
330
1F
100
AcDbEntity
  8
0
  6
HIDDEN
 62
     7
370
     0
100
AcDbLine
 10
107.2688637783
 20
129.0426883031
 30
0.0
 11
107.2688637783
 21
145.5426883031
 31
0.0
  0
SPLINE
  5
1F3
330
1F
100
AcDbEntity
  8
0
  6
HIDDEN
 62
     7
370
     0
100
AcDbSpline
210
0.0
220
0.0
230
1.0
 70
     8
 71
     3
 72
    24
 73
    20
 74
     0
 42
0.00000001
 43
0.00000001
 12
1.0
 22
0.0
 32
0.0
 13
1.0
 23
0.0
 33
0.0
 40
0.0
 40
0.0
 40
0.0
 40
0.0
 40
0.0017941553179027
 40
0.0214057448036811
 40
0.0287723350631999
 40
0.0336517718935807
 40
0.0393528002665652
 40
0.0675232430935024
 40
0.1069857664366264
 40
0.1589698212752526
 40
0.2717993913966097
 40
0.3712613475540515
 40
0.4298670703039814
 40
0.4950285155186833
 40
0.5845262069930254
 40
0.6677236715564567
 40
0.7647314752602449
 40
0.8755020383234654
 40
1.0
 40
1.0
 40
1.0
 40
1.0
 10
102.2175568755066
 20
180.8551061275234
 30
0.0
 10
102.2177549938015
 20
180.851203700656
 30
0.0
 10
102.2201187075885
 20
180.8046445467158
 30
0.0
 10
102.1987516134104
 20
180.7414418828255
 30
0.0
 10
102.1656731593338
 20
180.6813431264711
 30
0.0
 10
102.1428412207411
 20
180.6502517561723
 30
0.0
 10
102.1071916938687
 20
180.6090874975751
 30
0.0
 10
102.0521843816775
 20
180.5674213995032
 30
0.0
 10
102.0238380422492
 20
180.5509750316529
 30
0.0
 10
102.0715956363549
 20
180.552117943361
 30
0.0
 10
102.2483229080974
 20
180.564723954513
 30
0.0
 10
102.5288061295738
 20
180.5787763169592
 30
0.0
 10
102.8281883863921
 20
180.5918209353386
 30
0.0
 10
103.1595556329767
 20
180.6044223919866
 30
0.0
 10
103.5821080103316
 20
180.6184837584254
 30
0.0
 10
104.1170333221766
 20
180.6344488223958
 30
0.0
 10
104.7441751191998
 20
180.6516717016428
 30
0.0
 10
105.5080224964871
 20
180.6713546163423
 30
0.0
 10
106.0709678125381
 20
180.6853057917967
 30
0.0
 10
106.3688637782701
 20
180.6926883896558
 30
0.0
  0
SPLINE
  5
1F4
330
1F
100
AcDbEntity
  8
0
  6
HIDDEN
 62
     7
370
     0
100
AcDbSpline
210
0.0
220
0.0
230
1.0
 70
     8
 71
     3
 72
    11
 73
     7
 74
     0
 42
0.00000001
 43
0.00000001
 12
1.0
 22
0.0
 32
0.0
 13
1.0
 23
0.0
 33
0.0
 40
0.0
 40
0.0
 40
0.0
 40
0.0
 40
0.315871933667078
 40
0.5639736633676671
 40
0.9052800062316397
 40
1.0
 40
1.0
 40
1.0
 40
1.0
 10
101.6287283457458
 20
181.1236311533626
 30
0.0
 10
101.605909480138
 20
181.0980582784624
 30
0.0
 10
101.565167527913
 20
181.052399179305
 30
0.0
 10
101.5296229061542
 20
180.9637724614263
 30
0.0
 10
101.5130975607715
 20
180.8945611726478
 30
0.0
 10
101.5217165577978
 20
180.8519458289533
 30
0.0
 10
101.523588901911
 20
180.8426883030882
 30
0.0
  0
SPLINE
  5
1F5
330
1F
100
AcDbEntity
  8
0
  6
HIDDEN
 62
     7
370
     0
100
AcDbSpline
210
0.0
220
0.0
230
1.0
 70
     8
 71
     3
 72
    13
 73
     9
 74
     0
 42
0.00000001
 43
0.00000001
 12
1.0
 22
0.0
 32
0.0
 13
1.0
 23
0.0
 33
0.0
 40
0.0
 40
0.0
 40
0.0
 40
0.0
 40
0.1558650743895332
 40
0.3192058578887773
 40
0.4892342704307197
 40
0.6648895663435623
 40
0.8448585882334695
 40
1.0
 40
1.0
 40
1.0
 40
1.0
 10
106.368863778293
 20
162.835545445948
 30
0.0
 10
106.1991398507324
 20
162.8157404572907
 30
0.0
 10
105.851551578546
 20
162.7751805793348
 30
0.0
 10
105.325351382567
 20
162.7087216887249
 30
0.0
 10
104.7922467933253
 20
162.6373196366296
 30
0.0
 10
104.2665985402441
 20
162.5618803786911
 30
0.0
 10
103.7836079184402
 20
162.4880255733455
 30
0.0
 10
103.5001105895337
 20
162.4401277835154
 30
0.0
 10
103.3688637782701
 20
162.4179532106331
 30
0.0
  0
SPLINE
  5
1F6
330
1F
100
AcDbEntity
  8
0
  6
HIDDEN
 62
     7
370
     0
100
AcDbSpline
210
0.0
220
0.0
230
1.0
 70
     8
 71
     3
 72
    24
 73
    20
 74
     0
 42
0.00000001
 43
0.00000001
 12
1.0
 22
0.0
 32
0.0
 13
1.0
 23
0.0
 33
0.0
 40
0.0
 40
0.0
 40
0.0
 40
0.0
 40
0.0342845777269142
 40
0.0760154205366074
 40
0.1319564063806946
 40
0.1869967446957246
 40
0.2436079317684803
 40
0.2992495712889439
 40
0.3488194980876658
 40
0.3919888581694124
 40
0.42966083267802
 40
0.4697413033078755
 40
0.5152684662875506
 40
0.5663278792878484
 40
0.6250262417277889
 40
0.6982898760843222
 40
0.7862511219725815
 40
0.887625622592828
 40
0.9999999999999999
 40
0.9999999999999999
 40
0.9999999999999999
 40
0.9999999999999999
 10
110.5624104304692
 20
159.6564378010156
 30
0.0
 10
110.5625114827236
 20
159.6576077455899
 30
0.0
 10
110.5627355347644
 20
159.6602017349201
 30
0.0
 10
110.5116328782394
 20
159.7568610236295
 30
0.0
 10
110.5224257021505
 20
159.8817984685774
 30
0.0
 10
110.5564994449838
 20
159.9506552467047
 30
0.0
 10
110.5518373037255
 20
159.9564568261901
 30
0.0
 10
110.461639052589
 20
159.9199079808025
 30
0.0
 10
110.3499644174393
 20
159.8875915136074
 30
0.0
 10
110.2184129161125
 20
159.8544839063895
 30
0.0
 10
110.0655104337402
 20
159.8205425054938
 30
0.0
 10
109.8875554816276
 20
159.7831129979474
 30
0.0
 10
109.6683859742531
 20
159.7401517020662
 30
0.0
 10
109.3926674047293
 20
159.6895439038659
 30
0.0
 10
109.0357200954739
 20
159.6283545775476
 30
0.0
 10
108.5664908809634
 20
159.5535830888926
 30
0.0
 10
107.9576575064161
 20
159.4643619984398
 30
0.0
 10
107.210350689187
 20
159.3636521844247
 30
0.0
 10
106.658820308731
 20
159.2984143932844
 30
0.0
 10
106.3688637779793
 20
159.2641168744835
 30
0.0
  0
SPLINE
  5
1F7
330
1F
100
AcDbEntity
  8
0
  6
HIDDEN
 62
     7
370
     0
100
AcDbSpline
210
0.0
220
0.0
230
1.0
 70
     8
 71
     3
 72
    13
 73
     9
 74
     0
 42
0.00000001
 43
0.00000001
 12
1.0
 22
0.0
 32
0.0
 13
1.0
 23
0.0
 33
0.0
 40
0.0
 40
0.0
 40
0.0
 40
0.0
 40
0.1558650743895337
 40
0.3192058578887782
 40
0.4892342704307173
 40
0.6648895663435672
 40
0.8448585882334713
 40
1.0
 40
1.0
 40
1.0
 40
1.0
 10
106.368863778293
 20
166.4069740173766
 30
0.0
 10
106.1991398507324
 20
166.3871690287193
 30
0.0
 10
105.851551578546
 20
166.3466091507634
 30
0.0
 10
105.325351382567
 20
166.2801502601535
 30
0.0
 10
104.7922467933253
 20
166.2087482080582
 30
0.0
 10
104.2665985402441
 20
166.1333089501197
 30
0.0
 10
103.7836079184402
 20
166.059454144774
 30
0.0
 10
103.5001105895337
 20
166.0115563549439
 30
0.0
 10
103.3688637782701
 20
165.9893817820617
 30
0.0
  0
SPLINE
  5
1F8
330
1F
100
AcDbEntity
  8
0
  6
HIDDEN
 62
     7
370
     0
100
AcDbSpline
210
0.0
220
0.0
230
1.0
 70
     8
 71
     3
 72
    17
 73
    13
 74
     0
 42
0.00000001
 43
0.00000001
 12
1.0
 22
0.0
 32
0.0
 13
1.0
 23
0.0
 33
0.0
 40
0.0
 40
0.0
 40
0.0
 40
0.0
 40
0.0771023024765308
 40
0.1709504487346507
 40
0.2967556677967422
 40
0.4205354281011721
 40
0.5478478571474371
 40
0.6729798787452643
 40
0.7844572759650073
 40
0.8815404917844624
 40
0.9662606827865685
 40
1.0
 40
1.0
 40
1.0
 40
1.0
 10
110.5624104304692
 20
163.2278663724442
 30
0.0
 10
110.5625115026221
 20
163.2290363190884
 30
0.0
 10
110.5627355987817
 20
163.2316303130083
 30
0.0
 10
110.5116325094226
 20
163.3282895566908
 30
0.0
 10
110.5224275921178
 20
163.4532272366152
 30
0.0
 10
110.5564925015825
 20
163.522083095826
 30
0.0
 10
110.551863843004
 20
163.5278881584432
 30
0.0
 10
110.4615464543044
 20
163.4913269194291
 30
0.0
 10
110.3502520405481
 20
163.4590500058544
 30
0.0
 10
110.2175383036819
 20
163.4258214937529
 30
0.0
 10
110.0993319363426
 20
163.3992297712232
 30
0.0
 10
110.0224700246208
 20
163.3832241602289
 30
0.0
 10
110.0005784225006
 20
163.3786654853309
 30
0.0
  0
SPLINE
  5
1F9
330
1F
100
AcDbEntity
  8
0
  6
HIDDEN
 62
     7
370
     0
100
AcDbSpline
210
0.0
220
0.0
230
1.0
 70
     8
 71
     3
 72
    12
 73
     8
 74
     0
 42
0.00000001
 43
0.00000001
 12
1.0
 22
0.0
 32
0.0
 13
1.0
 23
0.0
 33
0.0
 40
0.0
 40
0.0
 40
0.0
 40
0.0
 40
0.1238590606958217
 40
0.2950424248803927
 40
0.5005673366769142
 40
0.7374328458905954
 40
1.0
 40
1.0
 40
1.0
 40
1.0
 10
109.3688637782701
 20
163.2575674690096
 30
0.0
 10
109.2674265879928
 20
163.2399400720117
 30
0.0
 10
109.025794894483
 20
163.1979501689287
 30
0.0
 10
108.5656741418668
 20
163.1249743254174
 30
0.0
 10
107.9579309030311
 20
163.0358030674166
 30
0.0
 10
107.2102691763608
 20
162.9350770297264
 30
0.0
 10
106.6587922213347
 20
162.8698416807776
 30
0.0
 10
106.3688637779793
 20
162.8355454459121
 30
0.0
  0
SPLINE
  5
1FA
330
1F
100
AcDbEntity
  8
0
  6
HIDDEN
 62
     7
370
     0
100
AcDbSpline
210
0.0
220
0.0
230
1.0
 70
     8
 71
     3
 72
    13
 73
     9
 74
     0
 42
0.00000001
 43
0.00000001
 12
1.0
 22
0.0
 32
0.0
 13
1.0
 23
0.0
 33
0.0
 40
0.0
 40
0.0
 40
0.0
 40
0.0
 40
0.15586507438953
 40
0.3192058578887741
 40
0.4892342704307197
 40
0.6648895663435691
 40
0.8448585882334727
 40
1.0
 40
1.0
 40
1.0
 40
1.0
 10
106.368863778293
 20
169.9784025888052
 30
0.0
 10
106.1991398507324
 20
169.9585976001478
 30
0.0
 10
105.851551578546
 20
169.9180377221919
 30
0.0
 10
105.325351382567
 20
169.8515788315821
 30
0.0
 10
104.7922467933253
 20
169.7801767794867
 30
0.0
 10
104.2665985402441
 20
169.7047375215483
 30
0.0
 10
103.7836079184402
 20
169.6308827162026
 30
0.0
 10
103.5001105895337
 20
169.5829849263725
 30
0.0
 10
103.3688637782701
 20
169.5608103534902
 30
0.0
  0
SPLINE
  5
1FB
330
1F
100
AcDbEntity
  8
0
  6
HIDDEN
 62
     7
370
     0
100
AcDbSpline
210
0.0
220
0.0
230
1.0
 70
     8
 71
     3
 72
    17
 73
    13
 74
     0
 42
0.00000001
 43
0.00000001
 12
1.0
 22
0.0
 32
0.0
 13
1.0
 23
0.0
 33
0.0
 40
0.0
 40
0.0
 40
0.0
 40
0.0
 40
0.0771023024765256
 40
0.1709504487346515
 40
0.2967556677967458
 40
0.4205354281011732
 40
0.5478478571474354
 40
0.6729798787452629
 40
0.7844572759650033
 40
0.8815404917844618
 40
0.9662606827865685
 40
1.0
 40
1.0
 40
1.0
 40
1.0
 10
110.5624104304692
 20
166.7992949438728
 30
0.0
 10
110.5625115026221
 20
166.800464890517
 30
0.0
 10
110.5627355987817
 20
166.8030588844368
 30
0.0
 10
110.5116325094226
 20
166.8997181281194
 30
0.0
 10
110.5224275921178
 20
167.0246558080438
 30
0.0
 10
110.5564925015825
 20
167.0935116672545
 30
0.0
 10
110.551863843004
 20
167.0993167298717
 30
0.0
 10
110.4615464543044
 20
167.0627554908576
 30
0.0
 10
110.3502520405481
 20
167.030478577283
 30
0.0
 10
110.2175383036819
 20
166.9972500651815
 30
0.0
 10
110.0993319363426
 20
166.9706583426518
 30
0.0
 10
110.0224700246208
 20
166.9546527316574
 30
0.0
 10
110.0005784225006
 20
166.9500940567594
 30
0.0
  0
SPLINE
  5
1FC
330
1F
100
AcDbEntity
  8
0
  6
HIDDEN
 62
     7
370
     0
100
AcDbSpline
210
0.0
220
0.0
230
1.0
 70
     8
 71
     3
 72
    12
 73
     8
 74
     0
 42
0.00000001
 43
0.00000001
 12
1.0
 22
0.0
 32
0.0
 13
1.0
 23
0.0
 33
0.0
 40
0.0
 40
0.0
 40
0.0
 40
0.0
 40
0.1238590606958191
 40
0.295042424880391
 40
0.500567336676913
 40
0.737432845890598
 40
1.0
 40
1.0
 40
1.0
 40
1.0
 10
109.3688637782701
 20
166.8289960404381
 30
0.0
 10
109.2674265879928
 20
166.8113686434403
 30
0.0
 10
109.025794894483
 20
166.7693787403573
 30
0.0
 10
108.5656741418668
 20
166.6964028968459
 30
0.0
 10
107.9579309030311
 20
166.6072316388452
 30
0.0
 10
107.2102691763608
 20
166.5065056011549
 30
0.0
 10
106.6587922213347
 20
166.4412702522061
 30
0.0
 10
106.3688637779793
 20
166.4069740173406
 30
0.0
  0
SPLINE
  5
1FD
330
1F
100
AcDbEntity
  8
0
  6
HIDDEN
 62
     7
370
     0
100
AcDbSpline
210
0.0
220
0.0
230
1.0
 70
     8
 71
     3
 72
    13
 73
     9
 74
     0
 42
0.00000001
 43
0.00000001
 12
1.0
 22
0.0
 32
0.0
 13
1.0
 23
0.0
 33
0.0
 40
0.0
 40
0.0
 40
0.0
 40
0.0
 40
0.1558650743895361
 40
0.31920585788878
 40
0.4892342704307115
 40
0.6648895663435609
 40
0.844858588233471
 40
1.0
 40
1.0
 40
1.0
 40
1.0
 10
106.3688637782931
 20
173.5498311602337
 30
0.0
 10
106.1991398507324
 20
173.5300261715764
 30
0.0
 10
105.851551578546
 20
173.4894662936205
 30
0.0
 10
105.325351382567
 20
173.4230074030106
 30
0.0
 10
104.7922467933253
 20
173.3516053509153
 30
0.0
 10
104.2665985402441
 20
173.2761660929768
 30
0.0
 10
103.7836079184403
 20
173.2023112876311
 30
0.0
 10
103.5001105895337
 20
173.1544134978011
 30
0.0
 10
103.3688637782701
 20
173.1322389249188
 30
0.0
  0
SPLINE
  5
1FE
330
1F
100
AcDbEntity
  8
0
  6
HIDDEN
 62
     7
370
     0
100
AcDbSpline
210
0.0
220
0.0
230
1.0
 70
     8
 71
     3
 72
    17
 73
    13
 74
     0
 42
0.00000001
 43
0.00000001
 12
1.0
 22
0.0
 32
0.0
 13
1.0
 23
0.0
 33
0.0
 40
0.0
 40
0.0
 40
0.0
 40
0.0
 40
0.0771023024765315
 40
0.1709504487346508
 40
0.2967556677967531
 40
0.4205354281011767
 40
0.5478478571474473
 40
0.672979878745268
 40
0.7844572759650109
 40
0.8815404917844656
 40
0.9662606827865687
 40
1.0
 40
1.0
 40
1.0
 40
1.0
 10
110.5624104304692
 20
170.3707235153014
 30
0.0
 10
110.5625115026221
 20
170.3718934619456
 30
0.0
 10
110.5627355987817
 20
170.3744874558654
 30
0.0
 10
110.5116325094226
 20
170.4711466995479
 30
0.0
 10
110.5224275921178
 20
170.5960843794724
 30
0.0
 10
110.5564925015825
 20
170.6649402386831
 30
0.0
 10
110.551863843004
 20
170.6707453013003
 30
0.0
 10
110.4615464543044
 20
170.6341840622862
 30
0.0
 10
110.3502520405481
 20
170.6019071487115
 30
0.0
 10
110.2175383036819
 20
170.5686786366101
 30
0.0
 10
110.0993319363426
 20
170.5420869140804
 30
0.0
 10
110.0224700246208
 20
170.526081303086
 30
0.0
 10
110.0005784225006
 20
170.521522628188
 30
0.0
  0
SPLINE
  5
1FF
330
1F
100
AcDbEntity
  8
0
  6
HIDDEN
 62
     7
370
     0
100
AcDbSpline
210
0.0
220
0.0
230
1.0
 70
     8
 71
     3
 72
    12
 73
     8
 74
     0
 42
0.00000001
 43
0.00000001
 12
1.0
 22
0.0
 32
0.0
 13
1.0
 23
0.0
 33
0.0
 40
0.0
 40
0.0
 40
0.0
 40
0.0
 40
0.1238590606958217
 40
0.2950424248803962
 40
0.5005673366769243
 40
0.7374328458905953
 40
0.9999999999999999
 40
0.9999999999999999
 40
0.9999999999999999
 40
0.9999999999999999
 10
109.3688637782701
 20
170.4004246118667
 30
0.0
 10
109.2674265879928
 20
170.3827972148688
 30
0.0
 10
109.025794894483
 20
170.3408073117859
 30
0.0
 10
108.5656741418668
 20
170.2678314682745
 30
0.0
 10
107.9579309030311
 20
170.1786602102737
 30
0.0
 10
107.2102691763608
 20
170.0779341725835
 30
0.0
 10
106.6587922213347
 20
170.0126988236347
 30
0.0
 10
106.3688637779793
 20
169.9784025887692
 30
0.0
  0
SPLINE
  5
200
330
1F
100
AcDbEntity
  8
0
  6
HIDDEN
 62
     7
370
     0
100
AcDbSpline
210
0.0
220
0.0
230
1.0
 70
     8
 71
     3
 72
    13
 73
     9
 74
     0
 42
0.00000001
 43
0.00000001
 12
1.0
 22
0.0
 32
0.0
 13
1.0
 23
0.0
 33
0.0
 40
0.0
 40
0.0
 40
0.0
 40
0.0
 40
0.1558650743895299
 40
0.3192058578887739
 40
0.4892342704307125
 40
0.6648895663435623
 40
0.8448585882334725
 40
0.9999999999999999
 40
0.9999999999999999
 40
0.9999999999999999
 40
0.9999999999999999
 10
106.368863778293
 20
177.1212597316623
 30
0.0
 10
106.1991398507324
 20
177.101454743005
 30
0.0
 10
105.851551578546
 20
177.060894865049
 30
0.0
 10
105.325351382567
 20
176.9944359744392
 30
0.0
 10
104.7922467933253
 20
176.9230339223439
 30
0.0
 10
104.2665985402441
 20
176.8475946644054
 30
0.0
 10
103.7836079184402
 20
176.7737398590597
 30
0.0
 10
103.5001105895337
 20
176.7258420692297
 30
0.0
 10
103.3688637782701
 20
176.7036674963473
 30
0.0
  0
SPLINE
  5
201
330
1F
100
AcDbEntity
  8
0
  6
HIDDEN
 62
     7
370
     0
100
AcDbSpline
210
0.0
220
0.0
230
1.0
 70
     8
 71
     3
 72
    17
 73
    13
 74
     0
 42
0.00000001
 43
0.00000001
 12
1.0
 22
0.0
 32
0.0
 13
1.0
 23
0.0
 33
0.0
 40
0.0
 40
0.0
 40
0.0
 40
0.0
 40
0.0771023024765332
 40
0.1709504487346534
 40
0.2967556677967507
 40
0.4205354281011754
 40
0.547847857147441
 40
0.6729798787452685
 40
0.7844572759650122
 40
0.8815404917844675
 40
0.9662606827865774
 40
1.0
 40
1.0
 40
1.0
 40
1.0
 10
110.5624104304692
 20
173.9421520867299
 30
0.0
 10
110.5625115026221
 20
173.9433220333742
 30
0.0
 10
110.5627355987817
 20
173.9459160272939
 30
0.0
 10
110.5116325094226
 20
174.0425752709765
 30
0.0
 10
110.5224275921178
 20
174.1675129509009
 30
0.0
 10
110.5564925015825
 20
174.2363688101117
 30
0.0
 10
110.551863843004
 20
174.2421738727289
 30
0.0
 10
110.4615464543044
 20
174.2056126337148
 30
0.0
 10
110.3502520405481
 20
174.1733357201401
 30
0.0
 10
110.2175383036819
 20
174.1401072080387
 30
0.0
 10
110.0993319363426
 20
174.113515485509
 30
0.0
 10
110.0224700246208
 20
174.0975098745146
 30
0.0
 10
110.0005784225006
 20
174.0929511996166
 30
0.0
  0
SPLINE
  5
202
330
1F
100
AcDbEntity
  8
0
  6
HIDDEN
 62
     7
370
     0
100
AcDbSpline
210
0.0
220
0.0
230
1.0
 70
     8
 71
     3
 72
    12
 73
     8
 74
     0
 42
0.00000001
 43
0.00000001
 12
1.0
 22
0.0
 32
0.0
 13
1.0
 23
0.0
 33
0.0
 40
0.0
 40
0.0
 40
0.0
 40
0.0
 40
0.1238590606958217
 40
0.2950424248803965
 40
0.5005673366769178
 40
0.7374328458906021
 40
1.0
 40
1.0
 40
1.0
 40
1.0
 10
109.3688637782701
 20
173.9718531832953
 30
0.0
 10
109.2674265879928
 20
173.9542257862974
 30
0.0
 10
109.025794894483
 20
173.9122358832145
 30
0.0
 10
108.5656741418668
 20
173.8392600397031
 30
0.0
 10
107.9579309030311
 20
173.7500887817023
 30
0.0
 10
107.2102691763608
 20
173.6493627440121
 30
0.0
 10
106.6587922213347
 20
173.5841273950633
 30
0.0
 10
106.3688637779793
 20
173.5498311601978
 30
0.0
  0
SPLINE
  5
203
330
1F
100
AcDbEntity
  8
0
  6
HIDDEN
 62
     7
370
     0
100
AcDbSpline
210
0.0
220
0.0
230
1.0
 70
     8
 71
     3
 72
    16
 73
    12
 74
     0
 42
0.00000001
 43
0.00000001
 12
1.0
 22
0.0
 32
0.0
 13
1.0
 23
0.0
 33
0.0
 40
0.0
 40
0.0
 40
0.0
 40
0.0
 40
0.105668383373628
 40
0.2164049072531917
 40
0.3316752944908106
 40
0.4507604148980744
 40
0.5727700163163488
 40
0.6930492852383641
 40
0.8054786792925109
 40
0.9096195844216111
 40
1.0
 40
1.0
 40
1.0
 40
1.0
 10
106.3688637782701
 20
180.6926883030882
 30
0.0
 10
106.199143436
 20
180.6728833885356
 30
0.0
 10
105.851562506347
 20
180.6323236623423
 30
0.0
 10
105.3253044231142
 20
180.5658635752679
 30
0.0
 10
104.7924332464835
 20
180.4944663475527
 30
0.0
 10
104.2658703106909
 20
180.4190081841356
 30
0.0
 10
103.7653160689529
 20
180.342004802653
 30
0.0
 10
103.3134784216869
 20
180.2670158703356
 30
0.0
 10
102.9267919829315
 20
180.1967310357354
 30
0.0
 10
102.606675931926
 20
180.1340743019744
 30
0.0
 10
102.4400433268106
 20
180.0944152225496
 30
0.0
 10
102.3626208414786
 20
180.0759884297084
 30
0.0
  0
SPLINE
  5
204
330
1F
100
AcDbEntity
  8
0
  6
HIDDEN
 62
     7
370
     0
100
AcDbSpline
210
0.0
220
0.0
230
1.0
 70
     8
 71
     3
 72
    17
 73
    13
 74
     0
 42
0.00000001
 43
0.00000001
 12
1.0
 22
0.0
 32
0.0
 13
1.0
 23
0.0
 33
0.0
 40
0.0
 40
0.0
 40
0.0
 40
0.0
 40
0.0771023024765284
 40
0.1709504487346542
 40
0.2967556677967511
 40
0.4205354281011754
 40
0.5478478571474406
 40
0.6729798787452619
 40
0.7844572759650048
 40
0.8815404917844663
 40
0.9662606827865692
 40
1.0
 40
1.0
 40
1.0
 40
1.0
 10
110.5624104304692
 20
177.5135806581585
 30
0.0
 10
110.5625115026221
 20
177.5147506048027
 30
0.0
 10
110.5627355987817
 20
177.5173445987225
 30
0.0
 10
110.5116325094226
 20
177.6140038424051
 30
0.0
 10
110.5224275921178
 20
177.7389415223295
 30
0.0
 10
110.5564925015825
 20
177.8077973815402
 30
0.0
 10
110.551863843004
 20
177.8136024441575
 30
0.0
 10
110.4615464543044
 20
177.7770412051433
 30
0.0
 10
110.3502520405481
 20
177.7447642915687
 30
0.0
 10
110.2175383036819
 20
177.7115357794672
 30
0.0
 10
110.0993319363426
 20
177.6849440569375
 30
0.0
 10
110.0224700246208
 20
177.6689384459432
 30
0.0
 10
110.0005784225006
 20
177.6643797710451
 30
0.0
  0
SPLINE
  5
205
330
1F
100
AcDbEntity
  8
0
  6
HIDDEN
 62
     7
370
     0
100
AcDbSpline
210
0.0
220
0.0
230
1.0
 70
     8
 71
     3
 72
    12
 73
     8
 74
     0
 42
0.00000001
 43
0.00000001
 12
1.0
 22
0.0
 32
0.0
 13
1.0
 23
0.0
 33
0.0
 40
0.0
 40
0.0
 40
0.0
 40
0.0
 40
0.1238590606958217
 40
0.2950424248803962
 40
0.5005673366769176
 40
0.7374328458906018
 40
0.9999999999999999
 40
0.9999999999999999
 40
0.9999999999999999
 40
0.9999999999999999
 10
109.3688637782701
 20
177.5432817547238
 30
0.0
 10
109.2674265879928
 20
177.525654357726
 30
0.0
 10
109.025794894483
 20
177.483664454643
 30
0.0
 10
108.5656741418668
 20
177.4106886111316
 30
0.0
 10
107.9579309030311
 20
177.3215173531309
 30
0.0
 10
107.2102691763608
 20
177.2207913154406
 30
0.0
 10
106.6587922213347
 20
177.1555559664918
 30
0.0
 10
106.3688637779793
 20
177.1212597316263
 30
0.0
  0
SPLINE
  5
206
330
1F
100
AcDbEntity
  8
0
  6
HIDDEN
 62
     7
370
     0
100
AcDbSpline
210
0.0
220
0.0
230
1.0
 70
     8
 71
     3
 72
    16
 73
    12
 74
     0
 42
0.00000001
 43
0.00000001
 12
1.0
 22
0.0
 32
0.0
 13
1.0
 23
0.0
 33
0.0
 40
0.0
 40
0.0
 40
0.0
 40
0.0
 40
0.1059173020690494
 40
0.2169146834504365
 40
0.3324566084261771
 40
0.4518222527822001
 40
0.5741192672292028
 40
0.6946818731032246
 40
0.8073761124795977
 40
0.9117623380762094
 40
1.0
 40
1.0
 40
1.0
 40
1.0
 10
106.3688637779793
 20
158.5641168744835
 30
0.0
 10
106.5385841159735
 20
158.5839217890317
 30
0.0
 10
106.8861650368612
 20
158.624481515215
 30
0.0
 10
107.4124231894405
 20
158.6909416023841
 30
0.0
 10
107.9452940866396
 20
158.7623388297328
 30
0.0
 10
108.4718581176083
 20
158.8377969945992
 30
0.0
 10
108.972408168408
 20
158.9148003705495
 30
0.0
 10
109.4242609799174
 20
158.989789322896
 30
0.0
 10
109.8108958194885
 20
159.0600740893507
 30
0.0
 10
110.1287283837911
 20
159.1222513221717
 30
0.0
 10
110.2934209638446
 20
159.1614313542578
 30
0.0
 10
110.3688637782701
 20
159.1793790474017
 30
0.0
  0
SPLINE
  5
207
330
1F
100
AcDbEntity
  8
0
  6
HIDDEN
 62
     7
370
     0
100
AcDbSpline
210
0.0
220
0.0
230
1.0
 70
     8
 71
     3
 72
    17
 73
    13
 74
     0
 42
0.00000001
 43
0.00000001
 12
1.0
 22
0.0
 32
0.0
 13
1.0
 23
0.0
 33
0.0
 40
0.0
 40
0.0
 40
0.0
 40
0.0
 40
0.0771023024997947
 40
0.1709504487955562
 40
0.2967556678574538
 40
0.4205354281577695
 40
0.5478478572014135
 40
0.6729798787917927
 40
0.7844572759965143
 40
0.8815404917948426
 40
0.9662606827718784
 40
0.9999999999999999
 40
0.9999999999999999
 40
0.9999999999999999
 40
0.9999999999999999
 10
102.1753171260769
 20
161.7432245194436
 30
0.0
 10
102.175216053924
 20
161.7420545727988
 30
0.0
 10
102.1749919577643
 20
161.7394605788774
 30
0.0
 10
102.226095047127
 20
161.6428013351613
 30
0.0
 10
102.2152999644131
 20
161.5178636552483
 30
0.0
 10
102.181235054945
 20
161.4490077960465
 30
0.0
 10
102.185863713556
 20
161.4432027334586
 30
0.0
 10
102.2761811022676
 20
161.4797639724714
 30
0.0
 10
102.3874755160218
 20
161.5120408860442
 30
0.0
 10
102.5201892528672
 20
161.5452693981395
 30
0.0
 10
102.6383956201954
 20
161.5718611206668
 30
0.0
 10
102.7152575319107
 20
161.5878667316601
 30
0.0
 10
102.7371491340406
 20
161.5924254065602
 30
0.0
  0
SPLINE
  5
208
330
1F
100
AcDbEntity
  8
0
  6
HIDDEN
 62
     7
370
     0
100
AcDbSpline
210
0.0
220
0.0
230
1.0
 70
     8
 71
     3
 72
    18
 73
    14
 74
     0
 42
0.00000001
 43
0.00000001
 12
1.0
 22
0.0
 32
0.0
 13
1.0
 23
0.0
 33
0.0
 40
0.0
 40
0.0
 40
0.0
 40
0.0
 40
0.0623683702391595
 40
0.1485665650276465
 40
0.25205720773616
 40
0.3713291907251442
 40
0.5035430585951255
 40
0.5809233566559107
 40
0.6620150224438963
 40
0.7464268080916993
 40
0.8336320990474129
 40
0.9229789692076094
 40
1.0
 40
1.0
 40
1.0
 40
1.0
 10
103.3688637782701
 20
161.7135234228807
 30
0.0
 10
103.4703009316524
 20
161.7311510750067
 30
0.0
 10
103.711932537327
 20
161.773141585835
 30
0.0
 10
104.1720542053281
 20
161.8461110918885
 30
0.0
 10
104.7797928240582
 20
161.9353143338499
 30
0.0
 10
105.5274757721758
 20
162.0358934588968
 30
0.0
 10
106.2485610683708
 20
162.1217339797767
 30
0.0
 10
106.8861829684452
 20
162.1958619179329
 30
0.0
 10
107.4123741788237
 20
162.2623830137533
 30
0.0
 10
107.9454813262066
 20
162.3337673565131
 30
0.0
 10
108.4711288589725
 20
162.4092116012949
 30
0.0
 10
108.9541196713909
 20
162.4830650874797
 30
0.0
 10
109.2376169775307
 20
162.5309630352519
 30
0.0
 10
109.3688637782701
 20
162.5531376812571
 30
0.0
  0
SPLINE
  5
209
330
1F
100
AcDbEntity
  8
0
  6
HIDDEN
 62
     7
370
     0
100
AcDbSpline
210
0.0
220
0.0
230
1.0
 70
     8
 71
     3
 72
    17
 73
    13
 74
     0
 42
0.00000001
 43
0.00000001
 12
1.0
 22
0.0
 32
0.0
 13
1.0
 23
0.0
 33
0.0
 40
0.0
 40
0.0
 40
0.0
 40
0.0
 40
0.0771023024997937
 40
0.1709504487955536
 40
0.2967556678574579
 40
0.420535428157768
 40
0.5478478572014088
 40
0.6729798787917912
 40
0.7844572759965158
 40
0.8815404917948385
 40
0.9662606827718745
 40
1.0
 40
1.0
 40
1.0
 40
1.0
 10
102.1753171260769
 20
165.3146530908722
 30
0.0
 10
102.175216053924
 20
165.3134831442273
 30
0.0
 10
102.1749919577643
 20
165.310889150306
 30
0.0
 10
102.226095047127
 20
165.2142299065898
 30
0.0
 10
102.2152999644131
 20
165.0892922266768
 30
0.0
 10
102.181235054945
 20
165.020436367475
 30
0.0
 10
102.185863713556
 20
165.0146313048872
 30
0.0
 10
102.2761811022676
 20
165.0511925439
 30
0.0
 10
102.3874755160218
 20
165.0834694574728
 30
0.0
 10
102.5201892528672
 20
165.1166979695681
 30
0.0
 10
102.6383956201953
 20
165.1432896920954
 30
0.0
 10
102.7152575319107
 20
165.1592953030886
 30
0.0
 10
102.7371491340405
 20
165.1638539779887
 30
0.0
  0
SPLINE
  5
20A
330
1F
100
AcDbEntity
  8
0
  6
HIDDEN
 62
     7
370
     0
100
AcDbSpline
210
0.0
220
0.0
230
1.0
 70
     8
 71
     3
 72
    18
 73
    14
 74
     0
 42
0.00000001
 43
0.00000001
 12
1.0
 22
0.0
 32
0.0
 13
1.0
 23
0.0
 33
0.0
 40
0.0
 40
0.0
 40
0.0
 40
0.0
 40
0.0623683702391601
 40
0.1485665650276474
 40
0.2520572077361611
 40
0.371329190725144
 40
0.5035430585951254
 40
0.5809233566559108
 40
0.6620150224438967
 40
0.746426808091698
 40
0.8336320990474118
 40
0.9229789692076102
 40
0.9999999999999999
 40
0.9999999999999999
 40
0.9999999999999999
 40
0.9999999999999999
 10
103.3688637782701
 20
165.2849519943092
 30
0.0
 10
103.4703009316524
 20
165.3025796464353
 30
0.0
 10
103.711932537327
 20
165.3445701572635
 30
0.0
 10
104.1720542053281
 20
165.417539663317
 30
0.0
 10
104.7797928240582
 20
165.5067429052785
 30
0.0
 10
105.5274757721758
 20
165.6073220303254
 30
0.0
 10
106.2485610683708
 20
165.6931625512053
 30
0.0
 10
106.8861829684452
 20
165.7672904893615
 30
0.0
 10
107.4123741788237
 20
165.8338115851819
 30
0.0
 10
107.9454813262066
 20
165.9051959279416
 30
0.0
 10
108.4711288589725
 20
165.9806401727235
 30
0.0
 10
108.9541196713909
 20
166.0544936589083
 30
0.0
 10
109.2376169775307
 20
166.1023916066805
 30
0.0
 10
109.3688637782701
 20
166.1245662526857
 30
0.0
  0
SPLINE
  5
20B
330
1F
100
AcDbEntity
  8
0
  6
HIDDEN
 62
     7
370
     0
100
AcDbSpline
210
0.0
220
0.0
230
1.0
 70
     8
 71
     3
 72
    17
 73
    13
 74
     0
 42
0.00000001
 43
0.00000001
 12
1.0
 22
0.0
 32
0.0
 13
1.0
 23
0.0
 33
0.0
 40
0.0
 40
0.0
 40
0.0
 40
0.0
 40
0.0771023024997961
 40
0.1709504487955561
 40
0.2967556678574606
 40
0.4205354281577759
 40
0.5478478572014165
 40
0.6729798787917955
 40
0.784457275996523
 40
0.8815404917948482
 40
0.9662606827718749
 40
1.0
 40
1.0
 40
1.0
 40
1.0
 10
102.1753171260769
 20
168.8860816623007
 30
0.0
 10
102.175216053924
 20
168.8849117156559
 30
0.0
 10
102.1749919577643
 20
168.8823177217346
 30
0.0
 10
102.226095047127
 20
168.7856584780184
 30
0.0
 10
102.2152999644131
 20
168.6607207981054
 30
0.0
 10
102.181235054945
 20
168.5918649389036
 30
0.0
 10
102.185863713556
 20
168.5860598763157
 30
0.0
 10
102.2761811022676
 20
168.6226211153285
 30
0.0
 10
102.3874755160218
 20
168.6548980289014
 30
0.0
 10
102.5201892528672
 20
168.6881265409966
 30
0.0
 10
102.6383956201953
 20
168.7147182635239
 30
0.0
 10
102.7152575319107
 20
168.7307238745172
 30
0.0
 10
102.7371491340405
 20
168.7352825494173
 30
0.0
  0
SPLINE
  5
20C
330
1F
100
AcDbEntity
  8
0
  6
HIDDEN
 62
     7
370
     0
100
AcDbSpline
210
0.0
220
0.0
230
1.0
 70
     8
 71
     3
 72
    18
 73
    14
 74
     0
 42
0.00000001
 43
0.00000001
 12
1.0
 22
0.0
 32
0.0
 13
1.0
 23
0.0
 33
0.0
 40
0.0
 40
0.0
 40
0.0
 40
0.0
 40
0.06236837023916
 40
0.148566565027647
 40
0.2520572077361605
 40
0.3713291907251446
 40
0.5035430585951257
 40
0.5809233566559109
 40
0.6620150224438931
 40
0.7464268080916994
 40
0.833632099047413
 40
0.9229789692076096
 40
0.9999999999999999
 40
0.9999999999999999
 40
0.9999999999999999
 40
0.9999999999999999
 10
103.3688637782701
 20
168.8563805657378
 30
0.0
 10
103.4703009316524
 20
168.8740082178638
 30
0.0
 10
103.711932537327
 20
168.9159987286921
 30
0.0
 10
104.1720542053281
 20
168.9889682347456
 30
0.0
 10
104.7797928240582
 20
169.0781714767071
 30
0.0
 10
105.5274757721758
 20
169.1787506017539
 30
0.0
 10
106.2485610683708
 20
169.2645911226338
 30
0.0
 10
106.8861829684452
 20
169.3387190607901
 30
0.0
 10
107.4123741788237
 20
169.4052401566104
 30
0.0
 10
107.9454813262066
 20
169.4766244993702
 30
0.0
 10
108.4711288589725
 20
169.5520687441521
 30
0.0
 10
108.9541196713909
 20
169.6259222303369
 30
0.0
 10
109.2376169775307
 20
169.6738201781091
 30
0.0
 10
109.3688637782701
 20
169.6959948241143
 30
0.0
  0
SPLINE
  5
20D
330
1F
100
AcDbEntity
  8
0
  6
HIDDEN
 62
     7
370
     0
100
AcDbSpline
210
0.0
220
0.0
230
1.0
 70
     8
 71
     3
 72
    17
 73
    13
 74
     0
 42
0.00000001
 43
0.00000001
 12
1.0
 22
0.0
 32
0.0
 13
1.0
 23
0.0
 33
0.0
 40
0.0
 40
0.0
 40
0.0
 40
0.0
 40
0.0771023024998063
 40
0.1709504487955605
 40
0.2967556678574597
 40
0.4205354281577754
 40
0.5478478572014223
 40
0.6729798787917953
 40
0.784457275996523
 40
0.8815404917948485
 40
0.9662606827718818
 40
1.0
 40
1.0
 40
1.0
 40
1.0
 10
102.1753171260769
 20
172.4575102337293
 30
0.0
 10
102.175216053924
 20
172.4563402870845
 30
0.0
 10
102.1749919577643
 20
172.4537462931632
 30
0.0
 10
102.226095047127
 20
172.357087049447
 30
0.0
 10
102.2152999644131
 20
172.232149369534
 30
0.0
 10
102.181235054945
 20
172.1632935103321
 30
0.0
 10
102.185863713556
 20
172.1574884477443
 30
0.0
 10
102.2761811022676
 20
172.1940496867571
 30
0.0
 10
102.3874755160218
 20
172.2263266003299
 30
0.0
 10
102.5201892528672
 20
172.2595551124252
 30
0.0
 10
102.6383956201953
 20
172.2861468349525
 30
0.0
 10
102.7152575319107
 20
172.3021524459458
 30
0.0
 10
102.7371491340405
 20
172.3067111208458
 30
0.0
  0
SPLINE
  5
20E
330
1F
100
AcDbEntity
  8
0
  6
HIDDEN
 62
     7
370
     0
100
AcDbSpline
210
0.0
220
0.0
230
1.0
 70
     8
 71
     3
 72
    18
 73
    14
 74
     0
 42
0.00000001
 43
0.00000001
 12
1.0
 22
0.0
 32
0.0
 13
1.0
 23
0.0
 33
0.0
 40
0.0
 40
0.0
 40
0.0
 40
0.0
 40
0.0623683702391614
 40
0.1485665650276453
 40
0.2520572077361628
 40
0.3713291907251474
 40
0.503543058595129
 40
0.5809233566559143
 40
0.6620150224438932
 40
0.7464268080916995
 40
0.8336320990474131
 40
0.9229789692076096
 40
0.9999999999999999
 40
0.9999999999999999
 40
0.9999999999999999
 40
0.9999999999999999
 10
103.3688637782701
 20
172.4278091371663
 30
0.0
 10
103.4703009316524
 20
172.4454367892924
 30
0.0
 10
103.711932537327
 20
172.4874273001207
 30
0.0
 10
104.1720542053281
 20
172.5603968061742
 30
0.0
 10
104.7797928240582
 20
172.6496000481356
 30
0.0
 10
105.5274757721759
 20
172.7501791731825
 30
0.0
 10
106.2485610683708
 20
172.8360196940624
 30
0.0
 10
106.8861829684452
 20
172.9101476322186
 30
0.0
 10
107.4123741788237
 20
172.976668728039
 30
0.0
 10
107.9454813262066
 20
173.0480530707988
 30
0.0
 10
108.4711288589725
 20
173.1234973155806
 30
0.0
 10
108.9541196713909
 20
173.1973508017654
 30
0.0
 10
109.2376169775307
 20
173.2452487495376
 30
0.0
 10
109.3688637782701
 20
173.2674233955429
 30
0.0
  0
SPLINE
  5
20F
330
1F
100
AcDbEntity
  8
0
  6
HIDDEN
 62
     7
370
     0
100
AcDbSpline
210
0.0
220
0.0
230
1.0
 70
     8
 71
     3
 72
    17
 73
    13
 74
     0
 42
0.00000001
 43
0.00000001
 12
1.0
 22
0.0
 32
0.0
 13
1.0
 23
0.0
 33
0.0
 40
0.0
 40
0.0
 40
0.0
 40
0.0
 40
0.0771023024998077
 40
0.1709504487955619
 40
0.2967556678574543
 40
0.4205354281577754
 40
0.5478478572014217
 40
0.6729798787917942
 40
0.7844572759965216
 40
0.8815404917948408
 40
0.9662606827718788
 40
1.0
 40
1.0
 40
1.0
 40
1.0
 10
102.1753171260769
 20
176.0289388051578
 30
0.0
 10
102.175216053924
 20
176.027768858513
 30
0.0
 10
102.1749919577643
 20
176.0251748645917
 30
0.0
 10
102.226095047127
 20
175.9285156208755
 30
0.0
 10
102.215299964413
 20
175.8035779409626
 30
0.0
 10
102.181235054945
 20
175.7347220817607
 30
0.0
 10
102.185863713556
 20
175.7289170191729
 30
0.0
 10
102.2761811022676
 20
175.7654782581857
 30
0.0
 10
102.3874755160218
 20
175.7977551717585
 30
0.0
 10
102.5201892528672
 20
175.8309836838538
 30
0.0
 10
102.6383956201953
 20
175.857575406381
 30
0.0
 10
102.7152575319107
 20
175.8735810173743
 30
0.0
 10
102.7371491340405
 20
175.8781396922744
 30
0.0
  0
SPLINE
  5
210
330
1F
100
AcDbEntity
  8
0
  6
HIDDEN
 62
     7
370
     0
100
AcDbSpline
210
0.0
220
0.0
230
1.0
 70
     8
 71
     3
 72
    18
 73
    14
 74
     0
 42
0.00000001
 43
0.00000001
 12
1.0
 22
0.0
 32
0.0
 13
1.0
 23
0.0
 33
0.0
 40
0.0
 40
0.0
 40
0.0
 40
0.0
 40
0.0623683702391566
 40
0.1485665650276435
 40
0.252057207736157
 40
0.3713291907251447
 40
0.5035430585951259
 40
0.5809233566559111
 40
0.6620150224438968
 40
0.7464268080916963
 40
0.8336320990474132
 40
0.9229789692076098
 40
1.0
 40
1.0
 40
1.0
 40
1.0
 10
103.3688637782701
 20
175.9992377085949
 30
0.0
 10
103.4703009316524
 20
176.0168653607209
 30
0.0
 10
103.711932537327
 20
176.0588558715492
 30
0.0
 10
104.1720542053281
 20
176.1318253776028
 30
0.0
 10
104.7797928240582
 20
176.2210286195642
 30
0.0
 10
105.5274757721758
 20
176.3216077446111
 30
0.0
 10
106.2485610683708
 20
176.407448265491
 30
0.0
 10
106.8861829684452
 20
176.4815762036472
 30
0.0
 10
107.4123741788237
 20
176.5480972994676
 30
0.0
 10
107.9454813262066
 20
176.6194816422273
 30
0.0
 10
108.4711288589725
 20
176.6949258870092
 30
0.0
 10
108.9541196713909
 20
176.768779373194
 30
0.0
 10
109.2376169775307
 20
176.8166773209662
 30
0.0
 10
109.3688637782701
 20
176.8388519669714
 30
0.0
  0
SPLINE
  5
211
330
1F
100
AcDbEntity
  8
0
  6
HIDDEN
 62
     7
370
     0
100
AcDbSpline
210
0.0
220
0.0
230
1.0
 70
     8
 71
     3
 72
    17
 73
    13
 74
     0
 42
0.00000001
 43
0.00000001
 12
1.0
 22
0.0
 32
0.0
 13
1.0
 23
0.0
 33
0.0
 40
0.0
 40
0.0
 40
0.0
 40
0.0
 40
0.0771023024998055
 40
0.170950448795565
 40
0.2967556678574567
 40
0.4205354281577827
 40
0.5478478572014223
 40
0.6729798787918001
 40
0.7844572759965206
 40
0.8815404917948513
 40
0.9662606827718772
 40
1.0
 40
1.0
 40
1.0
 40
1.0
 10
102.1753171260769
 20
179.6003673765864
 30
0.0
 10
102.175216053924
 20
179.5991974299416
 30
0.0
 10
102.1749919577643
 20
179.5966034360203
 30
0.0
 10
102.226095047127
 20
179.4999441923041
 30
0.0
 10
102.215299964413
 20
179.3750065123911
 30
0.0
 10
102.181235054945
 20
179.3061506531893
 30
0.0
 10
102.185863713556
 20
179.3003455906014
 30
0.0
 10
102.2761811022676
 20
179.3369068296142
 30
0.0
 10
102.3874755160218
 20
179.369183743187
 30
0.0
 10
102.5201892528672
 20
179.4024122552824
 30
0.0
 10
102.6383956201953
 20
179.4290039778096
 30
0.0
 10
102.7152575319107
 20
179.4450095888029
 30
0.0
 10
102.7371491340405
 20
179.449568263703
 30
0.0
  0
SPLINE
  5
212
330
1F
100
AcDbEntity
  8
0
  6
HIDDEN
 62
     7
370
     0
100
AcDbSpline
210
0.0
220
0.0
230
1.0
 70
     8
 71
     3
 72
    12
 73
     8
 74
     0
 42
0.00000001
 43
0.00000001
 12
1.0
 22
0.0
 32
0.0
 13
1.0
 23
0.0
 33
0.0
 40
0.0
 40
0.0
 40
0.0
 40
0.0
 40
0.1238590606602669
 40
0.2950424248586982
 40
0.5005673366665667
 40
0.7374328458894915
 40
1.0
 40
1.0
 40
1.0
 40
1.0
 10
103.3688637782701
 20
179.5706662800235
 30
0.0
 10
103.4703009685066
 20
179.5882936770146
 30
0.0
 10
103.7119326619708
 20
179.6302835800906
 30
0.0
 10
104.1720534145289
 20
179.7032594235941
 30
0.0
 10
104.7797966533341
 20
179.7924306815924
 30
0.0
 10
105.5274583799523
 20
179.893156719278
 30
0.0
 10
106.0789353349397
 20
179.9583920682245
 30
0.0
 10
106.3688637782701
 20
179.9926883030882
 30
0.0
  0
SPLINE
  5
213
330
1F
100
AcDbEntity
  8
0
  6
HIDDEN
 62
     7
370
     0
100
AcDbSpline
210
0.0
220
0.0
230
1.0
 70
     8
 71
     3
 72
    15
 73
    11
 74
     0
 42
0.00000001
 43
0.00000001
 12
1.0
 22
0.0
 32
0.0
 13
1.0
 23
0.0
 33
0.0
 40
0.0
 40
0.0
 40
0.0
 40
0.0
 40
0.0743843642357254
 40
0.2109562167320546
 40
0.3520477484643052
 40
0.4966041925542261
 40
0.6391105462388916
 40
0.7723164023861515
 40
0.8957020929726836
 40
1.0
 40
1.0
 40
1.0
 40
1.0
 10
107.1047595951787
 20
155.0814332867979
 30
0.0
 10
107.2045073623924
 20
155.0938657890216
 30
0.0
 10
107.4873949263995
 20
155.1291247263073
 30
0.0
 10
107.9449767234881
 20
155.1910166407404
 30
0.0
 10
108.4719467357104
 20
155.2663387177384
 30
0.0
 10
108.9723845001501
 20
155.3433797328931
 30
0.0
 10
109.4242668429078
 20
155.4183587861505
 30
0.0
 10
109.8108944173648
 20
155.4886459879242
 30
0.0
 10
110.1287286624198
 20
155.5508226573448
 30
0.0
 10
110.2934210513807
 20
155.5900027534865
 30
0.0
 10
110.3688637782701
 20
155.6079504759731
 30
0.0
  0
SPLINE
  5
214
330
1F
100
AcDbEntity
  8
0
  6
HIDDEN
 62
     7
370
     0
100
AcDbSpline
210
0.0
220
0.0
230
1.0
 70
     8
 71
     3
 72
    24
 73
    20
 74
     0
 42
0.00000001
 43
0.00000001
 12
1.0
 22
0.0
 32
0.0
 13
1.0
 23
0.0
 33
0.0
 40
0.0
 40
0.0
 40
0.0
 40
0.0
 40
0.0342845777389656
 40
0.0760154205674715
 40
0.1319564064142532
 40
0.1869967447301931
 40
0.2436079318046005
 40
0.2992495713245188
 40
0.3488194981190272
 40
0.3919888581935247
 40
0.4296608326928587
 40
0.4697413033165606
 40
0.5152684662922865
 40
0.566327879290989
 40
0.6250262417329921
 40
0.698289876090891
 40
0.7862511219785235
 40
0.8876256225964111
 40
1.0
 40
1.0
 40
1.0
 40
1.0
 10
102.1753171260769
 20
158.171795948015
 30
0.0
 10
102.1752160738225
 20
158.1706260034402
 30
0.0
 10
102.1749920217816
 20
158.1680320141085
 30
0.0
 10
102.2260946783102
 20
158.0713727253655
 30
0.0
 10
102.2153018543803
 20
157.946435280429
 30
0.0
 10
102.1812281115436
 20
157.8775785023107
 30
0.0
 10
102.1858902528345
 20
157.8717769228546
 30
0.0
 10
102.2760885039831
 20
157.9083257682409
 30
0.0
 10
102.3877631391304
 20
157.940642235434
 30
0.0
 10
102.5193146404374
 20
157.9737498426459
 30
0.0
 10
102.6722171227787
 20
158.0076912435351
 30
0.0
 10
102.8501720748539
 20
158.0451207510743
 30
0.0
 10
103.0693415821972
 20
158.0880820469503
 30
0.0
 10
103.3450601516985
 20
158.1386898451479
 30
0.0
 10
103.7020074609379
 20
158.1998791714649
 30
0.0
 10
104.1712366754318
 20
158.2746506601189
 30
0.0
 10
104.7800700499493
 20
158.3638717505693
 30
0.0
 10
105.5273768671334
 20
158.4645815645807
 30
0.0
 10
106.0789072475587
 20
158.5298193557195
 30
0.0
 10
106.368863778293
 20
158.5641168745195
 30
0.0
  0
SPLINE
  5
215
330
1F
100
AcDbEntity
  8
0
  6
HIDDEN
 62
     7
370
     0
100
AcDbSpline
210
0.0
220
0.0
230
1.0
 70
     8
 71
     3
 72
    16
 73
    12
 74
     0
 42
0.00000001
 43
0.00000001
 12
1.0
 22
0.0
 32
0.0
 13
1.0
 23
0.0
 33
0.0
 40
0.0
 40
0.0
 40
0.0
 40
0.0
 40
0.1059173020696067
 40
0.2169146834517788
 40
0.332456608428588
 40
0.4518222527860274
 40
0.5741192672348598
 40
0.6946818731138936
 40
0.8073761124957214
 40
0.9117623380979621
 40
1.0
 40
1.0
 40
1.0
 40
1.0
 10
106.368863778293
 20
159.2641168745195
 30
0.0
 10
106.1991434403079
 20
159.2443119599717
 30
0.0
 10
105.8515625194384
 20
159.2037522337892
 30
0.0
 10
105.3253043668899
 20
159.1372921466222
 30
0.0
 10
104.7924334697227
 20
159.0658949192761
 30
0.0
 10
104.2658694387862
 20
158.9904367544127
 30
0.0
 10
103.7653193880129
 20
158.913433378465
 30
0.0
 10
103.3134665765237
 20
158.8384444261205
 30
0.0
 10
102.9268317369659
 20
158.7681596596665
 30
0.0
 10
102.6089991726982
 20
158.7059824268514
 30
0.0
 10
102.4443065926712
 20
158.6668023947692
 30
0.0
 10
102.3688637782701
 20
158.6488547016302
 30
0.0
  0
SPLINE
  5
216
330
1F
100
AcDbEntity
  8
0
  6
HIDDEN
 62
     7
370
     0
100
AcDbSpline
210
0.0
220
0.0
230
1.0
 70
     8
 71
     3
 72
    24
 73
    20
 74
     0
 42
0.00000001
 43
0.00000001
 12
1.0
 22
0.0
 32
0.0
 13
1.0
 23
0.0
 33
0.0
 40
0.0
 40
0.0
 40
0.0
 40
0.0
 40
0.0342845777281959
 40
0.0760154205394477
 40
0.1319564063856253
 40
0.186996744702712
 40
0.2436079317775823
 40
0.2992495713001251
 40
0.3488194981006985
 40
0.3919888581840579
 40
0.429660832694073
 40
0.4697413033254255
 40
0.5152684663068012
 40
0.5663278793090071
 40
0.6250262417511399
 40
0.69828987611041
 40
0.7862511220019547
 40
0.8876256226259891
 40
0.9999999999999999
 40
0.9999999999999999
 40
0.9999999999999999
 40
0.9999999999999999
 10
110.5624104304692
 20
156.0850092295871
 30
0.0
 10
110.5625114827236
 20
156.0861791741613
 30
0.0
 10
110.5627355347644
 20
156.0887731634915
 30
0.0
 10
110.5116328782394
 20
156.1854324522009
 30
0.0
 10
110.5224257021505
 20
156.3103698971489
 30
0.0
 10
110.5564994449838
 20
156.3792266752761
 30
0.0
 10
110.5518373037255
 20
156.3850282547616
 30
0.0
 10
110.461639052589
 20
156.3484794093739
 30
0.0
 10
110.3499644174393
 20
156.3161629421789
 30
0.0
 10
110.2184129161125
 20
156.283055334961
 30
0.0
 10
110.0655104337402
 20
156.2491139340653
 30
0.0
 10
109.8875554816276
 20
156.2116844265188
 30
0.0
 10
109.6683859742531
 20
156.1687231306377
 30
0.0
 10
109.3926674047293
 20
156.1181153324373
 30
0.0
 10
109.0357200954739
 20
156.056926006119
 30
0.0
 10
108.5664908809634
 20
155.982154517464
 30
0.0
 10
107.9576575064161
 20
155.8929334270112
 30
0.0
 10
107.2103506892797
 20
155.7922236130087
 30
0.0
 10
106.6588203089235
 20
155.7269858218784
 30
0.0
 10
106.3688637782701
 20
155.6926883030883
 30
0.0
  0
SPLINE
  5
217
330
1F
100
AcDbEntity
  8
0
  6
HIDDEN
 62
     7
370
     0
100
AcDbSpline
210
0.0
220
0.0
230
1.0
 70
     8
 71
     3
 72
    18
 73
    14
 74
     0
 42
0.00000001
 43
0.00000001
 12
1.0
 22
0.0
 32
0.0
 13
1.0
 23
0.0
 33
0.0
 40
0.0
 40
0.0
 40
0.0
 40
0.0
 40
0.1191835030729091
 40
0.2226305840388393
 40
0.3103634128408883
 40
0.3823426387400613
 40
0.4483768021059362
 40
0.5325863942573847
 40
0.6084197987884539
 40
0.6951521990453466
 40
0.7928285725620544
 40
0.9014113377129562
 40
1.0
 40
1.0
 40
1.0
 40
1.0
 10
106.3688637782701
 20
179.9926883030883
 30
0.0
 10
106.5637417754697
 20
179.9975154451439
 30
0.0
 10
106.9277670072698
 20
180.0065323764086
 30
0.0
 10
107.4269071126029
 20
180.0191037609258
 30
0.0
 10
107.8394190153398
 20
180.0297570651456
 30
0.0
 10
108.1828842241307
 20
180.0388941212735
 30
0.0
 10
108.5104119546343
 20
180.0478930229278
 30
0.0
 10
108.830432763615
 20
180.0570709469443
 30
0.0
 10
109.1609753835049
 20
180.067110807469
 30
0.0
 10
109.4870877298137
 20
180.0777252513885
 30
0.0
 10
109.8189260887728
 20
180.0897062856914
 30
0.0
 10
110.126654209428
 20
180.1022247821134
 30
0.0
 10
110.290766216856
 20
180.1107742435132
 30
0.0
 10
110.3688637782701
 20
180.114842758043
 30
0.0
  0
SPLINE
  5
218
330
1F
100
AcDbEntity
  8
0
  6
HIDDEN
 62
     7
370
     0
100
AcDbSpline
210
0.0
220
0.0
230
1.0
 70
     8
 71
     3
 72
    17
 73
    13
 74
     0
 42
0.00000001
 43
0.00000001
 12
1.0
 22
0.0
 32
0.0
 13
1.0
 23
0.0
 33
0.0
 40
0.0
 40
0.0
 40
0.0
 40
0.0
 40
0.1196843912412569
 40
0.2224339911057945
 40
0.3772270735425668
 40
0.4738827563463697
 40
0.5269210276981298
 40
0.5914892565226019
 40
0.6996677612561308
 40
0.8683306841294114
 40
0.9811914749534408
 40
1.0
 40
1.0
 40
1.0
 40
1.0
 10
110.844087106517
 20
180.1791779710634
 30
0.0
 10
110.8103757008653
 20
180.1817628053656
 30
0.0
 10
110.7477228985481
 20
180.1865667317944
 30
0.0
 10
110.6471201362095
 20
180.2387630004703
 30
0.0
 10
110.5724971660682
 20
180.3207575047735
 30
0.0
 10
110.5344066158881
 20
180.4041325376738
 30
0.0
 10
110.518243395569
 20
180.4858803805197
 30
0.0
 10
110.5182446048069
 20
180.5577182091808
 30
0.0
 10
110.5393274640155
 20
180.6614512335697
 30
0.0
 10
110.6115241050902
 20
180.7656960263361
 30
0.0
 10
110.6927767213019
 20
180.8284520815848
 30
0.0
 10
110.7336923437363
 20
180.8352398133496
 30
0.0
 10
110.7395370046906
 20
180.8362094183184
 30
0.0
  0
SPLINE
  5
219
330
1F
100
AcDbEntity
  8
0
  6
HIDDEN
 62
     7
370
     0
100
AcDbSpline
210
0.0
220
0.0
230
1.0
 70
     8
 71
     3
 72
    19
 73
    15
 74
     0
 42
0.00000001
 43
0.00000001
 12
1.0
 22
0.0
 32
0.0
 13
1.0
 23
0.0
 33
0.0
 40
0.0
 40
0.0
 40
0.0
 40
0.0
 40
0.0913018695493812
 40
0.1931639121104199
 40
0.2845411871579719
 40
0.389948021526108
 40
0.476629034880126
 40
0.5446910351528559
 40
0.6356218098634905
 40
0.7243854401901982
 40
0.770744869984068
 40
0.8314327544445149
 40
0.9078409881825322
 40
1.0
 40
1.0
 40
1.0
 40
1.0
 10
110.7346837381572
 20
180.8436738636517
 30
0.0
 10
110.6955708944538
 20
180.8391940985624
 30
0.0
 10
110.612821330389
 20
180.8297164290003
 30
0.0
 10
110.3859396583521
 20
180.8156156163926
 30
0.0
 10
110.0856268147213
 20
180.8007272070923
 30
0.0
 10
109.732118851456
 20
180.7864841874611
 30
0.0
 10
109.3532279331297
 20
180.7733632124334
 30
0.0
 10
108.9581566606572
 20
180.7609108381688
 30
0.0
 10
108.5268401103319
 20
180.7483310061371
 30
0.0
 10
108.1063900274297
 20
180.7368521411018
 30
0.0
 10
107.7289266749102
 20
180.7269116461155
 30
0.0
 10
107.3667290093302
 20
180.7175933714185
 30
0.0
 10
106.9038297235166
 20
180.7059410245929
 30
0.0
 10
106.5579583994512
 20
180.697372747724
 30
0.0
 10
106.3688637782701
 20
180.6926883030883
 30
0.0
  0
LINE
  5
21A
330
1F
100
AcDbEntity
  8
0
  6
HIDDEN
 62
     7
370
     0
100
AcDbLine
 10
101.6188637783
 20
181.1120732227
 30
0.0
 11
101.6188637783
 21
180.8426883031
 31
0.0
  0
SPLINE
  5
21B
330
1F
100
AcDbEntity
  8
0
  6
HIDDEN
 62
     7
370
     0
100
AcDbSpline
210
0.0
220
0.0
230
1.0
 70
     8
 71
     3
 72
    14
 73
    10
 74
     0
 42
0.00000001
 43
0.00000001
 12
1.0
 22
0.0
 32
0.0
 13
1.0
 23
0.0
 33
0.0
 40
0.0
 40
0.0
 40
0.0
 40
0.0
 40
0.1136138196492645
 40
0.1869652061335175
 40
0.2767095274750818
 40
0.4275393203687435
 40
0.6620508559877637
 40
0.8183377993396322
 40
1.0
 40
1.0
 40
1.0
 40
1.0
 10
110.5505156369813
 20
154.8483491422394
 30
0.0
 10
110.5423223098478
 20
154.8640316578703
 30
0.0
 10
110.5288392045251
 20
154.8898391236934
 30
0.0
 10
110.5185066165128
 20
154.9451143641313
 30
0.0
 10
110.5183763034184
 20
154.9965950634873
 30
0.0
 10
110.5339354169399
 20
155.070545619447
 30
0.0
 10
110.5855889859527
 20
155.1481692626508
 30
0.0
 10
110.6688750790581
 20
155.2025493909139
 30
0.0
 10
110.7253748528183
 20
155.2084743312819
 30
0.0
 10
110.7557459113635
 20
155.2116592415712
 30
0.0
  0
LINE
  5
21C
330
1F
100
AcDbEntity
  8
0
  6
HIDDEN
 62
     7
370
     0
100
AcDbLine
 10
107.215721906
 20
155.1081437733
 30
0.0
 11
107.1446635191
 21
155.1068325616
 31
0.0
  0
LINE
  5
21D
330
1F
100
AcDbEntity
  8
0
  6
HIDDEN
 62
     7
370
     0
100
AcDbLine
 10
110.7447375856
 20
155.2165214336
 30
0.0
 11
110.7435538682
 21
155.2162299793
 31
0.0
  0
SPLINE
  5
21E
330
1F
100
AcDbEntity
  8
0
  6
HIDDEN
 62
     7
370
     0
100
AcDbSpline
210
0.0
220
0.0
230
1.0
 70
     8
 71
     3
 72
    19
 73
    15
 74
     0
 42
0.00000001
 43
0.00000001
 12
1.0
 22
0.0
 32
0.0
 13
1.0
 23
0.0
 33
0.0
 40
0.0
 40
0.0
 40
0.0
 40
0.0
 40
0.1124382638930131
 40
0.2150385437515573
 40
0.3077250981035234
 40
0.4157786927855193
 40
0.5061517986139145
 40
0.5788172513584844
 40
0.6367771206556294
 40
0.7062246719777672
 40
0.7931421608139916
 40
0.8698145449411918
 40
0.9562982993630176
 40
1.0
 40
1.0
 40
1.0
 40
1.0
 10
110.6974726449154
 20
155.2048838864696
 30
0.0
 10
110.6596580464488
 20
155.2013042860104
 30
0.0
 10
110.587337504444
 20
155.1944582885422
 30
0.0
 10
110.3948437375658
 20
155.1846188650932
 30
0.0
 10
110.1518043445218
 20
155.1748910176947
 30
0.0
 10
109.8620911113939
 20
155.1655143621839
 30
0.0
 10
109.5449922663913
 20
155.1567603923642
 30
0.0
 10
109.2564234249932
 20
155.1496136428171
 30
0.0
 10
108.9757066917191
 20
155.1431259181388
 30
0.0
 10
108.656905836342
 20
155.1361733167801
 30
0.0
 10
108.289545647663
 20
155.1286124726705
 30
0.0
 10
107.8759111654923
 20
155.1205014007653
 30
0.0
 10
107.5228238712455
 20
155.113789821776
 30
0.0
 10
107.2929034442061
 20
155.1095627505613
 30
0.0
 10
107.2157219060053
 20
155.1081437732976
 30
0.0
  0
SPLINE
  5
21F
330
1F
100
AcDbEntity
  8
0
  6
HIDDEN
 62
     7
370
     0
100
AcDbSpline
210
0.0
220
0.0
230
1.0
 70
     8
 71
     3
 72
    17
 73
    13
 74
     0
 42
0.00000001
 43
0.00000001
 12
1.0
 22
0.0
 32
0.0
 13
1.0
 23
0.0
 33
0.0
 40
0.0
 40
0.0
 40
0.0
 40
0.0
 40
0.1430846322748519
 40
0.2527175541287524
 40
0.3305380966180262
 40
0.4371344474440478
 40
0.5464048042146548
 40
0.6282527885539948
 40
0.7325937227803725
 40
0.8596710984004314
 40
0.9700372034635438
 40
1.0
 40
1.0
 40
1.0
 40
1.0
 10
106.3688637782701
 20
155.5926883030883
 30
0.0
 10
106.1292789431346
 20
155.5883522785512
 30
0.0
 10
105.7061217348504
 20
155.580693947267
 30
0.0
 10
105.1663635279717
 20
155.5706825911508
 30
0.0
 10
104.7011188147653
 20
155.5617842561187
 30
0.0
 10
104.2546829742346
 20
155.5528906880558
 30
0.0
 10
103.830510810292
 20
155.5438686872526
 30
0.0
 10
103.4410055104645
 20
155.5349076772241
 30
0.0
 10
103.0635566927995
 20
155.5253908369393
 30
0.0
 10
102.7154850356505
 20
155.5149608232341
 30
0.0
 10
102.4764642652255
 20
155.506793175132
 30
0.0
 10
102.3877960664154
 20
155.5024865213409
 30
0.0
 10
102.3688637782701
 20
155.5015669716984
 30
0.0
  0
LINE
  5
220
330
1F
100
AcDbEntity
  8
0
  6
HIDDEN
 62
     7
370
     0
100
AcDbLine
 10
101.9929899709
 20
154.9688551726
 30
0.0
 11
101.9941736884
 21
154.9691466268
 31
0.0
  0
SPLINE
  5
221
330
1F
100
AcDbEntity
  8
0
  6
HIDDEN
 62
     7
370
     0
100
AcDbSpline
210
0.0
220
0.0
230
1.0
 70
     8
 71
     3
 72
    20
 73
    16
 74
     0
 42
0.00000001
 43
0.00000001
 12
1.0
 22
0.0
 32
0.0
 13
1.0
 23
0.0
 33
0.0
 40
0.0
 40
0.0
 40
0.0
 40
0.0
 40
0.097041089693308
 40
0.1855913982409071
 40
0.2655855561259009
 40
0.3588424084645611
 40
0.4368399189624402
 40
0.4995546432296594
 40
0.5495775507365008
 40
0.6095150295227754
 40
0.684530131481164
 40
0.75070308228368
 40
0.825343844947864
 40
0.9084315463990206
 40
1.0
 40
1.0
 40
1.0
 40
1.0
 10
102.0402549116149
 20
154.9804927197057
 30
0.0
 10
102.078069511227
 20
154.9840723201652
 30
0.0
 10
102.1503900554224
 20
154.9909183176341
 30
0.0
 10
102.3428838073923
 20
155.0007577410784
 30
0.0
 10
102.5859232534483
 20
155.0104855884932
 30
0.0
 10
102.8756362736225
 20
155.0198622439379
 30
0.0
 10
103.1927357699026
 20
155.0286162139593
 30
0.0
 10
103.4813028377459
 20
155.0357629629563
 30
0.0
 10
103.7620249527483
 20
155.0422506893031
 30
0.0
 10
104.0808008553571
 20
155.0492032829255
 30
0.0
 10
104.4482761849583
 20
155.0567641627326
 30
0.0
 10
104.861496294976
 20
155.0648751061688
 30
0.0
 10
105.3060722506215
 20
155.0732928585145
 30
0.0
 10
105.8153955645893
 20
155.0826722043911
 30
0.0
 10
106.1784973478321
 20
155.0892432471505
 30
0.0
 10
106.3688637782701
 20
155.0926883030883
 30
0.0
  0
SPLINE
  5
222
330
1F
100
AcDbEntity
  8
0
  6
HIDDEN
 62
     7
370
     0
100
AcDbSpline
210
0.0
220
0.0
230
1.0
 70
     8
 71
     3
 72
    17
 73
    13
 74
     0
 42
0.00000001
 43
0.00000001
 12
1.0
 22
0.0
 32
0.0
 13
1.0
 23
0.0
 33
0.0
 40
0.0
 40
0.0
 40
0.0
 40
0.0
 40
0.1071356856219202
 40
0.1994222548937641
 40
0.33891610013851
 40
0.4260692052789302
 40
0.4735638757464574
 40
0.5316728927997305
 40
0.6293344593048088
 40
0.7811795523251098
 40
0.8823745975439506
 40
1.0
 40
1.0
 40
1.0
 40
1.0
 10
101.9819816451761
 20
155.4616592415714
 30
0.0
 10
102.0067484159625
 20
155.4596449459094
 30
0.0
 10
102.0528492576008
 20
155.4558955380385
 30
0.0
 10
102.1261257510447
 20
155.4180618312051
 30
0.0
 10
102.1802013008347
 20
155.358974986656
 30
0.0
 10
102.207649090288
 20
155.2993321344735
 30
0.0
 10
102.2193328258399
 20
155.2403598848238
 30
0.0
 10
102.2192942336808
 20
155.1887317818093
 30
0.0
 10
102.2038222523221
 20
155.1148572661091
 30
0.0
 10
102.1521325589932
 20
155.0372020972065
 30
0.0
 10
102.0688539629692
 20
154.9828285116495
 30
0.0
 10
102.012353223062
 20
154.9769027281258
 30
0.0
 10
101.9819816451713
 20
154.9737173646041
 30
0.0
  0
LINE
  5
223
330
1F
100
AcDbEntity
  8
0
  6
HIDDEN
 62
     7
370
     0
100
AcDbLine
 10
110.3688637783
 20
154.8426883031
 30
0.0
 11
110.3688637783
 21
155.2515669717
 31
0.0
  0
LINE
  5
224
330
1F
100
AcDbEntity
  8
0
  6
HIDDEN
 62
     7
370
     0
100
AcDbLine
 10
110.3688637783
 20
156.1490817617
 30
0.0
 11
110.3688637783
 21
156.8653170567
 31
0.0
  0
LINE
  5
225
330
1F
100
AcDbEntity
  8
0
  6
HIDDEN
 62
     7
370
     0
100
AcDbLine
 10
102.3688637783
 20
158.107723416
 30
0.0
 11
102.3688637783
 21
157.3914881209
 31
0.0
  0
LINE
  5
226
330
1F
100
AcDbEntity
  8
0
  6
HIDDEN
 62
     7
370
     0
100
AcDbLine
 10
102.3688637783
 20
155.4341966904
 30
0.0
 11
102.3688637783
 21
154.9338096345
 31
0.0
  0
LINE
  5
227
330
1F
100
AcDbEntity
  8
0
  6
HIDDEN
 62
     7
370
     0
100
AcDbLine
 10
110.131911537
 20
159.7796405444
 30
0.0
 11
110.0688637783
 21
159.8426883031
 31
0.0
  0
LINE
  5
228
330
1F
100
AcDbEntity
  8
0
  6
HIDDEN
 62
     7
370
     0
100
AcDbLine
 10
104.3188637783
 20
151.4426883031
 30
0.0
 11
100.3688637783
 21
151.4426883031
 31
0.0
  0
LINE
  5
229
330
1F
100
AcDbEntity
  8
0
  6
HIDDEN
 62
     7
370
     0
100
AcDbLine
 10
112.3688637783
 20
151.4426883031
 30
0.0
 11
108.4028727549
 21
151.4426883031
 31
0.0
  0
LINE
  5
22A
330
1F
100
AcDbEntity
  8
0
  6
HIDDEN
 62
     7
370
     0
100
AcDbLine
 10
108.4028727549
 20
147.2426883031
 30
0.0
 11
112.3688637783
 21
147.2426883031
 31
0.0
  0
LINE
  5
22B
330
1F
100
AcDbEntity
  8
0
  6
HIDDEN
 62
     7
370
     0
100
AcDbLine
 10
100.3688637783
 20
147.2426883031
 30
0.0
 11
104.3188637783
 21
147.2426883031
 31
0.0
  0
LINE
  5
22C
330
1F
100
AcDbEntity
  8
0
  6
HIDDEN
 62
     7
370
     0
100
AcDbLine
 10
108.4188637783
 20
141.8426883031
 30
0.0
 11
108.4188637783
 21
147.2582942812
 31
0.0
  0
LINE
  5
22D
330
1F
100
AcDbEntity
  8
0
  6
HIDDEN
 62
     7
370
     0
100
AcDbLine
 10
104.3188637783
 20
147.2426883031
 30
0.0
 11
104.3188637783
 21
141.8426883031
 31
0.0
  0
LINE
  5
22E
330
1F
100
AcDbEntity
  8
0
  6
HIDDEN
 62
     7
370
     0
100
AcDbLine
 10
108.4188637783
 20
151.427082325
 30
0.0
 11
108.4188637783
 21
159.8426883031
 31
0.0
  0
LINE
  5
22F
330
1F
100
AcDbEntity
  8
0
  6
HIDDEN
 62
     7
370
     0
100
AcDbLine
 10
104.3188637783
 20
159.8426883031
 30
0.0
 11
104.3188637783
 21
151.4426883031
 31
0.0
  0
LINE
  5
230
330
1F
100
AcDbEntity
  8
0
  6
HIDDEN
 62
     7
370
     0
100
AcDbLine
 10
103.8688637783
 20
153.3426883031
 30
0.0
 11
104.3688637783
 21
152.8426883031
 31
0.0
  0
LINE
  5
231
330
1F
100
AcDbEntity
  8
0
  6
HIDDEN
 62
     7
370
     0
100
AcDbLine
 10
108.3688637783
 20
152.8426883031
 30
0.0
 11
108.8688637783
 21
153.3426883031
 31
0.0
  0
LINE
  5
232
330
1F
100
AcDbEntity
  8
0
  6
HIDDEN
 62
     7
370
     0
100
AcDbLine
 10
103.8688637783
 20
158.8426883031
 30
0.0
 11
103.8688637783
 21
153.3426883031
 31
0.0
  0
LINE
  5
233
330
1F
100
AcDbEntity
  8
0
  6
HIDDEN
 62
     7
370
     0
100
AcDbLine
 10
108.8688637783
 20
153.3426883031
 30
0.0
 11
108.8688637783
 21
158.8426883031
 31
0.0
  0
LINE
  5
234
330
1F
100
AcDbEntity
  8
0
  6
HIDDEN
 62
     7
370
     0
100
AcDbLine
 10
104.2688637783
 20
198.8426883031
 30
0.0
 11
104.2688637783
 21
184.8426883031
 31
0.0
  0
LINE
  5
235
330
1F
100
AcDbEntity
  8
0
  6
HIDDEN
 62
     7
370
     0
100
AcDbLine
 10
108.4688637783
 20
184.8426883031
 30
0.0
 11
108.4688637783
 21
198.8426883031
 31
0.0
  0
LINE
  5
236
330
1F
100
AcDbEntity
  8
0
  6
HIDDEN
 62
     7
370
     0
100
AcDbLine
 10
104.2688637783
 20
184.8426883031
 30
0.0
 11
105.1188637783
 21
184.3319567769
 31
0.0
  0
LINE
  5
237
330
1F
100
AcDbEntity
  8
0
  6
HIDDEN
 62
     7
370
     0
100
AcDbLine
 10
107.6188637783
 20
184.3319567769
 30
0.0
 11
108.4688637783
 21
184.8426883031
 31
0.0
  0
LINE
  5
238
330
1F
100
AcDbEntity
  8
0
  6
HIDDEN
 62
     7
370
     0
100
AcDbLine
 10
104.3688637783
 20
159.8426883031
 30
0.0
 11
104.3688637783
 21
158.8426883031
 31
0.0
  0
LINE
  5
239
330
1F
100
AcDbEntity
  8
0
  6
HIDDEN
 62
     7
370
     0
100
AcDbLine
 10
108.3688637783
 20
158.8426883031
 30
0.0
 11
108.3688637783
 21
159.8426883031
 31
0.0
  0
LINE
  5
23A
330
1F
100
AcDbEntity
  8
0
  6
HIDDEN
 62
     7
370
     0
100
AcDbLine
 10
105.1188637783
 20
184.3319567769
 30
0.0
 11
105.1188637783
 21
152.8426883031
 31
0.0
  0
LINE
  5
23B
330
1F
100
AcDbEntity
  8
0
  6
HIDDEN
 62
     7
370
     0
100
AcDbLine
 10
107.6188637783
 20
152.8426883031
 30
0.0
 11
107.6188637783
 21
184.3319567769
 31
0.0
  0
LINE
  5
23C
330
1F
100
AcDbEntity
  8
0
  6
HIDDEN
 62
     7
370
     0
100
AcDbLine
 10
102.3688637783
 20
180.8426883031
 30
0.0
 11
102.3688637783
 21
180.4645714031
 31
0.0
  0
LINE
  5
23D
330
1F
100
AcDbEntity
  8
0
  6
HIDDEN
 62
     7
370
     0
100
AcDbLine
 10
110.3688637783
 20
180.220137812
 30
0.0
 11
110.3688637783
 21
180.8426883031
 31
0.0
  0
LINE
  5
23E
330
1F
100
AcDbEntity
  8
0
  6
HIDDEN
 62
     7
370
     0
100
AcDbLine
 10
101.6057240575
 20
130.8426883031
 30
0.0
 11
100.8688637783
 21
130.8426883031
 31
0.0
  0
LINE
  5
23F
330
1F
100
AcDbEntity
  8
0
  6
HIDDEN
 62
     7
370
     0
100
AcDbLine
 10
106.3688637783
 20
180.8426883031
 30
0.0
 11
106.3688637783
 21
180.3426883585
 31
0.0
  0
LINE
  5
240
330
1F
100
AcDbEntity
  8
0
  6
HIDDEN
 62
     7
370
     0
100
AcDbLine
 10
106.3688637783
 20
180.8426883031
 30
0.0
 11
106.3688637782
 21
180.9376372774
 31
0.0
  0
DIMENSION
  5
241
330
1F
100
AcDbEntity
  8
0
  6
Continuous
 62
     7
370
     0
100
AcDbDimension
  2
_D
 10
112.3688637783
 20
214.6931422138
 30
0.0
 11
106.9412907535
 21
214.6931422138
 31
0.0
 70
   160
  1
%%c<>
 71
     2
 42
-1.0
  3
SLDDIMSTYLE0
100
AcDbAlignedDimension
 13
100.3688637783
 23
198.3426883031
 33
0.0
 14
112.3688637783
 24
198.3426883031
 34
0.0
100
AcDbRotatedDimension
  0
DIMENSION
  5
250
330
1F
100
AcDbEntity
  8
0
  6
Continuous
 62
     7
370
     0
100
AcDbDimension
  2
_D_1
 10
123.0229521272
 20
183.8426883031
 30
0.0
 11
123.0229521272
 21
195.8418786091
 31
0.0
 70
   160
  1
<>
 71
     2
 42
-1.0
  3
SLDDIMSTYLE1
100
AcDbAlignedDimension
 13
108.3688637783
 23
209.6426883031
 33
0.0
 14
113.3688637783
 24
183.8426883031
 34
0.0
 50
90.0
100
AcDbRotatedDimension
  0
DIMENSION
  5
25B
330
1F
100
AcDbEntity
  8
0
  6
Continuous
 62
     7
370
     0
100
AcDbDimension
  2
_D_2
 10
132.1688637783
 20
129.0426883031
 30
0.0
 11
132.1688637783
 21
169.3426883031
 31
0.0
 70
   160
  1
<>
 71
     2
 42
-1.0
  3
SLDDIMSTYLE1
100
AcDbAlignedDimension
 13
108.3688637783
 23
209.6426883031
 33
0.0
 14
111.5688637783
 24
129.0426883031
 34
0.0
 50
90.0
100
AcDbRotatedDimension
  0
DIMENSION
  5
265
330
1F
100
AcDbEntity
  8
0
  6
Continuous
 62
     7
370
     0
100
AcDbDimension
  2
_D_3
 10
113.3688637783
 20
225.6426883031
 30
0.0
 11
106.9412907535
 21
225.6426883031
 31
0.0
 70
   160
  1
%%c<>
 71
     2
 42
-1.0
  3
SLDDIMSTYLE0
100
AcDbAlignedDimension
 13
99.3688637783
 23
183.8426883031
 33
0.0
 14
113.3688637783
 24
183.8426883031
 34
0.0
100
AcDbRotatedDimension
  0
DIMENSION
  5
272
330
1F
100
AcDbEntity
  8
0
  6
Continuous
 62
     7
370
     0
100
AcDbDimension
  2
_D_4
 10
91.9789540487
 20
183.8426883031
 30
0.0
 11
91.9789540487
 21
190.7105115383
 31
0.0
 70
   160
  1
<>
 71
     2
 42
-1.0
  3
SLDDIMSTYLE2
100
AcDbAlignedDimension
 13
100.8688637783
 23
198.8426883031
 33
0.0
 14
99.3688637783
 24
183.8426883031
 34
0.0
 50
90.0
100
AcDbRotatedDimension
  0
DIMENSION
  5
27D
330
1F
100
AcDbEntity
  8
0
  6
Continuous
 62
     7
370
     0
100
AcDbDimension
  2
_D_5
 10
91.9789540487
 20
183.8426883031
 30
0.0
 11
91.9789540487
 21
182.1223318501
 31
0.0
 70
   160
  1
<>
 71
     2
 42
-1.0
  3
SLDDIMSTYLE0
100
AcDbAlignedDimension
 13
102.5688637783
 23
179.8426883031
 33
0.0
 14
99.3688637783
 24
183.8426883031
 34
0.0
 50
90.0
100
AcDbRotatedDimension
  0
DIMENSION
  5
289
330
1F
100
AcDbEntity
  8
0
  6
Continuous
 62
     7
370
     0
100
AcDbDimension
  2
_D_6
 10
91.9789540487
 20
159.8426883031
 30
0.0
 11
91.9789540487
 21
169.3426883031
 31
0.0
 70
   160
  1
<>st
 71
     2
 42
-1.0
  3
SLDDIMSTYLE2
100
AcDbAlignedDimension
 13
102.5688637783
 23
179.8426883031
 33
0.0
 14
103.3688637783
 24
159.8426883031
 34
0.0
 50
90.0
100
AcDbRotatedDimension
  0
DIMENSION
  5
294
330
1F
100
AcDbEntity
  8
0
  6
Continuous
 62
     7
370
     0
100
AcDbDimension
  2
_D_7
 10
91.9789540487
 20
129.0426883031
 30
0.0
 11
91.9789540487
 21
133.7042407997
 31
0.0
 70
   160
  1
<>
 71
     2
 42
-1.0
  3
SLDDIMSTYLE2
100
AcDbAlignedDimension
 13
100.3688637783
 23
138.0426883031
 33
0.0
 14
101.1688637783
 24
129.0426883031
 34
0.0
 50
90.0
100
AcDbRotatedDimension
  0
DIMENSION
  5
29E
330
1F
100
AcDbEntity
  8
0
  6
Continuous
 62
     7
370
     0
100
AcDbDimension
  2
_D_8
 10
111.8688637783
 20
119.0426883031
 30
0.0
 11
106.3688637783
 21
119.0426883031
 31
0.0
 70
   160
  1
%%c<>
 71
     2
 42
-1.0
  3
SLDDIMSTYLE2
100
AcDbAlignedDimension
 13
100.8688637783
 23
129.3426883031
 33
0.0
 14
111.8688637783
 24
129.3426883031
 34
0.0
100
AcDbRotatedDimension
  0
MTEXT
  5
2A9
330
1F
100
AcDbEntity
  8
0
  6
Continuous
 62
     7
370
     0
100
AcDbMText
 10
67.6990902573
 20
142.0010951881
 30
0.0
 40
3.5
 41
0.0
 71
     1
 72
     1
  1
PF 2ヶ
  7
SLDTEXTSTYLE0
 73
     1
 44
1.0
  0
LEADER
  5
2AB
330
1F
100
AcDbEntity
  8
0
  6
Continuous
 62
     7
370
     0
100
AcDbLeader
  3
SLDDIMSTYLE3
 76
     3
 10
96.5688637783
 20
148.3294060679
 30
0.0
 10
80.335873388
 20
137.3974208675
 30
0.0
 10
67.6436107855
 20
137.3974208675
 30
0.0
  0
MTEXT
  5
2AC
330
1F
100
AcDbEntity
  8
0
  6
Continuous
 62
     7
370
     0
100
AcDbMText
 10
137.2427553001
 20
160.3230723533
 30
0.0
 40
3.5
 41
0.0
 71
     1
 72
     1
  1
M5
  7
SLDTEXTSTYLE1
 73
     1
 44
1.0
  0
LEADER
  5
2AD
330
1F
100
AcDbEntity
  8
0
  6
Continuous
 62
     7
370
     0
100
AcDbLeader
  3
SLDDIMSTYLE3
 76
     3
 10
108.8688637783
 20
143.4593881723
 30
0.0
 10
136.662954279
 20
155.8030480657
 30
0.0
 10
144.0797186401
 20
155.8030480657
 30
0.0
  0
MTEXT
  5
2AE
330
1F
100
AcDbEntity
  8
0
  6
Continuous
 62
     7
370
     0
100
AcDbMText
 10
80.2115750023
 20
218.1791848806
 30
0.0
 40
3.5
 41
0.0
 71
     1
 72
     1
  1
BF-6
  7
SLDTEXTSTYLE1
 73
     1
 44
1.0
  0
LEADER
  5
2AF
330
1F
100
AcDbEntity
  8
0
  6
Continuous
 62
     7
370
     0
100
AcDbLeader
  3
SLDDIMSTYLE3
 76
     3
 10
102.5984142401
 20
200.7112257968
 30
0.0
 10
89.7145369285
 20
213.5990621336
 30
0.0
 10
80.1875732708
 20
213.5990621336
 30
0.0
  0
LINE
  5
2B0
330
1F
100
AcDbEntity
  8
0
  6
Continuous
 62
     7
370
    15
100
AcDbLine
 10
115.9688637783
 20
78.428629916
 30
0.0
 11
116.1688637783
 21
78.628629916
 31
0.0
  0
LINE
  5
2B1
330
1F
100
AcDbEntity
  8
0
  6
Continuous
 62
     7
370
    15
100
AcDbLine
 10
116.1688637783
 20
86.228629916
 30
0.0
 11
115.9688637783
 21
86.428629916
 31
0.0
  0
LINE
  5
2B2
330
1F
100
AcDbEntity
  8
0
  6
Continuous
 62
     7
370
    15
100
AcDbLine
 10
96.7688637783
 20
86.428629916
 30
0.0
 11
96.5688637783
 21
86.228629916
 31
0.0
  0
LINE
  5
2B3
330
1F
100
AcDbEntity
  8
0
  6
Continuous
 62
     7
370
    15
100
AcDbLine
 10
96.5688637783
 20
78.628629916
 30
0.0
 11
96.7688637783
 21
78.428629916
 31
0.0
  0
LINE
  5
2B4
330
1F
100
AcDbEntity
  8
0
  6
Continuous
 62
     7
370
    15
100
AcDbLine
 10
112.3688637783
 20
78.428629916
 30
0.0
 11
113.1688637783
 21
78.428629916
 31
0.0
  0
LINE
  5
2B5
330
1F
100
AcDbEntity
  8
0
  6
Continuous
 62
     7
370
    15
100
AcDbLine
 10
113.1688637783
 20
86.428629916
 30
0.0
 11
112.3688637783
 21
86.428629916
 31
0.0
  0
LINE
  5
2B6
330
1F
100
AcDbEntity
  8
0
  6
Continuous
 62
     7
370
    15
100
AcDbLine
 10
100.3688637783
 20
86.428629916
 30
0.0
 11
99.5688637783
 21
86.428629916
 31
0.0
  0
LINE
  5
2B7
330
1F
100
AcDbEntity
  8
0
  6
Continuous
 62
     7
370
    15
100
AcDbLine
 10
99.5688637783
 20
78.428629916
 30
0.0
 11
100.3688637783
 21
78.428629916
 31
0.0
  0
SPLINE
  5
2B8
330
1F
100
AcDbEntity
  8
0
  6
Continuous
 62
     7
370
    15
100
AcDbSpline
210
0.0
220
0.0
230
1.0
 70
    24
 71
     3
 72
    10
 73
     6
 74
     0
 42
0.00000001
 43
0.00000001
 12
1.0
 22
0.0
 32
0.0
 13
1.0
 23
0.0
 33
0.0
 40
0.0
 40
0.0
 40
0.0
 40
0.0
 40
0.0190801893989435
 40
0.5016641388358632
 40
0.9999999999999999
 40
0.9999999999999999
 40
0.9999999999999999
 40
0.9999999999999999
 10
115.9659668818431
 20
86.42862991601483
 30
0.0
 10
115.9669239498109
 20
86.42862991601483
 30
0.0
 10
115.9920875720295
 20
86.42862991601481
 30
0.0
 10
115.904035112032
 20
86.42862991601483
 30
0.0
 10
115.7480889665646
 20
86.42862991601483
 30
0.0
 10
115.6688637782701
 20
86.42862991601483
 30
0.0
  0
SPLINE
  5
2B9
330
1F
100
AcDbEntity
  8
0
  6
Continuous
 62
     7
370
    15
100
AcDbSpline
210
0.0
220
0.0
230
1.0
 70
    24
 71
     3
 72
    10
 73
     6
 74
     0
 42
0.00000001
 43
0.00000001
 12
1.0
 22
0.0
 32
0.0
 13
1.0
 23
0.0
 33
0.0
 40
0.0
 40
0.0
 40
0.0
 40
0.0
 40
0.4836131990259518
 40
0.9808990488781905
 40
1.0
 40
1.0
 40
1.0
 40
1.0
 10
115.6688637782701
 20
78.42862991601481
 30
0.0
 10
115.7461705620372
 20
78.42862991601483
 30
0.0
 10
115.9029697371252
 20
78.42862991601483
 30
0.0
 10
115.9920589776715
 20
78.42862991601481
 30
0.0
 10
115.9669796990351
 20
78.42862991601481
 30
0.0
 10
115.9660520260688
 20
78.42862991601481
 30
0.0
  0
LINE
  5
2BA
330
1F
100
AcDbEntity
  8
0
  6
Continuous
 62
     7
370
    15
100
AcDbLine
 10
115.6688637783
 20
78.428629916
 30
0.0
 11
115.6688637783
 21
79.0620648791
 31
0.0
  0
SPLINE
  5
2BB
330
1F
100
AcDbEntity
  8
0
  6
Continuous
 62
     7
370
    15
100
AcDbSpline
210
0.0
220
0.0
230
1.0
 70
     8
 71
     3
 72
    11
 73
     7
 74
     0
 42
0.00000001
 43
0.00000001
 12
1.0
 22
0.0
 32
0.0
 13
1.0
 23
0.0
 33
0.0
 40
0.0
 40
0.0
 40
0.0
 40
0.0
 40
0.2456323284991131
 40
0.4984917103771318
 40
0.7449965733615059
 40
1.0
 40
1.0
 40
1.0
 40
1.0
 10
115.6688637782701
 20
81.79519495288646
 30
0.0
 10
115.7506046312943
 20
81.57717188427553
 30
0.0
 10
115.9164913363576
 20
81.13471101995194
 30
0.0
 10
115.9942172416626
 20
80.43880839818674
 30
0.0
 10
115.9196217218413
 20
79.7340123172059
 30
0.0
 10
115.7533887545434
 20
79.28856355132996
 30
0.0
 10
115.6688637782701
 20
79.06206487914318
 30
0.0
  0
LINE
  5
2BC
330
1F
100
AcDbEntity
  8
0
  6
Continuous
 62
     7
370
    15
100
AcDbLine
 10
115.6688637783
 20
81.7951949529
 30
0.0
 11
115.6688637783
 21
83.0620648791
 31
0.0
  0
SPLINE
  5
2BD
330
1F
100
AcDbEntity
  8
0
  6
Continuous
 62
     7
370
    15
100
AcDbSpline
210
0.0
220
0.0
230
1.0
 70
     8
 71
     3
 72
    11
 73
     7
 74
     0
 42
0.00000001
 43
0.00000001
 12
1.0
 22
0.0
 32
0.0
 13
1.0
 23
0.0
 33
0.0
 40
0.0
 40
0.0
 40
0.0
 40
0.0
 40
0.2456323284991243
 40
0.4984917103771549
 40
0.7449965733615183
 40
1.0
 40
1.0
 40
1.0
 40
1.0
 10
115.6688637782701
 20
85.79519495288648
 30
0.0
 10
115.7506046312943
 20
85.57717188427551
 30
0.0
 10
115.9164913363576
 20
85.13471101995192
 30
0.0
 10
115.9942172416626
 20
84.4388083981867
 30
0.0
 10
115.9196217218413
 20
83.73401231720585
 30
0.0
 10
115.7533887545434
 20
83.28856355132996
 30
0.0
 10
115.6688637782701
 20
83.06206487914318
 30
0.0
  0
LINE
  5
2BE
330
1F
100
AcDbEntity
  8
0
  6
Continuous
 62
     7
370
    15
100
AcDbLine
 10
115.6688637783
 20
85.7951949529
 30
0.0
 11
115.6688637783
 21
86.428629916
 31
0.0
  0
LINE
  5
2BF
330
1F
100
AcDbEntity
  8
0
  6
Continuous
 62
     7
370
    15
100
AcDbLine
 10
116.1688637783
 20
86.228629916
 30
0.0
 11
116.1688637783
 21
78.628629916
 31
0.0
  0
LINE
  5
2C0
330
1F
100
AcDbEntity
  8
0
  6
Continuous
 62
     7
370
    15
100
AcDbLine
 10
113.1688637783
 20
81.7951949529
 30
0.0
 11
113.1688637783
 21
79.0620648791
 31
0.0
  0
LINE
  5
2C1
330
1F
100
AcDbEntity
  8
0
  6
Continuous
 62
     7
370
    15
100
AcDbLine
 10
115.6688637783
 20
81.7951949529
 30
0.0
 11
113.1688637783
 21
81.7951949529
 31
0.0
  0
LINE
  5
2C2
330
1F
100
AcDbEntity
  8
0
  6
Continuous
 62
     7
370
    15
100
AcDbLine
 10
113.1688637783
 20
79.0620648791
 30
0.0
 11
115.6688637783
 21
79.0620648791
 31
0.0
  0
LINE
  5
2C3
330
1F
100
AcDbEntity
  8
0
  6
Continuous
 62
     7
370
    15
100
AcDbLine
 10
113.1688637783
 20
85.7951949529
 30
0.0
 11
113.1688637783
 21
83.0620648791
 31
0.0
  0
LINE
  5
2C4
330
1F
100
AcDbEntity
  8
0
  6
Continuous
 62
     7
370
    15
100
AcDbLine
 10
115.6688637783
 20
85.7951949529
 30
0.0
 11
113.1688637783
 21
85.7951949529
 31
0.0
  0
LINE
  5
2C5
330
1F
100
AcDbEntity
  8
0
  6
Continuous
 62
     7
370
    15
100
AcDbLine
 10
113.1688637783
 20
83.0620648791
 30
0.0
 11
115.6688637783
 21
83.0620648791
 31
0.0
  0
LINE
  5
2C6
330
1F
100
AcDbEntity
  8
0
  6
Continuous
 62
     7
370
    15
100
AcDbLine
 10
113.1688637783
 20
81.7951949529
 30
0.0
 11
113.1688637783
 21
83.0620648791
 31
0.0
  0
LINE
  5
2C7
330
1F
100
AcDbEntity
  8
0
  6
Continuous
 62
     7
370
    15
100
AcDbLine
 10
115.6688637783
 20
78.428629916
 30
0.0
 11
113.1688637783
 21
78.428629916
 31
0.0
  0
LINE
  5
2C8
330
1F
100
AcDbEntity
  8
0
  6
Continuous
 62
     7
370
    15
100
AcDbLine
 10
113.1688637783
 20
78.428629916
 30
0.0
 11
113.1688637783
 21
79.0620648791
 31
0.0
  0
LINE
  5
2C9
330
1F
100
AcDbEntity
  8
0
  6
Continuous
 62
     7
370
    15
100
AcDbLine
 10
113.1688637783
 20
86.428629916
 30
0.0
 11
115.6688637783
 21
86.428629916
 31
0.0
  0
LINE
  5
2CA
330
1F
100
AcDbEntity
  8
0
  6
Continuous
 62
     7
370
    15
100
AcDbLine
 10
113.1688637783
 20
85.7951949529
 30
0.0
 11
113.1688637783
 21
86.428629916
 31
0.0
  0
SPLINE
  5
2CB
330
1F
100
AcDbEntity
  8
0
  6
Continuous
 62
     7
370
    15
100
AcDbSpline
210
0.0
220
0.0
230
1.0
 70
    24
 71
     3
 72
    10
 73
     6
 74
     0
 42
0.00000001
 43
0.00000001
 12
1.0
 22
0.0
 32
0.0
 13
1.0
 23
0.0
 33
0.0
 40
0.0
 40
0.0
 40
0.0
 40
0.0
 40
0.0190801893989604
 40
0.5016641388358718
 40
0.9999999999999999
 40
0.9999999999999999
 40
0.9999999999999999
 40
0.9999999999999999
 10
96.77176067469708
 20
78.42862991601481
 30
0.0
 10
96.77080360672923
 20
78.42862991601481
 30
0.0
 10
96.74563998451059
 20
78.42862991601481
 30
0.0
 10
96.83369244450812
 20
78.42862991601481
 30
0.0
 10
96.98963858997551
 20
78.42862991601481
 30
0.0
 10
97.06886377827007
 20
78.42862991601481
 30
0.0
  0
SPLINE
  5
2CC
330
1F
100
AcDbEntity
  8
0
  6
Continuous
 62
     7
370
    15
100
AcDbSpline
210
0.0
220
0.0
230
1.0
 70
    24
 71
     3
 72
    10
 73
     6
 74
     0
 42
0.00000001
 43
0.00000001
 12
1.0
 22
0.0
 32
0.0
 13
1.0
 23
0.0
 33
0.0
 40
0.0
 40
0.0
 40
0.0
 40
0.0
 40
0.4836131990259601
 40
0.9808990488782073
 40
1.0
 40
1.0
 40
1.0
 40
1.0
 10
97.06886377827007
 20
86.42862991601483
 30
0.0
 10
96.99155699450297
 20
86.42862991601483
 30
0.0
 10
96.83475781941488
 20
86.42862991601481
 30
0.0
 10
96.74566857886863
 20
86.42862991601481
 30
0.0
 10
96.77074785750503
 20
86.42862991601483
 30
0.0
 10
96.77167553047131
 20
86.42862991601483
 30
0.0
  0
LINE
  5
2CD
330
1F
100
AcDbEntity
  8
0
  6
Continuous
 62
     7
370
    15
100
AcDbLine
 10
97.0688637783
 20
86.428629916
 30
0.0
 11
97.0688637783
 21
85.7951949529
 31
0.0
  0
SPLINE
  5
2CE
330
1F
100
AcDbEntity
  8
0
  6
Continuous
 62
     7
370
    15
100
AcDbSpline
210
0.0
220
0.0
230
1.0
 70
     8
 71
     3
 72
    11
 73
     7
 74
     0
 42
0.00000001
 43
0.00000001
 12
1.0
 22
0.0
 32
0.0
 13
1.0
 23
0.0
 33
0.0
 40
0.0
 40
0.0
 40
0.0
 40
0.0
 40
0.2456323284991131
 40
0.4984917103771318
 40
0.7449965733615059
 40
1.0
 40
1.0
 40
1.0
 40
1.0
 10
97.06886377827007
 20
83.06206487914318
 30
0.0
 10
96.98712292524581
 20
83.28008794775411
 30
0.0
 10
96.82123622018251
 20
83.7225488120777
 30
0.0
 10
96.74351031487758
 20
84.41845143384292
 30
0.0
 10
96.81810583469887
 20
85.12324751482375
 30
0.0
 10
96.98433880199676
 20
85.56869628069968
 30
0.0
 10
97.06886377827007
 20
85.79519495288648
 30
0.0
  0
LINE
  5
2CF
330
1F
100
AcDbEntity
  8
0
  6
Continuous
 62
     7
370
    15
100
AcDbLine
 10
97.0688637783
 20
83.0620648791
 30
0.0
 11
97.0688637783
 21
81.7951949529
 31
0.0
  0
SPLINE
  5
2D0
330
1F
100
AcDbEntity
  8
0
  6
Continuous
 62
     7
370
    15
100
AcDbSpline
210
0.0
220
0.0
230
1.0
 70
     8
 71
     3
 72
    11
 73
     7
 74
     0
 42
0.00000001
 43
0.00000001
 12
1.0
 22
0.0
 32
0.0
 13
1.0
 23
0.0
 33
0.0
 40
0.0
 40
0.0
 40
0.0
 40
0.0
 40
0.2456323284991243
 40
0.4984917103771549
 40
0.7449965733615183
 40
1.0
 40
1.0
 40
1.0
 40
1.0
 10
97.06886377827007
 20
79.06206487914318
 30
0.0
 10
96.98712292524581
 20
79.28008794775411
 30
0.0
 10
96.82123622018251
 20
79.72254881207773
 30
0.0
 10
96.74351031487758
 20
80.41845143384295
 30
0.0
 10
96.81810583469887
 20
81.12324751482377
 30
0.0
 10
96.98433880199676
 20
81.56869628069968
 30
0.0
 10
97.06886377827007
 20
81.79519495288646
 30
0.0
  0
LINE
  5
2D1
330
1F
100
AcDbEntity
  8
0
  6
Continuous
 62
     7
370
    15
100
AcDbLine
 10
97.0688637783
 20
79.0620648791
 30
0.0
 11
97.0688637783
 21
78.428629916
 31
0.0
  0
LINE
  5
2D2
330
1F
100
AcDbEntity
  8
0
  6
Continuous
 62
     7
370
    15
100
AcDbLine
 10
96.5688637783
 20
78.628629916
 30
0.0
 11
96.5688637783
 21
86.228629916
 31
0.0
  0
LINE
  5
2D3
330
1F
100
AcDbEntity
  8
0
  6
Continuous
 62
     7
370
    15
100
AcDbLine
 10
99.5688637783
 20
83.0620648791
 30
0.0
 11
99.5688637783
 21
85.7951949529
 31
0.0
  0
LINE
  5
2D4
330
1F
100
AcDbEntity
  8
0
  6
Continuous
 62
     7
370
    15
100
AcDbLine
 10
97.0688637783
 20
83.0620648791
 30
0.0
 11
99.5688637783
 21
83.0620648791
 31
0.0
  0
LINE
  5
2D5
330
1F
100
AcDbEntity
  8
0
  6
Continuous
 62
     7
370
    15
100
AcDbLine
 10
99.5688637783
 20
85.7951949529
 30
0.0
 11
97.0688637783
 21
85.7951949529
 31
0.0
  0
LINE
  5
2D6
330
1F
100
AcDbEntity
  8
0
  6
Continuous
 62
     7
370
    15
100
AcDbLine
 10
99.5688637783
 20
79.0620648791
 30
0.0
 11
99.5688637783
 21
81.7951949529
 31
0.0
  0
LINE
  5
2D7
330
1F
100
AcDbEntity
  8
0
  6
Continuous
 62
     7
370
    15
100
AcDbLine
 10
97.0688637783
 20
79.0620648791
 30
0.0
 11
99.5688637783
 21
79.0620648791
 31
0.0
  0
LINE
  5
2D8
330
1F
100
AcDbEntity
  8
0
  6
Continuous
 62
     7
370
    15
100
AcDbLine
 10
99.5688637783
 20
81.7951949529
 30
0.0
 11
97.0688637783
 21
81.7951949529
 31
0.0
  0
LINE
  5
2D9
330
1F
100
AcDbEntity
  8
0
  6
Continuous
 62
     7
370
    15
100
AcDbLine
 10
99.5688637783
 20
83.0620648791
 30
0.0
 11
99.5688637783
 21
81.7951949529
 31
0.0
  0
LINE
  5
2DA
330
1F
100
AcDbEntity
  8
0
  6
Continuous
 62
     7
370
    15
100
AcDbLine
 10
99.5688637783
 20
78.428629916
 30
0.0
 11
97.0688637783
 21
78.428629916
 31
0.0
  0
LINE
  5
2DB
330
1F
100
AcDbEntity
  8
0
  6
Continuous
 62
     7
370
    15
100
AcDbLine
 10
99.5688637783
 20
79.0620648791
 30
0.0
 11
99.5688637783
 21
78.428629916
 31
0.0
  0
LINE
  5
2DC
330
1F
100
AcDbEntity
  8
0
  6
Continuous
 62
     7
370
    15
100
AcDbLine
 10
97.0688637783
 20
86.428629916
 30
0.0
 11
99.5688637783
 21
86.428629916
 31
0.0
  0
LINE
  5
2DD
330
1F
100
AcDbEntity
  8
0
  6
Continuous
 62
     7
370
    15
100
AcDbLine
 10
99.5688637783
 20
86.428629916
 30
0.0
 11
99.5688637783
 21
85.7951949529
 31
0.0
  0
LINE
  5
2DE
330
1F
100
AcDbEntity
  8
0
  6
Continuous
 62
     7
370
    15
100
AcDbLine
 10
112.3688637783
 20
86.428629916
 30
0.0
 11
112.3688637783
 21
85.9578446541
 31
0.0
  0
LINE
  5
2DF
330
1F
100
AcDbEntity
  8
0
  6
Continuous
 62
     7
370
    15
100
AcDbLine
 10
112.3688637783
 20
78.9016345557
 30
0.0
 11
112.3688637783
 21
78.428629916
 31
0.0
  0
LINE
  5
2E0
330
1F
100
AcDbEntity
  8
0
  6
Continuous
 62
     7
370
    15
100
AcDbLine
 10
100.3688637783
 20
78.428629916
 30
0.0
 11
100.3688637783
 21
78.8994151779
 31
0.0
  0
LINE
  5
2E1
330
1F
100
AcDbEntity
  8
0
  6
Continuous
 62
     7
370
    15
100
AcDbLine
 10
100.3688637783
 20
85.9556252764
 30
0.0
 11
100.3688637783
 21
86.428629916
 31
0.0
  0
CIRCLE
  5
2E2
330
1F
100
AcDbEntity
  8
0
  6
Continuous
 62
     7
370
    15
100
AcDbCircle
 10
106.3688637783
 20
82.428629916
 30
0.0
 40
5.200000000000008
  0
CIRCLE
  5
2E3
330
1F
100
AcDbEntity
  8
0
  6
Continuous
 62
     7
370
    15
100
AcDbCircle
 10
106.3688637783
 20
82.428629916
 30
0.0
 40
5.500000000000015
  0
CIRCLE
  5
2E4
330
1F
100
AcDbEntity
  8
0
  6
Continuous
 62
     7
370
    15
100
AcDbCircle
 10
106.3688637783
 20
82.428629916
 30
0.0
 40
0.900000000000011
  0
ARC
  5
2E5
330
1F
100
AcDbEntity
  8
0
  6
Continuous
 62
     7
370
    15
100
AcDbCircle
 10
106.3688637783
 20
82.428629916
 30
0.0
 40
5.999999999999991
100
AcDbArc
 50
60.0
 51
120.0
  0
ARC
  5
2E6
330
1F
100
AcDbEntity
  8
0
  6
Continuous
 62
     7
370
    15
100
AcDbCircle
 10
106.3688637783
 20
82.428629916
 30
0.0
 40
6.0
100
AcDbArc
 50
0.0
 51
60.0
  0
ARC
  5
2E7
330
1F
100
AcDbEntity
  8
0
  6
Continuous
 62
     7
370
    15
100
AcDbCircle
 10
106.3688637783
 20
82.428629916
 30
0.0
 40
6.0
100
AcDbArc
 50
300.0
 51
0.0
  0
ARC
  5
2E8
330
1F
100
AcDbEntity
  8
0
  6
Continuous
 62
     7
370
    15
100
AcDbCircle
 10
106.3688637783
 20
82.428629916
 30
0.0
 40
6.000000000000004
100
AcDbArc
 50
240.0
 51
300.0
  0
ARC
  5
2E9
330
1F
100
AcDbEntity
  8
0
  6
Continuous
 62
     7
370
    15
100
AcDbCircle
 10
106.3688637783
 20
82.428629916
 30
0.0
 40
6.000000000000004
100
AcDbArc
 50
180.0
 51
240.0
  0
ARC
  5
2EA
330
1F
100
AcDbEntity
  8
0
  6
Continuous
 62
     7
370
    15
100
AcDbCircle
 10
106.3688637783
 20
82.428629916
 30
0.0
 40
6.0
100
AcDbArc
 50
120.0
 51
180.0
  0
SPLINE
  5
2EB
330
1F
100
AcDbEntity
  8
0
  6
Continuous
 62
     7
370
    15
100
AcDbSpline
210
0.0
220
0.0
230
1.0
 70
    24
 71
     3
 72
    12
 73
     8
 74
     0
 42
0.00000001
 43
0.00000001
 12
1.0
 22
0.0
 32
0.0
 13
1.0
 23
0.0
 33
0.0
 40
0.0
 40
0.0
 40
0.0
 40
0.0
 40
0.2161617805974025
 40
0.4322246319520708
 40
0.6544545557916435
 40
0.8796836492889363
 40
1.0
 40
1.0
 40
1.0
 40
1.0
 10
106.3688637782701
 20
75.50042668573931
 30
0.0
 10
106.165128223749
 20
75.61805346298556
 30
0.0
 10
105.757750356926
 20
75.85325318405772
 30
0.0
 10
105.1153920775263
 20
76.22411890958531
 30
0.0
 10
104.444602927358
 20
76.61139920600446
 30
0.0
 10
103.8554947909829
 20
76.95152094712243
 30
0.0
 10
103.4945441157242
 20
77.15991591664721
 30
0.0
 10
103.3688637782701
 20
77.23247749330817
 30
0.0
  0
SPLINE
  5
2EC
330
1F
100
AcDbEntity
  8
0
  6
Continuous
 62
     7
370
    15
100
AcDbSpline
210
0.0
220
0.0
230
1.0
 70
    24
 71
     3
 72
    13
 73
     9
 74
     0
 42
0.00000001
 43
0.00000001
 12
1.0
 22
0.0
 32
0.0
 13
1.0
 23
0.0
 33
0.0
 40
0.0
 40
0.0
 40
0.0
 40
0.0
 40
0.034801819718483
 40
0.2064834536423582
 40
0.3782049938553665
 40
0.5558792066493838
 40
0.7336149875916516
 40
1.0
 40
1.0
 40
1.0
 40
1.0
 10
109.3688637782701
 20
77.2324774933082
 30
0.0
 10
109.3325126751927
 20
77.21149017416116
 30
0.0
 10
109.116837133861
 20
77.08696984231563
 30
0.0
 10
108.7220959194195
 20
76.85906589589764
 30
0.0
 10
108.1849878520395
 20
76.54896640861188
 30
0.0
 10
107.6529897005243
 20
76.24181713262617
 30
0.0
 10
107.039900848033
 20
75.88785011860314
 30
0.0
 10
106.6204510513175
 20
75.64568066555792
 30
0.0
 10
106.3688637782701
 20
75.50042668573931
 30
0.0
  0
SPLINE
  5
2ED
330
1F
100
AcDbEntity
  8
0
  6
Continuous
 62
     7
370
    15
100
AcDbSpline
210
0.0
220
0.0
230
1.0
 70
    24
 71
     3
 72
    12
 73
     8
 74
     0
 42
0.00000001
 43
0.00000001
 12
1.0
 22
0.0
 32
0.0
 13
1.0
 23
0.0
 33
0.0
 40
0.0
 40
0.0
 40
0.0
 40
0.0
 40
0.2161617805974007
 40
0.432224631952067
 40
0.6544545557916376
 40
0.8796836492889281
 40
1.0
 40
1.0
 40
1.0
 40
1.0
 10
100.3688637782701
 20
78.96452830087706
 30
0.0
 10
100.3688637782701
 20
79.19978185536957
 30
0.0
 10
100.3688637782701
 20
79.67018129751388
 30
0.0
 10
100.3688637782701
 20
80.41191274856908
 30
0.0
 10
100.3688637782701
 20
81.18647334140736
 30
0.0
 10
100.3688637782701
 20
81.8667168236433
 30
0.0
 10
100.3688637782701
 20
82.2835067626929
 30
0.0
 10
100.3688637782701
 20
82.42862991601483
 30
0.0
  0
SPLINE
  5
2EE
330
1F
100
AcDbEntity
  8
0
  6
Continuous
 62
     7
370
    15
100
AcDbSpline
210
0.0
220
0.0
230
1.0
 70
    24
 71
     3
 72
    11
 73
     7
 74
     0
 42
0.00000001
 43
0.00000001
 12
1.0
 22
0.0
 32
0.0
 13
1.0
 23
0.0
 33
0.0
 40
0.0
 40
0.0
 40
0.0
 40
0.0
 40
0.2495746411356407
 40
0.5043573698238738
 40
0.7510435045342287
 40
1.0
 40
1.0
 40
1.0
 40
1.0
 10
103.3688637782701
 20
77.23247749330817
 30
0.0
 10
103.107997748349
 20
77.38308856590554
 30
0.0
 10
102.5808219738845
 20
77.6874536412029
 30
0.0
 10
101.8134894341548
 20
78.13047328957376
 30
0.0
 10
101.0715313183396
 20
78.55884300746712
 30
0.0
 10
100.6038004606123
 20
78.82888754408424
 30
0.0
 10
100.3688637782701
 20
78.96452830087706
 30
0.0
  0
SPLINE
  5
2EF
330
1F
100
AcDbEntity
  8
0
  6
Continuous
 62
     7
370
    15
100
AcDbSpline
210
0.0
220
0.0
230
1.0
 70
    24
 71
     3
 72
    10
 73
     6
 74
     0
 42
0.00000001
 43
0.00000001
 12
1.0
 22
0.0
 32
0.0
 13
1.0
 23
0.0
 33
0.0
 40
0.0
 40
0.0
 40
0.0
 40
0.0
 40
0.3676773798596567
 40
0.6795823032259287
 40
1.0
 40
1.0
 40
1.0
 40
1.0
 10
112.3688637782701
 20
78.96452830087706
 30
0.0
 10
112.0202390209425
 20
78.7632497033878
 30
0.0
 10
111.375871897687
 20
78.39122417131931
 30
0.0
 10
110.3641782131533
 20
77.8071225502163
 30
0.0
 10
109.7035996481912
 20
77.42573733791455
 30
0.0
 10
109.3688637782701
 20
77.2324774933082
 30
0.0
  0
SPLINE
  5
2F0
330
1F
100
AcDbEntity
  8
0
  6
Continuous
 62
     7
370
    15
100
AcDbSpline
210
0.0
220
0.0
230
1.0
 70
    24
 71
     3
 72
    11
 73
     7
 74
     0
 42
0.00000001
 43
0.00000001
 12
1.0
 22
0.0
 32
0.0
 13
1.0
 23
0.0
 33
0.0
 40
0.0
 40
0.0
 40
0.0
 40
0.0
 40
0.2495746411356405
 40
0.5043573698238735
 40
0.7510435045342287
 40
1.0
 40
1.0
 40
1.0
 40
1.0
 10
112.3688637782701
 20
82.42862991601488
 30
0.0
 10
112.3688637782701
 20
82.12740777082013
 30
0.0
 10
112.3688637782701
 20
81.5186776202254
 30
0.0
 10
112.3688637782701
 20
80.63263832348366
 30
0.0
 10
112.3688637782701
 20
79.77589888769695
 30
0.0
 10
112.3688637782701
 20
79.23580981446271
 30
0.0
 10
112.3688637782701
 20
78.96452830087706
 30
0.0
  0
SPLINE
  5
2F1
330
1F
100
AcDbEntity
  8
0
  6
Continuous
 62
     7
370
    15
100
AcDbSpline
210
0.0
220
0.0
230
1.0
 70
    24
 71
     3
 72
    11
 73
     7
 74
     0
 42
0.00000001
 43
0.00000001
 12
1.0
 22
0.0
 32
0.0
 13
1.0
 23
0.0
 33
0.0
 40
0.0
 40
0.0
 40
0.0
 40
0.0
 40
0.2495746411356408
 40
0.5043573698238739
 40
0.751043504534229
 40
1.0
 40
1.0
 40
1.0
 40
1.0
 10
109.36886377827
 20
87.62478233872147
 30
0.0
 10
109.6297298081911
 20
87.47417126612412
 30
0.0
 10
110.1569055826557
 20
87.16980619082675
 30
0.0
 10
110.9242381223853
 20
86.72678654245587
 30
0.0
 10
111.6661962382006
 20
86.29841682456252
 30
0.0
 10
112.1339270959278
 20
86.02837228794542
 30
0.0
 10
112.3688637782701
 20
85.89273153115258
 30
0.0
  0
SPLINE
  5
2F2
330
1F
100
AcDbEntity
  8
0
  6
Continuous
 62
     7
370
    15
100
AcDbSpline
210
0.0
220
0.0
230
1.0
 70
    24
 71
     3
 72
    12
 73
     8
 74
     0
 42
0.00000001
 43
0.00000001
 12
1.0
 22
0.0
 32
0.0
 13
1.0
 23
0.0
 33
0.0
 40
0.0
 40
0.0
 40
0.0
 40
0.0
 40
0.2161617805974027
 40
0.4322246319520708
 40
0.6544545557916432
 40
0.8796836492889356
 40
1.0
 40
1.0
 40
1.0
 40
1.0
 10
112.3688637782701
 20
85.89273153115258
 30
0.0
 10
112.3688637782701
 20
85.65747797666006
 30
0.0
 10
112.3688637782701
 20
85.18707853451576
 30
0.0
 10
112.3688637782701
 20
84.44534708346055
 30
0.0
 10
112.3688637782701
 20
83.67078649062228
 30
0.0
 10
112.3688637782701
 20
82.99054300838634
 30
0.0
 10
112.3688637782701
 20
82.57375306933677
 30
0.0
 10
112.3688637782701
 20
82.42862991601488
 30
0.0
  0
SPLINE
  5
2F3
330
1F
100
AcDbEntity
  8
0
  6
Continuous
 62
     7
370
    15
100
AcDbSpline
210
0.0
220
0.0
230
1.0
 70
    24
 71
     3
 72
    10
 73
     6
 74
     0
 42
0.00000001
 43
0.00000001
 12
1.0
 22
0.0
 32
0.0
 13
1.0
 23
0.0
 33
0.0
 40
0.0
 40
0.0
 40
0.0
 40
0.0
 40
0.3113230187034515
 40
0.6323256943808705
 40
1.0
 40
1.0
 40
1.0
 40
1.0
 10
103.3688637782701
 20
87.62478233872145
 30
0.0
 10
103.6940800413421
 20
87.81254603575097
 30
0.0
 10
104.354624193289
 20
88.19391137968913
 30
0.0
 10
105.3672626577509
 20
88.77855846973796
 30
0.0
 10
106.0202458506397
 20
89.1555584919286
 30
0.0
 10
106.3688637782701
 20
89.35683314629034
 30
0.0
  0
SPLINE
  5
2F4
330
1F
100
AcDbEntity
  8
0
  6
Continuous
 62
     7
370
    15
100
AcDbSpline
210
0.0
220
0.0
230
1.0
 70
    24
 71
     3
 72
    12
 73
     8
 74
     0
 42
0.00000001
 43
0.00000001
 12
1.0
 22
0.0
 32
0.0
 13
1.0
 23
0.0
 33
0.0
 40
0.0
 40
0.0
 40
0.0
 40
0.0
 40
0.2161617805974026
 40
0.4322246319520707
 40
0.6544545557916429
 40
0.8796836492889362
 40
1.0
 40
1.0
 40
1.0
 40
1.0
 10
106.3688637782701
 20
89.35683314629034
 30
0.0
 10
106.5725993327912
 20
89.23920636904408
 30
0.0
 10
106.9799771996142
 20
89.00400664797193
 30
0.0
 10
107.6223354790139
 20
88.63314092244433
 30
0.0
 10
108.2931246291822
 20
88.24586062602519
 30
0.0
 10
108.8822327655573
 20
87.90573888490721
 30
0.0
 10
109.243183440816
 20
87.69734391538243
 30
0.0
 10
109.36886377827
 20
87.62478233872147
 30
0.0
  0
SPLINE
  5
2F5
330
1F
100
AcDbEntity
  8
0
  6
Continuous
 62
     7
370
    15
100
AcDbSpline
210
0.0
220
0.0
230
1.0
 70
    24
 71
     3
 72
    12
 73
     8
 74
     0
 42
0.00000001
 43
0.00000001
 12
1.0
 22
0.0
 32
0.0
 13
1.0
 23
0.0
 33
0.0
 40
0.0
 40
0.0
 40
0.0
 40
0.0
 40
0.2664536042524874
 40
0.6104499115493719
 40
0.7878426659697738
 40
0.9651892191129731
 40
1.0
 40
1.0
 40
1.0
 40
1.0
 10
100.3688637782701
 20
85.89273153115258
 30
0.0
 10
100.6204759309708
 20
86.03799987524573
 30
0.0
 10
101.1969238149911
 20
86.37081221625863
 30
0.0
 10
101.985347849999
 20
86.82600904510603
 30
0.0
 10
102.7044184513458
 20
87.24116465035992
 30
0.0
 10
103.110970759583
 20
87.47588773496034
 30
0.0
 10
103.3325131045452
 20
87.60379526746117
 30
0.0
 10
103.3688637782701
 20
87.62478233872145
 30
0.0
  0
SPLINE
  5
2F6
330
1F
100
AcDbEntity
  8
0
  6
Continuous
 62
     7
370
    15
100
AcDbSpline
210
0.0
220
0.0
230
1.0
 70
    24
 71
     3
 72
    11
 73
     7
 74
     0
 42
0.00000001
 43
0.00000001
 12
1.0
 22
0.0
 32
0.0
 13
1.0
 23
0.0
 33
0.0
 40
0.0
 40
0.0
 40
0.0
 40
0.0
 40
0.2495746411356255
 40
0.5043573698238581
 40
0.7510435045342208
 40
1.0
 40
1.0
 40
1.0
 40
1.0
 10
100.3688637782701
 20
82.42862991601483
 30
0.0
 10
100.3688637782701
 20
82.72985206120956
 30
0.0
 10
100.3688637782701
 20
83.3385822118043
 30
0.0
 10
100.3688637782701
 20
84.22462150854598
 30
0.0
 10
100.3688637782701
 20
85.08136094433269
 30
0.0
 10
100.3688637782701
 20
85.62145001756693
 30
0.0
 10
100.3688637782701
 20
85.89273153115258
 30
0.0
  0
ARC
  5
2F7
330
1F
100
AcDbEntity
  8
0
  6
Continuous
 62
     7
370
    15
100
AcDbCircle
 10
106.3688637783
 20
82.766738466
 30
0.0
 40
5.999999999999999
100
AcDbArc
 50
102.3628300624
 51
137.3897825585
  0
ARC
  5
2F8
330
1F
100
AcDbEntity
  8
0
  6
Continuous
 62
     7
370
    15
100
AcDbCircle
 10
106.3688637783
 20
82.766738466
 30
0.0
 40
6.000000000000004
100
AcDbArc
 50
42.5743345237
 51
77.7158529453
  0
ARC
  5
2F9
330
1F
100
AcDbEntity
  8
0
  6
Continuous
 62
     7
370
    15
100
AcDbCircle
 10
106.3688637783
 20
82.766738466
 30
0.0
 40
6.999999999999996
100
AcDbArc
 50
31.0027191339
 51
148.9972808661
  0
ARC
  5
2FA
330
1F
100
AcDbEntity
  8
0
  6
Continuous
 62
     7
370
    15
100
AcDbCircle
 10
106.3688637783
 20
82.766738466
 30
0.0
 40
7.000000000000002
100
AcDbArc
 50
274.5117432964
 51
325.4952608398
  0
ARC
  5
2FB
330
1F
100
AcDbEntity
  8
0
  6
Continuous
 62
     7
370
    15
100
AcDbCircle
 10
106.3688637783
 20
82.766738466
 30
0.0
 40
7.000000000000017
100
AcDbArc
 50
214.3617347426
 51
265.5450031694
  0
DIMENSION
  5
2FC
330
1F
100
AcDbEntity
  8
0
  6
Continuous
 62
     7
370
     0
100
AcDbDimension
  2
_D_9
 10
126.1688637783
 20
75.766738466
 30
0.0
 11
126.1688637783
 21
82.766738466
 31
0.0
 70
   160
  1
14
 71
     2
 42
-1.0
  3
SLDDIMSTYLE2
100
AcDbAlignedDimension
 13
106.3688637783
 23
89.766738466
 33
0.0
 14
106.3688637783
 24
75.766738466
 34
0.0
 50
90.0
100
AcDbRotatedDimension
  0
DIMENSION
  5
306
330
1F
100
AcDbEntity
  8
0
  6
Continuous
 62
     7
370
     0
100
AcDbDimension
  2
_D_10
 10
116.1688637783
 20
66.4541385869
 30
0.0
 11
106.3688637783
 21
66.4541385869
 31
0.0
 70
   160
  1
<>
 71
     2
 42
-1.0
  3
SLDDIMSTYLE4
100
AcDbAlignedDimension
 13
96.5688637783
 23
78.628629916
 33
0.0
 14
116.1688637783
 24
78.628629916
 34
0.0
100
AcDbRotatedDimension
  0
INSERT
  5
31B
330
1F
100
AcDbEntity
  8
0
  6
Continuous
 62
     7
370
     0
100
AcDbBlockReference
  2
SW_NOTE_0
 10
115.123094959
 20
101.1723329426
 30
0.0
  0
LEADER
  5
31C
330
1F
100
AcDbEntity
  8
0
  6
Continuous
 62
     7
370
     0
100
AcDbLeader
  3
SLDDIMSTYLE3
 76
     2
 10
106.8813014419
 20
83.1684999323
 30
0.0
 10
115.123094959
 20
101.1723329426
 30
0.0
  0
ENDSEC
  0
SECTION
  2
OBJECTS
  0
DICTIONARY
  5
C
330
0
100
AcDbDictionary
281
     1
  3
ACAD_GROUP
350
D
  3
ACAD_LAYOUT
350
1A
  3
ACAD_MLINESTYLE
350
17
  3
ACAD_PLOTSETTINGS
350
19
  3
ACAD_PLOTSTYLENAME
350
E
  0
DICTIONARY
  5
D
102
{ACAD_REACTORS
330
C
102
}
330
C
100
AcDbDictionary
281
     1
  0
DICTIONARY
  5
1A
102
{ACAD_REACTORS
330
C
102
}
330
C
100
AcDbDictionary
281
     1
  3
Layout1
350
1E
  3
Layout2
350
26
  3
Model
350
22
  0
DICTIONARY
  5
17
102
{ACAD_REACTORS
330
C
102
}
330
C
100
AcDbDictionary
281
     1
  3
Standard
350
18
  0
DICTIONARY
  5
19
102
{ACAD_REACTORS
330
C
102
}
330
C
100
AcDbDictionary
281
     1
  0
ACDBDICTIONARYWDFLT
  5
E
102
{ACAD_REACTORS
330
C
102
}
330
C
100
AcDbDictionary
281
     1
  3
Normal
350
F
100
AcDbDictionaryWithDefault
340
F
  0
LAYOUT
  5
1E
102
{ACAD_REACTORS
330
1A
102
}
330
1A
100
AcDbPlotSettings
  1

  2
none_device
  4

  6

 40
0.0
 41
0.0
 42
0.0
 43
0.0
 44
0.0
 45
0.0
 46
0.0
 47
0.0
 48
0.0
 49
0.0
140
0.0
141
0.0
142
1.0
143
1.0
 70
   688
 72
     0
 73
     0
 74
     5
  7

 75
    16
147
1.0
148
0.0
149
0.0
100
AcDbLayout
  1
Layout1
 70
     1
 71
     1
 10
0.0
 20
0.0
 11
420.0
 21
297.0
 12
0.0
 22
0.0
 32
0.0
 14
1.0000000000E+20
 24
1.0000000000E+20
 34
1.0000000000E+20
 15
-1.0000000000E+20
 25
-1.0000000000E+20
 35
-1.0000000000E+20
146
0.0
 13
0.0
 23
0.0
 33
0.0
 16
1.0
 26
0.0
 36
0.0
 17
0.0
 27
1.0
 37
0.0
 76
     0
330
1B
  0
LAYOUT
  5
26
102
{ACAD_REACTORS
330
1A
102
}
330
1A
100
AcDbPlotSettings
  1

  2
none_device
  4

  6

 40
0.0
 41
0.0
 42
0.0
 43
0.0
 44
0.0
 45
0.0
 46
0.0
 47
0.0
 48
0.0
 49
0.0
140
0.0
141
0.0
142
1.0
143
1.0
 70
   688
 72
     0
 73
     0
 74
     5
  7

 75
    16
147
1.0
148
0.0
149
0.0
100
AcDbLayout
  1
Layout2
 70
     1
 71
     2
 10
0.0
 20
0.0
 11
0.0
 21
0.0
 12
0.0
 22
0.0
 32
0.0
 14
0.0
 24
0.0
 34
0.0
 15
0.0
 25
0.0
 35
0.0
146
0.0
 13
0.0
 23
0.0
 33
0.0
 16
1.0
 26
0.0
 36
0.0
 17
0.0
 27
1.0
 37
0.0
 76
     0
330
23
  0
LAYOUT
  5
22
102
{ACAD_REACTORS
330
1A
102
}
330
1A
100
AcDbPlotSettings
  1

  2
none_device
  4

  6

 40
0.0
 41
0.0
 42
0.0
 43
0.0
 44
0.0
 45
0.0
 46
0.0
 47
0.0
 48
0.0
 49
0.0
140
0.0
141
0.0
142
1.0
143
1.0
 70
  1712
 72
     0
 73
     0
 74
     0
  7

 75
     0
147
1.0
148
0.0
149
0.0
100
AcDbLayout
  1
Model
 70
     1
 71
     0
 10
0.0
 20
0.0
 11
210.0
 21
297.0
 12
0.0
 22
0.0
 32
0.0
 14
0.0
 24
0.0
 34
0.0
 15
210.0
 25
297.0
 35
0.0
146
0.0
 13
0.0
 23
0.0
 33
0.0
 16
1.0
 26
0.0
 36
0.0
 17
0.0
 27
1.0
 37
0.0
 76
     0
330
1F
331
29
  0
MLINESTYLE
  5
18
102
{ACAD_REACTORS
330
17
102
}
330
17
100
AcDbMlineStyle
  2
Standard
 70
     0
  3

 62
   256
 51
90.0
 52
90.0
 71
     2
 49
0.5
 62
   256
  6
BYLAYER
 49
-0.5
 62
   256
  6
BYLAYER
  0
ACDBPLACEHOLDER
  5
F
102
{ACAD_REACTORS
330
E
102
}
330
E
  0
ENDSEC
  0
EOF
