  0
SECTION
  2
HEADER
  9
$ACADVER
  1
AC1015
  9
$ACADMAINTVER
 70
     6
  9
$DWGCODEPAGE
  3
DOS932
  9
$INSBASE
 10
0.0
 20
0.0
 30
0.0
  9
$EXTMIN
 10
0.0
 20
0.0
 30
0.0
  9
$EXTMAX
 10
210.0
 20
297.0
 30
0.0
  9
$LIMMIN
 10
0.0
 20
0.0
  9
$LIMMAX
 10
210.0
 20
297.0
  9
$ORTHOMODE
 70
     0
  9
$REGENMODE
 70
     1
  9
$FILLMODE
 70
     1
  9
$QTEXTMODE
 70
     0
  9
$MIRRTEXT
 70
     1
  9
$LTSCALE
 40
1.0
  9
$ATTMODE
 70
     1
  9
$TEXTSIZE
 40
3.5
  9
$TRACEWID
 40
1.0
  9
$TEXTSTYLE
  7
Standard
  9
$CLAYER
  8
0
  9
$CELTYPE
  6
ByLayer
  9
$CECOLOR
 62
   256
  9
$CELTSCALE
 40
1.0
  9
$DISPSILH
 70
     0
  9
$DIMSCALE
 40
1.0
  9
$DIMASZ
 40
3.0
  9
$DIMEXO
 40
1.0
  9
$DIMDLI
 40
3.75
  9
$DIMRND
 40
0.0
  9
$DIMDLE
 40
0.0
  9
$DIMEXE
 40
1.0
  9
$DIMTP
 40
0.0
  9
$DIMTM
 40
0.0
  9
$DIMTXT
 40
3.5
  9
$DIMCEN
 40
2.5
  9
$DIMTSZ
 40
0.0
  9
$DIMTOL
 70
     0
  9
$DIMLIM
 70
     0
  9
$DIMTIH
 70
     1
  9
$DIMTOH
 70
     1
  9
$DIMSE1
 70
     0
  9
$DIMSE2
 70
     0
  9
$DIMTAD
 70
     1
  9
$DIMZIN
 70
     0
  9
$DIMBLK
  1

  9
$DIMASO
 70
     1
  9
$DIMSHO
 70
     1
  9
$DIMPOST
  1

  9
$DIMAPOST
  1

  9
$DIMALT
 70
     0
  9
$DIMALTD
 70
     3
  9
$DIMALTF
 40
0.0393700787
  9
$DIMLFAC
 40
1.0
  9
$DIMTOFL
 70
     1
  9
$DIMTVP
 40
0.0
  9
$DIMTIX
 70
     0
  9
$DIMSOXD
 70
     0
  9
$DIMSAH
 70
     0
  9
$DIMBLK1
  1

  9
$DIMBLK2
  1

  9
$DIMSTYLE
  2
ISO-25
  9
$DIMCLRD
 70
     0
  9
$DIMCLRE
 70
     0
  9
$DIMCLRT
 70
     0
  9
$DIMTFAC
 40
1.0
  9
$DIMGAP
 40
1.524
  9
$DIMJUST
 70
     0
  9
$DIMSD1
 70
     0
  9
$DIMSD2
 70
     0
  9
$DIMTOLJ
 70
     0
  9
$DIMTZIN
 70
     0
  9
$DIMALTZ
 70
     0
  9
$DIMALTTZ
 70
     0
  9
$DIMUPT
 70
     0
  9
$DIMDEC
 70
     1
  9
$DIMTDEC
 70
     3
  9
$DIMALTU
 70
     2
  9
$DIMALTTD
 70
     3
  9
$DIMTXSTY
  7
Standard
  9
$DIMAUNIT
 70
     0
  9
$DIMADEC
 70
     2
  9
$DIMALTRND
 40
0.0
  9
$DIMAZIN
 70
     0
  9
$DIMDSEP
 70
    44
  9
$DIMATFIT
 70
     3
  9
$DIMFRAC
 70
     0
  9
$DIMLDRBLK
  1

  9
$DIMLUNIT
 70
     2
  9
$DIMLWD
 70
    -2
  9
$DIMLWE
 70
    -2
  9
$DIMTMOVE
 70
     0
  9
$LUNITS
 70
     2
  9
$LUPREC
 70
     1
  9
$SKETCHINC
 40
1.0
  9
$FILLETRAD
 40
10.0
  9
$AUNITS
 70
     0
  9
$AUPREC
 70
     2
  9
$MENU
  1
.
  9
$ELEVATION
 40
0.0
  9
$PELEVATION
 40
0.0
  9
$THICKNESS
 40
0.0
  9
$LIMCHECK
 70
     0
  9
$CHAMFERA
 40
0.0
  9
$CHAMFERB
 40
0.0
  9
$CHAMFERC
 40
0.0
  9
$CHAMFERD
 40
0.0
  9
$SKPOLY
 70
     0
  9
$TDCREATE
 40
2458675.800737037
  9
$TDUCREATE
 40
2458675.425737037
  9
$TDUPDATE
 40
2458675.80073993
  9
$TDUUPDATE
 40
2458675.42573993
  9
$TDINDWG
 40
0.0000000116
  9
$TDUSRTIMER
 40
0.0000000116
  9
$USRTIMER
 70
     1
  9
$ANGBASE
 50
0.0
  9
$ANGDIR
 70
     0
  9
$PDMODE
 70
     0
  9
$PDSIZE
 40
-1.0
  9
$PLINEWID
 40
0.0
  9
$SPLFRAME
 70
     0
  9
$SPLINETYPE
 70
     6
  9
$SPLINESEGS
 70
     8
  9
$HANDSEED
  5
1DA
  9
$SURFTAB1
 70
     6
  9
$SURFTAB2
 70
     6
  9
$SURFTYPE
 70
     6
  9
$SURFU
 70
     6
  9
$SURFV
 70
     6
  9
$UCSBASE
  2

  9
$UCSNAME
  2

  9
$UCSORG
 10
0.0
 20
0.0
 30
0.0
  9
$UCSXDIR
 10
1.0
 20
0.0
 30
0.0
  9
$UCSYDIR
 10
0.0
 20
1.0
 30
0.0
  9
$UCSORTHOREF
  2

  9
$UCSORTHOVIEW
 70
     0
  9
$UCSORGTOP
 10
0.0
 20
0.0
 30
0.0
  9
$UCSORGBOTTOM
 10
0.0
 20
0.0
 30
0.0
  9
$UCSORGLEFT
 10
0.0
 20
0.0
 30
0.0
  9
$UCSORGRIGHT
 10
0.0
 20
0.0
 30
0.0
  9
$UCSORGFRONT
 10
0.0
 20
0.0
 30
0.0
  9
$UCSORGBACK
 10
0.0
 20
0.0
 30
0.0
  9
$PUCSBASE
  2

  9
$PUCSNAME
  2

  9
$PUCSORG
 10
0.0
 20
0.0
 30
0.0
  9
$PUCSXDIR
 10
1.0
 20
0.0
 30
0.0
  9
$PUCSYDIR
 10
0.0
 20
1.0
 30
0.0
  9
$PUCSORTHOREF
  2

  9
$PUCSORTHOVIEW
 70
     0
  9
$PUCSORGTOP
 10
0.0
 20
0.0
 30
0.0
  9
$PUCSORGBOTTOM
 10
0.0
 20
0.0
 30
0.0
  9
$PUCSORGLEFT
 10
0.0
 20
0.0
 30
0.0
  9
$PUCSORGRIGHT
 10
0.0
 20
0.0
 30
0.0
  9
$PUCSORGFRONT
 10
0.0
 20
0.0
 30
0.0
  9
$PUCSORGBACK
 10
0.0
 20
0.0
 30
0.0
  9
$USERI1
 70
     0
  9
$USERI2
 70
     0
  9
$USERI3
 70
     0
  9
$USERI4
 70
     0
  9
$USERI5
 70
     0
  9
$USERR1
 40
0.0
  9
$USERR2
 40
0.0
  9
$USERR3
 40
0.0
  9
$USERR4
 40
0.0
  9
$USERR5
 40
0.0
  9
$WORLDVIEW
 70
     1
  9
$SHADEDGE
 70
     3
  9
$SHADEDIF
 70
    70
  9
$TILEMODE
 70
     1
  9
$MAXACTVP
 70
    64
  9
$PINSBASE
 10
0.0
 20
0.0
 30
0.0
  9
$PLIMCHECK
 70
     0
  9
$PEXTMIN
 10
1.0000000000E+20
 20
1.0000000000E+20
 30
1.0000000000E+20
  9
$PEXTMAX
 10
-1.0000000000E+20
 20
-1.0000000000E+20
 30
-1.0000000000E+20
  9
$PLIMMIN
 10
0.0
 20
0.0
  9
$PLIMMAX
 10
420.0
 20
297.0
  9
$UNITMODE
 70
     0
  9
$VISRETAIN
 70
     1
  9
$PLINEGEN
 70
     0
  9
$PSLTSCALE
 70
     1
  9
$TREEDEPTH
 70
  3020
  9
$CMLSTYLE
  2
Standard
  9
$CMLJUST
 70
     0
  9
$CMLSCALE
 40
20.0
  9
$PROXYGRAPHICS
 70
     1
  9
$MEASUREMENT
 70
     1
  9
$CELWEIGHT
370
    -1
  9
$ENDCAPS
280
     0
  9
$JOINSTYLE
280
     0
  9
$LWDISPLAY
290
     1
  9
$INSUNITS
 70
     4
  9
$HYPERLINKBASE
  1

  9
$STYLESHEET
  1

  9
$XEDIT
290
     1
  9
$CEPSNTYPE
380
     0
  9
$PSTYLEMODE
290
     1
  9
$FINGERPRINTGUID
  2
{7B8AD499-0E1A-4D17-ABA3-62F43D5F9DB7}
  9
$VERSIONGUID
  2
{FAEB1C32-E019-11D5-929B-00C0DF256EC4}
  9
$EXTNAMES
290
     1
  9
$PSVPSCALE
 40
0.0
  9
$OLESTARTUP
290
     0
  0
ENDSEC
  0
SECTION
  2
CLASSES
  0
CLASS
  1
ACDBDICTIONARYWDFLT
  2
AcDbDictionaryWithDefault
  3
ObjectDBX Classes
 90
        0
280
     0
281
     0
  0
CLASS
  1
VISUALSTYLE
  2
AcDbVisualStyle
  3
ObjectDBX Classes
 90
     4095
280
     0
281
     0
  0
CLASS
  1
MATERIAL
  2
AcDbMaterial
  3
ObjectDBX Classes
 90
     1153
280
     0
281
     0
  0
CLASS
  1
SCALE
  2
AcDbScale
  3
ObjectDBX Classes
 90
     1153
280
     0
281
     0
  0
CLASS
  1
TABLESTYLE
  2
AcDbTableStyle
  3
ObjectDBX Classes
 90
     4095
280
     0
281
     0
  0
CLASS
  1
MLEADERSTYLE
  2
AcDbMLeaderStyle
  3
ACDB_MLEADERSTYLE_CLASS
 90
     4095
280
     0
281
     0
  0
CLASS
  1
SUN
  2
AcDbSun
  3
SCENEOE
 90
     1153
280
     0
281
     0
  0
CLASS
  1
ACDBPLACEHOLDER
  2
AcDbPlaceHolder
  3
ObjectDBX Classes
 90
        0
280
     0
281
     0
  0
CLASS
  1
LAYOUT
  2
AcDbLayout
  3
ObjectDBX Classes
 90
        0
280
     0
281
     0
  0
ENDSEC
  0
SECTION
  2
TABLES
  0
TABLE
  2
VPORT
  5
8
330
0
100
AcDbSymbolTable
 70
     1
  0
VPORT
  5
29
330
8
100
AcDbSymbolTableRecord
100
AcDbViewportTableRecord
  2
*Active
 70
     0
 10
0.0
 20
0.0
 11
1.0
 21
1.0
 12
105.0
 22
148.5
 13
0.0
 23
0.0
 14
10.0
 24
10.0
 15
10.0
 25
10.0
 16
0.0
 26
0.0
 36
1.0
 17
0.0
 27
0.0
 37
0.0
 40
297.0
 41
0.7070707071
 42
50.0
 43
0.0
 44
0.0
 50
0.0
 51
0.0
 71
     0
 72
  2000
 73
     1
 74
     3
 75
     0
 76
     0
 77
     0
 78
     0
281
     0
 65
     1
110
0.0
120
0.0
130
0.0
111
1.0
121
0.0
131
0.0
112
0.0
122
1.0
132
0.0
 79
     0
146
0.0
  0
ENDTAB
  0
TABLE
  2
LTYPE
  5
5
330
0
100
AcDbSymbolTable
 70
     6
  0
LTYPE
  5
14
330
5
100
AcDbSymbolTableRecord
100
AcDbLinetypeTableRecord
  2
ByBlock
 70
     0
  3

 72
    65
 73
     0
 40
0.0
  0
LTYPE
  5
15
330
5
100
AcDbSymbolTableRecord
100
AcDbLinetypeTableRecord
  2
ByLayer
 70
     0
  3

 72
    65
 73
     0
 40
0.0
  0
LTYPE
  5
16
330
5
100
AcDbSymbolTableRecord
100
AcDbLinetypeTableRecord
  2
Continuous
 70
     0
  3
Solid line
 72
    65
 73
     0
 40
0.0
  0
LTYPE
  5
6E
330
5
100
AcDbSymbolTableRecord
100
AcDbLinetypeTableRecord
  2
HIDDEN
 70
     0
  3
Hidden __ __ __ __ __ __ __ __ __ __ __ __ __ __
 72
    65
 73
     2
 40
1.905
 49
1.27
 74
     0
 49
-0.635
 74
     0
  0
LTYPE
  5
6F
330
5
100
AcDbSymbolTableRecord
100
AcDbLinetypeTableRecord
  2
PHANTOM
 70
     0
  3
Phantom ______  __  __  ______  __  __  ______
 72
    65
 73
     6
 40
12.7
 49
6.35
 74
     0
 49
-1.27
 74
     0
 49
1.27
 74
     0
 49
-1.27
 74
     0
 49
1.27
 74
     0
 49
-1.27
 74
     0
  0
LTYPE
  5
70
330
5
100
AcDbSymbolTableRecord
100
AcDbLinetypeTableRecord
  2
CENTER
 70
     0
  3
Center ____ _ ____ _ ____ _ ____ _ ____ _ ____
 72
    65
 73
     4
 40
10.16
 49
6.35
 74
     0
 49
-1.27
 74
     0
 49
1.27
 74
     0
 49
-1.27
 74
     0
  0
LTYPE
  5
71
330
5
100
AcDbSymbolTableRecord
100
AcDbLinetypeTableRecord
  2
CENTERX2
 70
     0
  3
Center (2x) ________  __  ________  __  _____
 72
    65
 73
     4
 40
20.32
 49
12.7
 74
     0
 49
-2.54
 74
     0
 49
2.54
 74
     0
 49
-2.54
 74
     0
  0
LTYPE
  5
72
330
5
100
AcDbSymbolTableRecord
100
AcDbLinetypeTableRecord
  2
DOT2
 70
     0
  3
Dot (.5x) ........................................
 72
    65
 73
     2
 40
0.635
 49
0.0
 74
     0
 49
-0.635
 74
     0
  0
ENDTAB
  0
TABLE
  2
LAYER
  5
2
330
0
100
AcDbSymbolTable
 70
     1
  0
LAYER
  5
10
330
2
100
AcDbSymbolTableRecord
100
AcDbLayerTableRecord
  2
0
 70
     0
 62
     7
  6
Continuous
370
    -3
390
F
  0
ENDTAB
  0
TABLE
  2
STYLE
  5
3
330
0
100
AcDbSymbolTable
 70
     2
  0
STYLE
  5
11
330
3
100
AcDbSymbolTableRecord
100
AcDbTextStyleTableRecord
  2
Standard
 70
     0
 40
0.0
 41
1.0
 50
0.0
 71
     0
 42
3.5
  3
txt
  4
bigfont
  0
STYLE
  5
7B
330
3
100
AcDbSymbolTableRecord
100
AcDbTextStyleTableRecord
  2
SLDTEXTSTYLE0
 70
     0
 40
0.0
 41
0.7
 50
0.0
 71
     0
 42
3.5
  3
TXT
  4
bigfont
  0
ENDTAB
  0
TABLE
  2
VIEW
  5
6
330
0
100
AcDbSymbolTable
 70
     0
  0
ENDTAB
  0
TABLE
  2
UCS
  5
7
330
0
100
AcDbSymbolTable
 70
     0
  0
ENDTAB
  0
TABLE
  2
APPID
  5
9
330
0
100
AcDbSymbolTable
 70
     1
  0
APPID
  5
12
330
9
100
AcDbSymbolTableRecord
100
AcDbRegAppTableRecord
  2
ACAD
 70
     0
  0
ENDTAB
  0
TABLE
  2
DIMSTYLE
  5
A
330
0
100
AcDbSymbolTable
 70
     5
100
AcDbDimStyleTable
  0
DIMSTYLE
105
27
330
A
100
AcDbSymbolTableRecord
100
AcDbDimStyleTableRecord
  2
ISO-25
 70
     0
 41
2.5
 42
0.625
 43
3.75
 44
1.25
 73
     0
 74
     0
 77
     1
 78
     8
140
2.5
141
2.5
143
0.0393700787
147
0.625
171
     3
172
     1
178
     0
271
     2
272
     2
274
     3
278
    44
283
     0
284
     8
340
11
  0
DIMSTYLE
105
A0
102
{ACAD_REACTORS
330
9F
102
}
330
A
100
AcDbSymbolTableRecord
100
AcDbDimStyleTableRecord
  2
SLDDIMSTYLE0
 70
     0
 41
3.0
 44
0.0
 45
0.000000001
 78
    12
 79
     3
140
3.5
141
0.0
147
0.875
173
     1
178
     0
271
     1
272
     3
276
     2
284
    12
340
7B
  0
DIMSTYLE
105
B0
330
A
100
AcDbSymbolTableRecord
100
AcDbDimStyleTableRecord
  2
SLDDIMSTYLE1
 70
     0
 41
3.0
 44
0.0
 45
0.000000001
146
3.0
147
0.0
173
     1
178
     0
271
     0
272
     0
276
     2
340
11
  0
DIMSTYLE
105
17F
102
{ACAD_REACTORS
330
17E
330
18A
330
194
330
1AC
330
1C4
330
1CE
102
}
330
A
100
AcDbSymbolTableRecord
100
AcDbDimStyleTableRecord
  2
SLDDIMSTYLE2
 70
     0
 41
3.0
 44
0.0
 45
0.000000001
 73
     0
 74
     0
 77
     3
 78
    12
 79
     3
140
3.5
147
0.875
173
     1
178
     0
271
     1
272
     3
276
     2
284
    12
340
7B
  0
DIMSTYLE
105
19F
102
{ACAD_REACTORS
330
19E
330
1B7
102
}
330
A
100
AcDbSymbolTableRecord
100
AcDbDimStyleTableRecord
  2
SLDDIMSTYLE3
 70
     0
 41
3.0
 44
0.0
 45
0.000000001
 73
     0
 74
     0
 77
     3
 78
    12
 79
     3
140
3.5
147
0.875
172
     1
173
     1
178
     0
271
     1
272
     3
276
     2
284
    12
289
     0
340
7B
  0
ENDTAB
  0
TABLE
  2
BLOCK_RECORD
  5
1
330
0
100
AcDbSymbolTable
 70
    13
  0
BLOCK_RECORD
  5
1F
330
1
100
AcDbSymbolTableRecord
100
AcDbBlockTableRecord
  2
*Model_Space
340
22
  0
BLOCK_RECORD
  5
1B
330
1
100
AcDbSymbolTableRecord
100
AcDbBlockTableRecord
  2
*Paper_Space
340
1E
  0
BLOCK_RECORD
  5
23
330
1
100
AcDbSymbolTableRecord
100
AcDbBlockTableRecord
  2
*Paper_Space0
340
26
  0
BLOCK_RECORD
  5
A1
330
1
100
AcDbSymbolTableRecord
100
AcDbBlockTableRecord
  2
_D
340
0
  0
BLOCK_RECORD
  5
AA
330
1
100
AcDbSymbolTableRecord
100
AcDbBlockTableRecord
  2
SW_NOTE_0
340
0
102
{BLKREFS
331
AF
102
}
  0
BLOCK_RECORD
  5
B2
330
1
100
AcDbSymbolTableRecord
100
AcDbBlockTableRecord
  2
SW_NOTE_1
340
0
102
{BLKREFS
331
B7
102
}
  0
BLOCK_RECORD
  5
B9
330
1
100
AcDbSymbolTableRecord
100
AcDbBlockTableRecord
  2
SW_CENTERMARKSYMBOL_0
340
0
102
{BLKREFS
331
C4
102
}
  0
BLOCK_RECORD
  5
180
330
1
100
AcDbSymbolTableRecord
100
AcDbBlockTableRecord
  2
_D_1
340
0
  0
BLOCK_RECORD
  5
18B
330
1
100
AcDbSymbolTableRecord
100
AcDbBlockTableRecord
  2
_D_2
340
0
  0
BLOCK_RECORD
  5
195
330
1
100
AcDbSymbolTableRecord
100
AcDbBlockTableRecord
  2
_D_3
340
0
  0
BLOCK_RECORD
  5
1A0
330
1
100
AcDbSymbolTableRecord
100
AcDbBlockTableRecord
  2
_D_4
340
0
  0
BLOCK_RECORD
  5
1AD
330
1
100
AcDbSymbolTableRecord
100
AcDbBlockTableRecord
  2
_D_5
340
0
  0
BLOCK_RECORD
  5
1B8
330
1
100
AcDbSymbolTableRecord
100
AcDbBlockTableRecord
  2
_D_6
340
0
  0
BLOCK_RECORD
  5
1C5
330
1
100
AcDbSymbolTableRecord
100
AcDbBlockTableRecord
  2
_D_7
340
0
  0
BLOCK_RECORD
  5
1CF
330
1
100
AcDbSymbolTableRecord
100
AcDbBlockTableRecord
  2
_D_8
340
0
  0
ENDTAB
  0
ENDSEC
  0
SECTION
  2
BLOCKS
  0
BLOCK
  5
20
330
1F
100
AcDbEntity
  8
0
100
AcDbBlockBegin
  2
*Model_Space
 70
     0
 10
0.0
 20
0.0
 30
0.0
  3
*Model_Space
  1

  0
ENDBLK
  5
21
330
1F
100
AcDbEntity
  8
0
100
AcDbBlockEnd
  0
BLOCK
  5
1C
330
1B
100
AcDbEntity
 67
     1
  8
0
100
AcDbBlockBegin
  2
*Paper_Space
 70
     0
 10
0.0
 20
0.0
 30
0.0
  3
*Paper_Space
  1

  0
ENDBLK
  5
1D
330
1B
100
AcDbEntity
 67
     1
  8
0
100
AcDbBlockEnd
  0
BLOCK
  5
24
330
23
100
AcDbEntity
  8
0
100
AcDbBlockBegin
  2
*Paper_Space0
 70
     0
 10
0.0
 20
0.0
 30
0.0
  3
*Paper_Space0
  1

  0
ENDBLK
  5
25
330
23
100
AcDbEntity
  8
0
100
AcDbBlockEnd
  0
BLOCK
  5
A2
330
A1
100
AcDbEntity
  8
0
100
AcDbBlockBegin
  2
_D
 70
     0
 10
0.0
 20
0.0
 30
0.0
  3
_D
  1

  0
ARC
  5
A4
330
A1
100
AcDbEntity
  8
0
  6
Continuous
 62
     7
370
    18
100
AcDbCircle
 10
71.8268680235
 20
161.3456784386
 30
0.0
 40
8.000000000312816
100
AcDbArc
 50
94.5142770337
 51
127.5236429376
  0
SOLID
  5
A5
330
A1
100
AcDbEntity
  8
0
  6
Continuous
 62
     7
370
    18
100
AcDbTrace
 10
67.7787633109
 20
168.2458848297
 30
0.0
 11
66.9076183929
 21
171.2129720431
 31
0.0
 12
65.6138296946
 22
170.4539524095
 32
0.0
 13
65.6138296946
 23
170.4539524095
 33
0.0
  0
LINE
  5
A6
330
A1
100
AcDbEntity
  8
0
  6
Continuous
 62
     7
370
    18
100
AcDbLine
 10
67.7787633109
 20
168.2458848297
 30
0.0
 11
61.3969866177
 21
179.1239572741
 31
0.0
  0
LINE
  5
A7
330
A1
100
AcDbEntity
  8
0
  6
Continuous
 62
     7
370
    18
100
AcDbLine
 10
61.3969866177
 20
179.1239572741
 30
0.0
 11
51.8659448748
 21
179.1239572741
 31
0.0
  0
MTEXT
  5
A8
330
A1
100
AcDbEntity
  8
0
  6
Continuous
 62
     7
370
    18
100
AcDbMText
 10
51.8659448748
 20
183.6356945961
 30
0.0
 40
3.5
 41
0.0
 71
     1
 72
     1
  1
%%c
  7
SLDTEXTSTYLE0
 73
     1
 44
1.0
  0
MTEXT
  5
A9
330
A1
100
AcDbEntity
  8
0
  6
Continuous
 62
     7
370
    18
100
AcDbMText
 10
55.7358753899
 20
183.6356945961
 30
0.0
 40
3.5
 41
0.0
 71
     1
 72
     1
  1
16
  7
SLDTEXTSTYLE0
 73
     1
 44
1.0
  0
ENDBLK
  5
A3
330
A1
100
AcDbEntity
  8
0
100
AcDbBlockEnd
  0
BLOCK
  5
AB
330
AA
100
AcDbEntity
  8
0
100
AcDbBlockBegin
  2
SW_NOTE_0
 70
     0
 10
0.0
 20
0.0
 30
0.0
  3
SW_NOTE_0
  1

  0
LINE
  5
AD
330
AA
100
AcDbEntity
  8
0
  6
Continuous
 62
     0
370
     0
100
AcDbLine
 10
-34.7434797858
 20
0.0
 30
0.0
 11
0.0
 21
0.0
 31
0.0
  0
MTEXT
  5
AE
330
AA
100
AcDbEntity
  8
0
  6
Continuous
 62
     0
370
     0
100
AcDbMText
 10
-35.2139368213
 20
4.5863905639
 30
0.0
 40
3.5
 41
0.0
 71
     1
 72
     1
  1
外径φ6配管用継手
  7
SLDTEXTSTYLE0
 73
     1
 44
1.0
  0
ENDBLK
  5
AC
330
AA
100
AcDbEntity
  8
0
100
AcDbBlockEnd
  0
BLOCK
  5
B3
330
B2
100
AcDbEntity
  8
0
100
AcDbBlockBegin
  2
SW_NOTE_1
 70
     0
 10
0.0
 20
0.0
 30
0.0
  3
SW_NOTE_1
  1

  0
LINE
  5
B5
330
B2
100
AcDbEntity
  8
0
  6
Continuous
 62
     0
370
     0
100
AcDbLine
 10
3.9558253648
 20
0.0
 30
0.0
 11
0.0
 21
0.0
 31
0.0
  0
MTEXT
  5
B6
330
B2
100
AcDbEntity
  8
0
  6
Continuous
 62
     0
370
     0
100
AcDbMText
 10
0.4213618467
 20
4.5744482078
 30
0.0
 40
3.5
 41
0.0
 71
     1
 72
     1
  1
M5
  7
SLDTEXTSTYLE0
 73
     1
 44
1.0
  0
ENDBLK
  5
B4
330
B2
100
AcDbEntity
  8
0
100
AcDbBlockEnd
  0
BLOCK
  5
BA
330
B9
100
AcDbEntity
  8
0
100
AcDbBlockBegin
  2
SW_CENTERMARKSYMBOL_0
 70
     0
 10
0.0
 20
0.0
 30
0.0
  3
SW_CENTERMARKSYMBOL_0
  1

  0
LINE
  5
BC
330
B9
100
AcDbEntity
  8
0
  6
Continuous
 62
     0
370
    18
100
AcDbLine
 10
0.0
 20
0.0
 30
0.0
 11
0.0
 21
2.5
 31
0.0
  0
LINE
  5
BD
330
B9
100
AcDbEntity
  8
0
  6
Continuous
 62
     0
370
    18
100
AcDbLine
 10
0.0
 20
0.0
 30
0.0
 11
-2.5
 21
0.0
 31
0.0
  0
LINE
  5
BE
330
B9
100
AcDbEntity
  8
0
  6
Continuous
 62
     0
370
    18
100
AcDbLine
 10
0.0
 20
0.0
 30
0.0
 11
0.0
 21
-2.5
 31
0.0
  0
LINE
  5
BF
330
B9
100
AcDbEntity
  8
0
  6
Continuous
 62
     0
370
    18
100
AcDbLine
 10
0.0
 20
0.0
 30
0.0
 11
2.5
 21
0.0
 31
0.0
  0
LINE
  5
C0
330
B9
100
AcDbEntity
  8
0
  6
Continuous
 62
     0
370
    18
100
AcDbLine
 10
0.0
 20
5.0
 30
0.0
 11
0.0
 21
8.0000000004
 31
0.0
  0
LINE
  5
C1
330
B9
100
AcDbEntity
  8
0
  6
Continuous
 62
     0
370
    18
100
AcDbLine
 10
-5.0
 20
0.0
 30
0.0
 11
-8.0000000004
 21
0.0
 31
0.0
  0
LINE
  5
C2
330
B9
100
AcDbEntity
  8
0
  6
Continuous
 62
     0
370
    18
100
AcDbLine
 10
0.0
 20
-5.0
 30
0.0
 11
0.0
 21
-8.0000000004
 31
0.0
  0
LINE
  5
C3
330
B9
100
AcDbEntity
  8
0
  6
Continuous
 62
     0
370
    18
100
AcDbLine
 10
5.0
 20
0.0
 30
0.0
 11
8.0000000004
 21
0.0
 31
0.0
  0
ENDBLK
  5
BB
330
B9
100
AcDbEntity
  8
0
100
AcDbBlockEnd
  0
BLOCK
  5
181
330
180
100
AcDbEntity
  8
0
100
AcDbBlockBegin
  2
_D_1
 70
     0
 10
0.0
 20
0.0
 30
0.0
  3
_D_1
  1

  0
SOLID
  5
183
330
180
100
AcDbEntity
  8
0
  6
Continuous
 62
     7
370
    18
100
AcDbTrace
 10
104.2885273705
 20
166.8456784386
 30
0.0
 11
103.5385273705
 21
163.8456784386
 31
0.0
 12
105.0385273705
 22
163.8456784386
 32
0.0
 13
105.0385273705
 23
163.8456784386
 33
0.0
  0
SOLID
  5
184
330
180
100
AcDbEntity
  8
0
  6
Continuous
 62
     7
370
    18
100
AcDbTrace
 10
104.2885273705
 20
155.8456784386
 30
0.0
 11
105.0385273705
 21
158.8456784386
 31
0.0
 12
103.5385273705
 22
158.8456784386
 32
0.0
 13
103.5385273705
 23
158.8456784386
 33
0.0
  0
LINE
  5
185
330
180
100
AcDbEntity
  8
0
  6
Continuous
 62
     7
370
    18
100
AcDbLine
 10
112.7292034941
 20
166.8456784386
 30
0.0
 11
103.2885273705
 21
166.8456784386
 31
0.0
  0
LINE
  5
186
330
180
100
AcDbEntity
  8
0
  6
Continuous
 62
     7
370
    18
100
AcDbLine
 10
112.7292034941
 20
155.8456784386
 30
0.0
 11
103.2885273705
 21
155.8456784386
 31
0.0
  0
LINE
  5
187
330
180
100
AcDbEntity
  8
0
  6
Continuous
 62
     7
370
    18
100
AcDbLine
 10
104.2885273705
 20
166.8456784386
 30
0.0
 11
104.2885273705
 21
155.8456784386
 31
0.0
  0
MTEXT
  5
188
330
180
100
AcDbEntity
  8
0
  6
Continuous
 62
     7
370
    18
100
AcDbMText
 10
99.7767900485
 20
157.3739075671
 30
0.0
 40
3.5
 41
0.0
 71
     1
 72
     1
  1
%%c
  7
SLDTEXTSTYLE0
 11
-7.044195017643634E-15
 21
1.0
 31
0.0
 73
     1
 44
1.0
  0
MTEXT
  5
189
330
180
100
AcDbEntity
  8
0
  6
Continuous
 62
     7
370
    18
100
AcDbMText
 10
99.7767900485
 20
161.2438380822
 30
0.0
 40
3.5
 41
0.0
 71
     1
 72
     1
  1
11
  7
SLDTEXTSTYLE0
 11
-7.044195017643634E-15
 21
1.0
 31
0.0
 73
     1
 44
1.0
  0
ENDBLK
  5
182
330
180
100
AcDbEntity
  8
0
100
AcDbBlockEnd
  0
BLOCK
  5
18C
330
18B
100
AcDbEntity
  8
0
100
AcDbBlockBegin
  2
_D_2
 70
     0
 10
0.0
 20
0.0
 30
0.0
  3
_D_2
  1

  0
SOLID
  5
18E
330
18B
100
AcDbEntity
  8
0
  6
Continuous
 62
     7
370
    18
100
AcDbTrace
 10
113.4292034945
 20
142.6483136239
 30
0.0
 11
116.4292034946
 21
141.898313624
 31
0.0
 12
116.4292034945
 22
143.398313624
 32
0.0
 13
116.4292034945
 23
143.398313624
 33
0.0
  0
SOLID
  5
18F
330
18B
100
AcDbEntity
  8
0
  6
Continuous
 62
     7
370
    18
100
AcDbTrace
 10
122.4292034946
 20
142.6483136242
 30
0.0
 11
119.4292034946
 21
143.3983136241
 31
0.0
 12
119.4292034946
 22
141.8983136241
 32
0.0
 13
119.4292034946
 23
141.8983136241
 33
0.0
  0
LINE
  5
190
330
18B
100
AcDbEntity
  8
0
  6
Continuous
 62
     7
370
    18
100
AcDbLine
 10
113.4292034941
 20
158.2456784386
 30
0.0
 11
113.4292034946
 21
141.6483136239
 31
0.0
  0
LINE
  5
191
330
18B
100
AcDbEntity
  8
0
  6
Continuous
 62
     7
370
    18
100
AcDbLine
 10
122.4292034941
 20
156.4456784386
 30
0.0
 11
122.4292034946
 21
141.6483136242
 31
0.0
  0
LINE
  5
192
330
18B
100
AcDbEntity
  8
0
  6
Continuous
 62
     7
370
    18
100
AcDbLine
 10
113.4292034945
 20
142.6483136239
 30
0.0
 11
122.4292034946
 21
142.6483136242
 31
0.0
  0
MTEXT
  5
193
330
18B
100
AcDbEntity
  8
0
  6
Continuous
 62
     7
370
    18
100
AcDbMText
 10
116.9108007456
 20
147.1600504804
 30
0.0
 40
3.5
 41
0.0
 71
     1
 72
     1
  1
9
  7
SLDTEXTSTYLE0
 73
     1
 44
1.0
  0
ENDBLK
  5
18D
330
18B
100
AcDbEntity
  8
0
100
AcDbBlockEnd
  0
BLOCK
  5
196
330
195
100
AcDbEntity
  8
0
100
AcDbBlockBegin
  2
_D_3
 70
     0
 10
0.0
 20
0.0
 30
0.0
  3
_D_3
  1

  0
SOLID
  5
198
330
195
100
AcDbEntity
  8
0
  6
Continuous
 62
     7
370
    18
100
AcDbTrace
 10
113.4292034926
 20
187.5742545941
 30
0.0
 11
116.4292034926
 21
186.8242545942
 31
0.0
 12
116.4292034925
 22
188.3242545942
 32
0.0
 13
116.4292034925
 23
188.3242545942
 33
0.0
  0
SOLID
  5
199
330
195
100
AcDbEntity
  8
0
  6
Continuous
 62
     7
370
    18
100
AcDbTrace
 10
164.4292034928
 20
187.5742545968
 30
0.0
 11
161.4292034928
 21
188.3242545966
 31
0.0
 12
161.4292034928
 22
186.8242545966
 32
0.0
 13
161.4292034928
 23
186.8242545966
 33
0.0
  0
LINE
  5
19A
330
195
100
AcDbEntity
  8
0
  6
Continuous
 62
     7
370
    18
100
AcDbLine
 10
113.4292034936
 20
167.5456784387
 30
0.0
 11
113.4292034925
 21
188.5742545941
 31
0.0
  0
LINE
  5
19B
330
195
100
AcDbEntity
  8
0
  6
Continuous
 62
     7
370
    18
100
AcDbLine
 10
164.429203494
 20
164.8456784386
 30
0.0
 11
164.4292034927
 21
188.5742545968
 31
0.0
  0
LINE
  5
19C
330
195
100
AcDbEntity
  8
0
  6
Continuous
 62
     7
370
    18
100
AcDbLine
 10
113.4292034926
 20
187.5742545941
 30
0.0
 11
164.4292034928
 21
187.5742545968
 31
0.0
  0
MTEXT
  5
19D
330
195
100
AcDbEntity
  8
0
  6
Continuous
 62
     7
370
    18
100
AcDbMText
 10
136.8923979949
 20
192.0859914517
 30
0.0
 40
3.5
 41
0.0
 71
     1
 72
     1
  1
51
  7
SLDTEXTSTYLE0
 73
     1
 44
1.0
  0
ENDBLK
  5
197
330
195
100
AcDbEntity
  8
0
100
AcDbBlockEnd
  0
BLOCK
  5
1A1
330
1A0
100
AcDbEntity
  8
0
100
AcDbBlockBegin
  2
_D_4
 70
     0
 10
0.0
 20
0.0
 30
0.0
  3
_D_4
  1

  0
SOLID
  5
1A3
330
1A0
100
AcDbEntity
  8
0
  6
Continuous
 62
     7
370
    18
100
AcDbTrace
 10
174.429203482
 20
164.2456784235
 30
0.0
 11
175.1792034863
 21
167.2456784224
 31
0.0
 12
173.6792034863
 22
167.2456784246
 32
0.0
 13
173.6792034863
 23
167.2456784246
 33
0.0
  0
SOLID
  5
1A4
330
1A0
100
AcDbEntity
  8
0
  6
Continuous
 62
     7
370
    18
100
AcDbTrace
 10
174.4292034737
 20
158.4456784235
 30
0.0
 11
173.6792034694
 21
155.4456784246
 31
0.0
 12
175.1792034694
 22
155.4456784224
 32
0.0
 13
175.1792034694
 23
155.4456784224
 33
0.0
  0
LINE
  5
1A5
330
1A0
100
AcDbEntity
  8
0
  6
Continuous
 62
     7
370
    18
100
AcDbLine
 10
164.929203494
 20
164.2456784371
 30
0.0
 11
175.429203482
 21
164.2456784221
 31
0.0
  0
LINE
  5
1A6
330
1A0
100
AcDbEntity
  8
0
  6
Continuous
 62
     7
370
    18
100
AcDbLine
 10
164.929203494
 20
158.4456784371
 30
0.0
 11
175.4292034737
 21
158.4456784221
 31
0.0
  0
LINE
  5
1A7
330
1A0
100
AcDbEntity
  8
0
  6
Continuous
 62
     7
370
    18
100
AcDbLine
 10
174.429203482
 20
164.2456784235
 30
0.0
 11
174.429203506
 21
180.9591966116
 31
0.0
  0
LINE
  5
1A8
330
1A0
100
AcDbEntity
  8
0
  6
Continuous
 62
     7
370
    18
100
AcDbLine
 10
174.429203482
 20
164.2456784235
 30
0.0
 11
174.4292034737
 21
158.4456784235
 31
0.0
  0
LINE
  5
1A9
330
1A0
100
AcDbEntity
  8
0
  6
Continuous
 62
     7
370
    18
100
AcDbLine
 10
174.4292034737
 20
158.4456784235
 30
0.0
 11
174.4292034665
 21
153.4456784235
 31
0.0
  0
MTEXT
  5
1AA
330
1A0
100
AcDbEntity
  8
0
  6
Continuous
 62
     7
370
    18
100
AcDbMText
 10
169.9174661697
 20
170.9788496106
 30
0.0
 40
3.5
 41
0.0
 71
     1
 72
     1
  1
%%c
  7
SLDTEXTSTYLE0
 11
1.434898483535717E-9
 21
1.0
 31
0.0
 73
     1
 44
1.0
  0
MTEXT
  5
1AB
330
1A0
100
AcDbEntity
  8
0
  6
Continuous
 62
     7
370
    18
100
AcDbMText
 10
169.9174661752
 20
174.8487801256
 30
0.0
 40
3.5
 41
0.0
 71
     1
 72
     1
  1
5.8
  7
SLDTEXTSTYLE0
 11
1.434898483535717E-9
 21
1.0
 31
0.0
 73
     1
 44
1.0
  0
ENDBLK
  5
1A2
330
1A0
100
AcDbEntity
  8
0
100
AcDbBlockEnd
  0
BLOCK
  5
1AE
330
1AD
100
AcDbEntity
  8
0
100
AcDbBlockBegin
  2
_D_5
 70
     0
 10
0.0
 20
0.0
 30
0.0
  3
_D_5
  1

  0
SOLID
  5
1B0
330
1AD
100
AcDbEntity
  8
0
  6
Continuous
 62
     7
370
    18
100
AcDbTrace
 10
182.7981911463
 20
167.345678439
 30
0.0
 11
182.0481911463
 21
164.345678439
 31
0.0
 12
183.5481911463
 22
164.345678439
 32
0.0
 13
183.5481911463
 23
164.345678439
 33
0.0
  0
SOLID
  5
1B1
330
1AD
100
AcDbEntity
  8
0
  6
Continuous
 62
     7
370
    18
100
AcDbTrace
 10
182.7981911463
 20
155.3456784381
 30
0.0
 11
183.5481911463
 21
158.3456784381
 31
0.0
 12
182.0481911463
 22
158.3456784381
 32
0.0
 13
182.0481911463
 23
158.3456784381
 33
0.0
  0
LINE
  5
1B2
330
1AD
100
AcDbEntity
  8
0
  6
Continuous
 62
     7
370
    18
100
AcDbLine
 10
162.4292034941
 20
167.345678439
 30
0.0
 11
183.7981911463
 21
167.345678439
 31
0.0
  0
LINE
  5
1B3
330
1AD
100
AcDbEntity
  8
0
  6
Continuous
 62
     7
370
    18
100
AcDbLine
 10
162.4292034941
 20
155.3456784381
 30
0.0
 11
183.7981911463
 21
155.3456784381
 31
0.0
  0
LINE
  5
1B4
330
1AD
100
AcDbEntity
  8
0
  6
Continuous
 62
     7
370
    18
100
AcDbLine
 10
182.7981911463
 20
167.345678439
 30
0.0
 11
182.7981911463
 21
155.3456784381
 31
0.0
  0
MTEXT
  5
1B5
330
1AD
100
AcDbEntity
  8
0
  6
Continuous
 62
     7
370
    18
100
AcDbMText
 10
178.2864538243
 20
157.3739075671
 30
0.0
 40
3.5
 41
0.0
 71
     1
 72
     1
  1
%%c
  7
SLDTEXTSTYLE0
 11
-7.044195017643634E-15
 21
1.0
 31
0.0
 73
     1
 44
1.0
  0
MTEXT
  5
1B6
330
1AD
100
AcDbEntity
  8
0
  6
Continuous
 62
     7
370
    18
100
AcDbMText
 10
178.2864538243
 20
161.2438380822
 30
0.0
 40
3.5
 41
0.0
 71
     1
 72
     1
  1
12
  7
SLDTEXTSTYLE0
 11
-7.044195017643634E-15
 21
1.0
 31
0.0
 73
     1
 44
1.0
  0
ENDBLK
  5
1AF
330
1AD
100
AcDbEntity
  8
0
100
AcDbBlockEnd
  0
BLOCK
  5
1B9
330
1B8
100
AcDbEntity
  8
0
100
AcDbBlockBegin
  2
_D_6
 70
     0
 10
0.0
 20
0.0
 30
0.0
  3
_D_6
  1

  0
SOLID
  5
1BB
330
1B8
100
AcDbEntity
  8
0
  6
Continuous
 62
     7
370
    18
100
AcDbTrace
 10
136.4292034941
 20
175.3826127006
 30
0.0
 11
139.4292034941
 21
174.6326127006
 31
0.0
 12
139.4292034941
 22
176.1326127006
 32
0.0
 13
139.4292034941
 23
176.1326127006
 33
0.0
  0
SOLID
  5
1BC
330
1B8
100
AcDbEntity
  8
0
  6
Continuous
 62
     7
370
    18
100
AcDbTrace
 10
131.4292034941
 20
175.3826127006
 30
0.0
 11
128.4292034941
 21
176.1326127006
 31
0.0
 12
128.4292034941
 22
174.6326127006
 32
0.0
 13
128.4292034941
 23
174.6326127006
 33
0.0
  0
LINE
  5
1BD
330
1B8
100
AcDbEntity
  8
0
  6
Continuous
 62
     7
370
    18
100
AcDbLine
 10
136.4292034941
 20
166.4414228409
 30
0.0
 11
136.4292034941
 21
176.3826127006
 31
0.0
  0
LINE
  5
1BE
330
1B8
100
AcDbEntity
  8
0
  6
Continuous
 62
     7
370
    18
100
AcDbLine
 10
131.4292034941
 20
166.5456784752
 30
0.0
 11
131.4292034941
 21
176.3826127006
 31
0.0
  0
LINE
  5
1BF
330
1B8
100
AcDbEntity
  8
0
  6
Continuous
 62
     7
370
    18
100
AcDbLine
 10
136.4292034941
 20
175.3826127006
 30
0.0
 11
141.4292034941
 21
175.3826127006
 31
0.0
  0
LINE
  5
1C0
330
1B8
100
AcDbEntity
  8
0
  6
Continuous
 62
     7
370
    18
100
AcDbLine
 10
136.4292034941
 20
175.3826127006
 30
0.0
 11
131.4292034941
 21
175.3826127006
 31
0.0
  0
LINE
  5
1C1
330
1B8
100
AcDbEntity
  8
0
  6
Continuous
 62
     7
370
    18
100
AcDbLine
 10
131.4292034941
 20
175.3826127006
 30
0.0
 11
120.1327121952
 21
175.3826127006
 31
0.0
  0
MTEXT
  5
1C2
330
1B8
100
AcDbEntity
  8
0
  6
Continuous
 62
     7
370
    18
100
AcDbMText
 10
120.1327121952
 20
179.894349557
 30
0.0
 40
3.5
 41
0.0
 71
     1
 72
     1
  1
5
  7
SLDTEXTSTYLE0
 73
     1
 44
1.0
  0
MTEXT
  5
1C3
330
1B8
100
AcDbEntity
  8
0
  6
Continuous
 62
     7
370
    18
100
AcDbMText
 10
122.1695176927
 20
179.894349557
 30
0.0
 40
3.5
 41
0.0
 71
     1
 72
     1
  1
st
  7
SLDTEXTSTYLE0
 73
     1
 44
1.0
  0
ENDBLK
  5
1BA
330
1B8
100
AcDbEntity
  8
0
100
AcDbBlockEnd
  0
BLOCK
  5
1C6
330
1C5
100
AcDbEntity
  8
0
100
AcDbBlockBegin
  2
_D_7
 70
     0
 10
0.0
 20
0.0
 30
0.0
  3
_D_7
  1

  0
SOLID
  5
1C8
330
1C5
100
AcDbEntity
  8
0
  6
Continuous
 62
     7
370
    18
100
AcDbTrace
 10
141.4292034941
 20
142.6483136238
 30
0.0
 11
144.4292034941
 21
141.8983136238
 31
0.0
 12
144.4292034941
 22
143.3983136238
 32
0.0
 13
144.4292034941
 23
143.3983136238
 33
0.0
  0
SOLID
  5
1C9
330
1C5
100
AcDbEntity
  8
0
  6
Continuous
 62
     7
370
    18
100
AcDbTrace
 10
164.4292034941
 20
142.6483136238
 30
0.0
 11
161.4292034941
 21
143.3983136238
 31
0.0
 12
161.4292034941
 22
141.8983136238
 32
0.0
 13
161.4292034941
 23
141.8983136238
 33
0.0
  0
LINE
  5
1CA
330
1C5
100
AcDbEntity
  8
0
  6
Continuous
 62
     7
370
    18
100
AcDbLine
 10
141.4292034941
 20
152.7456288923
 30
0.0
 11
141.4292034941
 21
141.6483136238
 31
0.0
  0
LINE
  5
1CB
330
1C5
100
AcDbEntity
  8
0
  6
Continuous
 62
     7
370
    18
100
AcDbLine
 10
164.4292034941
 20
157.8456784386
 30
0.0
 11
164.4292034941
 21
141.6483136238
 31
0.0
  0
LINE
  5
1CC
330
1C5
100
AcDbEntity
  8
0
  6
Continuous
 62
     7
370
    18
100
AcDbLine
 10
141.4292034941
 20
142.6483136238
 30
0.0
 11
164.4292034941
 21
142.6483136238
 31
0.0
  0
MTEXT
  5
1CD
330
1C5
100
AcDbEntity
  8
0
  6
Continuous
 62
     7
370
    18
100
AcDbMText
 10
150.8923979966
 20
147.1600504801
 30
0.0
 40
3.5
 41
0.0
 71
     1
 72
     1
  1
23
  7
SLDTEXTSTYLE0
 73
     1
 44
1.0
  0
ENDBLK
  5
1C7
330
1C5
100
AcDbEntity
  8
0
100
AcDbBlockEnd
  0
BLOCK
  5
1D0
330
1CF
100
AcDbEntity
  8
0
100
AcDbBlockBegin
  2
_D_8
 70
     0
 10
0.0
 20
0.0
 30
0.0
  3
_D_8
  1

  0
SOLID
  5
1D2
330
1CF
100
AcDbEntity
  8
0
  6
Continuous
 62
     7
370
    18
100
AcDbTrace
 10
94.4263391962
 20
168.3456784386
 30
0.0
 11
93.6763391962
 21
165.3456784386
 31
0.0
 12
95.1763391962
 22
165.3456784386
 32
0.0
 13
95.1763391962
 23
165.3456784386
 33
0.0
  0
SOLID
  5
1D3
330
1CF
100
AcDbEntity
  8
0
  6
Continuous
 62
     7
370
    18
100
AcDbTrace
 10
94.4263391962
 20
154.3456784386
 30
0.0
 11
95.1763391962
 21
157.3456784386
 31
0.0
 12
93.6763391962
 22
157.3456784386
 32
0.0
 13
93.6763391962
 23
157.3456784386
 33
0.0
  0
LINE
  5
1D4
330
1CF
100
AcDbEntity
  8
0
  6
Continuous
 62
     7
370
    18
100
AcDbLine
 10
121.7292034941
 20
168.3456784386
 30
0.0
 11
93.4263391962
 21
168.3456784386
 31
0.0
  0
LINE
  5
1D5
330
1CF
100
AcDbEntity
  8
0
  6
Continuous
 62
     7
370
    18
100
AcDbLine
 10
121.7292034941
 20
154.3456784386
 30
0.0
 11
93.4263391962
 21
154.3456784386
 31
0.0
  0
LINE
  5
1D6
330
1CF
100
AcDbEntity
  8
0
  6
Continuous
 62
     7
370
    18
100
AcDbLine
 10
94.4263391962
 20
168.3456784386
 30
0.0
 11
94.4263391962
 21
154.3456784386
 31
0.0
  0
MTEXT
  5
1D7
330
1CF
100
AcDbEntity
  8
0
  6
Continuous
 62
     7
370
    18
100
AcDbMText
 10
89.9146018742
 20
157.3739075671
 30
0.0
 40
3.5
 41
0.0
 71
     1
 72
     1
  1
%%c
  7
SLDTEXTSTYLE0
 11
-7.044195017643634E-15
 21
1.0
 31
0.0
 73
     1
 44
1.0
  0
MTEXT
  5
1D8
330
1CF
100
AcDbEntity
  8
0
  6
Continuous
 62
     7
370
    18
100
AcDbMText
 10
89.9146018742
 20
161.2438380822
 30
0.0
 40
3.5
 41
0.0
 71
     1
 72
     1
  1
14
  7
SLDTEXTSTYLE0
 11
-7.044195017643634E-15
 21
1.0
 31
0.0
 73
     1
 44
1.0
  0
ENDBLK
  5
1D1
330
1CF
100
AcDbEntity
  8
0
100
AcDbBlockEnd
  0
ENDSEC
  0
SECTION
  2
ENTITIES
  0
LINE
  5
73
330
1F
100
AcDbEntity
  8
0
  6
Continuous
 62
     7
370
    18
100
AcDbLine
 10
20.2604743903
 20
285.0
 30
0.0
 11
196.7604743903
 21
285.0
 31
0.0
  0
LINE
  5
74
330
1F
100
AcDbEntity
  8
0
  6
Continuous
 62
     7
370
    18
100
AcDbLine
 10
20.2604743903
 20
285.0
 30
0.0
 11
20.2604743903
 21
10.0
 31
0.0
  0
LINE
  5
75
330
1F
100
AcDbEntity
  8
0
  6
Continuous
 62
     7
370
    18
100
AcDbLine
 10
20.2604743903
 20
10.0
 30
0.0
 11
196.7604743903
 21
10.0
 31
0.0
  0
LINE
  5
76
330
1F
100
AcDbEntity
  8
0
  6
Continuous
 62
     7
370
    18
100
AcDbLine
 10
196.7604743903
 20
285.0
 30
0.0
 11
196.7604743903
 21
10.0
 31
0.0
  0
LINE
  5
77
330
1F
100
AcDbEntity
  8
0
  6
Continuous
 62
     7
370
    18
100
AcDbLine
 10
127.0104743903
 20
50.75
 30
0.0
 11
196.7604743903
 21
50.75
 31
0.0
  0
LINE
  5
78
330
1F
100
AcDbEntity
  8
0
  6
Continuous
 62
     7
370
    18
100
AcDbLine
 10
127.0104743903
 20
50.75
 30
0.0
 11
127.0104743903
 21
10.0
 31
0.0
  0
LINE
  5
79
330
1F
100
AcDbEntity
  8
0
  6
Continuous
 62
     7
370
    18
100
AcDbLine
 10
127.0104743903
 20
22.75
 30
0.0
 11
196.7604743903
 21
22.75
 31
0.0
  0
LINE
  5
7A
330
1F
100
AcDbEntity
  8
0
  6
Continuous
 62
     7
370
    18
100
AcDbLine
 10
127.0104743903
 20
36.75
 30
0.0
 11
196.7604743903
 21
36.75
 31
0.0
  0
MTEXT
  5
7C
330
1F
100
AcDbEntity
  8
0
  6
Continuous
 62
     7
370
     0
100
AcDbMText
 10
162.2024800071
 20
30.4171582345
 30
0.0
 40
4.2333333333
 41
0.0
 71
     2
 72
     1
  1
VFILP-S-5-P12
  7
SLDTEXTSTYLE0
 73
     1
 44
1.0
  0
MTEXT
  5
7D
330
1F
100
AcDbEntity
  8
0
  6
Continuous
 62
     7
370
     0
100
AcDbMText
 10
160.2799415598
 20
43.9409718514
 30
0.0
 40
4.2333333333
 41
0.0
 71
     2
 72
     1
  1
吸着樹脂具・スモール用
  7
SLDTEXTSTYLE0
 73
     1
 44
1.0
  0
MTEXT
  5
7E
330
1F
100
AcDbEntity
  8
0
  6
Continuous
 62
     7
370
     0
100
AcDbMText
 10
163.0498858773
 20
16.8228189052
 30
0.0
 40
4.2333333333
 41
0.0
 71
     2
 72
     1
  1
211092
  7
SLDTEXTSTYLE0
 73
     1
 44
1.0
  0
LWPOLYLINE
  5
7F
330
1F
100
AcDbEntity
  8
0
  6
Continuous
 62
     7
370
    18
100
AcDbPolyline
 90
        3
 70
   128
 43
0.0
 10
69.4768680574
 20
152.0456784043
 10
69.67286792
 20
150.6456779885
 10
69.8268679285
 20
149.5456779945
  0
LWPOLYLINE
  5
80
330
1F
100
AcDbEntity
  8
0
  6
Continuous
 62
     7
370
    18
100
AcDbPolyline
 90
        3
 70
   128
 43
0.0
 10
73.8268681185
 20
149.5456779945
 10
74.0228679811
 20
150.9456784103
 10
74.1768679896
 20
152.0456784043
  0
LWPOLYLINE
  5
81
330
1F
100
AcDbEntity
  8
0
  6
Continuous
 62
     7
370
    18
100
AcDbPolyline
 90
        3
 70
   128
 43
0.0
 10
69.4768680574
 20
149.5456779945
 10
69.67286792
 20
148.1456785101
 10
69.8268679285
 20
147.0456785161
  0
LWPOLYLINE
  5
82
330
1F
100
AcDbEntity
  8
0
  6
Continuous
 62
     7
370
    18
100
AcDbPolyline
 90
        3
 70
   128
 43
0.0
 10
73.8268681185
 20
147.0456785161
 10
74.0228679811
 20
148.4456780005
 10
74.1768679896
 20
149.5456779945
  0
LINE
  5
83
330
1F
100
AcDbEntity
  8
0
  6
Continuous
 62
     7
370
    18
100
AcDbLine
 10
69.6768679505
 20
154.6936845976
 30
0.0
 11
69.6768679505
 21
152.0456784043
 31
0.0
  0
LINE
  5
84
330
1F
100
AcDbEntity
  8
0
  6
Continuous
 62
     7
370
    18
100
AcDbLine
 10
73.9768680965
 20
152.0456784043
 30
0.0
 11
73.9768680965
 21
154.711860289
 31
0.0
  0
SPLINE
  5
85
330
1F
100
AcDbEntity
  8
0
  6
Continuous
 62
     7
370
    18
100
AcDbSpline
210
0.0
220
0.0
230
1.0
 70
     8
 71
     3
 72
    29
 73
    25
 74
     0
 42
0.000000001
 43
0.00000001
 40
0.0
 40
0.0
 40
0.0
 40
0.0
 40
0.0212574268721325
 40
0.0678359099101383
 40
0.1144762889268571
 40
0.1610777897308989
 40
0.2076562796483525
 40
0.2542966393837471
 40
0.3008981523385923
 40
0.347476633032605
 40
0.3941170018450627
 40
0.4407185067275552
 40
0.4872969901288509
 40
0.5339373665295304
 40
0.5805388692371032
 40
0.627117352275109
 40
0.6737577312918278
 40
0.7203592320958696
 40
0.7669377220133232
 40
0.8135780817487178
 40
0.860179594703563
 40
0.9067580753975757
 40
0.9534042367254734
 40
0.9999999999999999
 40
0.9999999999999999
 40
0.9999999999999999
 40
0.9999999999999999
 10
73.97686809652659
 20
154.0729264366828
 30
0.0
 10
74.12289468861758
 20
154.1123985455038
 30
0.0
 10
74.58888931746675
 20
154.2383604709076
 30
0.0
 10
75.33171849171477
 20
154.5825827498068
 30
0.0
 10
76.18672484011147
 20
155.0925087019356
 30
0.0
 10
76.96491254063645
 20
155.716656958593
 30
0.0
 10
77.65595224354098
 20
156.4349799819979
 30
0.0
 10
78.24705785585422
 20
157.2379287275889
 30
0.0
 10
78.7281437524158
 20
158.1111224253569
 30
0.0
 10
79.09142674445373
 20
159.0395490277497
 30
0.0
 10
79.33033254827811
 20
160.0074939404402
 30
0.0
 10
79.44062195409715
 20
160.9983472482126
 30
0.0
 10
79.42096435976848
 20
161.9951176568671
 30
0.0
 10
79.27126561787142
 20
162.980808978377
 30
0.0
 10
78.99397821304302
 20
163.9384441583046
 30
0.0
 10
78.59436796477839
 20
164.8518160693397
 30
0.0
 10
78.07885815351297
 20
165.7051924833481
 30
0.0
 10
77.45620493758227
 20
166.4838072588272
 30
0.0
 10
76.73748312679554
 20
167.1747678637023
 30
0.0
 10
75.93463528955319
 20
167.7657628973343
 30
0.0
 10
75.06143712136121
 20
168.2473699225447
 30
0.0
 10
74.13288908907886
 20
168.6086943004152
 30
0.0
 10
73.16527801629022
 20
168.8549730742436
 30
0.0
 10
72.50367331317234
 20
168.9101941731365
 30
0.0
 10
72.17304976309823
 20
168.9377897988461
 30
0.0
  0
SPLINE
  5
86
330
1F
100
AcDbEntity
  8
0
  6
Continuous
 62
     7
370
    18
100
AcDbSpline
210
0.0
220
0.0
230
1.0
 70
     8
 71
     3
 72
    30
 73
    26
 74
     0
 42
0.000000001
 43
0.00000001
 40
0.0
 40
0.0
 40
0.0
 40
0.0
 40
0.0451151607477955
 40
0.0902791041136735
 40
0.1354110032321902
 40
0.1805206086188684
 40
0.2256901580610987
 40
0.2708220553361134
 40
0.3159316673852922
 40
0.3611011981542453
 40
0.4062331071968812
 40
0.4513427103134854
 40
0.4965122498732515
 40
0.5416441510981007
 40
0.5867537568366122
 40
0.6319233037453014
 40
0.6770552028638182
 40
0.7221648082504963
 40
0.7673343576927266
 40
0.8124662549677414
 40
0.8575758670169202
 40
0.9027453977858733
 40
0.9478773068285091
 40
0.9929869099451133
 40
1.0
 40
1.0
 40
1.0
 40
1.0
 10
72.17304976309823
 20
168.9377897988461
 30
0.0
 10
71.84137035832957
 20
168.9403805813024
 30
0.0
 10
71.17765290683107
 20
168.945564947605
 30
0.0
 10
70.19162661196134
 20
168.7885126171694
 30
0.0
 10
69.23412151971823
 20
168.5132040919959
 30
0.0
 10
68.32072470188547
 20
168.1130669365574
 30
0.0
 10
67.4673575033911
 20
167.5976983273498
 30
0.0
 10
66.6887308041238
 20
166.9750077284306
 30
0.0
 10
65.99780867524979
 20
166.2562943106904
 30
0.0
 10
65.40667152908372
 20
165.4534502698905
 30
0.0
 10
64.925594078272
 20
164.580228531234
 30
0.0
 10
64.5623088230758
 20
163.6518094341298
 30
0.0
 10
64.32340363068958
 20
162.6838625260814
 30
0.0
 10
64.21311404451448
 20
161.693009687118
 30
0.0
 10
64.2327717490875
 20
160.6962393976452
 30
0.0
 10
64.38247023004494
 20
159.7105471299784
 30
0.0
 10
64.65975856764335
 20
158.7529156128678
 30
0.0
 10
65.05936534635741
 20
157.8395299990899
 30
0.0
 10
65.57488811504979
 20
156.9862047806163
 30
0.0
 10
66.19749300727989
 20
156.2073990697819
 30
0.0
 10
66.9163951245079
 20
155.5171508885664
 30
0.0
 10
67.71856943646772
 20
154.9234946332029
 30
0.0
 10
68.59427950535061
 20
154.451812587726
 30
0.0
 10
69.25441995709049
 20
154.1657165301124
 30
0.0
 10
69.62676857479384
 20
154.0769204264484
 30
0.0
 10
69.67686795049521
 20
154.0649729418955
 30
0.0
  0
ARC
  5
87
330
1F
100
AcDbEntity
  8
0
  6
Continuous
 62
     7
370
    18
100
AcDbCircle
 10
71.8268680235
 20
161.3456784386
 30
0.0
 40
8.000000000312804
100
AcDbArc
 50
285.6482870281
 51
87.3892606851
  0
ARC
  5
88
330
1F
100
AcDbEntity
  8
0
  6
Continuous
 62
     7
370
    18
100
AcDbCircle
 10
71.8268680235
 20
161.3456784386
 30
0.0
 40
8.000000000312795
100
AcDbArc
 50
87.3892606851
 51
254.354812742
  0
SPLINE
  5
89
330
1F
100
AcDbEntity
  8
0
  6
Continuous
 62
     7
370
    18
100
AcDbSpline
210
0.0
220
0.0
230
1.0
 70
     8
 71
     3
 72
    34
 73
    30
 74
     0
 42
0.000000001
 43
0.00000001
 40
0.0
 40
0.0
 40
0.0
 40
0.0
 40
0.125
 40
0.125
 40
0.1875
 40
0.1875
 40
0.2500000000000001
 40
0.2500000000000001
 40
0.3125000000000001
 40
0.3125000000000001
 40
0.3750000000000001
 40
0.3750000000000001
 40
0.4375000000000001
 40
0.4375000000000001
 40
0.5
 40
0.5
 40
0.5625
 40
0.5625
 40
0.625
 40
0.625
 40
0.6875
 40
0.6875
 40
0.75
 40
0.75
 40
0.8125
 40
0.8125
 40
0.875
 40
0.875
 40
1.0
 40
1.0
 40
1.0
 40
1.0
 10
77.02686802370349
 20
161.3456784385644
 30
0.0
 10
77.02686802370347
 20
160.9123451052205
 30
0.0
 10
76.97417469036819
 20
160.4221584385419
 30
0.0
 10
76.74121469035957
 20
159.6234384385224
 30
0.0
 10
76.63757374266393
 20
159.347126067182
 30
0.0
 10
76.36447691144564
 20
158.786927439049
 30
0.0
 10
76.19486802367265
 20
158.5030117718284
 30
0.0
 10
75.77886802365725
 20
157.9483451051482
 30
0.0
 10
75.53227866979813
 20
157.6776731842058
 30
0.0
 10
74.95981354186048
 20
157.1780672543757
 30
0.0
 10
74.63378843883976
 20
156.9493693265771
 30
0.0
 10
73.91406525542212
 20
156.5655169620926
 30
0.0
 10
73.52040648511209
 20
156.4107040794697
 30
0.0
 10
72.69332956200452
 20
156.2006527974133
 30
0.0
 10
72.26020135686029
 20
156.1456784384376
 30
0.0
 10
71.39353469016152
 20
156.1456784384376
 30
0.0
 10
70.96040648501727
 20
156.2006527974133
 30
0.0
 10
70.13332956190972
 20
156.4107040794697
 30
0.0
 10
69.73967079159969
 20
156.5655169620926
 30
0.0
 10
69.01994760818205
 20
156.9493693265771
 30
0.0
 10
68.69392250516132
 20
157.1780672543757
 30
0.0
 10
68.12145737722368
 20
157.6776731842058
 30
0.0
 10
67.87486802336456
 20
157.9483451051482
 30
0.0
 10
67.45886802334914
 20
158.5030117718284
 30
0.0
 10
67.28925913557616
 20
158.786927439049
 30
0.0
 10
67.01616230435788
 20
159.347126067182
 30
0.0
 10
66.91252135666224
 20
159.6234384385224
 30
0.0
 10
66.67956135665362
 20
160.4221584385419
 30
0.0
 10
66.62686802331834
 20
160.9123451052205
 30
0.0
 10
66.62686802331832
 20
161.3456784385644
 30
0.0
  0
SPLINE
  5
8A
330
1F
100
AcDbEntity
  8
0
  6
Continuous
 62
     7
370
    18
100
AcDbSpline
210
0.0
220
0.0
230
1.0
 70
     8
 71
     3
 72
    34
 73
    30
 74
     0
 42
0.000000001
 43
0.00000001
 40
0.0
 40
0.0
 40
0.0
 40
0.0
 40
0.125
 40
0.125
 40
0.1875
 40
0.1875
 40
0.2500000000000001
 40
0.2500000000000001
 40
0.3125000000000001
 40
0.3125000000000001
 40
0.3750000000000001
 40
0.3750000000000001
 40
0.4375000000000001
 40
0.4375000000000001
 40
0.5
 40
0.5
 40
0.5625
 40
0.5625
 40
0.625
 40
0.625
 40
0.6875
 40
0.6875
 40
0.75
 40
0.75
 40
0.8125
 40
0.8125
 40
0.875
 40
0.875
 40
1.0
 40
1.0
 40
1.0
 40
1.0
 10
66.62686802331832
 20
161.3456784385644
 30
0.0
 10
66.62686802331834
 20
161.7790117719083
 30
0.0
 10
66.67956135665362
 20
162.2691984385869
 30
0.0
 10
66.91252135666224
 20
163.0679184386063
 30
0.0
 10
67.01616230435788
 20
163.3442308099467
 30
0.0
 10
67.28925913557616
 20
163.9044294380797
 30
0.0
 10
67.45886802334914
 20
164.1883451053003
 30
0.0
 10
67.87486802336456
 20
164.7430117719805
 30
0.0
 10
68.12145737722368
 20
165.0136836929229
 30
0.0
 10
68.69392250516132
 20
165.5132896227531
 30
0.0
 10
69.01994760818205
 20
165.7419875505516
 30
0.0
 10
69.73967079159969
 20
166.1258399150362
 30
0.0
 10
70.13332956190972
 20
166.2806527976591
 30
0.0
 10
70.96040648501727
 20
166.4907040797155
 30
0.0
 10
71.39353469016152
 20
166.5456784386912
 30
0.0
 10
72.26020135686029
 20
166.5456784386912
 30
0.0
 10
72.69332956200452
 20
166.4907040797155
 30
0.0
 10
73.52040648511209
 20
166.2806527976591
 30
0.0
 10
73.91406525542212
 20
166.1258399150362
 30
0.0
 10
74.63378843883976
 20
165.7419875505516
 30
0.0
 10
74.95981354186048
 20
165.5132896227531
 30
0.0
 10
75.53227866979813
 20
165.0136836929229
 30
0.0
 10
75.77886802365725
 20
164.7430117719805
 30
0.0
 10
76.19486802367265
 20
164.1883451053003
 30
0.0
 10
76.36447691144564
 20
163.9044294380797
 30
0.0
 10
76.63757374266393
 20
163.3442308099467
 30
0.0
 10
76.74121469035957
 20
163.0679184386063
 30
0.0
 10
76.97417469036819
 20
162.2691984385869
 30
0.0
 10
77.02686802370347
 20
161.7790117719083
 30
0.0
 10
77.02686802370349
 20
161.3456784385644
 30
0.0
  0
SPLINE
  5
8B
330
1F
100
AcDbEntity
  8
0
  6
Continuous
 62
     7
370
    18
100
AcDbSpline
210
0.0
220
0.0
230
1.0
 70
     8
 71
     3
 72
    34
 73
    30
 74
     0
 42
0.000000001
 43
0.00000001
 40
0.0
 40
0.0
 40
0.0
 40
0.0
 40
0.0625
 40
0.0625
 40
0.125
 40
0.125
 40
0.1874999999999999
 40
0.1874999999999999
 40
0.2499999999999999
 40
0.2499999999999999
 40
0.375
 40
0.375
 40
0.5000000000000001
 40
0.5000000000000001
 40
0.5625000000000001
 40
0.5625000000000001
 40
0.6250000000000001
 40
0.6250000000000001
 40
0.6875000000000001
 40
0.6875000000000001
 40
0.75
 40
0.75
 40
0.8125
 40
0.8125
 40
0.875
 40
0.875
 40
0.9375
 40
0.9375
 40
1.0
 40
1.0
 40
1.0
 40
1.0
 10
73.9268680235109
 20
161.3456784379901
 30
0.0
 10
73.92686802347296
 20
161.2069550388653
 30
0.0
 10
73.91325725420973
 20
161.0705495930116
 30
0.0
 10
73.85992748993118
 20
160.8021850074817
 30
0.0
 10
73.81956185558892
 20
160.6688367636181
 30
0.0
 10
73.71417415747746
 20
160.414539932198
 30
0.0
 10
73.64968286694129
 20
160.2939295274944
 30
0.0
 10
73.49731739422029
 20
160.0656672568696
 30
0.0
 10
73.40863109954918
 20
159.9575896757405
 30
0.0
 10
73.11803736672789
 20
159.6670060178938
 30
0.0
 10
72.88378940790378
 20
159.5105422148937
 30
0.0
 10
72.37847663339724
 20
159.3010425996643
 30
0.0
 10
72.1021654845235
 20
159.2458639874718
 30
0.0
 10
71.69134786037058
 20
159.2455863832852
 30
0.0
 10
71.55225736333534
 20
159.259188971797
 30
0.0
 10
71.2829369849589
 20
159.3127031964837
 30
0.0
 10
71.1520374376677
 20
159.3523090278171
 30
0.0
 10
70.89780073424001
 20
159.457358577074
 30
0.0
 10
70.77479498476521
 20
159.5230799843633
 30
0.0
 10
70.54718167928898
 20
159.6750122048349
 30
0.0
 10
70.44109641844335
 20
159.7617460235458
 30
0.0
 10
70.24496894776355
 20
159.9575861682495
 30
0.0
 10
70.15784554672017
 20
160.0638538230205
 30
0.0
 10
70.00566738794915
 20
160.2911934372123
 30
0.0
 10
69.93990150612609
 20
160.4138374493722
 30
0.0
 10
69.83435644064822
 20
160.6682805798225
 30
0.0
 10
69.79459638995588
 20
160.799158934031
 30
0.0
 10
69.74077534512251
 20
161.0681376333443
 30
0.0
 10
69.72686802351922
 20
161.2069550393139
 30
0.0
 10
69.7268680235109
 20
161.3456784384387
 30
0.0
  0
SPLINE
  5
8C
330
1F
100
AcDbEntity
  8
0
  6
Continuous
 62
     7
370
    18
100
AcDbSpline
210
0.0
220
0.0
230
1.0
 70
     8
 71
     3
 72
    34
 73
    30
 74
     0
 42
0.000000001
 43
0.00000001
 40
0.0
 40
0.0
 40
0.0
 40
0.0
 40
0.0625
 40
0.0625
 40
0.125
 40
0.125
 40
0.1875000000000001
 40
0.1875000000000001
 40
0.2500000000000001
 40
0.2500000000000001
 40
0.3749999999999999
 40
0.3749999999999999
 40
0.5
 40
0.5
 40
0.5625
 40
0.5625
 40
0.625
 40
0.625
 40
0.6875
 40
0.6875
 40
0.75
 40
0.75
 40
0.8125000000000001
 40
0.8125000000000001
 40
0.8750000000000001
 40
0.8750000000000001
 40
0.9375000000000001
 40
0.9375000000000001
 40
1.0
 40
1.0
 40
1.0
 40
1.0
 10
69.7268680235109
 20
161.3456784384387
 30
0.0
 10
69.7268680235026
 20
161.4844018375927
 30
0.0
 10
69.74047879272607
 20
161.6208072834792
 30
0.0
 10
69.7938085569375
 20
161.8891718690816
 30
0.0
 10
69.83417419125277
 20
162.022520112986
 30
0.0
 10
69.93956188932178
 20
162.2768169444836
 30
0.0
 10
70.00405317984348
 20
162.3974273492275
 30
0.0
 10
70.1564186525504
 20
162.6256896199347
 30
0.0
 10
70.24510494721952
 20
162.7337672011025
 30
0.0
 10
70.53569868005037
 20
163.0243508590566
 30
0.0
 10
70.76994663890677
 20
163.1808146621219
 30
0.0
 10
71.2752594135014
 20
163.3903142774388
 30
0.0
 10
71.55157056242878
 20
163.445492889656
 30
0.0
 10
71.96238818667535
 20
163.445770493844
 30
0.0
 10
72.10147868374355
 20
163.4321679053258
 30
0.0
 10
72.37079906216579
 20
163.3786536806191
 30
0.0
 10
72.50169860948299
 20
163.3390478492704
 30
0.0
 10
72.7559353129671
 20
163.2339982999661
 30
0.0
 10
72.87894106245307
 20
163.1682768926541
 30
0.0
 10
73.10655436795557
 20
163.0163446721254
 30
0.0
 10
73.21263962881511
 20
162.9296108533795
 30
0.0
 10
73.40876709951955
 20
162.7337707085855
 30
0.0
 10
73.49589050054398
 20
162.627503053796
 30
0.0
 10
73.64806865930285
 20
162.4001634395228
 30
0.0
 10
73.71383454111886
 20
162.2775194273076
 30
0.0
 10
73.81937960654865
 20
162.0230762967952
 30
0.0
 10
73.85913965721545
 20
161.8921979425506
 30
0.0
 10
73.91296070198571
 20
161.6232192431524
 30
0.0
 10
73.92686802354883
 20
161.4844018371441
 30
0.0
 10
73.9268680235109
 20
161.3456784379901
 30
0.0
  0
SPLINE
  5
8D
330
1F
100
AcDbEntity
  8
0
  6
Continuous
 62
     7
370
    18
100
AcDbSpline
210
0.0
220
0.0
230
1.0
 70
    24
 71
     3
 72
    10
 73
     6
 74
     0
 42
0.000000001
 43
0.00000001
 40
0.0
 40
0.0
 40
0.0
 40
0.0
 40
0.5
 40
0.5
 40
1.0
 40
1.0
 40
1.0
 40
1.0
 10
66.62686802331834
 20
161.3456784385644
 30
0.0
 10
66.5561573451033
 20
161.3456784385644
 30
0.0
 10
66.47331463263383
 20
161.3456784385644
 30
0.0
 10
66.356157345123
 20
161.3456784385644
 30
0.0
 10
66.32686802322229
 20
161.3456784385644
 30
0.0
 10
66.32686802312504
 20
161.3456784385644
 30
0.0
  0
ARC
  5
8E
330
1F
100
AcDbEntity
  8
0
  6
Continuous
 62
     7
370
    18
100
AcDbCircle
 10
71.8268680235
 20
161.3456784386
 30
0.0
 40
5.500000000385867
100
AcDbArc
 50
0.0
 51
180.0
  0
SPLINE
  5
8F
330
1F
100
AcDbEntity
  8
0
  6
Continuous
 62
     7
370
    18
100
AcDbSpline
210
0.0
220
0.0
230
1.0
 70
    24
 71
     3
 72
    10
 73
     6
 74
     0
 42
0.000000001
 43
0.00000001
 40
0.0
 40
0.0
 40
0.0
 40
0.0
 40
0.5
 40
0.5
 40
1.0
 40
1.0
 40
1.0
 40
1.0
 10
77.32686802389676
 20
161.3456784385644
 30
0.0
 10
77.3268680237995
 20
161.3456784385644
 30
0.0
 10
77.29757870189881
 20
161.3456784385644
 30
0.0
 10
77.18042141438798
 20
161.3456784385644
 30
0.0
 10
77.09757870191851
 20
161.3456784385644
 30
0.0
 10
77.02686802370347
 20
161.3456784385644
 30
0.0
  0
ARC
  5
90
330
1F
100
AcDbEntity
  8
0
  6
Continuous
 62
     7
370
    18
100
AcDbCircle
 10
71.8268680235
 20
161.3456784386
 30
0.0
 40
5.500000000385867
100
AcDbArc
 50
180.0
 51
0.0
  0
SPLINE
  5
91
330
1F
100
AcDbEntity
  8
0
  6
Continuous
 62
     7
370
    18
100
AcDbSpline
210
0.0
220
0.0
230
1.0
 70
     8
 71
     3
 72
    34
 73
    30
 74
     0
 42
0.000000001
 43
0.00000001
 40
0.0
 40
0.0
 40
0.0
 40
0.0
 40
0.125
 40
0.125
 40
0.1875
 40
0.1875
 40
0.2499999999999999
 40
0.2499999999999999
 40
0.3125
 40
0.3125
 40
0.375
 40
0.375
 40
0.4375000000000001
 40
0.4375000000000001
 40
0.5000000000000001
 40
0.5000000000000001
 40
0.5625000000000002
 40
0.5625000000000002
 40
0.6250000000000002
 40
0.6250000000000002
 40
0.6875000000000002
 40
0.6875000000000002
 40
0.7500000000000002
 40
0.7500000000000002
 40
0.8125000000000001
 40
0.8125000000000001
 40
0.8750000000000001
 40
0.8750000000000001
 40
1.0
 40
1.0
 40
1.0
 40
1.0
 10
78.52686802370347
 20
161.3456784385644
 30
0.0
 10
78.52686802370347
 20
160.7873451052205
 30
0.0
 10
78.4589746903682
 20
160.1557584385419
 30
0.0
 10
78.15881469035956
 20
159.1266384385224
 30
0.0
 10
78.02527731544515
 20
158.7706205754512
 30
0.0
 10
77.67340255214758
 20
158.0488261892068
 30
0.0
 10
77.45486802367266
 20
157.6830117718284
 30
0.0
 10
76.91886802365725
 20
156.9683451051482
 30
0.0
 10
76.60114712541832
 20
156.6195947454744
 30
0.0
 10
75.86354782596632
 20
155.9758717205044
 30
0.0
 10
75.44347702015465
 20
155.6812032366117
 30
0.0
 10
74.51614137998959
 20
155.1866242285286
 30
0.0
 10
74.00892719517125
 20
154.9871537836117
 30
0.0
 10
72.9432703904069
 20
154.7165107855789
 30
0.0
 10
72.38520135686029
 20
154.6456784384376
 30
0.0
 10
71.26853469016152
 20
154.6456784384376
 30
0.0
 10
70.71046565661491
 20
154.7165107855789
 30
0.0
 10
69.64480885185056
 20
154.9871537836117
 30
0.0
 10
69.13759466703222
 20
155.1866242285286
 30
0.0
 10
68.21025902686716
 20
155.6812032366117
 30
0.0
 10
67.79018822105549
 20
155.9758717205044
 30
0.0
 10
67.0525889216035
 20
156.6195947454744
 30
0.0
 10
66.73486802336456
 20
156.9683451051482
 30
0.0
 10
66.19886802334915
 20
157.6830117718284
 30
0.0
 10
65.98033349487424
 20
158.0488261892068
 30
0.0
 10
65.62845873157666
 20
158.7706205754512
 30
0.0
 10
65.49492135666225
 20
159.1266384385224
 30
0.0
 10
65.19476135665361
 20
160.1557584385419
 30
0.0
 10
65.12686802331832
 20
160.7873451052205
 30
0.0
 10
65.12686802331834
 20
161.3456784385644
 30
0.0
  0
SPLINE
  5
92
330
1F
100
AcDbEntity
  8
0
  6
Continuous
 62
     7
370
    18
100
AcDbSpline
210
0.0
220
0.0
230
1.0
 70
     8
 71
     3
 72
    34
 73
    30
 74
     0
 42
0.000000001
 43
0.00000001
 40
0.0
 40
0.0
 40
0.0
 40
0.0
 40
0.125
 40
0.125
 40
0.1875
 40
0.1875
 40
0.25
 40
0.25
 40
0.3125
 40
0.3125
 40
0.375
 40
0.375
 40
0.4375
 40
0.4375
 40
0.5
 40
0.5
 40
0.5625
 40
0.5625
 40
0.625
 40
0.625
 40
0.6875
 40
0.6875
 40
0.75
 40
0.75
 40
0.8125
 40
0.8125
 40
0.875
 40
0.875
 40
1.0
 40
1.0
 40
1.0
 40
1.0
 10
65.12686802331832
 20
161.3456784385644
 30
0.0
 10
65.12686802331832
 20
161.9040117719083
 30
0.0
 10
65.19476135665361
 20
162.5355984385869
 30
0.0
 10
65.49492135666225
 20
163.5647184386064
 30
0.0
 10
65.62845873157666
 20
163.9207363016775
 30
0.0
 10
65.98033349487423
 20
164.6425306879219
 30
0.0
 10
66.19886802334914
 20
165.0083451053004
 30
0.0
 10
66.73486802336456
 20
165.7230117719805
 30
0.0
 10
67.05258892160349
 20
166.0717621316544
 30
0.0
 10
67.79018822105549
 20
166.7154851566243
 30
0.0
 10
68.21025902686716
 20
167.010153640517
 30
0.0
 10
69.13759466703222
 20
167.5047326486002
 30
0.0
 10
69.64480885185056
 20
167.704203093517
 30
0.0
 10
70.71046565661491
 20
167.9748460915498
 30
0.0
 10
71.26853469016152
 20
168.0456784386912
 30
0.0
 10
72.38520135686029
 20
168.0456784386912
 30
0.0
 10
72.9432703904069
 20
167.9748460915498
 30
0.0
 10
74.00892719517125
 20
167.704203093517
 30
0.0
 10
74.51614137998959
 20
167.5047326486002
 30
0.0
 10
75.44347702015465
 20
167.010153640517
 30
0.0
 10
75.86354782596632
 20
166.7154851566243
 30
0.0
 10
76.60114712541832
 20
166.0717621316544
 30
0.0
 10
76.91886802365725
 20
165.7230117719805
 30
0.0
 10
77.45486802367266
 20
165.0083451053004
 30
0.0
 10
77.67340255214758
 20
164.6425306879219
 30
0.0
 10
78.02527731544515
 20
163.9207363016775
 30
0.0
 10
78.15881469035956
 20
163.5647184386064
 30
0.0
 10
78.4589746903682
 20
162.5355984385869
 30
0.0
 10
78.52686802370349
 20
161.9040117719083
 30
0.0
 10
78.52686802370349
 20
161.3456784385644
 30
0.0
  0
ARC
  5
93
330
1F
100
AcDbEntity
  8
0
  6
Continuous
 62
     7
370
    18
100
AcDbCircle
 10
71.8268680235
 20
161.3456784386
 30
0.0
 40
7.000000000385867
100
AcDbArc
 50
180.0
 51
0.0
  0
SPLINE
  5
94
330
1F
100
AcDbEntity
  8
0
  6
Continuous
 62
     7
370
    18
100
AcDbSpline
210
0.0
220
0.0
230
1.0
 70
    24
 71
     3
 72
    10
 73
     6
 74
     0
 42
0.000000001
 43
0.00000001
 40
0.0
 40
0.0
 40
0.0
 40
0.0
 40
0.5
 40
0.5
 40
1.0
 40
1.0
 40
1.0
 40
1.0
 10
65.12686802331834
 20
161.3456784385644
 30
0.0
 10
65.0561573451033
 20
161.3456784385644
 30
0.0
 10
64.97331463263383
 20
161.3456784385644
 30
0.0
 10
64.856157345123
 20
161.3456784385644
 30
0.0
 10
64.82686802322229
 20
161.3456784385644
 30
0.0
 10
64.82686802312504
 20
161.3456784385644
 30
0.0
  0
SPLINE
  5
95
330
1F
100
AcDbEntity
  8
0
  6
Continuous
 62
     7
370
    18
100
AcDbSpline
210
0.0
220
0.0
230
1.0
 70
    24
 71
     3
 72
    10
 73
     6
 74
     0
 42
0.000000001
 43
0.00000001
 40
0.0
 40
0.0
 40
0.0
 40
0.0
 40
0.5
 40
0.5
 40
1.0
 40
1.0
 40
1.0
 40
1.0
 10
78.82686802389676
 20
161.3456784385644
 30
0.0
 10
78.8268680237995
 20
161.3456784385644
 30
0.0
 10
78.79757870189881
 20
161.3456784385644
 30
0.0
 10
78.68042141438798
 20
161.3456784385644
 30
0.0
 10
78.59757870191851
 20
161.3456784385644
 30
0.0
 10
78.52686802370347
 20
161.3456784385644
 30
0.0
  0
ARC
  5
96
330
1F
100
AcDbEntity
  8
0
  6
Continuous
 62
     7
370
    18
100
AcDbCircle
 10
71.8268680235
 20
161.3456784386
 30
0.0
 40
7.000000000385867
100
AcDbArc
 50
0.0
 51
180.0
  0
LWPOLYLINE
  5
97
330
1F
100
AcDbEntity
  8
0
  6
Continuous
 62
     7
370
    18
100
AcDbPolyline
 90
        9
 70
   128
 43
0.0
 10
71.0861296708
 20
154.0946439478
 10
71.0900621803
 20
154.1513670805
 10
71.0900774889
 20
154.2060194175
 10
71.0861749563
 20
154.2566051345
 10
71.0784971912
 20
154.3012774188
 10
71.0673243471
 20
154.3384055245
 10
71.0530644597
 20
154.3666343774
 10
71.0362381384
 20
154.384932072
 10
71.0174597067
 20
154.3926317814
  0
LWPOLYLINE
  5
98
330
1F
100
AcDbEntity
  8
0
  6
Continuous
 62
     7
370
    18
100
AcDbPolyline
 90
        9
 70
   128
 43
0.0
 10
72.5676060852
 20
154.0946439478
 10
72.5636735757
 20
154.1513670805
 10
72.563658267
 20
154.2060189519
 10
72.5675607415
 20
154.2566046688
 10
72.5752385648
 20
154.3012774188
 10
72.5864113507
 20
154.3384055245
 10
72.6006712381
 20
154.3666343774
 10
72.6174975594
 20
154.384932072
 10
72.6362759911
 20
154.3926317814
  0
SPLINE
  5
99
330
1F
100
AcDbEntity
  8
0
  6
Continuous
 62
     7
370
    18
100
AcDbSpline
210
0.0
220
0.0
230
1.0
 70
     8
 71
     3
 72
    10
 73
     6
 74
     0
 42
0.000000001
 43
0.00000001
 40
0.0
 40
0.0
 40
0.0
 40
0.0
 40
0.5
 40
0.5
 40
1.0
 40
1.0
 40
1.0
 40
1.0
 10
72.5676063395109
 20
154.0946440295644
 30
0.0
 10
72.3292125695109
 20
154.0630201575644
 30
0.0
 10
72.08039253417758
 20
154.0456737875644
 30
0.0
 10
71.5731373715109
 20
154.0456830915643
 30
0.0
 10
71.3238923195109
 20
154.0631038835644
 30
0.0
 10
71.0861297075109
 20
154.0946440295644
 30
0.0
  0
LINE
  5
9A
330
1F
100
AcDbEntity
  8
0
  6
Continuous
 62
     7
370
    18
100
AcDbLine
 10
69.4768680574
 20
152.0456784043
 30
0.0
 11
74.1768679896
 21
152.0456784043
 31
0.0
  0
LINE
  5
9B
330
1F
100
AcDbEntity
  8
0
  6
Continuous
 62
     7
370
    18
100
AcDbLine
 10
73.8268681185
 20
147.0456785161
 30
0.0
 11
69.8268679285
 21
147.0456785161
 31
0.0
  0
LINE
  5
9C
330
1F
100
AcDbEntity
  8
0
  6
Continuous
 62
     7
370
    18
100
AcDbLine
 10
69.4768680574
 20
149.5456779945
 30
0.0
 11
74.1768679896
 21
149.5456779945
 31
0.0
  0
SPLINE
  5
9D
330
1F
100
AcDbEntity
  8
0
  6
Continuous
 62
     8
370
    18
100
AcDbSpline
210
0.0
220
0.0
230
1.0
 70
     8
 71
     3
 72
    11
 73
     7
 74
     0
 42
0.000000001
 43
0.00000001
 40
0.0
 40
0.0
 40
0.0
 40
0.0
 40
0.3327413874950609
 40
0.6711439700251243
 40
0.8458944472470249
 40
1.0
 40
1.0
 40
1.0
 40
1.0
 10
72.56760620164859
 20
154.0946439478002
 30
0.0
 10
72.66667348470533
 20
154.1117826965576
 30
0.0
 10
72.86649356164507
 20
154.1463517892963
 30
0.0
 10
73.0793682260783
 20
154.2610515619173
 30
0.0
 10
73.21567076511121
 20
154.3938317421746
 30
0.0
 10
73.2636886174533
 20
154.4792438030061
 30
0.0
 10
73.28619031121197
 20
154.519268834164
 30
0.0
  0
SPLINE
  5
9E
330
1F
100
AcDbEntity
  8
0
  6
Continuous
 62
     8
370
    18
100
AcDbSpline
210
0.0
220
0.0
230
1.0
 70
     8
 71
     3
 72
    11
 73
     7
 74
     0
 42
0.000000001
 43
0.00000001
 40
0.0
 40
0.0
 40
0.0
 40
0.0
 40
0.1669190400894048
 40
0.3392474653064464
 40
0.6727640389968097
 40
1.0
 40
1.0
 40
1.0
 40
1.0
 10
70.36058829051616
 20
154.5304605375431
 30
0.0
 10
70.3852639592425
 20
154.4863948010599
 30
0.0
 10
70.43541496697453
 20
154.3968352792655
 30
0.0
 10
70.57458146780151
 20
154.2606483330549
 30
0.0
 10
70.78762187896922
 20
154.1463167726435
 30
0.0
 10
70.98725960846119
 20
154.1117587285583
 30
0.0
 10
71.08612967075022
 20
154.0946439478002
 30
0.0
  0
DIMENSION
  5
9F
330
1F
100
AcDbEntity
  8
0
  6
Continuous
 62
     7
370
    18
100
AcDbDimension
  2
_D
 10
75.8749727361
 20
154.4454720474
 30
0.0
 11
55.8377157463
 21
181.6607628535
 31
0.0
 70
   163
  1
<>
 71
     1
 42
-1.0
  3
SLDDIMSTYLE0
100
AcDbDiametricDimension
 15
67.7787633109
 25
168.2458848297
 35
0.0
 40
0.0
  0
INSERT
  5
AF
330
1F
100
AcDbEntity
  8
0
  6
Continuous
 62
     7
370
     0
100
AcDbBlockReference
  2
SW_NOTE_0
 10
63.9831735432
 20
139.6696115011
 30
0.0
  0
LEADER
  5
B1
330
1F
100
AcDbEntity
  8
0
  6
Continuous
 62
     7
370
     0
100
AcDbLeader
  3
SLDDIMSTYLE1
 76
     2
 10
72.0483256199
 20
151.1814565754
 30
0.0
 10
63.9831735432
 20
139.6696115011
 30
0.0
  0
INSERT
  5
B7
330
1F
100
AcDbEntity
  8
0
  6
Continuous
 62
     7
370
     0
100
AcDbBlockReference
  2
SW_NOTE_1
 10
79.7120141343
 20
178.774440712
 30
0.0
  0
LEADER
  5
B8
330
1F
100
AcDbEntity
  8
0
  6
Continuous
 62
     7
370
     0
100
AcDbLeader
  3
SLDDIMSTYLE1
 76
     2
 10
73.1048415885
 20
163.0120468154
 30
0.0
 10
79.7120141343
 20
178.774440712
 30
0.0
  0
INSERT
  5
C4
330
1F
100
AcDbEntity
  8
0
  6
Continuous
 62
     7
370
    18
100
AcDbBlockReference
  2
SW_CENTERMARKSYMBOL_0
 10
71.8268680235
 20
161.3456784386
 30
0.0
  0
LINE
  5
C5
330
1F
100
AcDbEntity
  8
0
  6
Continuous
 62
     7
370
    18
100
AcDbLine
 10
162.5292039053
 20
156.8456786323
 30
0.0
 11
163.1292028861
 21
156.8456786323
 31
0.0
  0
LINE
  5
C6
330
1F
100
AcDbEntity
  8
0
  6
Continuous
 62
     7
370
    18
100
AcDbLine
 10
163.1292028861
 20
164.6070529811
 30
0.0
 11
162.5292039053
 21
164.6070529811
 31
0.0
  0
LINE
  5
C7
330
1F
100
AcDbEntity
  8
0
  6
Continuous
 62
     7
370
    18
100
AcDbLine
 10
163.1292028861
 20
165.439589006
 30
0.0
 11
162.5292039053
 21
165.439589006
 31
0.0
  0
SPLINE
  5
C8
330
1F
100
AcDbEntity
  8
0
  6
Continuous
 62
     7
370
    18
100
AcDbSpline
210
0.0
220
0.0
230
1.0
 70
     8
 71
     3
 72
    36
 73
    32
 74
     0
 42
0.000000001
 43
0.00000001
 40
0.0
 40
0.0
 40
0.0
 40
0.0
 40
0.0117682429063079
 40
0.0431161348466163
 40
0.0780904534246511
 40
0.1166995534272926
 40
0.1589619342621819
 40
0.2048812565922812
 40
0.2542040843443106
 40
0.3006775168761948
 40
0.341361367112722
 40
0.3762229821256684
 40
0.405217425422522
 40
0.4283138769974119
 40
0.4460402688942418
 40
0.4653055248275024
 40
0.488211281190401
 40
0.52438315361216
 40
0.564886267503129
 40
0.6085563344844304
 40
0.6434057208860207
 40
0.6800685806379769
 40
0.7185781173054343
 40
0.7582538832468215
 40
0.8079339821181798
 40
0.8534813721370945
 40
0.8950486143118968
 40
0.9236681643840613
 40
0.9502733171496831
 40
0.9755211564447513
 40
1.0
 40
1.0
 40
1.0
 40
1.0
 10
131.7672653631953
 20
166.4905073690615
 30
0.0
 10
131.7676123044621
 20
166.4872429946606
 30
0.0
 10
131.7688834174534
 20
166.4752830777909
 30
0.0
 10
131.796644812458
 20
166.3829398630644
 30
0.0
 10
131.8324070490698
 20
166.211406884085
 30
0.0
 10
131.8808248257444
 20
165.9395332704047
 30
0.0
 10
131.9368404392965
 20
165.5585156082145
 30
0.0
 10
132.0003010925949
 20
165.0577561838273
 30
0.0
 10
132.0671145031126
 20
164.4582333024431
 30
0.0
 10
132.1317348516147
 20
163.8171880816772
 30
0.0
 10
132.1895837162371
 20
163.2030962611771
 30
0.0
 10
132.2392047736597
 20
162.6547211333879
 30
0.0
 10
132.2805230089103
 20
162.18749044545
 30
0.0
 10
132.3137331951668
 20
161.807546982407
 30
0.0
 10
132.3423320721032
 20
161.4786852296119
 30
0.0
 10
132.3708484233713
 20
161.1502091383127
 30
0.0
 10
132.4081516131063
 20
160.7212213091129
 30
0.0
 10
132.455568661565
 20
160.180309170865
 30
0.0
 10
132.5128890073827
 20
159.5412935079536
 30
0.0
 10
132.5697180111345
 20
158.9337391483316
 30
0.0
 10
132.6248764232973
 20
158.3770941433713
 30
0.0
 10
132.67774222054
 20
157.8789925218327
 30
0.0
 10
132.7331764632605
 20
157.401343129606
 30
0.0
 10
132.7949896750447
 20
156.9254342957067
 30
0.0
 10
132.8634030105522
 20
156.4839259641813
 30
0.0
 10
132.939749656957
 20
156.1088624656453
 30
0.0
 10
133.0189135820979
 20
155.8447306086478
 30
0.0
 10
133.0969462817855
 20
155.6657379437406
 30
0.0
 10
133.1934356957746
 20
155.5247890324645
 30
0.0
 10
133.352878311271
 20
155.3844271312883
 30
0.0
 10
133.5271747986102
 20
155.3587647190792
 30
0.0
 10
133.6129753427295
 20
155.3461319405041
 30
0.0
  0
SPLINE
  5
C9
330
1F
100
AcDbEntity
  8
0
  6
Continuous
 62
     7
370
    18
100
AcDbSpline
210
0.0
220
0.0
230
1.0
 70
     8
 71
     3
 72
    37
 73
    33
 74
     0
 42
0.000000001
 43
0.00000001
 40
0.0
 40
0.0
 40
0.0
 40
0.0
 40
0.0117020535220638
 40
0.0428649180277621
 40
0.0749398322101
 40
0.107866834025023
 40
0.1415765223720936
 40
0.1762127313659898
 40
0.2118992497594238
 40
0.2486401772737854
 40
0.2864200825460732
 40
0.3252179491434378
 40
0.3645569791127742
 40
0.3985876149766814
 40
0.4255322525456323
 40
0.4453629633587537
 40
0.4591691284278638
 40
0.4770511098044188
 40
0.5014479642197056
 40
0.5323697171447361
 40
0.569845155072813
 40
0.6134502687482499
 40
0.6570018813272808
 40
0.698551238723247
 40
0.7381288795831891
 40
0.7878704619056792
 40
0.8341774319232645
 40
0.8771085099920258
 40
0.9079717395203429
 40
0.9384901597425596
 40
0.9691120645896394
 40
1.0
 40
1.0
 40
1.0
 40
1.0
 10
134.7665822641639
 20
166.4908296066723
 30
0.0
 10
134.7664633199406
 20
166.4883688510113
 30
0.0
 10
134.7660276242421
 20
166.4793550407856
 30
0.0
 10
134.7912014216608
 20
166.3939843524518
 30
0.0
 10
134.8238220727661
 20
166.2409695494766
 30
0.0
 10
134.865772990911
 20
166.0172695635422
 30
0.0
 10
134.9119191804683
 20
165.7263501734473
 30
0.0
 10
134.9604823436313
 20
165.3739399386473
 30
0.0
 10
135.0106348254283
 20
164.9631832773436
 30
0.0
 10
135.062580413376
 20
164.494881410916
 30
0.0
 10
135.1161803276532
 20
163.9721086930221
 30
0.0
 10
135.1711767762064
 20
163.4009708545653
 30
0.0
 10
135.2245117261031
 20
162.8194420038177
 30
0.0
 10
135.2721916909674
 20
162.2829042298187
 30
0.0
 10
135.3105898586777
 20
161.8439205483061
 30
0.0
 10
135.339379556183
 20
161.5127202230416
 30
0.0
 10
135.3638602942338
 20
161.2306200768889
 30
0.0
 10
135.3905208876312
 20
160.9235956378269
 30
0.0
 10
135.4253381934591
 20
160.5242907035936
 30
0.0
 10
135.4695118021128
 20
160.0235707782313
 30
0.0
 10
135.5228668115717
 20
159.4332887886538
 30
0.0
 10
135.5822182408122
 20
158.803758190112
 30
0.0
 10
135.6437744569022
 20
158.1925244928113
 30
0.0
 10
135.7039349160322
 20
157.6456034382126
 30
0.0
 10
135.7681228594023
 20
157.125417615213
 30
0.0
 10
135.8359174516474
 20
156.6542701048024
 30
0.0
 10
135.9104965563542
 20
156.2474306946244
 30
0.0
 10
135.9742945504818
 20
155.975849956856
 30
0.0
 10
136.0546838781243
 20
155.7466648452677
 30
0.0
 10
136.1680372317331
 20
155.5541924676754
 30
0.0
 10
136.3455728999928
 20
155.3875115593662
 30
0.0
 10
136.5244057525177
 20
155.3606545965624
 30
0.0
 10
136.6142089055566
 20
155.3471680368684
 30
0.0
  0
SPLINE
  5
CA
330
1F
100
AcDbEntity
  8
0
  6
Continuous
 62
     7
370
    18
100
AcDbSpline
210
0.0
220
0.0
230
1.0
 70
     8
 71
     3
 72
    20
 73
    16
 74
     0
 42
0.000000001
 43
0.00000001
 40
0.0
 40
0.0
 40
0.0
 40
0.0
 40
0.0231111892746165
 40
0.1498225023517435
 40
0.2725293832446339
 40
0.3348390128428573
 40
0.4009429765436173
 40
0.4708337261010526
 40
0.5445338214932396
 40
0.622070997128023
 40
0.7033161363736878
 40
0.783312176088151
 40
0.8594151746984757
 40
0.9316409886204359
 40
1.0
 40
1.0
 40
1.0
 40
1.0
 10
137.7671750770596
 20
166.4890871021352
 30
0.0
 10
137.7669075267881
 20
166.4871794334059
 30
0.0
 10
137.7651730833238
 20
166.474812622711
 30
0.0
 10
137.8183926717622
 20
166.2918828100812
 30
0.0
 10
137.8787251799124
 20
165.9429123426784
 30
0.0
 10
137.9340079265191
 20
165.5691566560268
 30
0.0
 10
137.9772327907961
 20
165.2392530194748
 30
0.0
 10
138.0234906926514
 20
164.8506505828522
 30
0.0
 10
138.0724250818934
 20
164.4015396207935
 30
0.0
 10
138.1240291373078
 20
163.8922953379665
 30
0.0
 10
138.1771283131806
 20
163.3364246655788
 30
0.0
 10
138.2299615185831
 20
162.7583639093961
 30
0.0
 10
138.2808302685348
 20
162.1851107761997
 30
0.0
 10
138.3291241562877
 20
161.6314420665414
 30
0.0
 10
138.3604440765793
 20
161.2705798055173
 30
0.0
 10
138.3756733076362
 20
161.0951114549689
 30
0.0
  0
SPLINE
  5
CB
330
1F
100
AcDbEntity
  8
0
  6
Continuous
 62
     7
370
    18
100
AcDbSpline
210
0.0
220
0.0
230
1.0
 70
     8
 71
     3
 72
    16
 73
    12
 74
     0
 42
0.000000001
 43
0.00000001
 40
0.0
 40
0.0
 40
0.0
 40
0.0
 40
0.0729727032581114
 40
0.1401924515756414
 40
0.2571498406871717
 40
0.3535801370913988
 40
0.4427695199268062
 40
0.5859581946091281
 40
0.758131923039182
 40
0.9591061944770735
 40
1.0
 40
1.0
 40
1.0
 40
1.0
 10
138.1137649105576
 20
167.3443327295981
 30
0.0
 10
138.0595234883214
 20
167.3401990142007
 30
0.0
 10
137.9553168792644
 20
167.3322574734628
 30
0.0
 10
137.7882968128191
 20
167.2535404439532
 30
0.0
 10
137.649072307457
 20
167.1203772866818
 30
0.0
 10
137.5635038800957
 20
166.9645341029224
 30
0.0
 10
137.51415657785
 20
166.8376774428983
 30
0.0
 10
137.4552111033953
 20
166.6442909192014
 30
0.0
 10
137.3910138568341
 20
166.3488274726739
 30
0.0
 10
137.3417443797713
 20
166.0750216168351
 30
0.0
 10
137.3142261033879
 20
165.8788465176362
 30
0.0
 10
137.3095734553126
 20
165.8456782448493
 30
0.0
  0
SPLINE
  5
CC
330
1F
100
AcDbEntity
  8
0
  6
Continuous
 62
     7
370
    18
100
AcDbSpline
210
0.0
220
0.0
230
1.0
 70
     8
 71
     3
 72
    19
 73
    15
 74
     0
 42
0.000000001
 43
0.00000001
 40
0.0
 40
0.0
 40
0.0
 40
0.0
 40
0.0459562909412518
 40
0.0890559655440269
 40
0.1666666350384324
 40
0.2349293500611295
 40
0.3026003360364853
 40
0.4066789570524
 40
0.526774453325963
 40
0.6629775676561639
 40
0.7753967287607766
 40
0.8863758386083491
 40
0.9914883520555662
 40
1.0
 40
1.0
 40
1.0
 40
1.0
 10
135.11371040211
 20
167.3445799957417
 30
0.0
 10
135.0586768920766
 20
167.3401288274314
 30
0.0
 10
134.9520307230121
 20
167.3315031728463
 30
0.0
 10
134.7818541053425
 20
167.2493700145887
 30
0.0
 10
134.6403395638295
 20
167.1080084827965
 30
0.0
 10
134.5562084712055
 20
166.9473928260374
 30
0.0
 10
134.4998965170888
 20
166.7966192608639
 30
0.0
 10
134.4346421288128
 20
166.5634145662441
 30
0.0
 10
134.3657101790332
 20
166.2191010612626
 30
0.0
 10
134.2988375088059
 20
165.7923463485235
 30
0.0
 10
134.2359377581913
 20
165.3138522754077
 30
0.0
 10
134.1787339854603
 20
164.8197978467944
 30
0.0
 10
134.139727066208
 20
164.4591714628507
 30
0.0
 10
134.1200945766117
 20
164.2605567390455
 30
0.0
 10
134.1186238961009
 20
164.245678401684
 30
0.0
  0
SPLINE
  5
CD
330
1F
100
AcDbEntity
  8
0
  6
Continuous
 62
     7
370
    18
100
AcDbSpline
210
0.0
220
0.0
230
1.0
 70
     8
 71
     3
 72
    14
 73
    10
 74
     0
 42
0.000000001
 43
0.00000001
 40
0.0
 40
0.0
 40
0.0
 40
0.0
 40
0.0486727912342325
 40
0.1056233679633331
 40
0.2463235689725995
 40
0.4225228956513095
 40
0.6169931998033997
 40
0.8262904550731802
 40
1.0
 40
1.0
 40
1.0
 40
1.0
 10
132.1135702119855
 20
167.3455811675094
 30
0.0
 10
132.0716096148528
 20
167.3430292392945
 30
0.0
 10
131.9805521784798
 20
167.3374913762294
 30
0.0
 10
131.8257873135865
 20
167.2772342735644
 30
0.0
 10
131.6708556565337
 20
167.1465349270924
 30
0.0
 10
131.5463515079938
 20
166.9219126613896
 30
0.0
 10
131.4441997148665
 20
166.602551846419
 30
0.0
 10
131.3664935211607
 20
166.2318312566908
 30
0.0
 10
131.322033186199
 20
165.927773476516
 30
0.0
 10
131.3018685714988
 20
165.7898706022106
 30
0.0
  0
SPLINE
  5
CE
330
1F
100
AcDbEntity
  8
0
  6
Continuous
 62
     7
370
    18
100
AcDbSpline
210
0.0
220
0.0
230
1.0
 70
     8
 71
     3
 72
     9
 73
     5
 74
     0
 42
0.000000001
 43
0.00000001
 40
0.0
 40
0.0
 40
0.0
 40
0.0
 40
0.5252636745444493
 40
0.9999999999999999
 40
0.9999999999999999
 40
0.9999999999999999
 40
0.9999999999999999
 10
131.4736174927739
 20
157.3999524685941
 30
0.0
 10
131.4938780406872
 20
157.5702242847102
 30
0.0
 10
131.5324501881537
 20
157.8943887460424
 30
0.0
 10
131.5710162831964
 20
158.2682113202114
 30
0.0
 10
131.5893250094441
 20
158.4456784754447
 30
0.0
  0
SPLINE
  5
CF
330
1F
100
AcDbEntity
  8
0
  6
Continuous
 62
     7
370
    18
100
AcDbSpline
210
0.0
220
0.0
230
1.0
 70
     8
 71
     3
 72
    18
 73
    14
 74
     0
 42
0.000000001
 43
0.00000001
 40
0.0
 40
0.0
 40
0.0
 40
0.0
 40
0.0713455703930829
 40
0.1335228130407042
 40
0.2107405464581809
 40
0.2758062216659112
 40
0.3416269250697903
 40
0.4092753205021482
 40
0.5342016211205761
 40
0.6654456229501678
 40
0.7995322364663862
 40
0.900575831319722
 40
1.0
 40
1.0
 40
1.0
 40
1.0
 10
133.5926147686032
 20
155.3461980644069
 30
0.0
 10
133.6763834050807
 20
155.3567384016505
 30
0.0
 10
133.833155912826
 20
155.3764645804644
 30
0.0
 10
134.0194102151366
 20
155.5204596175203
 30
0.0
 10
134.130076050486
 20
155.692332281508
 30
0.0
 10
134.1795145236021
 20
155.8164227505111
 30
0.0
 10
134.2281075196641
 20
155.9627063270269
 30
0.0
 10
134.2830720486136
 20
156.1757102576731
 30
0.0
 10
134.3457277712771
 20
156.4896315357708
 30
0.0
 10
134.415031930189
 20
156.9375065814311
 30
0.0
 10
134.4791505153908
 20
157.4362046836799
 30
0.0
 10
134.537342789177
 20
157.9442247739871
 30
0.0
 10
134.572049166007
 20
158.2794298637165
 30
0.0
 10
134.5892621712474
 20
158.4456784754447
 30
0.0
  0
SPLINE
  5
D0
330
1F
100
AcDbEntity
  8
0
  6
Continuous
 62
     7
370
    18
100
AcDbSpline
210
0.0
220
0.0
230
1.0
 70
     8
 71
     3
 72
    15
 73
    11
 74
     0
 42
0.000000001
 43
0.00000001
 40
0.0
 40
0.0
 40
0.0
 40
0.0
 40
0.1182516355970878
 40
0.220100362587617
 40
0.3443552309260891
 40
0.4484983330876
 40
0.5518947904759973
 40
0.6554579771295956
 40
0.8403937429057352
 40
1.0
 40
1.0
 40
1.0
 40
1.0
 10
136.593831567624
 20
155.3471675712071
 30
0.0
 10
136.6810600039857
 20
155.3590404335835
 30
0.0
 10
136.8434172548957
 20
155.3811392510823
 30
0.0
 10
137.0319875503377
 20
155.535368949252
 30
0.0
 10
137.1385117848803
 20
155.7098985548956
 30
0.0
 10
137.1867144954095
 20
155.8352438693557
 30
0.0
 10
137.2351397504598
 20
155.986086081396
 30
0.0
 10
137.2876654657447
 20
156.1971094313497
 30
0.0
 10
137.3425402838935
 20
156.4719599585904
 30
0.0
 10
137.3810333447622
 20
156.7273645546872
 30
0.0
 10
137.3988649384765
 20
156.8456786322795
 30
0.0
  0
SPLINE
  5
D1
330
1F
100
AcDbEntity
  8
0
  6
Continuous
 62
     7
370
    18
100
AcDbSpline
210
0.0
220
0.0
230
1.0
 70
     8
 71
     3
 72
    23
 73
    19
 74
     0
 42
0.000000001
 43
0.00000001
 40
0.0
 40
0.0
 40
0.0
 40
0.0
 40
0.0582231885153899
 40
0.1198074725633421
 40
0.184786752793744
 40
0.2532025401169967
 40
0.3223693495603349
 40
0.3885456625336461
 40
0.4517015857906152
 40
0.5118640671703353
 40
0.587431220346784
 40
0.6588511786644239
 40
0.7311586602859541
 40
0.8430920490097938
 40
0.8733810899428683
 40
0.909027806637732
 40
0.9511090767775842
 40
1.0
 40
1.0
 40
1.0
 40
1.0
 10
139.3756660209683
 20
161.0952926554173
 30
0.0
 10
139.3601145266086
 20
161.2744242404542
 30
0.0
 10
139.3281137846132
 20
161.6430282796141
 30
0.0
 10
139.2787257834884
 20
162.2100204156276
 30
0.0
 10
139.2265923581904
 20
162.7986227869997
 30
0.0
 10
139.172443552393
 20
163.3925264396083
 30
0.0
 10
139.117946288543
 20
163.9643599000156
 30
0.0
 10
139.0647369681661
 20
164.490403650892
 30
0.0
 10
139.0137582545442
 20
164.9582208744771
 30
0.0
 10
138.960059609228
 20
165.4088303654296
 30
0.0
 10
138.9035947147911
 20
165.828835203554
 30
0.0
 10
138.8437589286814
 20
166.2098617098338
 30
0.0
 10
138.7661297361114
 20
166.6033961671954
 30
0.0
 10
138.6953379393371
 20
166.8498920548689
 30
0.0
 10
138.6095413070205
 20
167.0318486882842
 30
0.0
 10
138.513589915192
 20
167.1701269467858
 30
0.0
 10
138.3459891333293
 20
167.3092523737904
 30
0.0
 10
138.1816852233138
 20
167.3320717643707
 30
0.0
 10
138.0933838473348
 20
167.3443355235658
 30
0.0
  0
SPLINE
  5
D2
330
1F
100
AcDbEntity
  8
0
  6
Continuous
 62
     7
370
    18
100
AcDbSpline
210
0.0
220
0.0
230
1.0
 70
     8
 71
     3
 72
    40
 73
    36
 74
     0
 42
0.000000001
 43
0.00000001
 40
0.0
 40
0.0
 40
0.0
 40
0.0
 40
0.0053205759155285
 40
0.0255168046227234
 40
0.0491767588833826
 40
0.0763654009467443
 40
0.1071124382297471
 40
0.1414265645029306
 40
0.17929710809798
 40
0.2202423470459812
 40
0.2596736796716046
 40
0.2964028687926537
 40
0.3410946950140716
 40
0.3808595115876102
 40
0.4159840737646312
 40
0.4485826915152279
 40
0.4790464300745709
 40
0.5118830760095462
 40
0.5419841870391757
 40
0.5768063521914468
 40
0.6163866987378681
 40
0.6607606229533289
 40
0.7074667260404922
 40
0.7498804710160853
 40
0.7876471765302748
 40
0.820761378926977
 40
0.835568072506054
 40
0.8492002598186171
 40
0.8616546129915915
 40
0.874770987761249
 40
0.8944325339938007
 40
0.9215782621333334
 40
0.9566876500954973
 40
0.9773440095906571
 40
1.0
 40
1.0
 40
1.0
 40
1.0
 10
136.9385084645537
 20
156.2041473213039
 30
0.0
 10
136.940525941464
 20
156.2021664206403
 30
0.0
 10
136.9502015038407
 20
156.1926662732857
 30
0.0
 10
136.9267917813066
 20
156.2505417032118
 30
0.0
 10
136.9090235128931
 20
156.332954068983
 30
0.0
 10
136.8762718943122
 20
156.4813321585559
 30
0.0
 10
136.838155552878
 20
156.69330286574
 30
0.0
 10
136.792357048417
 20
156.9857274441104
 30
0.0
 10
136.7405469970916
 20
157.3670297429519
 30
0.0
 10
136.6851803122774
 20
157.8284897833475
 30
0.0
 10
136.6301815513526
 20
158.3376090009701
 30
0.0
 10
136.5732255447189
 20
158.905502852753
 30
0.0
 10
136.5158817271456
 20
159.513118949572
 30
0.0
 10
136.45914337082
 20
160.141460916621
 30
0.0
 10
136.4080689546216
 20
160.721854390322
 30
0.0
 10
136.3614433505282
 20
161.2583275261209
 30
0.0
 10
136.3159120815928
 20
161.7832726419663
 30
0.0
 10
136.2715551937727
 20
162.291382150541
 30
0.0
 10
136.2250781998048
 20
162.8152558116818
 30
0.0
 10
136.1753108702437
 20
163.361642408723
 30
0.0
 10
136.1186657629129
 20
163.9573569152536
 30
0.0
 10
136.056253600485
 20
164.5726151231848
 30
0.0
 10
135.992325804345
 20
165.1463686862619
 30
0.0
 10
135.9311034936134
 20
165.6318029152892
 30
0.0
 10
135.8758954477365
 20
166.0100428752389
 30
0.0
 10
135.8334754233554
 20
166.2580826177191
 30
0.0
 10
135.8025416960406
 20
166.4170502641173
 30
0.0
 10
135.7815105035768
 20
166.5160564310785
 30
0.0
 10
135.761602454452
 20
166.6019319204558
 30
0.0
 10
135.7353562794649
 20
166.705802733325
 30
0.0
 10
135.6796906934365
 20
166.877637632662
 30
0.0
 10
135.5723931044186
 20
167.0884432582262
 30
0.0
 10
135.4177416631715
 20
167.2457959880905
 30
0.0
 10
135.2471382378777
 20
167.3325243369696
 30
0.0
 10
135.1461579476709
 20
167.3404163966055
 30
0.0
 10
135.0933367894677
 20
167.3445446054838
 30
0.0
  0
LWPOLYLINE
  5
D3
330
1F
100
AcDbEntity
  8
0
  6
Continuous
 62
     7
370
    18
100
AcDbPolyline
 90
       32
 70
   128
 43
0.0
 10
133.9001300322
 20
156.255651788
 10
133.9093836533
 20
156.2552992824
 10
133.905133097
 20
156.3127977412
 10
133.8837294416
 20
156.433513445
 10
133.8492258029
 20
156.6289556782
 10
133.8050755249
 20
156.9075468566
 10
133.7539291518
 20
157.2738867822
 10
133.7000800805
 20
157.7092146605
 10
133.6481644349
 20
158.1738456722
 10
133.5983349519
 20
158.6562879953
 10
133.5506773131
 20
159.1460074402
 10
133.4906349467
 20
159.7939602203
 10
133.4348133342
 20
160.4188412299
 10
133.3865056323
 20
160.9703953423
 10
133.3473733203
 20
161.4205739303
 10
133.3135365085
 20
161.8098191089
 10
133.2672907548
 20
162.3380210354
 10
133.222982152
 20
162.8358173754
 10
133.170349388
 20
163.4105500403
 10
133.1093105064
 20
164.0456577867
 10
133.0399456011
 20
164.7140381962
 10
132.9699585722
 20
165.3178344119
 10
132.9029685395
 20
165.8176477637
 10
132.838087021
 20
166.2204177688
 10
132.7742113309
 20
166.5358474116
 10
132.710056244
 20
166.7767242167
 10
132.6441893862
 20
166.9554678361
 10
132.595473765
 20
167.048591246
 10
132.5014343993
 20
167.1712911326
 10
132.3379835622
 20
167.2904319699
 10
132.0932226764
 20
167.345563938
 10
132.0932226764
 20
167.345563938
  0
LWPOLYLINE
  5
D4
330
1F
100
AcDbEntity
  8
0
  6
Continuous
 62
     7
370
    18
100
AcDbPolyline
 90
        3
 70
   128
 43
0.0
 10
139.829203351
 20
169.3456788185
 10
139.605203508
 20
169.1216785099
 10
139.4292040305
 20
168.9456785667
  0
LWPOLYLINE
  5
D5
330
1F
100
AcDbEntity
  8
0
  6
Continuous
 62
     7
370
    18
100
AcDbPolyline
 90
        3
 70
   128
 43
0.0
 10
139.4292040305
 20
153.7456783104
 10
139.6532038735
 20
153.5216784674
 10
139.829203351
 20
153.3456780586
  0
LWPOLYLINE
  5
D6
330
1F
100
AcDbEntity
  8
0
  6
Continuous
 62
     7
370
    18
100
AcDbPolyline
 90
        3
 70
   128
 43
0.0
 10
141.0292031752
 20
153.3456780586
 10
141.2532030182
 20
153.5696783672
 10
141.4292043583
 20
153.7456783104
  0
LWPOLYLINE
  5
D7
330
1F
100
AcDbEntity
  8
0
  6
Continuous
 62
     7
370
    18
100
AcDbPolyline
 90
        3
 70
   128
 43
0.0
 10
141.4292043583
 20
168.9456785667
 10
141.2052026527
 20
169.1696784097
 10
141.0292031752
 20
169.3456788185
  0
LINE
  5
D8
330
1F
100
AcDbEntity
  8
0
  6
Continuous
 62
     7
370
    18
100
AcDbLine
 10
141.0292031752
 20
169.3456788185
 30
0.0
 11
139.829203351
 21
169.3456788185
 31
0.0
  0
LINE
  5
D9
330
1F
100
AcDbEntity
  8
0
  6
Continuous
 62
     7
370
    18
100
AcDbLine
 10
139.829203351
 20
153.3456780586
 30
0.0
 11
141.0292031752
 21
153.3456780586
 31
0.0
  0
LWPOLYLINE
  5
DA
330
1F
100
AcDbEntity
  8
0
  6
Continuous
 62
     7
370
    18
100
AcDbPolyline
 90
        3
 70
   128
 43
0.0
 10
161.4292039113
 20
155.3456783864
 10
161.9892044501
 20
155.9056784596
 10
162.4292022126
 20
156.3456785503
  0
LINE
  5
DB
330
1F
100
AcDbEntity
  8
0
  6
Continuous
 62
     7
370
    18
100
AcDbLine
 10
161.4292039113
 20
167.3456784907
 30
0.0
 11
141.4292043583
 21
167.3456784907
 31
0.0
  0
LINE
  5
DC
330
1F
100
AcDbEntity
  8
0
  6
Continuous
 62
     7
370
    18
100
AcDbLine
 10
141.4292043583
 20
155.3456783864
 30
0.0
 11
161.4292039113
 21
155.3456783864
 31
0.0
  0
LWPOLYLINE
  5
DD
330
1F
100
AcDbEntity
  8
0
  6
Continuous
 62
     7
370
    18
100
AcDbPolyline
 90
        3
 70
   128
 43
0.0
 10
136.8292028593
 20
165.8456782448
 10
136.6052030163
 20
165.6216784018
 10
136.4292035388
 20
165.4456784587
  0
LINE
  5
DE
330
1F
100
AcDbEntity
  8
0
  6
Continuous
 62
     7
370
    18
100
AcDbLine
 10
139.4292040305
 20
165.8456782448
 30
0.0
 11
138.8993280517
 21
165.8456782448
 31
0.0
  0
LINE
  5
DF
330
1F
100
AcDbEntity
  8
0
  6
Continuous
 62
     7
370
    18
100
AcDbLine
 10
137.8925087439
 20
165.8456782448
 30
0.0
 11
136.8292028593
 21
165.8456782448
 31
0.0
  0
LINE
  5
E0
330
1F
100
AcDbEntity
  8
0
  6
Continuous
 62
     7
370
    18
100
AcDbLine
 10
136.8292028593
 20
156.8456786323
 30
0.0
 11
139.4292040305
 21
156.8456786323
 31
0.0
  0
LWPOLYLINE
  5
E1
330
1F
100
AcDbEntity
  8
0
  6
Continuous
 62
     7
370
    18
100
AcDbPolyline
 90
        3
 70
   128
 43
0.0
 10
162.4293437736
 20
166.3455372314
 10
161.8692650037
 20
166.9056160014
 10
161.4292039113
 20
167.3456784907
  0
LINE
  5
E2
330
1F
100
AcDbEntity
  8
0
  6
Continuous
 62
     7
370
    18
100
AcDbLine
 10
130.1292030649
 20
168.3456786546
 30
0.0
 11
128.7292035805
 21
168.3456786546
 31
0.0
  0
LINE
  5
E3
330
1F
100
AcDbEntity
  8
0
  6
Continuous
 62
     7
370
    18
100
AcDbLine
 10
128.8791930811
 20
154.3456782225
 30
0.0
 11
130.1292030649
 21
154.3456782225
 31
0.0
  0
LINE
  5
E4
330
1F
100
AcDbEntity
  8
0
  6
Continuous
 62
     7
370
    18
100
AcDbLine
 10
124.1292039441
 20
168.3456786546
 30
0.0
 11
122.7292035283
 21
168.3456786546
 31
0.0
  0
LINE
  5
E5
330
1F
100
AcDbEntity
  8
0
  6
Continuous
 62
     7
370
    18
100
AcDbLine
 10
122.7292035283
 20
154.3456782225
 30
0.0
 11
123.9792135121
 21
154.3456782225
 31
0.0
  0
SPLINE
  5
E6
330
1F
100
AcDbEntity
  8
0
  6
Continuous
 62
     7
370
    18
100
AcDbSpline
210
0.0
220
0.0
230
1.0
 70
     8
 71
     3
 72
    13
 73
     9
 74
     0
 42
0.000000001
 43
0.00000001
 40
0.0
 40
0.0
 40
0.0
 40
0.0
 40
0.2394574322037146
 40
0.368360978420422
 40
0.4999993869342706
 40
0.6316385653189425
 40
0.7605425677962853
 40
0.9999999999999999
 40
0.9999999999999999
 40
0.9999999999999999
 40
0.9999999999999999
 10
128.7292035804776
 20
168.3456786546312
 30
0.0
 10
128.691464582265
 20
168.3416711464859
 30
0.0
 10
128.6334101122981
 20
168.3355063362821
 30
0.0
 10
128.5635651198883
 20
168.2980973956255
 30
0.0
 10
128.5155033888749
 20
168.2593786879381
 30
0.0
 10
128.4767850891777
 20
168.2113166380507
 30
0.0
 10
128.4393752131629
 20
168.1414719187106
 30
0.0
 10
128.4332105599213
 20
168.0834172885393
 30
0.0
 10
128.4292031587748
 20
168.0456782329283
 30
0.0
  0
SPLINE
  5
E7
330
1F
100
AcDbEntity
  8
0
  6
Continuous
 62
     7
370
    18
100
AcDbSpline
210
0.0
220
0.0
230
1.0
 70
     8
 71
     3
 72
    13
 73
     9
 74
     0
 42
0.000000001
 43
0.00000001
 40
0.0
 40
0.0
 40
0.0
 40
0.0
 40
0.2394577486192465
 40
0.3683610089119844
 40
0.500000361242732
 40
0.6316404834482913
 40
0.7605441999962502
 40
1.0
 40
1.0
 40
1.0
 40
1.0
 10
124.4292034344463
 20
168.0456782329283
 30
0.0
 10
124.4251958513825
 20
168.083417197664
 30
0.0
 10
124.4190309335664
 20
168.141471544226
 30
0.0
 10
124.3816225709145
 20
168.2113168442286
 30
0.0
 10
124.3429040380905
 20
168.2593789946001
 30
0.0
 10
124.2948415681902
 20
168.2980971203813
 30
0.0
 10
124.2249968155719
 20
168.3355062686474
 30
0.0
 10
124.1669426420821
 20
168.3416711267566
 30
0.0
 10
124.129203944066
 20
168.3456786546312
 30
0.0
  0
SPLINE
  5
E8
330
1F
100
AcDbEntity
  8
0
  6
Continuous
 62
     7
370
    18
100
AcDbSpline
210
0.0
220
0.0
230
1.0
 70
     8
 71
     3
 72
    13
 73
     9
 74
     0
 42
0.000000001
 43
0.00000001
 40
0.0
 40
0.0
 40
0.0
 40
0.0
 40
0.2394575116194994
 40
0.3683604442436021
 40
0.4999994619506418
 40
0.6316377097877979
 40
0.7605428600759371
 40
1.0
 40
1.0
 40
1.0
 40
1.0
 10
130.4292044179229
 20
168.0456782329283
 30
0.0
 10
130.4251964213905
 20
168.0834171707129
 30
0.0
 10
130.4190308708792
 20
168.1414714442814
 30
0.0
 10
130.3816226837145
 20
168.2113168960857
 30
0.0
 10
130.3429040962619
 20
168.2593786205695
 30
0.0
 10
130.294842317106
 20
168.2980976899936
 30
0.0
 10
130.2249966532151
 20
168.335506005596
 30
0.0
 10
130.1669420010754
 20
168.3416710278219
 30
0.0
 10
130.1292030648974
 20
168.3456786546312
 30
0.0
  0
SPLINE
  5
E9
330
1F
100
AcDbEntity
  8
0
  6
Continuous
 62
     7
370
    18
100
AcDbSpline
210
0.0
220
0.0
230
1.0
 70
     8
 71
     3
 72
    13
 73
     9
 74
     0
 42
0.000000001
 43
0.00000001
 40
0.0
 40
0.0
 40
0.0
 40
0.0
 40
0.239457139924063
 40
0.3683622902122021
 40
0.5000005380493583
 40
0.631639555756398
 40
0.7605424883805008
 40
1.0
 40
1.0
 40
1.0
 40
1.0
 10
130.1292030648974
 20
154.3456782224975
 30
0.0
 10
130.1669420010754
 20
154.3496858493068
 30
0.0
 10
130.2249966532151
 20
154.3558508715328
 30
0.0
 10
130.294842317106
 20
154.3932591871352
 30
0.0
 10
130.3429040962619
 20
154.4319782565593
 30
0.0
 10
130.3816226837145
 20
154.480039981043
 30
0.0
 10
130.4190308708792
 20
154.5498854328473
 30
0.0
 10
130.4251964213905
 20
154.6079397064158
 30
0.0
 10
130.4292044179229
 20
154.6456786442004
 30
0.0
  0
SPLINE
  5
EA
330
1F
100
AcDbEntity
  8
0
  6
Continuous
 62
     7
370
    18
100
AcDbSpline
210
0.0
220
0.0
230
1.0
 70
     8
 71
     3
 72
    13
 73
     9
 74
     0
 42
0.000000001
 43
0.00000001
 40
0.0
 40
0.0
 40
0.0
 40
0.0
 40
0.2394574322037146
 40
0.368360978420422
 40
0.4999993869342706
 40
0.6316385653189425
 40
0.7605425677962853
 40
0.9999999999999999
 40
0.9999999999999999
 40
0.9999999999999999
 40
0.9999999999999999
 10
122.7292035283236
 20
168.3456786546312
 30
0.0
 10
122.6914645301109
 20
168.3416711464859
 30
0.0
 10
122.633410060144
 20
168.3355063362821
 30
0.0
 10
122.5635650677342
 20
168.2980973956255
 30
0.0
 10
122.5155033367208
 20
168.2593786879381
 30
0.0
 10
122.4767850370236
 20
168.2113166380507
 30
0.0
 10
122.4393751610089
 20
168.1414719187106
 30
0.0
 10
122.4332105077672
 20
168.0834172885393
 30
0.0
 10
122.4292031066207
 20
168.0456782329283
 30
0.0
  0
SPLINE
  5
EB
330
1F
100
AcDbEntity
  8
0
  6
Continuous
 62
     7
370
    18
100
AcDbSpline
210
0.0
220
0.0
230
1.0
 70
     8
 71
     3
 72
    13
 73
     9
 74
     0
 42
0.000000001
 43
0.00000001
 40
0.0
 40
0.0
 40
0.0
 40
0.0
 40
0.2394574322037146
 40
0.3683614346810574
 40
0.5000006130657293
 40
0.6316390215795779
 40
0.7605425677962853
 40
0.9999999999999999
 40
0.9999999999999999
 40
0.9999999999999999
 40
0.9999999999999999
 10
122.4292031066207
 20
154.6456786442004
 30
0.0
 10
122.4332105077672
 20
154.6079395885894
 30
0.0
 10
122.4393751610089
 20
154.5498849584181
 30
0.0
 10
122.4767850370236
 20
154.480040239078
 30
0.0
 10
122.5155033367208
 20
154.4319781891906
 30
0.0
 10
122.5635650677342
 20
154.3932594815032
 30
0.0
 10
122.633410060144
 20
154.3558505408466
 30
0.0
 10
122.6914645301109
 20
154.3496857306428
 30
0.0
 10
122.7292035283236
 20
154.3456782224975
 30
0.0
  0
SPLINE
  5
EC
330
1F
100
AcDbEntity
  8
0
  6
Continuous
 62
     7
370
    18
100
AcDbSpline
210
0.0
220
0.0
230
1.0
 70
     8
 71
     3
 72
    13
 73
     9
 74
     0
 42
0.000000001
 43
0.00000001
 40
0.0
 40
0.0
 40
0.0
 40
0.0
 40
0.2394567603373131
 40
0.3683608945445975
 40
0.5000000149861686
 40
0.6316394842427863
 40
0.7605433903187677
 40
0.9999999999999999
 40
0.9999999999999999
 40
0.9999999999999999
 40
0.9999999999999999
 10
115.1292035165889
 20
155.8456784683667
 30
0.0
 10
115.1669424595403
 20
155.8496856874734
 30
0.0
 10
115.2249969941675
 20
155.8558500689371
 30
0.0
 10
115.2948415425036
 20
155.893259922399
 30
0.0
 10
115.3429036930372
 20
155.9319783143402
 30
0.0
 10
115.3816221551027
 20
155.9800404086454
 30
0.0
 10
115.4190315981716
 20
156.0498851441032
 30
0.0
 10
115.4251962152051
 20
156.1079395500461
 30
0.0
 10
115.4292035890458
 20
156.1456784244083
 30
0.0
  0
SPLINE
  5
ED
330
1F
100
AcDbEntity
  8
0
  6
Continuous
 62
     7
370
    18
100
AcDbSpline
210
0.0
220
0.0
230
1.0
 70
     8
 71
     3
 72
    13
 73
     9
 74
     0
 42
0.000000001
 43
0.00000001
 40
0.0
 40
0.0
 40
0.0
 40
0.0
 40
0.2394566096812322
 40
0.3683605157572137
 40
0.4999999850138314
 40
0.6316391054554025
 40
0.7605432396626868
 40
0.9999999999999999
 40
0.9999999999999999
 40
0.9999999999999999
 40
0.9999999999999999
 10
115.4292035890458
 20
166.5456784527205
 30
0.0
 10
115.4251962152051
 20
166.5834173270827
 30
0.0
 10
115.4190315981716
 20
166.6414717330256
 30
0.0
 10
115.3816221551027
 20
166.7113164684833
 30
0.0
 10
115.3429036930371
 20
166.7593785627885
 30
0.0
 10
115.2948415425036
 20
166.7980969547298
 30
0.0
 10
115.2249969941675
 20
166.8355068081916
 30
0.0
 10
115.1669424595403
 20
166.8416711896554
 30
0.0
 10
115.1292035165889
 20
166.845678408762
 30
0.0
  0
SPLINE
  5
EE
330
1F
100
AcDbEntity
  8
0
  6
Continuous
 62
     7
370
    18
100
AcDbSpline
210
0.0
220
0.0
230
1.0
 70
     8
 71
     3
 72
    13
 73
     9
 74
     0
 42
0.000000001
 43
0.00000001
 40
0.0
 40
0.0
 40
0.0
 40
0.0
 40
0.2394567725192567
 40
0.368360885762368
 40
0.5000001211641835
 40
0.6316395482593006
 40
0.760543369997391
 40
1.0
 40
1.0
 40
1.0
 40
1.0
 10
113.7292035083001
 20
166.845678408762
 30
0.0
 10
113.6914645624433
 20
166.8416711940278
 30
0.0
 10
113.6334100276841
 20
166.8355068197509
 30
0.0
 10
113.5635654893311
 20
166.7980969294136
 30
0.0
 10
113.515503287369
 20
166.7593785953989
 30
0.0
 10
113.4767848439375
 20
166.7113164774076
 30
0.0
 10
113.4393755482811
 20
166.641471696536
 30
0.0
 10
113.4332108932458
 20
166.5834173186228
 30
0.0
 10
113.429203493665
 20
166.5456784527205
 30
0.0
  0
SPLINE
  5
EF
330
1F
100
AcDbEntity
  8
0
  6
Continuous
 62
     7
370
    18
100
AcDbSpline
210
0.0
220
0.0
230
1.0
 70
     8
 71
     3
 72
    13
 73
     9
 74
     0
 42
0.000000001
 43
0.00000001
 40
0.0
 40
0.0
 40
0.0
 40
0.0
 40
0.2394566300026089
 40
0.3683604517406994
 40
0.4999998788358165
 40
0.631639114237632
 40
0.7605432274807433
 40
1.0
 40
1.0
 40
1.0
 40
1.0
 10
113.429203493665
 20
156.1456784244083
 30
0.0
 10
113.4332108932458
 20
156.1079395585059
 30
0.0
 10
113.4393755482811
 20
156.0498851805927
 30
0.0
 10
113.4767848439375
 20
155.9800403997211
 30
0.0
 10
113.515503287369
 20
155.9319782817298
 30
0.0
 10
113.5635654893311
 20
155.8932599477152
 30
0.0
 10
113.6334100276841
 20
155.8558500573779
 30
0.0
 10
113.6914645624433
 20
155.8496856831009
 30
0.0
 10
113.7292035083001
 20
155.8456784683667
 30
0.0
  0
LINE
  5
F0
330
1F
100
AcDbEntity
  8
0
  6
Continuous
 62
     7
370
    18
100
AcDbLine
 10
115.1292035166
 20
166.8456784088
 30
0.0
 11
113.7292035083
 21
166.8456784088
 31
0.0
  0
LINE
  5
F1
330
1F
100
AcDbEntity
  8
0
  6
Continuous
 62
     7
370
    18
100
AcDbLine
 10
113.7292035083
 20
155.8456784684
 30
0.0
 11
115.1292035166
 21
155.8456784684
 31
0.0
  0
SPLINE
  5
F2
330
1F
100
AcDbEntity
  8
0
  6
Continuous
 62
     7
370
    18
100
AcDbSpline
210
0.0
220
0.0
230
1.0
 70
     8
 71
     3
 72
    13
 73
     9
 74
     0
 42
0.000000001
 43
0.00000001
 40
0.0
 40
0.0
 40
0.0
 40
0.0
 40
0.2394573173452735
 40
0.3683591403673424
 40
0.5000012927832058
 40
0.6316397403193129
 40
0.7605428684928158
 40
0.9999999999999999
 40
0.9999999999999999
 40
0.9999999999999999
 40
0.9999999999999999
 10
131.1292032288102
 20
156.8456786322795
 30
0.0
 10
131.1669423266385
 20
156.8496857761665
 30
0.0
 10
131.2249966880103
 20
156.8558499982247
 30
0.0
 10
131.2948412686267
 20
156.8932602221818
 30
0.0
 10
131.342903927966
 20
156.9319779306901
 30
0.0
 10
131.3816228910939
 20
156.9800400412765
 30
0.0
 10
131.4190312101826
 20
157.0498852252884
 30
0.0
 10
131.4251955282061
 20
157.1079396156266
 30
0.0
 10
131.4292027191905
 20
157.145678588321
 30
0.0
  0
SPLINE
  5
F3
330
1F
100
AcDbEntity
  8
0
  6
Continuous
 62
     7
370
    18
100
AcDbSpline
210
0.0
220
0.0
230
1.0
 70
     8
 71
     3
 72
    13
 73
     9
 74
     0
 42
0.000000001
 43
0.00000001
 40
0.0
 40
0.0
 40
0.0
 40
0.0
 40
0.2394571315071841
 40
0.3683602596806871
 40
0.4999987072167941
 40
0.6316408596326576
 40
0.7605426826547265
 40
1.0
 40
1.0
 40
1.0
 40
1.0
 10
131.4292027191905
 20
165.5456782888077
 30
0.0
 10
131.4251955282061
 20
165.5834172615021
 30
0.0
 10
131.4190312101826
 20
165.6414716518404
 30
0.0
 10
131.3816228910939
 20
165.7113168358523
 30
0.0
 10
131.342903927966
 20
165.7593789464386
 30
0.0
 10
131.2948412686267
 20
165.798096654947
 30
0.0
 10
131.2249966880103
 20
165.8355068789041
 30
0.0
 10
131.1669423266385
 20
165.8416711009622
 30
0.0
 10
131.1292032288102
 20
165.8456782448493
 30
0.0
  0
LINE
  5
F4
330
1F
100
AcDbEntity
  8
0
  6
Continuous
 62
     7
370
    18
100
AcDbLine
 10
131.1292032288
 20
165.8456782448
 30
0.0
 11
130.4292044179
 21
165.8456782448
 31
0.0
  0
LINE
  5
F5
330
1F
100
AcDbEntity
  8
0
  6
Continuous
 62
     7
370
    18
100
AcDbLine
 10
130.4292044179
 20
156.8456786323
 30
0.0
 11
131.1292032288
 21
156.8456786323
 31
0.0
  0
LINE
  5
F6
330
1F
100
AcDbEntity
  8
0
  6
Continuous
 62
     7
370
    18
100
AcDbLine
 10
128.4292031588
 20
165.8456782448
 30
0.0
 11
124.4292034344
 21
165.8456782448
 31
0.0
  0
LINE
  5
F7
330
1F
100
AcDbEntity
  8
0
  6
Continuous
 62
     7
370
    18
100
AcDbLine
 10
122.4292031066
 20
165.2456783328
 30
0.0
 11
115.429203589
 21
165.2456783328
 31
0.0
  0
LINE
  5
F8
330
1F
100
AcDbEntity
  8
0
  6
Continuous
 62
     7
370
    18
100
AcDbLine
 10
115.429203589
 20
157.4456785444
 30
0.0
 11
122.4292031066
 21
157.4456785444
 31
0.0
  0
SPLINE
  5
F9
330
1F
100
AcDbEntity
  8
0
  6
Continuous
 62
     7
370
    18
100
AcDbSpline
210
0.0
220
0.0
230
1.0
 70
     8
 71
     3
 72
    10
 73
     6
 74
     0
 42
0.000000001
 43
0.00000001
 40
0.0
 40
0.0
 40
0.0
 40
0.0
 40
0.2086867720230832
 40
0.4856003542499919
 40
1.0
 40
1.0
 40
1.0
 40
1.0
 10
162.3515448109893
 20
158.4461157313935
 30
0.0
 10
162.3615521236288
 20
158.4575883183169
 30
0.0
 10
162.3848384800937
 20
158.484284271396
 30
0.0
 10
162.4186711560329
 20
158.5502095639384
 30
0.0
 10
162.4250533894435
 20
158.6080674050088
 30
0.0
 10
162.429202212551
 20
158.6456783685289
 30
0.0
  0
SPLINE
  5
FA
330
1F
100
AcDbEntity
  8
0
  6
Continuous
 62
     7
370
    18
100
AcDbSpline
210
0.0
220
0.0
230
1.0
 70
     8
 71
     3
 72
    10
 73
     6
 74
     0
 42
0.000000001
 43
0.00000001
 40
0.0
 40
0.0
 40
0.0
 40
0.0
 40
0.5143996457500082
 40
0.7913132279769168
 40
1.0
 40
1.0
 40
1.0
 40
1.0
 10
162.429202212551
 20
164.0456785085998
 30
0.0
 10
162.4250533894435
 20
164.08328947212
 30
0.0
 10
162.4186711560328
 20
164.1411473131903
 30
0.0
 10
162.3848384800937
 20
164.2070726057327
 30
0.0
 10
162.3615521236288
 20
164.2337685588118
 30
0.0
 10
162.3515448109893
 20
164.2452411457352
 30
0.0
  0
SPLINE
  5
FB
330
1F
100
AcDbEntity
  8
0
  6
Continuous
 62
     7
370
    18
100
AcDbSpline
210
0.0
220
0.0
230
1.0
 70
     8
 71
     3
 72
    10
 73
     6
 74
     0
 42
0.000000001
 43
0.00000001
 40
0.0
 40
0.0
 40
0.0
 40
0.0
 40
0.5143996457500082
 40
0.7913132279769168
 40
1.0
 40
1.0
 40
1.0
 40
1.0
 10
163.1292028860835
 20
158.6456783685289
 30
0.0
 10
163.1333517091911
 20
158.6080674050088
 30
0.0
 10
163.1397339426017
 20
158.5502095639384
 30
0.0
 10
163.1735666185409
 20
158.484284271396
 30
0.0
 10
163.1968529750058
 20
158.4575883183169
 30
0.0
 10
163.2068602876452
 20
158.4461157313935
 30
0.0
  0
SPLINE
  5
FC
330
1F
100
AcDbEntity
  8
0
  6
Continuous
 62
     7
370
    18
100
AcDbSpline
210
0.0
220
0.0
230
1.0
 70
     8
 71
     3
 72
    10
 73
     6
 74
     0
 42
0.000000001
 43
0.00000001
 40
0.0
 40
0.0
 40
0.0
 40
0.0
 40
0.2086867720230832
 40
0.4856003542499919
 40
1.0
 40
1.0
 40
1.0
 40
1.0
 10
163.2068602876452
 20
164.2452411457352
 30
0.0
 10
163.1968529750058
 20
164.2337685588118
 30
0.0
 10
163.1735666185409
 20
164.2070726057327
 30
0.0
 10
163.1397339426017
 20
164.1411473131903
 30
0.0
 10
163.1333517091911
 20
164.08328947212
 30
0.0
 10
163.1292028860835
 20
164.0456785085998
 30
0.0
  0
LWPOLYLINE
  5
FD
330
1F
100
AcDbEntity
  8
0
  6
Continuous
 62
     7
370
    18
100
AcDbPolyline
 90
        3
 70
   128
 43
0.0
 10
164.0276758508
 20
158.4441497094
 10
164.2092017965
 20
158.6256784491
 10
164.4292025404
 20
158.8456784944
  0
LWPOLYLINE
  5
FE
330
1F
100
AcDbEntity
  8
0
  6
Continuous
 62
     7
370
    18
100
AcDbPolyline
 90
        3
 70
   128
 43
0.0
 10
164.4292025404
 20
163.8456783827
 10
164.149202271
 20
164.1256784193
 10
164.0276758508
 20
164.2472071677
  0
LWPOLYLINE
  5
FF
330
1F
100
AcDbEntity
  8
0
  6
Continuous
 62
     7
370
    18
100
AcDbPolyline
 90
        3
 70
   128
 43
0.0
 10
124.0792030977
 20
149.5456779945
 10
124.2752036588
 20
148.1456785101
 10
124.4292034344
 20
147.0456785161
  0
LWPOLYLINE
  5
100
330
1F
100
AcDbEntity
  8
0
  6
Continuous
 62
     7
370
    18
100
AcDbPolyline
 90
        3
 70
   128
 43
0.0
 10
128.4292031588
 20
147.0456785161
 10
128.6252037199
 20
148.4456780005
 10
128.7792034955
 20
149.5456779945
  0
LWPOLYLINE
  5
101
330
1F
100
AcDbEntity
  8
0
  6
Continuous
 62
     7
370
    18
100
AcDbPolyline
 90
        3
 70
   128
 43
0.0
 10
124.0792030977
 20
152.0456784043
 10
124.2752036588
 20
150.6456779885
 10
124.4292034344
 20
149.5456779945
  0
LWPOLYLINE
  5
102
330
1F
100
AcDbEntity
  8
0
  6
Continuous
 62
     7
370
    18
100
AcDbPolyline
 90
        3
 70
   128
 43
0.0
 10
128.4292031588
 20
149.5456779945
 10
128.6252037199
 20
150.9456784103
 10
128.7792034955
 20
152.0456784043
  0
LINE
  5
103
330
1F
100
AcDbEntity
  8
0
  6
Continuous
 62
     7
370
    18
100
AcDbLine
 10
124.2792036893
 20
154.0456819917
 30
0.0
 11
124.2792036893
 21
152.0456784043
 31
0.0
  0
LINE
  5
104
330
1F
100
AcDbEntity
  8
0
  6
Continuous
 62
     7
370
    18
100
AcDbLine
 10
128.5792038353
 20
152.0456784043
 30
0.0
 11
128.5792038353
 21
154.0456819917
 31
0.0
  0
LINE
  5
105
330
1F
100
AcDbEntity
  8
0
  6
Continuous
 62
     7
370
    18
100
AcDbLine
 10
162.5292039053
 20
163.3456785336
 30
0.0
 11
162.4292022126
 21
163.3456785336
 31
0.0
  0
LINE
  5
106
330
1F
100
AcDbEntity
  8
0
  6
Continuous
 62
     7
370
    18
100
AcDbLine
 10
162.4292022126
 20
159.3456783436
 30
0.0
 11
162.5292039053
 21
159.3456783436
 31
0.0
  0
SPLINE
  5
107
330
1F
100
AcDbEntity
  8
0
  6
Continuous
 62
     7
370
    18
100
AcDbSpline
210
0.0
220
0.0
230
1.0
 70
     8
 71
     3
 72
    13
 73
     9
 74
     0
 42
0.000000001
 43
0.00000001
 40
0.0
 40
0.0
 40
0.0
 40
0.0
 40
0.2394573265314562
 40
0.3683614722055296
 40
0.500000026953712
 40
0.6316407468337844
 40
0.760544436246755
 40
1.0
 40
1.0
 40
1.0
 40
1.0
 10
128.5792038352875
 20
154.045678266456
 30
0.0
 10
128.5832108451257
 20
154.0834173284812
 30
0.0
 10
128.5893748997592
 20
154.1414720000531
 30
0.0
 10
128.6267847263929
 20
154.2113166150606
 30
0.0
 10
128.665503475374
 20
154.2593785871207
 30
0.0
 10
128.7135655405677
 20
154.2980971939699
 30
0.0
 10
128.7834104546253
 20
154.3355063002296
 30
0.0
 10
128.8414646340458
 20
154.3416708779687
 30
0.0
 10
128.8792033256678
 20
154.3456782224975
 30
0.0
  0
SPLINE
  5
108
330
1F
100
AcDbEntity
  8
0
  6
Continuous
 62
     7
370
    18
100
AcDbSpline
210
0.0
220
0.0
230
1.0
 70
     8
 71
     3
 72
    13
 73
     9
 74
     0
 42
0.000000001
 43
0.00000001
 40
0.0
 40
0.0
 40
0.0
 40
0.0
 40
0.2394573254595051
 40
0.3683609142557442
 40
0.4999999916448644
 40
0.6316384436415958
 40
0.7605424886985817
 40
1.0
 40
1.0
 40
1.0
 40
1.0
 10
123.9792032675532
 20
154.3456782224975
 30
0.0
 10
124.0169422554855
 20
154.3416708957913
 30
0.0
 10
124.0749967254047
 20
154.3355063630237
 30
0.0
 10
124.144841908588
 20
154.2980974787658
 30
0.0
 10
124.1929031391717
 20
154.2593782430448
 30
0.0
 10
124.2316219235665
 20
154.211316659271
 30
0.0
 10
124.2690315805986
 20
154.1414719039862
 30
0.0
 10
124.2751962667295
 20
154.0834173030574
 30
0.0
 10
124.2792036892561
 20
154.045678266456
 30
0.0
  0
SPLINE
  5
109
330
1F
100
AcDbEntity
  8
0
  6
Continuous
 62
     7
370
    18
100
AcDbSpline
210
0.0
220
0.0
230
1.0
 70
    24
 71
     3
 72
    32
 73
    28
 74
     0
 42
0.000000001
 43
0.00000001
 40
0.0
 40
0.0
 40
0.0
 40
0.0
 40
0.0421932377586434
 40
0.0772581515289731
 40
0.1128233940377996
 40
0.1486427589684177
 40
0.1849843448704349
 40
0.2552968367663114
 40
0.2913730623048483
 40
0.3277146319646187
 40
0.39828334883172
 40
0.4341027013913261
 40
0.4704442723737604
 40
0.5055091953350767
 40
0.5408175730941074
 40
0.5768938032732192
 40
0.6132353690459478
 40
0.6483002812631784
 40
0.6838655285221686
 40
0.7196848969602332
 40
0.7560264668418816
 40
0.791091376214015
 40
0.8266566277085527
 40
0.8624760017329781
 40
0.8988175723731022
 40
0.9491371696765112
 40
1.0
 40
1.0
 40
1.0
 40
1.0
 10
162.5292039053229
 20
156.8537867266141
 30
0.0
 10
162.5292039053229
 20
156.8545533395963
 30
0.0
 10
162.529203905323
 20
156.8559570503589
 30
0.0
 10
162.5292039053229
 20
156.9164974383863
 30
0.0
 10
162.529203905323
 20
156.9994991515871
 30
0.0
 10
162.5292039053229
 20
157.1159808810253
 30
0.0
 10
162.5292039053229
 20
157.3098850183964
 30
0.0
 10
162.5292039053229
 20
157.5626577102385
 30
0.0
 10
162.5292039053229
 20
157.8674039364359
 30
0.0
 10
162.529203905323
 20
158.2061194523784
 30
0.0
 10
162.5292039053229
 20
158.5907695552762
 30
0.0
 10
162.5292039053229
 20
159.0121651319664
 30
0.0
 10
162.529203905323
 20
159.3456424809941
 30
0.0
 10
162.5292039053229
 20
159.6916335562828
 30
0.0
 10
162.529203905323
 20
160.048301900568
 30
0.0
 10
162.5292039053229
 20
160.4185459014815
 30
0.0
 10
162.5292039053229
 20
160.7946757679792
 30
0.0
 10
162.5292039053229
 20
161.1728833623535
 30
0.0
 10
162.529203905323
 20
161.5504738448268
 30
0.0
 10
162.5292039053229
 20
161.9311334633496
 30
0.0
 10
162.5292039053229
 20
162.305832831597
 30
0.0
 10
162.529203905323
 20
162.6727876374392
 30
0.0
 10
162.5292039053229
 20
163.0286550409235
 30
0.0
 10
162.5292039053229
 20
163.3769090124765
 30
0.0
 10
162.5292039053229
 20
163.7555554603618
 30
0.0
 10
162.5292039053229
 20
164.1576383022218
 30
0.0
 10
162.5292039053229
 20
164.4183745036037
 30
0.0
 10
162.5292039053229
 20
164.5494425307415
 30
0.0
  0
SPLINE
  5
10A
330
1F
100
AcDbEntity
  8
0
  6
Continuous
 62
     7
370
    18
100
AcDbSpline
210
0.0
220
0.0
230
1.0
 70
    24
 71
     3
 72
    32
 73
    28
 74
     0
 42
0.000000001
 43
0.00000001
 40
0.0
 40
0.0
 40
0.0
 40
0.0
 40
0.0421932096886103
 40
0.0772581001311903
 40
0.1128233189794118
 40
0.148642660080364
 40
0.1849842218052957
 40
0.22004909912207
 40
0.2556143142256005
 40
0.2914336627616518
 40
0.3277752082443475
 40
0.3628400997428398
 40
0.3984053312136053
 40
0.4342246599435537
 40
0.4705662067489124
 40
0.5408786748540794
 40
0.5769548810326396
 40
0.6132964226282961
 40
0.6483613115177781
 40
0.6839265351161601
 40
0.7197458797245564
 40
0.7560874254291301
 40
0.8263998799229252
 40
0.8624760932240175
 40
0.8988176396870663
 40
0.9491372035141924
 40
0.9999999999999999
 40
0.9999999999999999
 40
0.9999999999999999
 40
0.9999999999999999
 10
163.1292028860835
 20
156.8537867266141
 30
0.0
 10
163.1292028860835
 20
156.8545534355837
 30
0.0
 10
163.1292028860835
 20
156.8559573221043
 30
0.0
 10
163.1292028860835
 20
156.9164965568836
 30
0.0
 10
163.1292028860835
 20
156.9995025410031
 30
0.0
 10
163.1292028860835
 20
157.1159680483062
 30
0.0
 10
163.1292028860835
 20
157.2619615316868
 30
0.0
 10
163.1292028860835
 20
157.4366912069623
 30
0.0
 10
163.1292028860835
 20
157.6378799820449
 30
0.0
 10
163.1292028860835
 20
157.8680027863853
 30
0.0
 10
163.1292028860835
 20
158.1220899298075
 30
0.0
 10
163.1292028860835
 20
158.3984388854345
 30
0.0
 10
163.1292028860835
 20
158.6940487727226
 30
0.0
 10
163.1292028860835
 20
159.0122048564226
 30
0.0
 10
163.1292028860835
 20
159.4551283041998
 30
0.0
 10
163.1292028860835
 20
159.9281067620484
 30
0.0
 10
163.1292028860835
 20
160.4185246502903
 30
0.0
 10
163.1292028860835
 20
160.7946808908661
 30
0.0
 10
163.1292028860835
 20
161.1728832933265
 30
0.0
 10
163.1292028860835
 20
161.5504688828295
 30
0.0
 10
163.1292028860835
 20
161.931153645592
 30
0.0
 10
163.1292028860835
 20
162.4288977868509
 30
0.0
 10
163.1292028860835
 20
162.914761332101
 30
0.0
 10
163.1292028860835
 20
163.3760896573974
 30
0.0
 10
163.1292028860835
 20
163.7555651709187
 30
0.0
 10
163.1292028860835
 20
164.1576355226055
 30
0.0
 10
163.1292028860835
 20
164.4183735737545
 30
0.0
 10
163.1292028860835
 20
164.5494425307415
 30
0.0
  0
SPLINE
  5
10B
330
1F
100
AcDbEntity
  8
0
  6
Continuous
 62
     7
370
    18
100
AcDbSpline
210
0.0
220
0.0
230
1.0
 70
    24
 71
     3
 72
    10
 73
     6
 74
     0
 42
0.000000001
 43
0.00000001
 40
0.0
 40
0.0
 40
0.0
 40
0.0
 40
0.4334884620376235
 40
0.8669767277505177
 40
1.0
 40
1.0
 40
1.0
 40
1.0
 10
162.5292039053229
 20
164.5494425307415
 30
0.0
 10
162.529203905323
 20
164.5633514208405
 30
0.0
 10
162.529203905323
 20
164.5911691947391
 30
0.0
 10
162.5292039053229
 20
164.6081927989738
 30
0.0
 10
162.5292039053229
 20
164.6053159146721
 30
0.0
 10
162.5292039053229
 20
164.6046403899245
 30
0.0
  0
SPLINE
  5
10C
330
1F
100
AcDbEntity
  8
0
  6
Continuous
 62
     7
370
    18
100
AcDbSpline
210
0.0
220
0.0
230
1.0
 70
    24
 71
     3
 72
    10
 73
     6
 74
     0
 42
0.000000001
 43
0.00000001
 40
0.0
 40
0.0
 40
0.0
 40
0.0
 40
0.4334884620376235
 40
0.8669767277505177
 40
1.0
 40
1.0
 40
1.0
 40
1.0
 10
163.1292028860835
 20
164.5494425307415
 30
0.0
 10
163.1292028860835
 20
164.5633514208405
 30
0.0
 10
163.1292028860835
 20
164.5911691947391
 30
0.0
 10
163.1292028860835
 20
164.6081927989738
 30
0.0
 10
163.1292028860835
 20
164.6053159146721
 30
0.0
 10
163.1292028860835
 20
164.6046403899245
 30
0.0
  0
LINE
  5
10D
330
1F
100
AcDbEntity
  8
0
  6
Continuous
 62
     7
370
    18
100
AcDbLine
 10
162.5292039053
 20
164.6172709867
 30
0.0
 11
162.5292039053
 21
165.2921862538
 31
0.0
  0
LINE
  5
10E
330
1F
100
AcDbEntity
  8
0
  6
Continuous
 62
     7
370
    18
100
AcDbLine
 10
163.1292028861
 20
164.6462218474
 30
0.0
 11
163.1292028861
 21
165.2921862538
 31
0.0
  0
SPLINE
  5
10F
330
1F
100
AcDbEntity
  8
0
  6
Continuous
 62
     7
370
    18
100
AcDbSpline
210
0.0
220
0.0
230
1.0
 70
    24
 71
     3
 72
    11
 73
     7
 74
     0
 42
0.000000001
 43
0.00000001
 40
0.0
 40
0.0
 40
0.0
 40
0.0
 40
0.258529550493019
 40
0.5170598715825686
 40
0.7755902396998339
 40
1.0
 40
1.0
 40
1.0
 40
1.0
 10
162.5292039053229
 20
165.292186253836
 30
0.0
 10
162.5292039053229
 20
165.3133333625783
 30
0.0
 10
162.5292039053229
 20
165.3556276430959
 30
0.0
 10
162.5292039053229
 20
165.4038553025189
 30
0.0
 10
162.529203905323
 20
165.4347377959622
 30
0.0
 10
162.5292039053229
 20
165.4371651446457
 30
0.0
 10
162.5292039053229
 20
165.4382930706642
 30
0.0
  0
SPLINE
  5
110
330
1F
100
AcDbEntity
  8
0
  6
Continuous
 62
     7
370
    18
100
AcDbSpline
210
0.0
220
0.0
230
1.0
 70
    24
 71
     3
 72
    11
 73
     7
 74
     0
 42
0.000000001
 43
0.00000001
 40
0.0
 40
0.0
 40
0.0
 40
0.0
 40
0.258529550493019
 40
0.5170598715825686
 40
0.7755902396998339
 40
1.0
 40
1.0
 40
1.0
 40
1.0
 10
163.1292028860835
 20
165.292186253836
 30
0.0
 10
163.1292028860835
 20
165.3133333625783
 30
0.0
 10
163.1292028860835
 20
165.3556276430959
 30
0.0
 10
163.1292028860835
 20
165.4038553025189
 30
0.0
 10
163.1292028860835
 20
165.4347377959622
 30
0.0
 10
163.1292028860835
 20
165.4371651446457
 30
0.0
 10
163.1292028860835
 20
165.4382930706642
 30
0.0
  0
SPLINE
  5
111
330
1F
100
AcDbEntity
  8
0
  6
Continuous
 62
     7
370
    18
100
AcDbSpline
210
0.0
220
0.0
230
1.0
 70
     8
 71
     3
 72
    11
 73
     7
 74
     0
 42
0.000000001
 43
0.00000001
 40
0.0
 40
0.0
 40
0.0
 40
0.0
 40
0.2490395379884413
 40
0.4993424927796579
 40
0.7496645410929547
 40
0.9999999999999999
 40
0.9999999999999999
 40
0.9999999999999999
 40
0.9999999999999999
 10
138.3758614347962
 20
161.0951583994474
 30
0.0
 10
138.3836432551787
 20
161.092195987269
 30
0.0
 10
138.399246374344
 20
161.0862561341285
 30
0.0
 10
138.5135268519745
 20
161.078709504458
 30
0.0
 10
138.679508849782
 20
161.0734984316443
 30
0.0
 10
138.8102635530955
 20
161.0727870206035
 30
0.0
 10
138.8756426559476
 20
161.0724313055552
 30
0.0
  0
SPLINE
  5
112
330
1F
100
AcDbEntity
  8
0
  6
Continuous
 62
     7
370
    18
100
AcDbSpline
210
0.0
220
0.0
230
1.0
 70
     8
 71
     3
 72
    11
 73
     7
 74
     0
 42
0.000000001
 43
0.00000001
 40
0.0
 40
0.0
 40
0.0
 40
0.0
 40
0.0338166598290245
 40
0.5000000605706965
 40
0.9661826842236839
 40
0.9999999999999999
 40
0.9999999999999999
 40
0.9999999999999999
 40
0.9999999999999999
 10
131.4292027191905
 20
157.2866235497795
 30
0.0
 10
131.4318636906003
 20
157.2894020570551
 30
0.0
 10
131.4712077852794
 20
157.330483991615
 30
0.0
 10
131.4797266420058
 20
157.4310364755925
 30
0.0
 10
131.4712070176792
 20
157.5315879268163
 30
0.0
 10
131.4318636909221
 20
157.5726702134242
 30
0.0
 10
131.4292027191905
 20
157.5754487990789
 30
0.0
  0
SPLINE
  5
113
330
1F
100
AcDbEntity
  8
0
  6
Continuous
 62
     7
370
    18
100
AcDbSpline
210
0.0
220
0.0
230
1.0
 70
     8
 71
     3
 72
    12
 73
     8
 74
     0
 42
0.000000001
 43
0.00000001
 40
0.0
 40
0.0
 40
0.0
 40
0.0
 40
0.2493992572160697
 40
0.4987852410628514
 40
0.7481511730798409
 40
0.997505018671563
 40
1.0
 40
1.0
 40
1.0
 40
1.0
 10
138.8756426559476
 20
161.0724313055552
 30
0.0
 10
138.9408156476401
 20
161.0727859826354
 30
0.0
 10
139.0711581624294
 20
161.0734953179194
 30
0.0
 10
139.2403319151809
 20
161.0787177629728
 30
0.0
 10
139.3427661422433
 20
161.0862335139813
 30
0.0
 10
139.3885063533644
 20
161.0923304394901
 30
0.0
 10
139.3754138814136
 20
161.0952599664993
 30
0.0
 10
139.3752841787127
 20
161.0952889883347
 30
0.0
  0
LINE
  5
114
330
1F
100
AcDbEntity
  8
0
  6
Continuous
 62
     7
370
    18
100
AcDbLine
 10
139.829203351
 20
169.3373751465
 30
0.0
 11
139.829203351
 21
153.3456780586
 31
0.0
  0
LINE
  5
115
330
1F
100
AcDbEntity
  8
0
  6
Continuous
 62
     7
370
    18
100
AcDbLine
 10
139.829203351
 20
169.3456788185
 30
0.0
 11
139.829203351
 21
169.3373751465
 31
0.0
  0
LINE
  5
116
330
1F
100
AcDbEntity
  8
0
  6
Continuous
 62
     7
370
    18
100
AcDbLine
 10
139.4292040305
 20
153.7604132305
 30
0.0
 11
139.4292040305
 21
168.9377897988
 31
0.0
  0
LINE
  5
117
330
1F
100
AcDbEntity
  8
0
  6
Continuous
 62
     7
370
    18
100
AcDbLine
 10
141.0292031752
 20
169.3373751465
 30
0.0
 11
141.0292031752
 21
153.3456780586
 31
0.0
  0
LINE
  5
118
330
1F
100
AcDbEntity
  8
0
  6
Continuous
 62
     7
370
    18
100
AcDbLine
 10
141.0292031752
 20
169.3456788185
 30
0.0
 11
141.0292031752
 21
169.3373751465
 31
0.0
  0
SPLINE
  5
119
330
1F
100
AcDbEntity
  8
0
  6
Continuous
 62
     7
370
    18
100
AcDbSpline
210
0.0
220
0.0
230
1.0
 70
    24
 71
     3
 72
    31
 73
    27
 74
     0
 42
0.000000001
 43
0.00000001
 40
0.0
 40
0.0
 40
0.0
 40
0.0
 40
0.0422590381049129
 40
0.0845637725332791
 40
0.1268384884289281
 40
0.1690923332085008
 40
0.2114023024508747
 40
0.253677028337272
 40
0.2959308592942989
 40
0.3382408441347641
 40
0.3805155654223904
 40
0.4227694071495574
 40
0.4650793851382438
 40
0.507354106155572
 40
0.549607947773746
 40
0.5919179225450285
 40
0.6341926384406774
 40
0.6764464832202502
 40
0.718756452462624
 40
0.7610311783490212
 40
0.8032850093060482
 40
0.8455949941465134
 40
0.8878697154341396
 40
0.9301235571613066
 40
0.9724387863952421
 40
1.0
 40
1.0
 40
1.0
 40
1.0
 10
141.4292043583182
 20
168.9377897988461
 30
0.0
 10
141.4292043583182
 20
168.9101849590382
 30
0.0
 10
141.4292043583182
 20
168.8549454292472
 30
0.0
 10
141.4292043583182
 20
168.6088113004977
 30
0.0
 10
141.4292043583182
 20
168.2475058724479
 30
0.0
 10
141.4292043583182
 20
167.7659048571816
 30
0.0
 10
141.4292043583182
 20
167.1750133466593
 30
0.0
 10
141.4292043583182
 20
166.4840473723406
 30
0.0
 10
141.4292043583182
 20
165.705438402405
 30
0.0
 10
141.4292043583183
 20
164.8521286428584
 30
0.0
 10
141.4292043583182
 20
163.938749758479
 30
0.0
 10
141.4292043583182
 20
162.9811221470719
 30
0.0
 10
141.4292043583182
 20
161.9954499823697
 30
0.0
 10
141.4292043583182
 20
160.9986718235633
 30
0.0
 10
141.4292043583182
 20
160.007826651381
 30
0.0
 10
141.4292043583182
 20
159.039848898752
 30
0.0
 10
141.4292043583182
 20
158.1114224554286
 30
0.0
 10
141.4292043583182
 20
157.2382084121519
 30
0.0
 10
141.4292043583182
 20
156.4352847134738
 30
0.0
 10
141.4292043583182
 20
155.716577017414
 30
0.0
 10
141.4292043583182
 20
155.0938501567771
 30
0.0
 10
141.4292043583182
 20
154.5785257261906
 30
0.0
 10
141.4292043583183
 20
154.1778092181218
 30
0.0
 10
141.4292043583182
 20
153.9046274406248
 30
0.0
 10
141.4292043583182
 20
153.7585910037597
 30
0.0
 10
141.4292043583182
 20
153.7598937881681
 30
0.0
 10
141.4292043583182
 20
153.7604076425932
 30
0.0
  0
LINE
  5
11A
330
1F
100
AcDbEntity
  8
0
  6
Continuous
 62
     7
370
    18
100
AcDbLine
 10
161.4292039113
 20
155.3456783864
 30
0.0
 11
161.4292039113
 21
167.3394507367
 31
0.0
  0
SPLINE
  5
11B
330
1F
100
AcDbEntity
  8
0
  6
Continuous
 62
     7
370
    18
100
AcDbSpline
210
0.0
220
0.0
230
1.0
 70
    24
 71
     3
 72
    23
 73
    19
 74
     0
 42
0.000000001
 43
0.00000001
 40
0.0
 40
0.0
 40
0.0
 40
0.0
 40
0.0634175290429084
 40
0.1268350581205551
 40
0.1902525911093159
 40
0.2536701203409591
 40
0.3170876481487536
 40
0.3805051839378985
 40
0.443922708322856
 40
0.5073402380272972
 40
0.5707577670702055
 40
0.6341752961478522
 40
0.6975928291366129
 40
0.7610103583682563
 40
0.8244278861760507
 40
0.8878454151676197
 40
0.9512629468524829
 40
1.0
 40
1.0
 40
1.0
 40
1.0
 10
162.429202212551
 20
166.3404885317586
 30
0.0
 10
162.429202212551
 20
166.3069932169616
 30
0.0
 10
162.429202212551
 20
166.2400025873491
 30
0.0
 10
162.429202212551
 20
165.899997947999
 30
0.0
 10
162.429202212551
 20
165.3987542906695
 30
0.0
 10
162.429202212551
 20
164.7380614387635
 30
0.0
 10
162.429202212551
 20
163.9479896805759
 30
0.0
 10
162.429202212551
 20
163.057648270459
 30
0.0
 10
162.429202212551
 20
162.101586860541
 30
0.0
 10
162.429202212551
 20
161.1164597433881
 30
0.0
 10
162.429202212551
 20
160.1401378806955
 30
0.0
 10
162.429202212551
 20
159.2101745892809
 30
0.0
 10
162.429202212551
 20
158.3621599266736
 30
0.0
 10
162.429202212551
 20
157.629240676306
 30
0.0
 10
162.429202212551
 20
157.0374959757556
 30
0.0
 10
162.429202212551
 20
156.6174584258787
 30
0.0
 10
162.429202212551
 20
156.3763437448729
 30
0.0
 10
162.429202212551
 20
156.3669023154555
 30
0.0
 10
162.429202212551
 20
156.3627995188735
 30
0.0
  0
LINE
  5
11C
330
1F
100
AcDbEntity
  8
0
  6
Continuous
 62
     7
370
    18
100
AcDbLine
 10
161.4292039113
 20
167.3394507367
 30
0.0
 11
161.4292039113
 21
167.3456784907
 31
0.0
  0
LINE
  5
11D
330
1F
100
AcDbEntity
  8
0
  6
Continuous
 62
     7
370
    18
100
AcDbLine
 10
136.8292028593
 20
165.8410076621
 30
0.0
 11
136.8292028593
 21
156.8456786323
 31
0.0
  0
LINE
  5
11E
330
1F
100
AcDbEntity
  8
0
  6
Continuous
 62
     7
370
    18
100
AcDbLine
 10
136.8292028593
 20
165.8456782448
 30
0.0
 11
136.8292028593
 21
165.8410076621
 31
0.0
  0
SPLINE
  5
11F
330
1F
100
AcDbEntity
  8
0
  6
Continuous
 62
     7
370
    18
100
AcDbSpline
210
0.0
220
0.0
230
1.0
 70
    24
 71
     3
 72
    16
 73
    12
 74
     0
 42
0.000000001
 43
0.00000001
 40
0.0
 40
0.0
 40
0.0
 40
0.0
 40
0.0959497509236819
 40
0.2089167101156956
 40
0.3219621208913297
 40
0.4349290587041588
 40
0.5479744849325358
 40
0.6609414677832831
 40
0.7739868650863818
 40
0.886973821877932
 40
1.0
 40
1.0
 40
1.0
 40
1.0
 10
136.4292035387544
 20
160.4833776351452
 30
0.0
 10
136.4292035387544
 20
160.7077968118995
 30
0.0
 10
136.4292035387544
 20
161.1964371225104
 30
0.0
 10
136.4292035387544
 20
161.9661936667685
 30
0.0
 10
136.4292035387544
 20
162.7489213344006
 30
0.0
 10
136.4292035387544
 20
163.4803167518413
 30
0.0
 10
136.4292035387544
 20
164.1267842308003
 30
0.0
 10
136.4292035387544
 20
164.6703622237295
 30
0.0
 10
136.4292035387544
 20
165.0795300534351
 30
0.0
 10
136.4292035387544
 20
165.360335252407
 30
0.0
 10
136.4292035387544
 20
165.4143904774174
 30
0.0
 10
136.4292035387544
 20
165.4414227801762
 30
0.0
  0
SPLINE
  5
120
330
1F
100
AcDbEntity
  8
0
  6
Continuous
 62
     7
370
    18
100
AcDbSpline
210
0.0
220
0.0
230
1.0
 70
    24
 71
     3
 72
    24
 73
    20
 74
     0
 42
0.000000001
 43
0.00000001
 40
0.0
 40
0.0
 40
0.0
 40
0.0
 40
0.0299335320917115
 40
0.0597336440243554
 40
0.0894451116559646
 40
0.1191131122013954
 40
0.1487830214330849
 40
0.1785002063802355
 40
0.2083098182271399
 40
0.2382565901008582
 40
0.365611182645666
 40
0.4930280757542874
 40
0.6222691683239092
 40
0.7515734842357062
 40
0.80145914943088
 40
0.8510343888085983
 40
0.9005090768295541
 40
0.9500943647505036
 40
1.0
 40
1.0
 40
1.0
 40
1.0
 10
124.4292034940509
 20
161.3456784385644
 30
0.0
 10
124.4292034940509
 20
161.2585293724208
 30
0.0
 10
124.4292034940509
 20
161.0846196821734
 30
0.0
 10
124.4292034940509
 20
160.8245918099181
 30
0.0
 10
124.4292034940509
 20
160.5661142535428
 30
0.0
 10
124.4292034940509
 20
160.3091889356735
 30
0.0
 10
124.4292034940509
 20
160.0538165759032
 30
0.0
 10
124.4292034940509
 20
159.8000032019003
 30
0.0
 10
124.4292034940509
 20
159.5477344719511
 30
0.0
 10
124.4292034940509
 20
159.0259345491187
 30
0.0
 10
124.4292034940509
 20
158.2558089809961
 30
0.0
 10
124.4292034940509
 20
157.3054155855136
 30
0.0
 10
124.4292034940509
 20
156.4608547699095
 30
0.0
 10
124.4292034940509
 20
155.8983129365893
 30
0.0
 10
124.4292034940509
 20
155.5452068562071
 30
0.0
 10
124.4292034940509
 20
155.3394207841689
 30
0.0
 10
124.4292034940509
 20
155.1599444753657
 30
0.0
 10
124.4292034940509
 20
155.0043507966163
 30
0.0
 10
124.4292034940509
 20
154.9229554810989
 30
0.0
 10
124.4292034940509
 20
154.8821267823816
 30
0.0
  0
SPLINE
  5
121
330
1F
100
AcDbEntity
  8
0
  6
Continuous
 62
     7
370
    18
100
AcDbSpline
210
0.0
220
0.0
230
1.0
 70
    24
 71
     3
 72
    23
 73
    19
 74
     0
 42
0.000000001
 43
0.00000001
 40
0.0
 40
0.0
 40
0.0
 40
0.0
 40
0.0312296080285212
 40
0.0623076562833408
 40
0.0932849074816272
 40
0.124212620669539
 40
0.1551423011888198
 40
0.1861254445699374
 40
0.2172132806683876
 40
0.2484565243468601
 40
0.3777014750035922
 40
0.5070067555835329
 40
0.6343651530728577
 40
0.7617829612087266
 40
0.8215070074550423
 40
0.8808762959632656
 40
0.9402532114873466
 40
1.0
 40
1.0
 40
1.0
 40
1.0
 10
128.4292034940509
 20
154.8821267823816
 30
0.0
 10
128.4292034940509
 20
154.9070726162133
 30
0.0
 10
128.4292034940509
 20
154.9568432197594
 30
0.0
 10
128.4292034940509
 20
155.0445734889084
 30
0.0
 10
128.4292034940509
 20
155.1416151369641
 30
0.0
 10
128.4292034940509
 20
155.2489101571946
 30
0.0
 10
128.4292034940509
 20
155.3662075654003
 30
0.0
 10
128.4292034940509
 20
155.4935683927248
 30
0.0
 10
128.4292034940509
 20
155.6309925634497
 30
0.0
 10
128.4292034940509
 20
155.9321424262342
 30
0.0
 10
128.4292034940509
 20
156.4607585120594
 30
0.0
 10
128.4292034940509
 20
157.3051114471467
 30
0.0
 10
128.4292034940509
 20
158.2556915909218
 30
0.0
 10
128.4292034940509
 20
159.1061820625582
 30
0.0
 10
128.4292034940509
 20
159.7978516622384
 30
0.0
 10
128.4292034940509
 20
160.3081641707048
 30
0.0
 10
128.4292034940509
 20
160.8248168915389
 30
0.0
 10
128.4292034940509
 20
161.1716989059374
 30
0.0
 10
128.4292034940509
 20
161.3456784385644
 30
0.0
  0
SPLINE
  5
122
330
1F
100
AcDbEntity
  8
0
  6
Continuous
 62
     7
370
    18
100
AcDbSpline
210
0.0
220
0.0
230
1.0
 70
    24
 71
     3
 72
    27
 73
    23
 74
     0
 42
0.000000001
 43
0.00000001
 40
0.0
 40
0.0
 40
0.0
 40
0.0
 40
0.0259228519324721
 40
0.0517411215886998
 40
0.0774972403643834
 40
0.1032339470563676
 40
0.1289940770818145
 40
0.1548203493084312
 40
0.1807551557649156
 40
0.234793177520722
 40
0.2888795913535253
 40
0.3493123605077578
 40
0.40979393756322
 40
0.543152092665451
 40
0.6155687662199577
 40
0.6880352895565902
 40
0.7647957915947422
 40
0.8416069162143772
 40
0.8812626285713732
 40
0.920777402604151
 40
0.960305242406508
 40
1.0
 40
1.0
 40
1.0
 40
1.0
 10
128.4292034940509
 20
161.3456784385644
 30
0.0
 10
128.4292034940509
 20
161.4365776764282
 30
0.0
 10
128.4292034940509
 20
161.618009431348
 30
0.0
 10
128.4292034940509
 20
161.8893162792251
 30
0.0
 10
128.4292034940509
 20
162.1590822551295
 30
0.0
 10
128.4292034940509
 20
162.4273055424863
 30
0.0
 10
128.4292034940509
 20
162.6939830319056
 30
0.0
 10
128.4292034940509
 20
162.9591157108144
 30
0.0
 10
128.4292034940509
 20
163.3173334157662
 30
0.0
 10
128.4292034940509
 20
163.763229002648
 30
0.0
 10
128.4292034940509
 20
164.3055424607145
 30
0.0
 10
128.4292034940509
 20
164.8446759692113
 30
0.0
 10
128.4292034940509
 20
165.5832733520928
 30
0.0
 10
128.4292034940509
 20
166.2733409246263
 30
0.0
 10
128.4292034940509
 20
166.8732220181148
 30
0.0
 10
128.4292034940509
 20
167.2779461298261
 30
0.0
 10
128.4292034940509
 20
167.609362637065
 30
0.0
 10
128.4292034940509
 20
167.8154439737437
 30
0.0
 10
128.4292034940509
 20
167.933932358531
 30
0.0
 10
128.4292034940509
 20
167.9981145284722
 30
0.0
 10
128.4292034940509
 20
168.0382634292016
 30
0.0
 10
128.4292034940509
 20
168.0432032995135
 30
0.0
 10
128.4292034940509
 20
168.0456784386912
 30
0.0
  0
SPLINE
  5
123
330
1F
100
AcDbEntity
  8
0
  6
Continuous
 62
     7
370
    18
100
AcDbSpline
210
0.0
220
0.0
230
1.0
 70
    24
 71
     3
 72
    27
 73
    23
 74
     0
 42
0.000000001
 43
0.00000001
 40
0.0
 40
0.0
 40
0.0
 40
0.0
 40
0.0226892206176221
 40
0.0453109748356796
 40
0.0678938591538194
 40
0.0904666178018165
 40
0.1130580336597262
 40
0.1356968184455594
 40
0.1584115042528417
 40
0.2351726052015826
 40
0.3119843291268827
 40
0.3844015556870183
 40
0.4568686353883551
 40
0.5902278164261113
 40
0.6506610526340287
 40
0.7111431000339705
 40
0.765181533130021
 40
0.8192683644539124
 40
0.8645567034663696
 40
0.9096219469304687
 40
0.9546933313461492
 40
1.0
 40
1.0
 40
1.0
 40
1.0
 10
124.4292034940509
 20
168.0456784386912
 30
0.0
 10
124.4292034940509
 20
168.0448776952784
 30
0.0
 10
124.4292034940509
 20
168.0432785894635
 30
0.0
 10
124.4292034940509
 20
168.0301968067606
 30
0.0
 10
124.4292034940509
 20
168.0092840800604
 30
0.0
 10
124.4292034940509
 20
167.9797796991003
 30
0.0
 10
124.4292034940509
 20
167.9418894248938
 30
0.0
 10
124.4292034940509
 20
167.8955503862209
 30
0.0
 10
124.4292034940509
 20
167.7974966495558
 30
0.0
 10
124.4292034940509
 20
167.6093993877361
 30
0.0
 10
124.4292034940509
 20
167.2781187009356
 30
0.0
 10
124.4292034940509
 20
166.8733200411529
 30
0.0
 10
124.4292034940509
 20
166.2734711766136
 30
0.0
 10
124.4292034940509
 20
165.5833990898557
 30
0.0
 10
124.4292034940509
 20
164.8448234595548
 30
0.0
 10
124.4292034940509
 20
164.3058503476154
 30
0.0
 10
124.4292034940509
 20
163.7633812593126
 30
0.0
 10
124.4292034940509
 20
163.2531514997059
 30
0.0
 10
124.4292034940509
 20
162.7619183464761
 30
0.0
 10
124.4292034940509
 20
162.2941593646061
 30
0.0
 10
124.4292034940509
 20
161.8215272163609
 30
0.0
 10
124.4292034940509
 20
161.5045697465255
 30
0.0
 10
124.4292034940509
 20
161.3456784385644
 30
0.0
  0
SPLINE
  5
124
330
1F
100
AcDbEntity
  8
0
  6
Continuous
 62
     7
370
    18
100
AcDbSpline
210
0.0
220
0.0
230
1.0
 70
    24
 71
     3
 72
    20
 73
    16
 74
     0
 42
0.000000001
 43
0.00000001
 40
0.0
 40
0.0
 40
0.0
 40
0.0
 40
0.2499999999999998
 40
0.2499999999999998
 40
0.3749999999999999
 40
0.3749999999999999
 40
0.4999999999999999
 40
0.4999999999999999
 40
0.6249999999999999
 40
0.6249999999999999
 40
0.75
 40
0.75
 40
0.875
 40
0.875
 40
1.0
 40
1.0
 40
1.0
 40
1.0
 10
130.4292034944368
 20
161.3456784385644
 30
0.0
 10
130.4292034944368
 20
161.9040117719077
 30
0.0
 10
130.4292034944368
 20
162.5355984385856
 30
0.0
 10
130.4292034944368
 20
163.5647184386039
 30
0.0
 10
130.4292034944368
 20
163.9207363016747
 30
0.0
 10
130.4292034944368
 20
164.6425306879182
 30
0.0
 10
130.4292034944368
 20
165.0083451052963
 30
0.0
 10
130.4292034944368
 20
165.723011771976
 30
0.0
 10
130.4292034944368
 20
166.0717621316496
 30
0.0
 10
130.4292034944368
 20
166.7154851566195
 30
0.0
 10
130.4292034944368
 20
167.0101536405122
 30
0.0
 10
130.4292034944368
 20
167.504732648596
 30
0.0
 10
130.4292034944368
 20
167.7042030935135
 30
0.0
 10
130.4292034944368
 20
167.9748460915477
 30
0.0
 10
130.4292034944368
 20
168.0456784386901
 30
0.0
 10
130.4292034944368
 20
168.0456784386912
 30
0.0
  0
SPLINE
  5
125
330
1F
100
AcDbEntity
  8
0
  6
Continuous
 62
     7
370
    18
100
AcDbSpline
210
0.0
220
0.0
230
1.0
 70
    24
 71
     3
 72
    20
 73
    16
 74
     0
 42
0.000000001
 43
0.00000001
 40
0.0
 40
0.0
 40
0.0
 40
0.0
 40
0.125
 40
0.125
 40
0.25
 40
0.25
 40
0.375
 40
0.375
 40
0.5
 40
0.5
 40
0.625
 40
0.625
 40
0.75
 40
0.75
 40
1.0
 40
1.0
 40
1.0
 40
1.0
 10
130.4292034944368
 20
154.6456784384376
 30
0.0
 10
130.4292034944368
 20
154.6456784384364
 30
0.0
 10
130.4292034944368
 20
154.7165107855768
 30
0.0
 10
130.4292034944368
 20
154.9871537836081
 30
0.0
 10
130.4292034944368
 20
155.1866242285244
 30
0.0
 10
130.4292034944368
 20
155.6812032366069
 30
0.0
 10
130.4292034944368
 20
155.9758717204995
 30
0.0
 10
130.4292034944368
 20
156.6195947454696
 30
0.0
 10
130.4292034944368
 20
156.9683451051436
 30
0.0
 10
130.4292034944368
 20
157.6830117718244
 30
0.0
 10
130.4292034944368
 20
158.0488261892032
 30
0.0
 10
130.4292034944368
 20
158.7706205754484
 30
0.0
 10
130.4292034944368
 20
159.1266384385199
 30
0.0
 10
130.4292034944368
 20
160.1557584385406
 30
0.0
 10
130.4292034944368
 20
160.7873451052199
 30
0.0
 10
130.4292034944368
 20
161.3456784385644
 30
0.0
  0
SPLINE
  5
126
330
1F
100
AcDbEntity
  8
0
  6
Continuous
 62
     7
370
    18
100
AcDbSpline
210
0.0
220
0.0
230
1.0
 70
    24
 71
     3
 72
    20
 73
    16
 74
     0
 42
0.000000001
 43
0.00000001
 40
0.0
 40
0.0
 40
0.0
 40
0.0
 40
0.125
 40
0.125
 40
0.25
 40
0.25
 40
0.375
 40
0.375
 40
0.5
 40
0.5
 40
0.625
 40
0.625
 40
0.75
 40
0.75
 40
1.0
 40
1.0
 40
1.0
 40
1.0
 10
122.429203493665
 20
168.0456784386912
 30
0.0
 10
122.429203493665
 20
168.0456784386923
 30
0.0
 10
122.429203493665
 20
167.9748460915519
 30
0.0
 10
122.429203493665
 20
167.7042030935206
 30
0.0
 10
122.429203493665
 20
167.5047326486043
 30
0.0
 10
122.429203493665
 20
167.0101536405218
 30
0.0
 10
122.429203493665
 20
166.7154851566292
 30
0.0
 10
122.429203493665
 20
166.0717621316591
 30
0.0
 10
122.429203493665
 20
165.7230117719851
 30
0.0
 10
122.429203493665
 20
165.0083451053044
 30
0.0
 10
122.429203493665
 20
164.6425306879255
 30
0.0
 10
122.429203493665
 20
163.9207363016804
 30
0.0
 10
122.429203493665
 20
163.5647184386088
 30
0.0
 10
122.429203493665
 20
162.5355984385882
 30
0.0
 10
122.429203493665
 20
161.9040117719088
 30
0.0
 10
122.429203493665
 20
161.3456784385644
 30
0.0
  0
SPLINE
  5
127
330
1F
100
AcDbEntity
  8
0
  6
Continuous
 62
     7
370
    18
100
AcDbSpline
210
0.0
220
0.0
230
1.0
 70
    24
 71
     3
 72
    20
 73
    16
 74
     0
 42
0.000000001
 43
0.00000001
 40
0.0
 40
0.0
 40
0.0
 40
0.0
 40
0.2499999999999998
 40
0.2499999999999998
 40
0.3749999999999999
 40
0.3749999999999999
 40
0.4999999999999999
 40
0.4999999999999999
 40
0.6249999999999999
 40
0.6249999999999999
 40
0.75
 40
0.75
 40
0.875
 40
0.875
 40
1.0
 40
1.0
 40
1.0
 40
1.0
 10
122.429203493665
 20
161.3456784385644
 30
0.0
 10
122.429203493665
 20
160.787345105221
 30
0.0
 10
122.429203493665
 20
160.1557584385431
 30
0.0
 10
122.429203493665
 20
159.1266384385248
 30
0.0
 10
122.429203493665
 20
158.7706205754541
 30
0.0
 10
122.429203493665
 20
158.0488261892105
 30
0.0
 10
122.429203493665
 20
157.6830117718324
 30
0.0
 10
122.429203493665
 20
156.9683451051528
 30
0.0
 10
122.429203493665
 20
156.6195947454791
 30
0.0
 10
122.429203493665
 20
155.9758717205093
 30
0.0
 10
122.429203493665
 20
155.6812032366165
 30
0.0
 10
122.429203493665
 20
155.1866242285327
 30
0.0
 10
122.429203493665
 20
154.9871537836153
 30
0.0
 10
122.429203493665
 20
154.716510785581
 30
0.0
 10
122.429203493665
 20
154.6456784384387
 30
0.0
 10
122.429203493665
 20
154.6456784384376
 30
0.0
  0
SPLINE
  5
128
330
1F
100
AcDbEntity
  8
0
  6
Continuous
 62
     7
370
    18
100
AcDbSpline
210
0.0
220
0.0
230
1.0
 70
    24
 71
     3
 72
    25
 73
    21
 74
     0
 42
0.000000001
 43
0.00000001
 40
0.0
 40
0.0
 40
0.0
 40
0.0
 40
0.0259224434206295
 40
0.0517408860080665
 40
0.077497760427757
 40
0.1032358038574452
 40
0.1289978471923832
 40
0.154826601933559
 40
0.1807644500257638
 40
0.2951495199983777
 40
0.4095985671325674
 40
0.4763412359531147
 40
0.5431482348016458
 40
0.6155614799454806
 40
0.6880389574002179
 40
0.7647961433059056
 40
0.8416185578477938
 40
0.8944433874749841
 40
0.9471154880560575
 40
1.0
 40
1.0
 40
1.0
 40
1.0
 10
115.4292034940509
 20
161.3456784385644
 30
0.0
 10
115.4292034940509
 20
161.2751345547407
 30
0.0
 10
115.4292034940509
 20
161.1343298091287
 30
0.0
 10
115.4292034940509
 20
160.9237728218715
 30
0.0
 10
115.4292034940509
 20
160.7144071714392
 30
0.0
 10
115.4292034940509
 20
160.506233332381
 30
0.0
 10
115.4292034940509
 20
160.2992572150197
 30
0.0
 10
115.4292034940509
 20
160.0934649546923
 30
0.0
 10
115.4292034940509
 20
159.6569363849538
 30
0.0
 10
115.4292034940509
 20
159.0070033214698
 30
0.0
 10
115.4292034940509
 20
158.3198097402997
 30
0.0
 10
115.4292034940509
 20
157.8008043945823
 30
0.0
 10
115.4292034940509
 20
157.410109403157
 30
0.0
 10
115.4292034940509
 20
157.0555939893808
 30
0.0
 10
115.4292034940509
 20
156.7415520867472
 30
0.0
 10
115.4292034940509
 20
156.4843759558307
 30
0.0
 10
115.4292034940509
 20
156.3132736374579
 30
0.0
 10
115.4292034940509
 20
156.211392492429
 30
0.0
 10
115.4292034940509
 20
156.1558986852813
 30
0.0
 10
115.4292034940509
 20
156.1490897545847
 30
0.0
 10
115.4292034940509
 20
156.1456784384376
 30
0.0
  0
SPLINE
  5
129
330
1F
100
AcDbEntity
  8
0
  6
Continuous
 62
     7
370
    18
100
AcDbSpline
210
0.0
220
0.0
230
1.0
 70
    24
 71
     3
 72
    24
 73
    20
 74
     0
 42
0.000000001
 43
0.00000001
 40
0.0
 40
0.0
 40
0.0
 40
0.0
 40
0.0264645712346631
 40
0.0528454247157776
 40
0.0791880632519006
 40
0.1055381876248321
 40
0.1319414597452422
 40
0.158443266808747
 40
0.2352139153172803
 40
0.3120498039025726
 40
0.3844757337233771
 40
0.4569659120512511
 40
0.5903543660416095
 40
0.7047594866539879
 40
0.8192286030245062
 40
0.8645242799475289
 40
0.9095985342852365
 40
0.9546807022714046
 40
1.0
 40
1.0
 40
1.0
 40
1.0
 10
115.4292034940509
 20
166.5456784386912
 30
0.0
 10
115.4292034940509
 20
166.5448333972247
 30
0.0
 10
115.4292034940509
 20
166.5431459874874
 30
0.0
 10
115.4292034940509
 20
166.5293232660745
 30
0.0
 10
115.4292034940509
 20
166.5072213509002
 30
0.0
 10
115.4292034940509
 20
166.4760401170336
 30
0.0
 10
115.4292034940509
 20
166.4359852419695
 30
0.0
 10
115.4292034940509
 20
166.3561922524177
 30
0.0
 10
115.4292034940509
 20
166.2070830202709
 30
0.0
 10
115.4292034940509
 20
165.9499769300764
 30
0.0
 10
115.4292034940509
 20
165.6358053943689
 30
0.0
 10
115.4292034940509
 20
165.170219040276
 30
0.0
 10
115.4292034940509
 20
164.5263444403053
 30
0.0
 10
115.4292034940509
 20
163.6845450665012
 30
0.0
 10
115.4292034940509
 20
162.9853032842503
 30
0.0
 10
115.4292034940509
 20
162.4448871780268
 30
0.0
 10
115.4292034940509
 20
162.0818320630718
 30
0.0
 10
115.4292034940509
 20
161.715012283168
 30
0.0
 10
115.4292034940509
 20
161.4690048187009
 30
0.0
 10
115.4292034940509
 20
161.3456784385644
 30
0.0
  0
SPLINE
  5
12A
330
1F
100
AcDbEntity
  8
0
  6
Continuous
 62
     7
370
    18
100
AcDbSpline
210
0.0
220
0.0
230
1.0
 70
    24
 71
     3
 72
    20
 73
    16
 74
     0
 42
0.000000001
 43
0.00000001
 40
0.0
 40
0.0
 40
0.0
 40
0.0
 40
0.1249999999999999
 40
0.1249999999999999
 40
0.2499999999999998
 40
0.2499999999999998
 40
0.3749999999999998
 40
0.3749999999999998
 40
0.4999999999999997
 40
0.4999999999999997
 40
0.6249999999999998
 40
0.6249999999999998
 40
0.7499999999999999
 40
0.7499999999999999
 40
1.0
 40
1.0
 40
1.0
 40
1.0
 10
113.429203493665
 20
166.5456784386912
 30
0.0
 10
113.429203493665
 20
166.545678438692
 30
0.0
 10
113.429203493665
 20
166.4907040797171
 30
0.0
 10
113.429203493665
 20
166.2806527976618
 30
0.0
 10
113.429203493665
 20
166.1258399150394
 30
0.0
 10
113.429203493665
 20
165.7419875505553
 30
0.0
 10
113.429203493665
 20
165.5132896227568
 30
0.0
 10
113.429203493665
 20
165.0136836929266
 30
0.0
 10
113.429203493665
 20
164.7430117719841
 30
0.0
 10
113.429203493665
 20
164.1883451053035
 30
0.0
 10
113.429203493665
 20
163.9044294380825
 30
0.0
 10
113.429203493665
 20
163.3442308099489
 30
0.0
 10
113.429203493665
 20
163.0679184386083
 30
0.0
 10
113.429203493665
 20
162.2691984385879
 30
0.0
 10
113.429203493665
 20
161.7790117719087
 30
0.0
 10
113.429203493665
 20
161.3456784385644
 30
0.0
  0
SPLINE
  5
12B
330
1F
100
AcDbEntity
  8
0
  6
Continuous
 62
     7
370
    18
100
AcDbSpline
210
0.0
220
0.0
230
1.0
 70
    24
 71
     3
 72
    20
 73
    16
 74
     0
 42
0.000000001
 43
0.00000001
 40
0.0
 40
0.0
 40
0.0
 40
0.0
 40
0.25
 40
0.25
 40
0.375
 40
0.375
 40
0.4999999999999999
 40
0.4999999999999999
 40
0.6249999999999998
 40
0.6249999999999998
 40
0.7499999999999999
 40
0.7499999999999999
 40
0.875
 40
0.875
 40
1.0
 40
1.0
 40
1.0
 40
1.0
 10
113.429203493665
 20
161.3456784385644
 30
0.0
 10
113.429203493665
 20
160.9123451052209
 30
0.0
 10
113.429203493665
 20
160.4221584385428
 30
0.0
 10
113.429203493665
 20
159.6234384385243
 30
0.0
 10
113.429203493665
 20
159.3471260671843
 30
0.0
 10
113.429203493665
 20
158.7869274390519
 30
0.0
 10
113.429203493665
 20
158.5030117718315
 30
0.0
 10
113.429203493665
 20
157.9483451051517
 30
0.0
 10
113.429203493665
 20
157.6776731842095
 30
0.0
 10
113.429203493665
 20
157.1780672543794
 30
0.0
 10
113.429203493665
 20
156.9493693265808
 30
0.0
 10
113.429203493665
 20
156.5655169620958
 30
0.0
 10
113.429203493665
 20
156.4107040794725
 30
0.0
 10
113.429203493665
 20
156.2006527974149
 30
0.0
 10
113.429203493665
 20
156.1456784384384
 30
0.0
 10
113.429203493665
 20
156.1456784384376
 30
0.0
  0
SPLINE
  5
12C
330
1F
100
AcDbEntity
  8
0
  6
Continuous
 62
     7
370
    18
100
AcDbSpline
210
0.0
220
0.0
230
1.0
 70
    24
 71
     3
 72
    18
 73
    14
 74
     0
 42
0.000000001
 43
0.00000001
 40
0.0
 40
0.0
 40
0.0
 40
0.0
 40
0.125
 40
0.125
 40
0.2500000000000001
 40
0.2500000000000001
 40
0.375
 40
0.375
 40
0.4999999999999999
 40
0.4999999999999999
 40
0.75
 40
0.75
 40
1.0
 40
1.0
 40
1.0
 40
1.0
 10
131.4292034944368
 20
157.1456784384376
 30
0.0
 10
131.4292034944368
 20
157.1456784384413
 30
0.0
 10
131.4292034944368
 20
157.1900808053098
 30
0.0
 10
131.4292034944368
 20
157.3597376100538
 30
0.0
 10
131.4292034944368
 20
157.4847787844825
 30
0.0
 10
131.4292034944368
 20
157.7948133865701
 30
0.0
 10
131.4292034944368
 20
157.9795309436396
 30
0.0
 10
131.4292034944368
 20
158.3830588100429
 30
0.0
 10
131.4292034944368
 20
158.6016784384969
 30
0.0
 10
131.4292034944368
 20
159.2736784385143
 30
0.0
 10
131.4292034944368
 20
159.7395984385255
 30
0.0
 10
131.4292034944368
 20
160.5997584385461
 30
0.0
 10
131.4292034944368
 20
160.9956784385557
 30
0.0
 10
131.4292034944368
 20
161.3456784385644
 30
0.0
  0
SPLINE
  5
12D
330
1F
100
AcDbEntity
  8
0
  6
Continuous
 62
     7
370
    18
100
AcDbSpline
210
0.0
220
0.0
230
1.0
 70
    24
 71
     3
 72
    18
 73
    14
 74
     0
 42
0.000000001
 43
0.00000001
 40
0.0
 40
0.0
 40
0.0
 40
0.0
 40
0.25
 40
0.25
 40
0.5
 40
0.5
 40
0.625
 40
0.625
 40
0.75
 40
0.75
 40
0.875
 40
0.875
 40
1.0
 40
1.0
 40
1.0
 40
1.0
 10
131.4292034944368
 20
161.3456784385644
 30
0.0
 10
131.4292034944368
 20
161.6956784385768
 30
0.0
 10
131.4292034944368
 20
162.0915984385912
 30
0.0
 10
131.4292034944368
 20
162.9517584386224
 30
0.0
 10
131.4292034944368
 20
163.4176784386394
 30
0.0
 10
131.4292034944368
 20
164.0896784386626
 30
0.0
 10
131.4292034944368
 20
164.308298067118
 30
0.0
 10
131.4292034944368
 20
164.711825933522
 30
0.0
 10
131.4292034944368
 20
164.8965434905907
 30
0.0
 10
131.4292034944368
 20
165.2065780926741
 30
0.0
 10
131.4292034944368
 20
165.3316192670992
 30
0.0
 10
131.4292034944368
 20
165.501276071833
 30
0.0
 10
131.4292034944368
 20
165.5456784386949
 30
0.0
 10
131.4292034944368
 20
165.5456784386912
 30
0.0
  0
SPLINE
  5
12E
330
1F
100
AcDbEntity
  8
0
  6
Continuous
 62
     7
370
    18
100
AcDbSpline
210
0.0
220
0.0
230
1.0
 70
     8
 71
     3
 72
    10
 73
     6
 74
     0
 42
0.000000001
 43
0.00000001
 40
0.0
 40
0.0
 40
0.0
 40
0.0
 40
0.5
 40
0.5
 40
1.0
 40
1.0
 40
1.0
 40
1.0
 10
128.4292034940509
 20
157.205932069318
 30
0.0
 10
128.4292034940406
 20
157.1737291185242
 30
0.0
 10
128.4002354345091
 20
157.1443844422711
 30
0.0
 10
128.2908681395025
 20
157.1024176319926
 30
0.0
 10
128.2115317744491
 20
157.0905595533708
 30
0.0
 10
128.1292034940689
 20
157.0905595533691
 30
0.0
  0
SPLINE
  5
12F
330
1F
100
AcDbEntity
  8
0
  6
Continuous
 62
     7
370
    18
100
AcDbSpline
210
0.0
220
0.0
230
1.0
 70
     8
 71
     3
 72
     8
 73
     4
 74
     0
 42
0.000000001
 43
0.00000001
 40
0.0
 40
0.0
 40
0.0
 40
0.0
 40
1.0
 40
1.0
 40
1.0
 40
1.0
 10
128.1292034940689
 20
157.0905595533692
 30
0.0
 10
128.0510237003035
 20
157.0905595533676
 30
0.0
 10
127.9755712379568
 20
157.1011348512294
 30
0.0
 10
127.9210402286417
 20
157.1203882894704
 30
0.0
  0
SPLINE
  5
130
330
1F
100
AcDbEntity
  8
0
  6
Continuous
 62
     7
370
    18
100
AcDbSpline
210
0.0
220
0.0
230
1.0
 70
     8
 71
     3
 72
    12
 73
     8
 74
     0
 42
0.000000001
 43
0.00000001
 40
0.0
 40
0.0
 40
0.0
 40
0.0
 40
0.25
 40
0.25
 40
0.5
 40
0.5
 40
1.0
 40
1.0
 40
1.0
 40
1.0
 10
126.4292034946388
 20
157.392515148236
 30
0.0
 10
126.570094930811
 20
157.392515148215
 30
0.0
 10
126.7081873629
 20
157.3849750100033
 30
0.0
 10
126.9791854459093
 20
157.3567161929035
 30
0.0
 10
127.1134836863418
 20
157.3356575514543
 30
0.0
 10
127.4944181558147
 20
157.2590790197777
 30
0.0
 10
127.7247230670359
 20
157.1897026190688
 30
0.0
 10
127.9210402288747
 20
157.1203882895486
 30
0.0
  0
SPLINE
  5
131
330
1F
100
AcDbEntity
  8
0
  6
Continuous
 62
     7
370
    18
100
AcDbSpline
210
0.0
220
0.0
230
1.0
 70
     8
 71
     3
 72
    14
 73
    10
 74
     0
 42
0.000000001
 43
0.00000001
 40
0.0
 40
0.0
 40
0.0
 40
0.0
 40
0.25
 40
0.25
 40
0.5
 40
0.5
 40
0.75
 40
0.75
 40
1.0
 40
1.0
 40
1.0
 40
1.0
 10
124.9373667591521
 20
157.1203882895221
 30
0.0
 10
125.0356333590415
 20
157.1550835928877
 30
0.0
 10
125.1413209143607
 20
157.1894349563524
 30
0.0
 10
125.3677885194112
 20
157.2539404102017
 30
0.0
 10
125.4899673375643
 20
157.2843831190143
 30
0.0
 10
125.7445310396836
 20
157.3355997005946
 30
0.0
 10
125.8758570022555
 20
157.3562543856939
 30
0.0
 10
126.1470850147549
 20
157.3847564789697
 30
0.0
 10
126.288110861973
 20
157.3925151482569
 30
0.0
 10
126.4292034946388
 20
157.392515148236
 30
0.0
  0
SPLINE
  5
132
330
1F
100
AcDbEntity
  8
0
  6
Continuous
 62
     7
370
    18
100
AcDbSpline
210
0.0
220
0.0
230
1.0
 70
     8
 71
     3
 72
     8
 73
     4
 74
     0
 42
0.000000001
 43
0.00000001
 40
0.0
 40
0.0
 40
0.0
 40
0.0
 40
1.0
 40
1.0
 40
1.0
 40
1.0
 10
124.9373667593852
 20
157.120388289444
 30
0.0
 10
124.8828232643311
 20
157.1011304428375
 30
0.0
 10
124.8074155558214
 20
157.0905595533708
 30
0.0
 10
124.7292034940689
 20
157.0905595533692
 30
0.0
  0
SPLINE
  5
133
330
1F
100
AcDbEntity
  8
0
  6
Continuous
 62
     7
370
    18
100
AcDbSpline
210
0.0
220
0.0
230
1.0
 70
     8
 71
     3
 72
    10
 73
     6
 74
     0
 42
0.000000001
 43
0.00000001
 40
0.0
 40
0.0
 40
0.0
 40
0.0
 40
0.5
 40
0.5
 40
1.0
 40
1.0
 40
1.0
 40
1.0
 10
124.7292034940689
 20
157.0905595533692
 30
0.0
 10
124.6469905729333
 20
157.0905595533675
 30
0.0
 10
124.5673920571603
 20
157.1025140181609
 30
0.0
 10
124.4586879635444
 20
157.1441463608078
 30
0.0
 10
124.429203494065
 20
157.1737590728748
 30
0.0
 10
124.4292034940509
 20
157.2059320693115
 30
0.0
  0
LINE
  5
134
330
1F
100
AcDbEntity
  8
0
  6
Continuous
 62
     7
370
    18
100
AcDbLine
 10
124.4292034344
 20
160.0190285231
 30
0.0
 11
128.4292031588
 21
160.0190285231
 31
0.0
  0
LINE
  5
135
330
1F
100
AcDbEntity
  8
0
  6
Continuous
 62
     7
370
    18
100
AcDbLine
 10
128.4292031588
 20
162.672328354
 30
0.0
 11
124.4292034344
 21
162.672328354
 31
0.0
  0
SPLINE
  5
136
330
1F
100
AcDbEntity
  8
0
  6
Continuous
 62
     7
370
    18
100
AcDbSpline
210
0.0
220
0.0
230
1.0
 70
    24
 71
     3
 72
    17
 73
    13
 74
     0
 42
0.000000001
 43
0.00000001
 40
0.0
 40
0.0
 40
0.0
 40
0.0
 40
0.0650133369146193
 40
0.2318218719751383
 40
0.4623937948777668
 40
0.6233698662139676
 40
0.7070170348283872
 40
0.7913797112287495
 40
0.8595405535261161
 40
0.9281393495069099
 40
0.9655525541577695
 40
1.0
 40
1.0
 40
1.0
 40
1.0
 10
163.2063238458423
 20
158.4456784754447
 30
0.0
 10
163.2061387385906
 20
158.4456784754447
 30
0.0
 10
163.2054786907968
 20
158.4456784754447
 30
0.0
 10
163.2115377129923
 20
158.4456784754447
 30
0.0
 10
163.2264202376886
 20
158.4456784754447
 30
0.0
 10
163.2514911498419
 20
158.4456784754447
 30
0.0
 10
163.2772861048239
 20
158.4456784754447
 30
0.0
 10
163.3017458442943
 20
158.4456784754447
 30
0.0
 10
163.3322366044653
 20
158.4456784754447
 30
0.0
 10
163.3648056190396
 20
158.4456784754447
 30
0.0
 10
163.3992099549042
 20
158.4456784754447
 30
0.0
 10
163.4194850689202
 20
158.4456784754447
 30
0.0
 10
163.4292042391089
 20
158.4456784754447
 30
0.0
  0
SPLINE
  5
137
330
1F
100
AcDbEntity
  8
0
  6
Continuous
 62
     7
370
    18
100
AcDbSpline
210
0.0
220
0.0
230
1.0
 70
    24
 71
     3
 72
    17
 73
    13
 74
     0
 42
0.000000001
 43
0.00000001
 40
0.0
 40
0.0
 40
0.0
 40
0.0
 40
0.0363036876309006
 40
0.0723115024351572
 40
0.1397071891374493
 40
0.2262863229174444
 40
0.3152945889101489
 40
0.4588541150833474
 40
0.6037817361548797
 40
0.7509805434599455
 40
0.8985297912945815
 40
1.0
 40
1.0
 40
1.0
 40
1.0
 10
163.4292042391089
 20
164.245678401684
 30
0.0
 10
163.4189595378343
 20
164.245678401684
 30
0.0
 10
163.3985536289718
 20
164.245678401684
 30
0.0
 10
163.3645580273733
 20
164.245678401684
 30
0.0
 10
163.3290016406765
 20
164.245678401684
 30
0.0
 10
163.2968788715574
 20
164.245678401684
 30
0.0
 10
163.2660668815137
 20
164.245678401684
 30
0.0
 10
163.2413910312746
 20
164.245678401684
 30
0.0
 10
163.2229469802457
 20
164.245678401684
 30
0.0
 10
163.21180490609
 20
164.245678401684
 30
0.0
 10
163.2060670946597
 20
164.245678401684
 30
0.0
 10
163.2062495138472
 20
164.245678401684
 30
0.0
 10
163.2063238458423
 20
164.245678401684
 30
0.0
  0
LINE
  5
138
330
1F
100
AcDbEntity
  8
0
  6
Continuous
 62
     7
370
    18
100
AcDbLine
 10
163.9292052524
 20
161.345678438
 30
0.0
 11
163.9292052524
 21
158.4456784754
 31
0.0
  0
LINE
  5
139
330
1F
100
AcDbEntity
  8
0
  6
Continuous
 62
     7
370
    18
100
AcDbLine
 10
163.9292052524
 20
158.4456784754
 30
0.0
 11
163.4292042391
 21
158.4456784754
 31
0.0
  0
LINE
  5
13A
330
1F
100
AcDbEntity
  8
0
  6
Continuous
 62
     7
370
    18
100
AcDbLine
 10
163.4292042391
 20
164.2456784017
 30
0.0
 11
163.9292052524
 21
164.2456784017
 31
0.0
  0
LINE
  5
13B
330
1F
100
AcDbEntity
  8
0
  6
Continuous
 62
     7
370
    18
100
AcDbLine
 10
163.9292052524
 20
164.2456784017
 30
0.0
 11
163.9292052524
 21
161.345678438
 31
0.0
  0
LINE
  5
13C
330
1F
100
AcDbEntity
  8
0
  6
Continuous
 62
     7
370
    18
100
AcDbLine
 10
135.6191056357
 20
158.4456784754
 30
0.0
 11
133.6200887846
 21
158.4456784754
 31
0.0
  0
LINE
  5
13D
330
1F
100
AcDbEntity
  8
0
  6
Continuous
 62
     7
370
    18
100
AcDbLine
 10
132.618611543
 20
158.4456784754
 30
0.0
 11
131.4292027192
 21
158.4456784754
 31
0.0
  0
LINE
  5
13E
330
1F
100
AcDbEntity
  8
0
  6
Continuous
 62
     7
370
    18
100
AcDbLine
 10
131.4292027192
 20
164.2456784017
 30
0.0
 11
132.0875825869
 21
164.2456784017
 31
0.0
  0
LINE
  5
13F
330
1F
100
AcDbEntity
  8
0
  6
Continuous
 62
     7
370
    18
100
AcDbLine
 10
133.0885531889
 20
164.2456784017
 30
0.0
 11
135.0874992596
 21
164.2456784017
 31
0.0
  0
LINE
  5
140
330
1F
100
AcDbEntity
  8
0
  6
Continuous
 62
     7
370
    18
100
AcDbLine
 10
136.0885797577
 20
164.2456784017
 30
0.0
 11
136.4292035388
 21
164.2456784017
 31
0.0
  0
SPLINE
  5
141
330
1F
100
AcDbEntity
  8
0
  6
Continuous
 62
     7
370
    18
100
AcDbSpline
210
0.0
220
0.0
230
1.0
 70
    24
 71
     3
 72
    11
 73
     7
 74
     0
 42
0.000000001
 43
0.00000001
 40
0.0
 40
0.0
 40
0.0
 40
0.0
 40
0.1662181761958776
 40
0.499879458409024
 40
0.8383720254939437
 40
1.0
 40
1.0
 40
1.0
 40
1.0
 10
163.9292052523879
 20
164.245678401684
 30
0.0
 10
163.9394375375238
 20
164.245678401684
 30
0.0
 10
163.9702097988319
 20
164.245678401684
 30
0.0
 10
164.006329396903
 20
164.245678401684
 30
0.0
 10
164.0288244781829
 20
164.245678401684
 30
0.0
 10
164.0267992619421
 20
164.245678401684
 30
0.0
 10
164.0261447565345
 20
164.245678401684
 30
0.0
  0
SPLINE
  5
142
330
1F
100
AcDbEntity
  8
0
  6
Continuous
 62
     7
370
    18
100
AcDbSpline
210
0.0
220
0.0
230
1.0
 70
    24
 71
     3
 72
    12
 73
     8
 74
     0
 42
0.000000001
 43
0.00000001
 40
0.0
 40
0.0
 40
0.0
 40
0.0
 40
0.1820733361571071
 40
0.3548687503977815
 40
0.5155258657634832
 40
0.8380793363940351
 40
1.0
 40
1.0
 40
1.0
 40
1.0
 10
164.0261447565345
 20
158.4456784754447
 30
0.0
 10
164.0267819789934
 20
158.4456784754447
 30
0.0
 10
164.0280239529281
 20
158.4456784754447
 30
0.0
 10
164.0171610542624
 20
158.4456784754447
 30
0.0
 10
163.9979670057217
 20
158.4456784754447
 30
0.0
 10
163.9689385075723
 20
158.4456784754447
 30
0.0
 10
163.9391583570047
 20
158.4456784754447
 30
0.0
 10
163.9292052523879
 20
158.4456784754447
 30
0.0
  0
LINE
  5
143
330
1F
100
AcDbEntity
  8
0
  6
Continuous
 62
     7
370
    18
100
AcDbLine
 10
164.4292025404
 20
161.3456784384
 30
0.0
 11
164.4292025404
 21
158.8456787273
 31
0.0
  0
LINE
  5
144
330
1F
100
AcDbEntity
  8
0
  6
Continuous
 62
     7
370
    18
100
AcDbLine
 10
164.4292025404
 20
161.3456784384
 30
0.0
 11
164.4292025404
 21
163.8456783827
 31
0.0
  0
LINE
  5
145
330
1F
100
AcDbEntity
  8
0
  6
Continuous
 62
     7
370
    18
100
AcDbLine
 10
128.4292031588
 20
147.0456785161
 30
0.0
 11
126.4292037623
 21
147.0456785161
 31
0.0
  0
LINE
  5
146
330
1F
100
AcDbEntity
  8
0
  6
Continuous
 62
     7
370
    18
100
AcDbLine
 10
126.4292037623
 20
147.0456785161
 30
0.0
 11
124.4292034344
 21
147.0456785161
 31
0.0
  0
LINE
  5
147
330
1F
100
AcDbEntity
  8
0
  6
Continuous
 62
     7
370
    18
100
AcDbLine
 10
126.4292037623
 20
149.5456779945
 30
0.0
 11
128.7792034955
 21
149.5456779945
 31
0.0
  0
LINE
  5
148
330
1F
100
AcDbEntity
  8
0
  6
Continuous
 62
     7
370
    18
100
AcDbLine
 10
124.0792030977
 20
149.5456779945
 30
0.0
 11
126.4292037623
 21
149.5456779945
 31
0.0
  0
LINE
  5
149
330
1F
100
AcDbEntity
  8
0
  6
Continuous
 62
     7
370
    18
100
AcDbLine
 10
126.4292037623
 20
152.0456784043
 30
0.0
 11
128.7792034955
 21
152.0456784043
 31
0.0
  0
LINE
  5
14A
330
1F
100
AcDbEntity
  8
0
  6
Continuous
 62
     7
370
    18
100
AcDbLine
 10
124.0792030977
 20
152.0456784043
 30
0.0
 11
126.4292037623
 21
152.0456784043
 31
0.0
  0
LINE
  5
14B
330
1F
100
AcDbEntity
  8
0
  6
Continuous
 62
     8
370
    18
100
AcDbLine
 10
163.1292028861
 20
164.5494425307
 30
0.0
 11
162.5292039053
 21
164.5494425307
 31
0.0
  0
LINE
  5
14C
330
1F
100
AcDbEntity
  8
0
  6
Continuous
 62
     8
370
    18
100
AcDbLine
 10
163.1292028861
 20
165.2921862538
 30
0.0
 11
162.5292039053
 21
165.2921862538
 31
0.0
  0
SPLINE
  5
14D
330
1F
100
AcDbEntity
  8
0
  6
Continuous
 62
     8
370
    18
100
AcDbSpline
210
0.0
220
0.0
230
1.0
 70
     8
 71
     3
 72
    12
 73
     8
 74
     0
 42
0.000000001
 43
0.00000001
 40
0.0
 40
0.0
 40
0.0
 40
0.0
 40
0.113594106045074
 40
0.3693977919556745
 40
0.6252131336006367
 40
0.8809232913049211
 40
1.0
 40
1.0
 40
1.0
 40
1.0
 10
134.8913422362594
 20
165.8488307717643
 30
0.0
 10
134.8822023051859
 20
165.8096640534529
 30
0.0
 10
134.8524800733314
 20
165.6822974165196
 30
0.0
 10
134.802204253542
 20
165.3882627883141
 30
0.0
 10
134.7405013001161
 20
164.9745243123142
 30
0.0
 10
134.6897621818678
 20
164.5896833855253
 30
0.0
 10
134.6596050093014
 20
164.3286223224676
 30
0.0
 10
134.6500235186604
 20
164.245678401684
 30
0.0
  0
SPLINE
  5
14E
330
1F
100
AcDbEntity
  8
0
  6
Continuous
 62
     8
370
    18
100
AcDbSpline
210
0.0
220
0.0
230
1.0
 70
     8
 71
     3
 72
    11
 73
     7
 74
     0
 42
0.000000001
 43
0.00000001
 40
0.0
 40
0.0
 40
0.0
 40
0.0
 40
0.2415880820529109
 40
0.4969496199076829
 40
0.7522114001208395
 40
1.0
 40
1.0
 40
1.0
 40
1.0
 10
134.0582369403628
 20
158.4456784754447
 30
0.0
 10
134.0387791556518
 20
158.2833456957723
 30
0.0
 10
133.9987542561028
 20
157.9494251957572
 30
0.0
 10
133.9381578201008
 20
157.5127007743696
 30
0.0
 10
133.8770209695983
 20
157.1265535023893
 30
0.0
 10
133.836491000637
 20
156.9314035273391
 30
0.0
 10
133.8165270672826
 20
156.8352780874274
 30
0.0
  0
SPLINE
  5
14F
330
1F
100
AcDbEntity
  8
0
  6
Continuous
 62
     8
370
    18
100
AcDbSpline
210
0.0
220
0.0
230
1.0
 70
     8
 71
     3
 72
    12
 73
     8
 74
     0
 42
0.000000001
 43
0.00000001
 40
0.0
 40
0.0
 40
0.0
 40
0.0
 40
0.2147734220681947
 40
0.4696173206871834
 40
0.7245696227437823
 40
0.9795221491008635
 40
1.0
 40
1.0
 40
1.0
 40
1.0
 10
131.8917235867766
 20
165.8546184759043
 30
0.0
 10
131.874384316672
 20
165.7735584649502
 30
0.0
 10
131.8364707727577
 20
165.5963150016178
 30
0.0
 10
131.7779721321641
 20
165.2351198794443
 30
0.0
 10
131.7162648075552
 20
164.7923029369873
 30
0.0
 10
131.6734816168762
 20
164.4572087111975
 30
0.0
 10
131.6512424784377
 20
164.2603170150334
 30
0.0
 10
131.6495890306024
 20
164.245678401684
 30
0.0
  0
SPLINE
  5
150
330
1F
100
AcDbEntity
  8
0
  6
Continuous
 62
     8
370
    18
100
AcDbSpline
210
0.0
220
0.0
230
1.0
 70
     8
 71
     3
 72
    32
 73
    28
 74
     0
 42
0.000000001
 43
0.00000001
 40
0.0
 40
0.0
 40
0.0
 40
0.0
 40
0.0301941252578703
 40
0.0713680127139418
 40
0.1125491878882784
 40
0.1537163019366828
 40
0.1948717118713842
 40
0.2360426969151933
 40
0.2772242715344909
 40
0.3183945240971645
 40
0.3595498100299888
 40
0.400717707051739
 40
0.4418990454008991
 40
0.4830722414129226
 40
0.5242283935638478
 40
0.5653931478598105
 40
0.6065736290391351
 40
0.6477494656538075
 40
0.6889073654517748
 40
0.7300690999306679
 40
0.7712481319456149
 40
0.8124262148437459
 40
0.8535865579232186
 40
0.8947456052462871
 40
0.9359226254112547
 40
0.9771024433372768
 40
1.0
 40
1.0
 40
1.0
 40
1.0
 10
132.1030201898602
 20
167.3357058885894
 30
0.0
 10
132.118114409097
 20
167.334688525569
 30
0.0
 10
132.1537916947012
 20
167.3322838466336
 30
0.0
 10
132.2100238241898
 20
167.2107367983968
 30
0.0
 10
132.2717250751676
 20
166.9938485155606
 30
0.0
 10
132.333444838132
 20
166.6802689098991
 30
0.0
 10
132.3951882110017
 20
166.2770919752312
 30
0.0
 10
132.4569015641175
 20
165.7906220282172
 30
0.0
 10
132.5186024879982
 20
165.2310517760942
 30
0.0
 10
132.5803169771201
 20
164.607414552316
 30
0.0
 10
132.6420606455528
 20
163.9286520775882
 30
0.0
 10
132.7037790420273
 20
163.2062014658251
 30
0.0
 10
132.7654801538991
 20
162.453144860997
 30
0.0
 10
132.8271902728749
 20
161.6818202224049
 30
0.0
 10
132.8889320460576
 20
160.9047374673765
 30
0.0
 10
132.9506561516684
 20
160.1352160980752
 30
0.0
 10
133.0123579847969
 20
159.3857902012869
 30
0.0
 10
133.0740646968221
 20
158.6685959398657
 30
0.0
 10
133.1358026928079
 20
157.9959596524814
 30
0.0
 10
133.1975327279003
 20
157.3805070247992
 30
0.0
 10
133.2592359233369
 20
156.830880385064
 30
0.0
 10
133.3209401015339
 20
156.3554468646721
 30
0.0
 10
133.382673039684
 20
155.9631551524743
 30
0.0
 10
133.4444083496703
 20
155.6614950554892
 30
0.0
 10
133.506114692953
 20
155.4592736739592
 30
0.0
 10
133.5586895863599
 20
155.3542426883256
 30
0.0
 10
133.5907176909535
 20
155.3573966198599
 30
0.0
 10
133.6021626876382
 20
155.3585236530207
 30
0.0
  0
SPLINE
  5
151
330
1F
100
AcDbEntity
  8
0
  6
Continuous
 62
     8
370
    18
100
AcDbSpline
210
0.0
220
0.0
230
1.0
 70
     8
 71
     3
 72
    33
 73
    29
 74
     0
 42
0.000000001
 43
0.00000001
 40
0.0
 40
0.0
 40
0.0
 40
0.0
 40
0.00514189725775
 40
0.0462828599682093
 40
0.0874187347926295
 40
0.1285724329676278
 40
0.1697316648500065
 40
0.2108756952429464
 40
0.2520100209478814
 40
0.2931609831905468
 40
0.3343209166234225
 40
0.3754680968809366
 40
0.4166018079086591
 40
0.4577497629533359
 40
0.498909776651306
 40
0.540060001230145
 40
0.5811940879007063
 40
0.6223389035969531
 40
0.6634983668536901
 40
0.7046514169798365
 40
0.7457868234821775
 40
0.7869285352950866
 40
0.8280868315981248
 40
0.8692423432291532
 40
0.9103798665680316
 40
0.9515187062967565
 40
0.992675269601679
 40
1.0
 40
1.0
 40
1.0
 40
1.0
 10
135.1030877368239
 20
167.3392276849054
 30
0.0
 10
135.1056581462811
 20
167.341071819214
 30
0.0
 10
135.1287947231129
 20
167.3576711026479
 30
0.0
 10
135.1725136772462
 20
167.2945506493265
 30
0.0
 10
135.2342521591437
 20
167.1407031699874
 30
0.0
 10
135.2959597830513
 20
166.8802163691034
 30
0.0
 10
135.357661354401
 20
166.5313004691123
 30
0.0
 10
135.4193839720072
 20
166.0960009843934
 30
0.0
 10
135.481126440302
 20
165.5800871344169
 30
0.0
 10
135.5428375517543
 20
164.9930517208305
 30
0.0
 10
135.6045385861044
 20
164.3460180404375
 30
0.0
 10
135.6662556117771
 20
163.6494655259914
 30
0.0
 10
135.7279994292296
 20
162.9138450864296
 30
0.0
 10
135.7897151738227
 20
162.1518184652284
 30
0.0
 10
135.8514161282514
 20
161.3765729459555
 30
0.0
 10
135.9131283326278
 20
160.600769744303
 30
0.0
 10
135.9748713173135
 20
159.8373908698385
 30
0.0
 10
136.0365924864165
 20
159.0996985792232
 30
0.0
 10
136.0982939107615
 20
158.3991529847445
 30
0.0
 10
136.1600021737154
 20
157.74707814978
 30
0.0
 10
136.2217423076633
 20
157.1551010755412
 30
0.0
 10
136.2834693430562
 20
156.6346368175429
 30
0.0
 10
136.345171806392
 20
156.192011991207
 30
0.0
 10
136.4068771551086
 20
155.8348277285631
 30
0.0
 10
136.4686125320611
 20
155.5669072578277
 30
0.0
 10
136.5303463257417
 20
155.4066513126434
 30
0.0
 10
136.5751376323207
 20
155.337590753946
 30
0.0
 10
136.5993716682624
 20
155.3521291957811
 30
0.0
 10
136.6030330346612
 20
155.3543257165156
 30
0.0
  0
SPLINE
  5
152
330
1F
100
AcDbEntity
  8
0
  6
Continuous
 62
     8
370
    18
100
AcDbSpline
210
0.0
220
0.0
230
1.0
 70
     8
 71
     3
 72
    20
 73
    16
 74
     0
 42
0.000000001
 43
0.00000001
 40
0.0
 40
0.0
 40
0.0
 40
0.0
 40
0.0415924117906315
 40
0.1214805958554479
 40
0.2013347992542254
 40
0.2811839496202506
 40
0.3610679118055211
 40
0.4409591630368535
 40
0.5208195365319331
 40
0.6006665191510481
 40
0.6805477678889084
 40
0.7604418387257056
 40
0.8403048321847886
 40
0.9201387985360545
 40
0.9999999999999999
 40
0.9999999999999999
 40
0.9999999999999999
 40
0.9999999999999999
 10
138.102885200241
 20
167.3320485848389
 30
0.0
 10
138.1135962161651
 20
167.3344108142588
 30
0.0
 10
138.1448803023879
 20
167.3413102707971
 30
0.0
 10
138.1967208429126
 20
167.2448944155412
 30
0.0
 10
138.2584529479561
 20
167.0509819361342
 30
0.0
 10
138.3201895807194
 20
166.7546465591579
 30
0.0
 10
138.3818956722938
 20
166.3695759926871
 30
0.0
 10
138.4435979611703
 20
165.9014776724217
 30
0.0
 10
138.5053238023654
 20
165.3580727040714
 30
0.0
 10
138.5670645958641
 20
164.7462394242702
 30
0.0
 10
138.628772981397
 20
164.0775458781952
 30
0.0
 10
138.690473420187
 20
163.3639171946841
 30
0.0
 10
138.7521916264689
 20
162.6170536569961
 30
0.0
 10
138.81393770304
 20
161.8482573131494
 30
0.0
 10
138.8550719999041
 20
161.3310699967643
 30
0.0
 10
138.8756426559476
 20
161.0724322368778
 30
0.0
  0
LINE
  5
153
330
1F
100
AcDbEntity
  8
0
  6
Continuous
 62
     8
370
    18
100
AcDbLine
 10
162.4292022126
 20
166.3404885318
 30
0.0
 11
161.4292039113
 21
167.3394507367
 31
0.0
  0
SPLINE
  5
154
330
1F
100
AcDbEntity
  8
0
  6
Continuous
 62
     8
370
    18
100
AcDbSpline
210
0.0
220
0.0
230
1.0
 70
    24
 71
     3
 72
    18
 73
    14
 74
     0
 42
0.000000001
 43
0.00000001
 40
0.0
 40
0.0
 40
0.0
 40
0.0
 40
0.25
 40
0.25
 40
0.375
 40
0.375
 40
0.5
 40
0.5
 40
0.625
 40
0.625
 40
0.75
 40
0.75
 40
1.0
 40
1.0
 40
1.0
 40
1.0
 10
124.1292034942435
 20
161.3456784385644
 30
0.0
 10
124.1292034942435
 20
160.5711679970852
 30
0.0
 10
124.1292034942435
 20
159.7441381342582
 30
0.0
 10
124.1292034942435
 20
158.5378196011335
 30
0.0
 10
124.1292034942435
 20
158.1420890986296
 30
0.0
 10
124.1292034942435
 20
157.386147014018
 30
0.0
 10
124.1292034942435
 20
157.0260730027661
 30
0.0
 10
124.1292034942435
 20
156.3623186910013
 30
0.0
 10
124.1292034942435
 20
156.0587462661313
 30
0.0
 10
124.1292034942435
 20
155.5228653509389
 30
0.0
 10
124.1292034942435
 20
155.2905964726773
 30
0.0
 10
124.1292034942435
 20
154.7104794678824
 30
0.0
 10
124.1292034942435
 20
154.482486281428
 30
0.0
 10
124.1292034942435
 20
154.3926317449566
 30
0.0
  0
SPLINE
  5
155
330
1F
100
AcDbEntity
  8
0
  6
Continuous
 62
     8
370
    18
100
AcDbSpline
210
0.0
220
0.0
230
1.0
 70
    24
 71
     3
 72
    10
 73
     6
 74
     0
 42
0.000000001
 43
0.00000001
 40
0.0
 40
0.0
 40
0.0
 40
0.0
 40
0.5
 40
0.5
 40
1.0
 40
1.0
 40
1.0
 40
1.0
 10
124.4292034944368
 20
161.3456784385644
 30
0.0
 10
124.4292034943395
 20
161.3456784385644
 30
0.0
 10
124.3999141724388
 20
161.3456784385644
 30
0.0
 10
124.282756884928
 20
161.3456784385644
 30
0.0
 10
124.1999141724585
 20
161.3456784385644
 30
0.0
 10
124.1292034942435
 20
161.3456784385644
 30
0.0
  0
SPLINE
  5
156
330
1F
100
AcDbEntity
  8
0
  6
Continuous
 62
     8
370
    18
100
AcDbSpline
210
0.0
220
0.0
230
1.0
 70
     8
 71
     3
 72
    17
 73
    13
 74
     0
 42
0.000000001
 43
0.00000001
 40
0.0
 40
0.0
 40
0.0
 40
0.0
 40
0.1253028086887613
 40
0.2496378964633822
 40
0.378474532885017
 40
0.4996003287260954
 40
0.614900054495756
 40
0.7170695675839908
 40
0.8062044762604943
 40
0.8825901211210391
 40
0.9468152026134884
 40
0.9999999999999999
 40
0.9999999999999999
 40
0.9999999999999999
 40
0.9999999999999999
 10
124.1292034942435
 20
154.3926317449566
 30
0.0
 10
124.1388114527271
 20
154.3986874686099
 30
0.0
 10
124.1579531668694
 20
154.4107521472086
 30
0.0
 10
124.1935251531695
 20
154.4372158466763
 30
0.0
 10
124.2331408754983
 20
154.4715491470367
 30
0.0
 10
124.276046273207
 20
154.5157003803908
 30
0.0
 10
124.3181210640295
 20
154.5681554162584
 30
0.0
 10
124.356503718383
 20
154.6277413255404
 30
0.0
 10
124.3882455397271
 20
154.6911300134332
 30
0.0
 10
124.4112702367715
 20
154.7558972738045
 30
0.0
 10
124.4261144555722
 20
154.8186439078467
 30
0.0
 10
124.4282404520387
 20
154.8623352865767
 30
0.0
 10
124.4292034944368
 20
154.8821267823816
 30
0.0
  0
LINE
  5
157
330
1F
100
AcDbEntity
  8
0
  6
Continuous
 62
     8
370
    18
100
AcDbLine
 10
130.1292030649
 20
168.3456786546
 30
0.0
 11
130.1292030649
 21
161.3456784386
 31
0.0
  0
LINE
  5
158
330
1F
100
AcDbEntity
  8
0
  6
Continuous
 62
     8
370
    18
100
AcDbLine
 10
130.1292030649
 20
161.3456784386
 30
0.0
 11
130.1292030649
 21
154.3456782225
 31
0.0
  0
SPLINE
  5
159
330
1F
100
AcDbEntity
  8
0
  6
Continuous
 62
     8
370
    18
100
AcDbSpline
210
0.0
220
0.0
230
1.0
 70
     8
 71
     3
 72
    10
 73
     6
 74
     0
 42
0.000000001
 43
0.00000001
 40
0.0
 40
0.0
 40
0.0
 40
0.0
 40
0.0001366674884552
 40
0.4999060501423579
 40
1.0
 40
1.0
 40
1.0
 40
1.0
 10
128.8791930811194
 20
154.3456819477878
 30
0.0
 10
128.8791964967802
 20
154.3456807057381
 30
0.0
 10
128.8916903933997
 20
154.3411375024887
 30
0.0
 10
128.8515405317007
 20
154.355037584328
 30
0.0
 10
128.7699913881504
 20
154.3800976707909
 30
0.0
 10
128.7292035804776
 20
154.3926317814193
 30
0.0
  0
SPLINE
  5
15A
330
1F
100
AcDbEntity
  8
0
  6
Continuous
 62
     8
370
    18
100
AcDbSpline
210
0.0
220
0.0
230
1.0
 70
    24
 71
     3
 72
    18
 73
    14
 74
     0
 42
0.000000001
 43
0.00000001
 40
0.0
 40
0.0
 40
0.0
 40
0.0
 40
0.2499999999999999
 40
0.2499999999999999
 40
0.3749999999999999
 40
0.3749999999999999
 40
0.4999999999999999
 40
0.4999999999999999
 40
0.6249999999999999
 40
0.6249999999999999
 40
0.7499999999999999
 40
0.7499999999999999
 40
1.0
 40
1.0
 40
1.0
 40
1.0
 10
128.7292034938583
 20
154.3926317449566
 30
0.0
 10
128.7292034938583
 20
154.482486281428
 30
0.0
 10
128.7292034938583
 20
154.7104794678824
 30
0.0
 10
128.7292034938583
 20
155.2905964726772
 30
0.0
 10
128.7292034938583
 20
155.5228653509389
 30
0.0
 10
128.7292034938583
 20
156.0587462661313
 30
0.0
 10
128.7292034938583
 20
156.3623186910013
 30
0.0
 10
128.7292034938583
 20
157.0260730027661
 30
0.0
 10
128.7292034938583
 20
157.386147014018
 30
0.0
 10
128.7292034938583
 20
158.1420890986296
 30
0.0
 10
128.7292034938583
 20
158.5378196011335
 30
0.0
 10
128.7292034938583
 20
159.7441381342582
 30
0.0
 10
128.7292034938583
 20
160.5711679970852
 30
0.0
 10
128.7292034938583
 20
161.3456784385644
 30
0.0
  0
LINE
  5
15B
330
1F
100
AcDbEntity
  8
0
  6
Continuous
 62
     8
370
    18
100
AcDbLine
 10
128.7292035805
 20
161.3456784386
 30
0.0
 11
128.7292035805
 21
168.3456786546
 31
0.0
  0
LINE
  5
15C
330
1F
100
AcDbEntity
  8
0
  6
Continuous
 62
     8
370
    18
100
AcDbLine
 10
124.1292039441
 20
168.3456786546
 30
0.0
 11
124.1292039441
 21
161.3456784386
 31
0.0
  0
SPLINE
  5
15D
330
1F
100
AcDbEntity
  8
0
  6
Continuous
 62
     8
370
    18
100
AcDbSpline
210
0.0
220
0.0
230
1.0
 70
     8
 71
     3
 72
     9
 73
     5
 74
     0
 42
0.000000001
 43
0.00000001
 40
0.0
 40
0.0
 40
0.0
 40
0.0
 40
0.4976555145517746
 40
0.9999999999999999
 40
0.9999999999999999
 40
0.9999999999999999
 40
0.9999999999999999
 10
123.9792135121016
 20
154.3456819477878
 30
0.0
 10
123.9856525835673
 20
154.3478213161912
 30
0.0
 10
123.9985913962147
 20
154.3521202103877
 30
0.0
 10
124.0855299231596
 20
154.3790857774891
 30
0.0
 10
124.1292030127434
 20
154.3926317814193
 30
0.0
  0
LINE
  5
15E
330
1F
100
AcDbEntity
  8
0
  6
Continuous
 62
     8
370
    18
100
AcDbLine
 10
122.7292035283
 20
154.3456782225
 30
0.0
 11
122.7292035283
 21
161.3456784386
 31
0.0
  0
LINE
  5
15F
330
1F
100
AcDbEntity
  8
0
  6
Continuous
 62
     8
370
    18
100
AcDbLine
 10
122.7292035283
 20
161.3456784386
 30
0.0
 11
122.7292035283
 21
168.3456786546
 31
0.0
  0
SPLINE
  5
160
330
1F
100
AcDbEntity
  8
0
  6
Continuous
 62
     8
370
    18
100
AcDbSpline
210
0.0
220
0.0
230
1.0
 70
    24
 71
     3
 72
    10
 73
     6
 74
     0
 42
0.000000001
 43
0.00000001
 40
0.0
 40
0.0
 40
0.0
 40
0.0
 40
0.5
 40
0.5
 40
1.0
 40
1.0
 40
1.0
 40
1.0
 10
128.429203493665
 20
161.3456784385644
 30
0.0
 10
128.4292034937623
 20
161.3456784385644
 30
0.0
 10
128.458492815663
 20
161.3456784385644
 30
0.0
 10
128.5756501031738
 20
161.3456784385644
 30
0.0
 10
128.6584928156433
 20
161.3456784385644
 30
0.0
 10
128.7292034938583
 20
161.3456784385644
 30
0.0
  0
SPLINE
  5
161
330
1F
100
AcDbEntity
  8
0
  6
Continuous
 62
     8
370
    18
100
AcDbSpline
210
0.0
220
0.0
230
1.0
 70
     8
 71
     3
 72
    20
 73
    16
 74
     0
 42
0.000000001
 43
0.00000001
 40
0.0
 40
0.0
 40
0.0
 40
0.0
 40
0.0343650801632173
 40
0.0734028390077038
 40
0.1175589995061425
 40
0.1671269693681373
 40
0.2222979098695451
 40
0.2831931541814504
 40
0.3498846554710801
 40
0.4224076880915965
 40
0.5007685820494387
 40
0.6218788314545851
 40
0.7506922902422016
 40
0.8748648696401378
 40
1.0
 40
1.0
 40
1.0
 40
1.0
 10
128.429203493665
 20
154.8821267823816
 30
0.0
 10
128.4296059410929
 20
154.8692451062687
 30
0.0
 10
128.4304655574134
 20
154.8417302105264
 30
0.0
 10
128.4368084362923
 20
154.8010720708536
 30
0.0
 10
128.4469007138962
 20
154.7586769999947
 30
0.0
 10
128.4612249745382
 20
154.7155567860137
 30
0.0
 10
128.4794379105104
 20
154.6724935538794
 30
0.0
 10
128.5012245613974
 20
154.6303520051735
 30
0.0
 10
128.526049359984
 20
154.5899058519384
 30
0.0
 10
128.5532817409564
 20
154.5518302822914
 30
0.0
 10
128.5867698806631
 20
154.5111482912983
 30
0.0
 10
128.6253495365949
 20
154.4714731925296
 30
0.0
 10
128.6649429362606
 20
154.4371673421611
 30
0.0
 10
128.7004850625527
 20
154.4107319373172
 30
0.0
 10
128.7196060753471
 20
154.3986806519937
 30
0.0
 10
128.7292034938583
 20
154.3926317449566
 30
0.0
  0
SPLINE
  5
162
330
1F
100
AcDbEntity
  8
0
  6
Continuous
 62
     8
370
    18
100
AcDbSpline
210
0.0
220
0.0
230
1.0
 70
    24
 71
     3
 72
    10
 73
     6
 74
     0
 42
0.000000001
 43
0.00000001
 40
0.0
 40
0.0
 40
0.0
 40
0.0
 40
0.5
 40
0.5
 40
1.0
 40
1.0
 40
1.0
 40
1.0
 10
130.4292034944368
 20
161.3456784385644
 30
0.0
 10
130.4292034943395
 20
161.3456784385644
 30
0.0
 10
130.3999141724388
 20
161.3456784385644
 30
0.0
 10
130.282756884928
 20
161.3456784385644
 30
0.0
 10
130.1999141724585
 20
161.3456784385644
 30
0.0
 10
130.1292034942435
 20
161.3456784385644
 30
0.0
  0
SPLINE
  5
163
330
1F
100
AcDbEntity
  8
0
  6
Continuous
 62
     8
370
    18
100
AcDbSpline
210
0.0
220
0.0
230
1.0
 70
    24
 71
     3
 72
    10
 73
     6
 74
     0
 42
0.000000001
 43
0.00000001
 40
0.0
 40
0.0
 40
0.0
 40
0.0
 40
0.5
 40
0.5
 40
1.0
 40
1.0
 40
1.0
 40
1.0
 10
122.7292034938583
 20
161.3456784385644
 30
0.0
 10
122.6584928156433
 20
161.3456784385644
 30
0.0
 10
122.5756501031738
 20
161.3456784385644
 30
0.0
 10
122.458492815663
 20
161.3456784385644
 30
0.0
 10
122.4292034937623
 20
161.3456784385644
 30
0.0
 10
122.429203493665
 20
161.3456784385644
 30
0.0
  0
LINE
  5
164
330
1F
100
AcDbEntity
  8
0
  6
Continuous
 62
     8
370
    18
100
AcDbLine
 10
115.1292035166
 20
161.3456784386
 30
0.0
 11
115.1292035166
 21
155.8456784684
 31
0.0
  0
SPLINE
  5
165
330
1F
100
AcDbEntity
  8
0
  6
Continuous
 62
     8
370
    18
100
AcDbSpline
210
0.0
220
0.0
230
1.0
 70
    24
 71
     3
 72
    10
 73
     6
 74
     0
 42
0.000000001
 43
0.00000001
 40
0.0
 40
0.0
 40
0.0
 40
0.0
 40
0.5
 40
0.5
 40
1.0
 40
1.0
 40
1.0
 40
1.0
 10
115.4292034944368
 20
161.3456784385644
 30
0.0
 10
115.4292034943395
 20
161.3456784385644
 30
0.0
 10
115.3999141724388
 20
161.3456784385644
 30
0.0
 10
115.282756884928
 20
161.3456784385644
 30
0.0
 10
115.1999141724585
 20
161.3456784385644
 30
0.0
 10
115.1292034942435
 20
161.3456784385644
 30
0.0
  0
LINE
  5
166
330
1F
100
AcDbEntity
  8
0
  6
Continuous
 62
     8
370
    18
100
AcDbLine
 10
115.1292035166
 20
166.8456784088
 30
0.0
 11
115.1292035166
 21
161.3456784386
 31
0.0
  0
LINE
  5
167
330
1F
100
AcDbEntity
  8
0
  6
Continuous
 62
     8
370
    18
100
AcDbLine
 10
113.7292035083
 20
161.3456784386
 30
0.0
 11
113.7292035083
 21
166.8456784088
 31
0.0
  0
SPLINE
  5
168
330
1F
100
AcDbEntity
  8
0
  6
Continuous
 62
     8
370
    18
100
AcDbSpline
210
0.0
220
0.0
230
1.0
 70
    24
 71
     3
 72
    10
 73
     6
 74
     0
 42
0.000000001
 43
0.00000001
 40
0.0
 40
0.0
 40
0.0
 40
0.0
 40
0.5
 40
0.5
 40
1.0
 40
1.0
 40
1.0
 40
1.0
 10
113.7292034938583
 20
161.3456784385644
 30
0.0
 10
113.6584928156433
 20
161.3456784385644
 30
0.0
 10
113.5756501031738
 20
161.3456784385644
 30
0.0
 10
113.458492815663
 20
161.3456784385644
 30
0.0
 10
113.4292034937623
 20
161.3456784385644
 30
0.0
 10
113.429203493665
 20
161.3456784385644
 30
0.0
  0
LINE
  5
169
330
1F
100
AcDbEntity
  8
0
  6
Continuous
 62
     8
370
    18
100
AcDbLine
 10
113.7292035083
 20
155.8456784684
 30
0.0
 11
113.7292035083
 21
161.3456784386
 31
0.0
  0
LINE
  5
16A
330
1F
100
AcDbEntity
  8
0
  6
Continuous
 62
     8
370
    18
100
AcDbLine
 10
131.1292032288
 20
161.3456784386
 30
0.0
 11
131.1292032288
 21
156.8456786323
 31
0.0
  0
SPLINE
  5
16B
330
1F
100
AcDbEntity
  8
0
  6
Continuous
 62
     8
370
    18
100
AcDbSpline
210
0.0
220
0.0
230
1.0
 70
    24
 71
     3
 72
    10
 73
     6
 74
     0
 42
0.000000001
 43
0.00000001
 40
0.0
 40
0.0
 40
0.0
 40
0.0
 40
0.5
 40
0.5
 40
1.0
 40
1.0
 40
1.0
 40
1.0
 10
131.4292034944368
 20
161.3456784385644
 30
0.0
 10
131.4292034943395
 20
161.3456784385644
 30
0.0
 10
131.3999141724388
 20
161.3456784385644
 30
0.0
 10
131.282756884928
 20
161.3456784385644
 30
0.0
 10
131.1999141724585
 20
161.3456784385644
 30
0.0
 10
131.1292034942435
 20
161.3456784385644
 30
0.0
  0
LINE
  5
16C
330
1F
100
AcDbEntity
  8
0
  6
Continuous
 62
     8
370
    18
100
AcDbLine
 10
131.1292032288
 20
165.8456782448
 30
0.0
 11
131.1292032288
 21
161.3456784386
 31
0.0
  0
LINE
  5
16D
330
1F
100
AcDbEntity
  8
0
  6
Continuous
 62
     8
370
    18
100
AcDbLine
 10
163.4292042391
 20
158.4456784754
 30
0.0
 11
163.4292042391
 21
161.3456784386
 31
0.0
  0
SPLINE
  5
16E
330
1F
100
AcDbEntity
  8
0
  6
Continuous
 62
     8
370
    18
100
AcDbSpline
210
0.0
220
0.0
230
1.0
 70
    24
 71
     3
 72
    10
 73
     6
 74
     0
 42
0.000000001
 43
0.00000001
 40
0.0
 40
0.0
 40
0.0
 40
0.0
 40
0.5
 40
0.5
 40
1.0
 40
1.0
 40
1.0
 40
1.0
 10
163.4292034938583
 20
161.3456784385644
 30
0.0
 10
163.3584928156433
 20
161.3456784385644
 30
0.0
 10
163.2756501031739
 20
161.3456784385644
 30
0.0
 10
163.158492815663
 20
161.3456784385644
 30
0.0
 10
163.1292034937623
 20
161.3456784385644
 30
0.0
 10
163.129203493665
 20
161.3456784385644
 30
0.0
  0
LINE
  5
16F
330
1F
100
AcDbEntity
  8
0
  6
Continuous
 62
     8
370
    18
100
AcDbLine
 10
163.4292042391
 20
161.3456784386
 30
0.0
 11
163.4292042391
 21
164.2456784017
 31
0.0
  0
SPLINE
  5
170
330
1F
100
AcDbEntity
  8
0
  6
Continuous
 62
     8
370
    18
100
AcDbSpline
210
0.0
220
0.0
230
1.0
 70
     8
 71
     3
 72
     8
 73
     4
 74
     0
 42
0.000000001
 43
0.00000001
 40
0.0
 40
0.0
 40
0.0
 40
0.0
 40
1.0
 40
1.0
 40
1.0
 40
1.0
 10
124.4108361470509
 20
154.0946440295644
 30
0.0
 10
124.3233576895256
 20
154.0630244084596
 30
0.0
 10
124.2792033059576
 20
154.0456783952145
 30
0.0
 10
124.2792034938948
 20
154.0456784386176
 30
0.0
  0
SPLINE
  5
171
330
1F
100
AcDbEntity
  8
0
  6
Continuous
 62
     8
370
    18
100
AcDbSpline
210
0.0
220
0.0
230
1.0
 70
     8
 71
     3
 72
    14
 73
    10
 74
     0
 42
0.000000001
 43
0.00000001
 40
0.0
 40
0.0
 40
0.0
 40
0.0
 40
0.2500000000000001
 40
0.2500000000000001
 40
0.5000000000000001
 40
0.5000000000000001
 40
0.7500000000000002
 40
0.7500000000000002
 40
1.0
 40
1.0
 40
1.0
 40
1.0
 10
124.9373667590509
 20
154.8821267835644
 30
0.0
 10
124.9373666310509
 20
154.7567820315644
 30
0.0
 10
124.9058663100509
 20
154.6380023265644
 30
0.0
 10
124.8162908247176
 20
154.4378219585644
 30
0.0
 10
124.7599474475509
 20
154.3587649105644
 30
0.0
 10
124.6481677015509
 20
154.2360151745644
 30
0.0
 10
124.5921605807176
 20
154.191847382231
 30
0.0
 10
124.4921765780509
 20
154.1280165355643
 30
0.0
 10
124.4480203220509
 20
154.1080844525644
 30
0.0
 10
124.4108361470509
 20
154.0946440295644
 30
0.0
  0
LINE
  5
172
330
1F
100
AcDbEntity
  8
0
  6
Continuous
 62
     8
370
    18
100
AcDbLine
 10
124.9373665588
 20
154.8821270104
 30
0.0
 11
124.9373665588
 21
157.1203880581
 31
0.0
  0
LINE
  5
173
330
1F
100
AcDbEntity
  8
0
  6
Continuous
 62
     8
370
    18
100
AcDbLine
 10
127.9210400345
 20
157.1203880581
 30
0.0
 11
127.9210400345
 21
154.8821270104
 31
0.0
  0
SPLINE
  5
174
330
1F
100
AcDbEntity
  8
0
  6
Continuous
 62
     8
370
    18
100
AcDbSpline
210
0.0
220
0.0
230
1.0
 70
     8
 71
     3
 72
    18
 73
    14
 74
     0
 42
0.000000001
 43
0.00000001
 40
0.0
 40
0.0
 40
0.0
 40
0.0
 40
0.0410823682820068
 40
0.0828065580584861
 40
0.1255825969474222
 40
0.1877661735496268
 40
0.2513939957569841
 40
0.3738326045275167
 40
0.5019758500574578
 40
0.6225834578907123
 40
0.7515922321317183
 40
0.8697739523236705
 40
1.0
 40
1.0
 40
1.0
 40
1.0
 10
127.9210402290389
 20
154.8821267839732
 30
0.0
 10
127.9214457432484
 20
154.8633974654157
 30
0.0
 10
127.9222631069337
 20
154.8256462239616
 30
0.0
 10
127.9288022550505
 20
154.7689943396342
 30
0.0
 10
127.9405924398478
 20
154.7041491108097
 30
0.0
 10
127.9599497284773
 20
154.6320789136024
 30
0.0
 10
127.9971115967595
 20
154.5320464832557
 30
0.0
 10
128.0571109808345
 20
154.4180987940636
 30
0.0
 10
128.1398821930465
 20
154.3089769057991
 30
0.0
 10
128.2270212593965
 20
154.2231175458984
 30
0.0
 10
128.3084366601256
 20
154.1626634311949
 30
0.0
 10
128.3848803195614
 20
154.1194540960501
 30
0.0
 10
128.4260092727042
 20
154.103177121338
 30
0.0
 10
128.4475708408421
 20
154.0946440303519
 30
0.0
  0
SPLINE
  5
175
330
1F
100
AcDbEntity
  8
0
  6
Continuous
 62
     8
370
    18
100
AcDbSpline
210
0.0
220
0.0
230
1.0
 70
     8
 71
     3
 72
     8
 73
     4
 74
     0
 42
0.000000001
 43
0.00000001
 40
0.0
 40
0.0
 40
0.0
 40
0.0
 40
1.0
 40
1.0
 40
1.0
 40
1.0
 10
128.579203494207
 20
154.0456784386176
 30
0.0
 10
128.5792033062175
 20
154.0456784820331
 30
0.0
 10
128.5348411543875
 20
154.0630996439243
 30
0.0
 10
128.4475708410509
 20
154.0946440295644
 30
0.0
  0
LINE
  5
176
330
1F
100
AcDbEntity
  8
0
  6
Continuous
 62
     8
370
    18
100
AcDbLine
 10
124.7292038561
 20
154.8821270104
 30
0.0
 11
124.9373665588
 21
154.8821270104
 31
0.0
  0
ARC
  5
177
330
1F
100
AcDbEntity
  8
0
  6
Continuous
 62
     8
370
    18
100
AcDbCircle
 10
124.1064246091
 20
154.0890218665
 30
0.0
 40
0.304463193378763
100
AcDbArc
 50
1.0580584043
 51
85.7094091971
  0
LINE
  5
178
330
1F
100
AcDbEntity
  8
0
  6
Continuous
 62
     8
370
    18
100
AcDbLine
 10
124.4292034344
 20
154.8821270104
 30
0.0
 11
124.7292038561
 21
154.8821270104
 31
0.0
  0
LINE
  5
179
330
1F
100
AcDbEntity
  8
0
  6
Continuous
 62
     8
370
    18
100
AcDbLine
 10
124.7292038561
 20
154.8821270104
 30
0.0
 11
124.7292038561
 21
157.0905596587
 31
0.0
  0
LINE
  5
17A
330
1F
100
AcDbEntity
  8
0
  6
Continuous
 62
     8
370
    18
100
AcDbLine
 10
128.1292036684
 20
154.8821270104
 30
0.0
 11
128.4292031588
 21
154.8821270104
 31
0.0
  0
ARC
  5
17B
330
1F
100
AcDbEntity
  8
0
  6
Continuous
 62
     8
370
    18
100
AcDbCircle
 10
128.7519830774
 20
154.0890208332
 30
0.0
 40
0.3044643055481193
100
AcDbArc
 50
94.2907814171
 51
178.9417509814
  0
LINE
  5
17C
330
1F
100
AcDbEntity
  8
0
  6
Continuous
 62
     8
370
    18
100
AcDbLine
 10
127.9210400345
 20
154.8821270104
 30
0.0
 11
128.1292036684
 21
154.8821270104
 31
0.0
  0
LINE
  5
17D
330
1F
100
AcDbEntity
  8
0
  6
Continuous
 62
     8
370
    18
100
AcDbLine
 10
128.1292036684
 20
157.0905596587
 30
0.0
 11
128.1292036684
 21
154.8821270104
 31
0.0
  0
DIMENSION
  5
17E
330
1F
100
AcDbEntity
  8
0
  6
Continuous
 62
     7
370
    18
100
AcDbDimension
  2
_D_1
 10
104.2885273705
 20
155.8456784386
 30
0.0
 11
104.2885273705
 21
161.3456784386
 31
0.0
 70
   160
  1
%%c<>
 71
     2
 42
-1.0
  3
SLDDIMSTYLE2
100
AcDbAlignedDimension
 13
113.7292034941
 23
166.8456784386
 33
0.0
 14
113.7292034941
 24
155.8456784386
 34
0.0
 50
90.0
100
AcDbRotatedDimension
  0
DIMENSION
  5
18A
330
1F
100
AcDbEntity
  8
0
  6
Continuous
 62
     7
370
    18
100
AcDbDimension
  2
_D_2
 10
122.4292034946
 20
142.6483136242
 30
0.0
 11
117.9292034945
 21
142.648313624
 31
0.0
 70
   160
  1
<>
 71
     2
 42
-1.0
  3
SLDDIMSTYLE2
100
AcDbAlignedDimension
 13
113.4292034941
 23
159.2456784386
 33
0.0
 14
122.4292034941
 24
157.4456784386
 34
0.0
 50
0.0000000021
100
AcDbRotatedDimension
  0
DIMENSION
  5
194
330
1F
100
AcDbEntity
  8
0
  6
Continuous
 62
     7
370
    18
100
AcDbDimension
  2
_D_3
 10
164.4292034928
 20
187.5742545968
 30
0.0
 11
138.9292034926
 21
187.5742545954
 31
0.0
 70
   160
  1
<>
 71
     2
 42
-1.0
  3
SLDDIMSTYLE2
100
AcDbAlignedDimension
 13
113.4292034937
 23
166.5456784387
 33
0.0
 14
164.4292034941
 24
163.8456784386
 34
0.0
 50
0.000000003
100
AcDbRotatedDimension
  0
DIMENSION
  5
19E
330
1F
100
AcDbEntity
  8
0
  6
Continuous
 62
     7
370
    18
100
AcDbDimension
  2
_D_4
 10
174.4292034737
 20
158.4456784235
 30
0.0
 11
174.4292034989
 21
175.9690231078
 31
0.0
 70
   160
  1
%%c<>
 71
     2
 42
-1.0
  3
SLDDIMSTYLE3
100
AcDbAlignedDimension
 13
163.929203494
 23
164.2456784386
 33
0.0
 14
163.929203494
 24
158.4456784386
 34
0.0
 50
90.0
100
AcDbRotatedDimension
  0
DIMENSION
  5
1AC
330
1F
100
AcDbEntity
  8
0
  6
Continuous
 62
     7
370
    18
100
AcDbDimension
  2
_D_5
 10
182.7981911463
 20
155.3456784381
 30
0.0
 11
182.7981911463
 21
161.3456784386
 31
0.0
 70
   160
  1
%%c<>
 71
     2
 42
-1.0
  3
SLDDIMSTYLE2
100
AcDbAlignedDimension
 13
161.4292034941
 23
167.345678439
 33
0.0
 14
161.4292034941
 24
155.3456784381
 34
0.0
 50
90.0
100
AcDbRotatedDimension
  0
DIMENSION
  5
1B7
330
1F
100
AcDbEntity
  8
0
  6
Continuous
 62
     7
370
    18
100
AcDbDimension
  2
_D_6
 10
131.4292034941
 20
175.3826127006
 30
0.0
 11
123.1879205578
 21
175.3826127006
 31
0.0
 70
   160
  1
<>st
 71
     2
 42
-1.0
  3
SLDDIMSTYLE3
100
AcDbAlignedDimension
 13
136.4292034941
 23
165.4414228409
 33
0.0
 14
131.4292034941
 24
165.5456784752
 34
0.0
100
AcDbRotatedDimension
  0
DIMENSION
  5
1C4
330
1F
100
AcDbEntity
  8
0
  6
Continuous
 62
     7
370
    18
100
AcDbDimension
  2
_D_7
 10
164.4292034941
 20
142.6483136238
 30
0.0
 11
152.9292034941
 21
142.6483136238
 31
0.0
 70
   160
  1
<>
 71
     2
 42
-1.0
  3
SLDDIMSTYLE2
100
AcDbAlignedDimension
 13
141.4292034941
 23
153.7456288923
 33
0.0
 14
164.4292034941
 24
158.8456784386
 34
0.0
100
AcDbRotatedDimension
  0
DIMENSION
  5
1CE
330
1F
100
AcDbEntity
  8
0
  6
Continuous
 62
     7
370
    18
100
AcDbDimension
  2
_D_8
 10
94.4263391962
 20
154.3456784386
 30
0.0
 11
94.4263391962
 21
161.3456784386
 31
0.0
 70
   160
  1
%%c<>
 71
     2
 42
-1.0
  3
SLDDIMSTYLE2
100
AcDbAlignedDimension
 13
122.7292034941
 23
168.3456784386
 33
0.0
 14
122.7292034941
 24
154.3456784386
 34
0.0
 50
90.0
100
AcDbRotatedDimension
  0
LINE
  5
1D9
330
1F
100
AcDbEntity
  8
0
  6
CENTERX2
 62
     7
370
    18
100
AcDbLine
 10
110.7060352932
 20
161.3456784386
 30
0.0
 11
168.9075634925
 21
161.3456784386
 31
0.0
  0
ENDSEC
  0
SECTION
  2
OBJECTS
  0
DICTIONARY
  5
C
330
0
100
AcDbDictionary
281
     1
  3
ACAD_GROUP
350
D
  3
ACAD_LAYOUT
350
1A
  3
ACAD_MLINESTYLE
350
17
  3
ACAD_PLOTSETTINGS
350
19
  3
ACAD_PLOTSTYLENAME
350
E
  3
ACAD_SCALELIST
350
47
  0
DICTIONARY
  5
D
102
{ACAD_REACTORS
330
C
102
}
330
C
100
AcDbDictionary
281
     1
  0
DICTIONARY
  5
1A
102
{ACAD_REACTORS
330
C
102
}
330
C
100
AcDbDictionary
281
     1
  3
Layout1
350
1E
  3
Layout2
350
26
  3
Model
350
22
  0
DICTIONARY
  5
17
102
{ACAD_REACTORS
330
C
102
}
330
C
100
AcDbDictionary
281
     1
  3
Standard
350
18
  0
DICTIONARY
  5
19
102
{ACAD_REACTORS
330
C
102
}
330
C
100
AcDbDictionary
281
     1
  0
ACDBDICTIONARYWDFLT
  5
E
102
{ACAD_REACTORS
330
C
102
}
330
C
100
AcDbDictionary
281
     1
  3
Normal
350
F
100
AcDbDictionaryWithDefault
340
F
  0
DICTIONARY
  5
47
102
{ACAD_REACTORS
330
C
102
}
330
C
100
AcDbDictionary
281
     1
  3
A0
350
48
  3
A1
350
49
  3
A2
350
4A
  3
A3
350
4B
  3
A4
350
4C
  3
A5
350
4D
  3
A6
350
4E
  3
A7
350
4F
  3
A8
350
50
  3
A9
350
51
  3
B0
350
52
  3
B1
350
53
  3
B2
350
54
  3
B3
350
55
  3
B4
350
56
  3
B5
350
57
  3
B6
350
58
  3
B7
350
59
  3
B8
350
5A
  3
B9
350
5B
  3
C0
350
5C
  3
C1
350
5D
  3
C2
350
5E
  3
C3
350
5F
  3
C4
350
60
  3
C5
350
61
  3
C6
350
62
  3
C7
350
63
  3
C8
350
64
  3
C9
350
65
  3
D0
350
66
  3
D1
350
67
  3
D2
350
68
  0
LAYOUT
  5
1E
102
{ACAD_REACTORS
330
1A
102
}
330
1A
100
AcDbPlotSettings
  1

  2
none_device
  4

  6

 40
0.0
 41
0.0
 42
0.0
 43
0.0
 44
0.0
 45
0.0
 46
0.0
 47
0.0
 48
0.0
 49
0.0
140
0.0
141
0.0
142
1.0
143
1.0
 70
   688
 72
     1
 73
     0
 74
     5
  7

 75
    16
147
1.0
148
0.0
149
0.0
100
AcDbLayout
  1
Layout1
 70
     1
 71
     1
 10
0.0
 20
0.0
 11
420.0
 21
297.0
 12
0.0
 22
0.0
 32
0.0
 14
1.0000000000E+20
 24
1.0000000000E+20
 34
1.0000000000E+20
 15
-1.0000000000E+20
 25
-1.0000000000E+20
 35
-1.0000000000E+20
146
0.0
 13
0.0
 23
0.0
 33
0.0
 16
1.0
 26
0.0
 36
0.0
 17
0.0
 27
1.0
 37
0.0
 76
     0
330
1B
  0
LAYOUT
  5
26
102
{ACAD_REACTORS
330
1A
102
}
330
1A
100
AcDbPlotSettings
  1

  2
none_device
  4

  6

 40
0.0
 41
0.0
 42
0.0
 43
0.0
 44
0.0
 45
0.0
 46
0.0
 47
0.0
 48
0.0
 49
0.0
140
0.0
141
0.0
142
1.0
143
1.0
 70
   688
 72
     1
 73
     0
 74
     5
  7

 75
    16
147
1.0
148
0.0
149
0.0
100
AcDbLayout
  1
Layout2
 70
     1
 71
     2
 10
0.0
 20
0.0
 11
0.0
 21
0.0
 12
0.0
 22
0.0
 32
0.0
 14
0.0
 24
0.0
 34
0.0
 15
0.0
 25
0.0
 35
0.0
146
0.0
 13
0.0
 23
0.0
 33
0.0
 16
1.0
 26
0.0
 36
0.0
 17
0.0
 27
1.0
 37
0.0
 76
     0
330
23
  0
LAYOUT
  5
22
102
{ACAD_REACTORS
330
1A
102
}
330
1A
100
AcDbPlotSettings
  1

  2
none_device
  4
Letter_(8.50_x_11.00_Inches)
  6

 40
6.35
 41
6.35
 42
6.35000508
 43
6.35000508
 44
215.9
 45
279.4
 46
0.0
 47
0.0
 48
0.0
 49
0.0
140
0.0
141
0.0
142
1.0
143
1.0
 70
  1712
 72
     1
 73
     0
 74
     0
  7

 75
     0
147
1.0
148
0.0
149
0.0
100
AcDbLayout
  1
Model
 70
     1
 71
     0
 10
0.0
 20
0.0
 11
210.0
 21
297.0
 12
0.0
 22
0.0
 32
0.0
 14
0.0
 24
0.0
 34
0.0
 15
210.0
 25
297.0
 35
0.0
146
0.0
 13
0.0
 23
0.0
 33
0.0
 16
1.0
 26
0.0
 36
0.0
 17
0.0
 27
1.0
 37
0.0
 76
     0
330
1F
331
29
  0
MLINESTYLE
  5
18
102
{ACAD_REACTORS
330
17
102
}
330
17
100
AcDbMlineStyle
  2
Standard
 70
     0
  3

 62
   256
 51
90.0
 52
90.0
 71
     2
 49
0.5
 62
   256
  6
BYLAYER
 49
-0.5
 62
   256
  6
BYLAYER
  0
ACDBPLACEHOLDER
  5
F
102
{ACAD_REACTORS
330
E
102
}
330
E
  0
SCALE
  5
48
102
{ACAD_REACTORS
330
47
102
}
330
47
100
AcDbScale
 70
     0
300
1:1
140
1.0
141
1.0
290
     1
  0
SCALE
  5
49
102
{ACAD_REACTORS
330
47
102
}
330
47
100
AcDbScale
 70
     0
300
1:2
140
1.0
141
2.0
290
     0
  0
SCALE
  5
4A
102
{ACAD_REACTORS
330
47
102
}
330
47
100
AcDbScale
 70
     0
300
1:4
140
1.0
141
4.0
290
     0
  0
SCALE
  5
4B
102
{ACAD_REACTORS
330
47
102
}
330
47
100
AcDbScale
 70
     0
300
1:5
140
1.0
141
5.0
290
     0
  0
SCALE
  5
4C
102
{ACAD_REACTORS
330
47
102
}
330
47
100
AcDbScale
 70
     0
300
1:8
140
1.0
141
8.0
290
     0
  0
SCALE
  5
4D
102
{ACAD_REACTORS
330
47
102
}
330
47
100
AcDbScale
 70
     0
300
1:10
140
1.0
141
10.0
290
     0
  0
SCALE
  5
4E
102
{ACAD_REACTORS
330
47
102
}
330
47
100
AcDbScale
 70
     0
300
1:16
140
1.0
141
16.0
290
     0
  0
SCALE
  5
4F
102
{ACAD_REACTORS
330
47
102
}
330
47
100
AcDbScale
 70
     0
300
1:20
140
1.0
141
20.0
290
     0
  0
SCALE
  5
50
102
{ACAD_REACTORS
330
47
102
}
330
47
100
AcDbScale
 70
     0
300
1:30
140
1.0
141
30.0
290
     0
  0
SCALE
  5
51
102
{ACAD_REACTORS
330
47
102
}
330
47
100
AcDbScale
 70
     0
300
1:40
140
1.0
141
40.0
290
     0
  0
SCALE
  5
52
102
{ACAD_REACTORS
330
47
102
}
330
47
100
AcDbScale
 70
     0
300
1:50
140
1.0
141
50.0
290
     0
  0
SCALE
  5
53
102
{ACAD_REACTORS
330
47
102
}
330
47
100
AcDbScale
 70
     0
300
1:100
140
1.0
141
100.0
290
     0
  0
SCALE
  5
54
102
{ACAD_REACTORS
330
47
102
}
330
47
100
AcDbScale
 70
     0
300
2:1
140
2.0
141
1.0
290
     0
  0
SCALE
  5
55
102
{ACAD_REACTORS
330
47
102
}
330
47
100
AcDbScale
 70
     0
300
4:1
140
4.0
141
1.0
290
     0
  0
SCALE
  5
56
102
{ACAD_REACTORS
330
47
102
}
330
47
100
AcDbScale
 70
     0
300
8:1
140
8.0
141
1.0
290
     0
  0
SCALE
  5
57
102
{ACAD_REACTORS
330
47
102
}
330
47
100
AcDbScale
 70
     0
300
10:1
140
10.0
141
1.0
290
     0
  0
SCALE
  5
58
102
{ACAD_REACTORS
330
47
102
}
330
47
100
AcDbScale
 70
     0
300
100:1
140
100.0
141
1.0
290
     0
  0
SCALE
  5
59
102
{ACAD_REACTORS
330
47
102
}
330
47
100
AcDbScale
 70
     0
300
1/128" = 1'-0"
140
0.0078125
141
12.0
290
     0
  0
SCALE
  5
5A
102
{ACAD_REACTORS
330
47
102
}
330
47
100
AcDbScale
 70
     0
300
1/64" = 1'-0"
140
0.015625
141
12.0
290
     0
  0
SCALE
  5
5B
102
{ACAD_REACTORS
330
47
102
}
330
47
100
AcDbScale
 70
     0
300
1/32" = 1'-0"
140
0.03125
141
12.0
290
     0
  0
SCALE
  5
5C
102
{ACAD_REACTORS
330
47
102
}
330
47
100
AcDbScale
 70
     0
300
1/16" = 1'-0"
140
0.0625
141
12.0
290
     0
  0
SCALE
  5
5D
102
{ACAD_REACTORS
330
47
102
}
330
47
100
AcDbScale
 70
     0
300
3/32" = 1'-0"
140
0.09375
141
12.0
290
     0
  0
SCALE
  5
5E
102
{ACAD_REACTORS
330
47
102
}
330
47
100
AcDbScale
 70
     0
300
1/8" = 1'-0"
140
0.125
141
12.0
290
     0
  0
SCALE
  5
5F
102
{ACAD_REACTORS
330
47
102
}
330
47
100
AcDbScale
 70
     0
300
3/16" = 1'-0"
140
0.1875
141
12.0
290
     0
  0
SCALE
  5
60
102
{ACAD_REACTORS
330
47
102
}
330
47
100
AcDbScale
 70
     0
300
1/4" = 1'-0"
140
0.25
141
12.0
290
     0
  0
SCALE
  5
61
102
{ACAD_REACTORS
330
47
102
}
330
47
100
AcDbScale
 70
     0
300
3/8" = 1'-0"
140
0.375
141
12.0
290
     0
  0
SCALE
  5
62
102
{ACAD_REACTORS
330
47
102
}
330
47
100
AcDbScale
 70
     0
300
1/2" = 1'-0"
140
0.5
141
12.0
290
     0
  0
SCALE
  5
63
102
{ACAD_REACTORS
330
47
102
}
330
47
100
AcDbScale
 70
     0
300
3/4" = 1'-0"
140
0.75
141
12.0
290
     0
  0
SCALE
  5
64
102
{ACAD_REACTORS
330
47
102
}
330
47
100
AcDbScale
 70
     0
300
1" = 1'-0"
140
1.0
141
12.0
290
     0
  0
SCALE
  5
65
102
{ACAD_REACTORS
330
47
102
}
330
47
100
AcDbScale
 70
     0
300
1-1/2" = 1'-0"
140
1.5
141
12.0
290
     0
  0
SCALE
  5
66
102
{ACAD_REACTORS
330
47
102
}
330
47
100
AcDbScale
 70
     0
300
3" = 1'-0"
140
3.0
141
12.0
290
     0
  0
SCALE
  5
67
102
{ACAD_REACTORS
330
47
102
}
330
47
100
AcDbScale
 70
     0
300
6" = 1'-0"
140
6.0
141
12.0
290
     0
  0
SCALE
  5
68
102
{ACAD_REACTORS
330
47
102
}
330
47
100
AcDbScale
 70
     0
300
1'-0" = 1'-0"
140
12.0
141
12.0
290
     0
  0
ENDSEC
  0
EOF
