  0
SECTION
  2
HEADER
  9
$ACADVER
  1
AC1015
  9
$ACADMAINTVER
 70
     6
  9
$DWGCODEPAGE
  3
DOS932
  9
$INSBASE
 10
0.0
 20
0.0
 30
0.0
  9
$EXTMIN
 10
0.0
 20
0.0
 30
0.0
  9
$EXTMAX
 10
210.0
 20
297.0
 30
0.0
  9
$LIMMIN
 10
0.0
 20
0.0
  9
$LIMMAX
 10
210.0
 20
297.0
  9
$ORTHOMODE
 70
     0
  9
$REGENMODE
 70
     1
  9
$FILLMODE
 70
     1
  9
$QTEXTMODE
 70
     0
  9
$MIRRTEXT
 70
     1
  9
$LTSCALE
 40
1.0
  9
$ATTMODE
 70
     1
  9
$TEXTSIZE
 40
3.5
  9
$TRACEWID
 40
1.0
  9
$TEXTSTYLE
  7
Standard
  9
$CLAYER
  8
0
  9
$CELTYPE
  6
ByLayer
  9
$CECOLOR
 62
   256
  9
$CELTSCALE
 40
1.0
  9
$DISPSILH
 70
     0
  9
$DIMSCALE
 40
1.0
  9
$DIMASZ
 40
3.0
  9
$DIMEXO
 40
1.0
  9
$DIMDLI
 40
3.75
  9
$DIMRND
 40
0.0
  9
$DIMDLE
 40
0.0
  9
$DIMEXE
 40
1.0
  9
$DIMTP
 40
0.0
  9
$DIMTM
 40
0.0
  9
$DIMTXT
 40
3.5
  9
$DIMCEN
 40
2.5
  9
$DIMTSZ
 40
0.0
  9
$DIMTOL
 70
     0
  9
$DIMLIM
 70
     0
  9
$DIMTIH
 70
     1
  9
$DIMTOH
 70
     1
  9
$DIMSE1
 70
     0
  9
$DIMSE2
 70
     0
  9
$DIMTAD
 70
     1
  9
$DIMZIN
 70
     0
  9
$DIMBLK
  1

  9
$DIMASO
 70
     1
  9
$DIMSHO
 70
     1
  9
$DIMPOST
  1

  9
$DIMAPOST
  1

  9
$DIMALT
 70
     0
  9
$DIMALTD
 70
     3
  9
$DIMALTF
 40
0.0393700787
  9
$DIMLFAC
 40
1.0
  9
$DIMTOFL
 70
     1
  9
$DIMTVP
 40
0.0
  9
$DIMTIX
 70
     0
  9
$DIMSOXD
 70
     0
  9
$DIMSAH
 70
     0
  9
$DIMBLK1
  1

  9
$DIMBLK2
  1

  9
$DIMSTYLE
  2
ISO-25
  9
$DIMCLRD
 70
     0
  9
$DIMCLRE
 70
     0
  9
$DIMCLRT
 70
     0
  9
$DIMTFAC
 40
1.0
  9
$DIMGAP
 40
1.524
  9
$DIMJUST
 70
     0
  9
$DIMSD1
 70
     0
  9
$DIMSD2
 70
     0
  9
$DIMTOLJ
 70
     0
  9
$DIMTZIN
 70
     0
  9
$DIMALTZ
 70
     0
  9
$DIMALTTZ
 70
     0
  9
$DIMUPT
 70
     0
  9
$DIMDEC
 70
     1
  9
$DIMTDEC
 70
     3
  9
$DIMALTU
 70
     2
  9
$DIMALTTD
 70
     3
  9
$DIMTXSTY
  7
Standard
  9
$DIMAUNIT
 70
     0
  9
$DIMADEC
 70
     2
  9
$DIMALTRND
 40
0.0
  9
$DIMAZIN
 70
     0
  9
$DIMDSEP
 70
    44
  9
$DIMATFIT
 70
     3
  9
$DIMFRAC
 70
     0
  9
$DIMLDRBLK
  1

  9
$DIMLUNIT
 70
     2
  9
$DIMLWD
 70
    -2
  9
$DIMLWE
 70
    -2
  9
$DIMTMOVE
 70
     0
  9
$LUNITS
 70
     2
  9
$LUPREC
 70
     1
  9
$SKETCHINC
 40
1.0
  9
$FILLETRAD
 40
10.0
  9
$AUNITS
 70
     0
  9
$AUPREC
 70
     2
  9
$MENU
  1
.
  9
$ELEVATION
 40
0.0
  9
$PELEVATION
 40
0.0
  9
$THICKNESS
 40
0.0
  9
$LIMCHECK
 70
     0
  9
$CHAMFERA
 40
0.0
  9
$CHAMFERB
 40
0.0
  9
$CHAMFERC
 40
0.0
  9
$CHAMFERD
 40
0.0
  9
$SKPOLY
 70
     0
  9
$TDCREATE
 40
2458675.80172846
  9
$TDUCREATE
 40
2458675.42672846
  9
$TDUPDATE
 40
2458675.801730937
  9
$TDUUPDATE
 40
2458675.426730937
  9
$TDINDWG
 40
0.0000000116
  9
$TDUSRTIMER
 40
0.0000000116
  9
$USRTIMER
 70
     1
  9
$ANGBASE
 50
0.0
  9
$ANGDIR
 70
     0
  9
$PDMODE
 70
     0
  9
$PDSIZE
 40
-1.0
  9
$PLINEWID
 40
0.0
  9
$SPLFRAME
 70
     0
  9
$SPLINETYPE
 70
     6
  9
$SPLINESEGS
 70
     8
  9
$HANDSEED
  5
1F7
  9
$SURFTAB1
 70
     6
  9
$SURFTAB2
 70
     6
  9
$SURFTYPE
 70
     6
  9
$SURFU
 70
     6
  9
$SURFV
 70
     6
  9
$UCSBASE
  2

  9
$UCSNAME
  2

  9
$UCSORG
 10
0.0
 20
0.0
 30
0.0
  9
$UCSXDIR
 10
1.0
 20
0.0
 30
0.0
  9
$UCSYDIR
 10
0.0
 20
1.0
 30
0.0
  9
$UCSORTHOREF
  2

  9
$UCSORTHOVIEW
 70
     0
  9
$UCSORGTOP
 10
0.0
 20
0.0
 30
0.0
  9
$UCSORGBOTTOM
 10
0.0
 20
0.0
 30
0.0
  9
$UCSORGLEFT
 10
0.0
 20
0.0
 30
0.0
  9
$UCSORGRIGHT
 10
0.0
 20
0.0
 30
0.0
  9
$UCSORGFRONT
 10
0.0
 20
0.0
 30
0.0
  9
$UCSORGBACK
 10
0.0
 20
0.0
 30
0.0
  9
$PUCSBASE
  2

  9
$PUCSNAME
  2

  9
$PUCSORG
 10
0.0
 20
0.0
 30
0.0
  9
$PUCSXDIR
 10
1.0
 20
0.0
 30
0.0
  9
$PUCSYDIR
 10
0.0
 20
1.0
 30
0.0
  9
$PUCSORTHOREF
  2

  9
$PUCSORTHOVIEW
 70
     0
  9
$PUCSORGTOP
 10
0.0
 20
0.0
 30
0.0
  9
$PUCSORGBOTTOM
 10
0.0
 20
0.0
 30
0.0
  9
$PUCSORGLEFT
 10
0.0
 20
0.0
 30
0.0
  9
$PUCSORGRIGHT
 10
0.0
 20
0.0
 30
0.0
  9
$PUCSORGFRONT
 10
0.0
 20
0.0
 30
0.0
  9
$PUCSORGBACK
 10
0.0
 20
0.0
 30
0.0
  9
$USERI1
 70
     0
  9
$USERI2
 70
     0
  9
$USERI3
 70
     0
  9
$USERI4
 70
     0
  9
$USERI5
 70
     0
  9
$USERR1
 40
0.0
  9
$USERR2
 40
0.0
  9
$USERR3
 40
0.0
  9
$USERR4
 40
0.0
  9
$USERR5
 40
0.0
  9
$WORLDVIEW
 70
     1
  9
$SHADEDGE
 70
     3
  9
$SHADEDIF
 70
    70
  9
$TILEMODE
 70
     1
  9
$MAXACTVP
 70
    64
  9
$PINSBASE
 10
0.0
 20
0.0
 30
0.0
  9
$PLIMCHECK
 70
     0
  9
$PEXTMIN
 10
1.0000000000E+20
 20
1.0000000000E+20
 30
1.0000000000E+20
  9
$PEXTMAX
 10
-1.0000000000E+20
 20
-1.0000000000E+20
 30
-1.0000000000E+20
  9
$PLIMMIN
 10
0.0
 20
0.0
  9
$PLIMMAX
 10
420.0
 20
297.0
  9
$UNITMODE
 70
     0
  9
$VISRETAIN
 70
     1
  9
$PLINEGEN
 70
     0
  9
$PSLTSCALE
 70
     1
  9
$TREEDEPTH
 70
  3020
  9
$CMLSTYLE
  2
Standard
  9
$CMLJUST
 70
     0
  9
$CMLSCALE
 40
20.0
  9
$PROXYGRAPHICS
 70
     1
  9
$MEASUREMENT
 70
     1
  9
$CELWEIGHT
370
    -1
  9
$ENDCAPS
280
     0
  9
$JOINSTYLE
280
     0
  9
$LWDISPLAY
290
     1
  9
$INSUNITS
 70
     4
  9
$HYPERLINKBASE
  1

  9
$STYLESHEET
  1

  9
$XEDIT
290
     1
  9
$CEPSNTYPE
380
     0
  9
$PSTYLEMODE
290
     1
  9
$FINGERPRINTGUID
  2
{8018B6B4-1072-4610-8887-33FEB667459B}
  9
$VERSIONGUID
  2
{FAEB1C32-E019-11D5-929B-00C0DF256EC4}
  9
$EXTNAMES
290
     1
  9
$PSVPSCALE
 40
0.0
  9
$OLESTARTUP
290
     0
  0
ENDSEC
  0
SECTION
  2
CLASSES
  0
CLASS
  1
ACDBDICTIONARYWDFLT
  2
AcDbDictionaryWithDefault
  3
ObjectDBX Classes
 90
        0
280
     0
281
     0
  0
CLASS
  1
VISUALSTYLE
  2
AcDbVisualStyle
  3
ObjectDBX Classes
 90
     4095
280
     0
281
     0
  0
CLASS
  1
MATERIAL
  2
AcDbMaterial
  3
ObjectDBX Classes
 90
     1153
280
     0
281
     0
  0
CLASS
  1
SCALE
  2
AcDbScale
  3
ObjectDBX Classes
 90
     1153
280
     0
281
     0
  0
CLASS
  1
TABLESTYLE
  2
AcDbTableStyle
  3
ObjectDBX Classes
 90
     4095
280
     0
281
     0
  0
CLASS
  1
MLEADERSTYLE
  2
AcDbMLeaderStyle
  3
ACDB_MLEADERSTYLE_CLASS
 90
     4095
280
     0
281
     0
  0
CLASS
  1
SUN
  2
AcDbSun
  3
SCENEOE
 90
     1153
280
     0
281
     0
  0
CLASS
  1
ACDBPLACEHOLDER
  2
AcDbPlaceHolder
  3
ObjectDBX Classes
 90
        0
280
     0
281
     0
  0
CLASS
  1
LAYOUT
  2
AcDbLayout
  3
ObjectDBX Classes
 90
        0
280
     0
281
     0
  0
ENDSEC
  0
SECTION
  2
TABLES
  0
TABLE
  2
VPORT
  5
8
330
0
100
AcDbSymbolTable
 70
     1
  0
VPORT
  5
29
330
8
100
AcDbSymbolTableRecord
100
AcDbViewportTableRecord
  2
*Active
 70
     0
 10
0.0
 20
0.0
 11
1.0
 21
1.0
 12
105.0
 22
148.5
 13
0.0
 23
0.0
 14
10.0
 24
10.0
 15
10.0
 25
10.0
 16
0.0
 26
0.0
 36
1.0
 17
0.0
 27
0.0
 37
0.0
 40
297.0
 41
0.7070707071
 42
50.0
 43
0.0
 44
0.0
 50
0.0
 51
0.0
 71
     0
 72
  2000
 73
     1
 74
     3
 75
     0
 76
     0
 77
     0
 78
     0
281
     0
 65
     1
110
0.0
120
0.0
130
0.0
111
1.0
121
0.0
131
0.0
112
0.0
122
1.0
132
0.0
 79
     0
146
0.0
  0
ENDTAB
  0
TABLE
  2
LTYPE
  5
5
330
0
100
AcDbSymbolTable
 70
     6
  0
LTYPE
  5
14
330
5
100
AcDbSymbolTableRecord
100
AcDbLinetypeTableRecord
  2
ByBlock
 70
     0
  3

 72
    65
 73
     0
 40
0.0
  0
LTYPE
  5
15
330
5
100
AcDbSymbolTableRecord
100
AcDbLinetypeTableRecord
  2
ByLayer
 70
     0
  3

 72
    65
 73
     0
 40
0.0
  0
LTYPE
  5
16
330
5
100
AcDbSymbolTableRecord
100
AcDbLinetypeTableRecord
  2
Continuous
 70
     0
  3
Solid line
 72
    65
 73
     0
 40
0.0
  0
LTYPE
  5
6E
330
5
100
AcDbSymbolTableRecord
100
AcDbLinetypeTableRecord
  2
HIDDEN
 70
     0
  3
Hidden __ __ __ __ __ __ __ __ __ __ __ __ __ __
 72
    65
 73
     2
 40
1.905
 49
1.27
 74
     0
 49
-0.635
 74
     0
  0
LTYPE
  5
6F
330
5
100
AcDbSymbolTableRecord
100
AcDbLinetypeTableRecord
  2
PHANTOM
 70
     0
  3
Phantom ______  __  __  ______  __  __  ______
 72
    65
 73
     6
 40
12.7
 49
6.35
 74
     0
 49
-1.27
 74
     0
 49
1.27
 74
     0
 49
-1.27
 74
     0
 49
1.27
 74
     0
 49
-1.27
 74
     0
  0
LTYPE
  5
70
330
5
100
AcDbSymbolTableRecord
100
AcDbLinetypeTableRecord
  2
CENTER
 70
     0
  3
Center ____ _ ____ _ ____ _ ____ _ ____ _ ____
 72
    65
 73
     4
 40
10.16
 49
6.35
 74
     0
 49
-1.27
 74
     0
 49
1.27
 74
     0
 49
-1.27
 74
     0
  0
LTYPE
  5
71
330
5
100
AcDbSymbolTableRecord
100
AcDbLinetypeTableRecord
  2
CENTERX2
 70
     0
  3
Center (2x) ________  __  ________  __  _____
 72
    65
 73
     4
 40
20.32
 49
12.7
 74
     0
 49
-2.54
 74
     0
 49
2.54
 74
     0
 49
-2.54
 74
     0
  0
LTYPE
  5
72
330
5
100
AcDbSymbolTableRecord
100
AcDbLinetypeTableRecord
  2
DOT2
 70
     0
  3
Dot (.5x) ........................................
 72
    65
 73
     2
 40
0.635
 49
0.0
 74
     0
 49
-0.635
 74
     0
  0
ENDTAB
  0
TABLE
  2
LAYER
  5
2
330
0
100
AcDbSymbolTable
 70
     1
  0
LAYER
  5
10
330
2
100
AcDbSymbolTableRecord
100
AcDbLayerTableRecord
  2
0
 70
     0
 62
     7
  6
Continuous
370
    -3
390
F
  0
ENDTAB
  0
TABLE
  2
STYLE
  5
3
330
0
100
AcDbSymbolTable
 70
     2
  0
STYLE
  5
11
330
3
100
AcDbSymbolTableRecord
100
AcDbTextStyleTableRecord
  2
Standard
 70
     0
 40
0.0
 41
1.0
 50
0.0
 71
     0
 42
3.5
  3
txt
  4
bigfont
  0
STYLE
  5
7B
330
3
100
AcDbSymbolTableRecord
100
AcDbTextStyleTableRecord
  2
SLDTEXTSTYLE0
 70
     0
 40
0.0
 41
0.7
 50
0.0
 71
     0
 42
3.5
  3
TXT
  4
bigfont
  0
ENDTAB
  0
TABLE
  2
VIEW
  5
6
330
0
100
AcDbSymbolTable
 70
     0
  0
ENDTAB
  0
TABLE
  2
UCS
  5
7
330
0
100
AcDbSymbolTable
 70
     0
  0
ENDTAB
  0
TABLE
  2
APPID
  5
9
330
0
100
AcDbSymbolTable
 70
     1
  0
APPID
  5
12
330
9
100
AcDbSymbolTableRecord
100
AcDbRegAppTableRecord
  2
ACAD
 70
     0
  0
ENDTAB
  0
TABLE
  2
DIMSTYLE
  5
A
330
0
100
AcDbSymbolTable
 70
     5
100
AcDbDimStyleTable
  0
DIMSTYLE
105
27
330
A
100
AcDbSymbolTableRecord
100
AcDbDimStyleTableRecord
  2
ISO-25
 70
     0
 41
2.5
 42
0.625
 43
3.75
 44
1.25
 73
     0
 74
     0
 77
     1
 78
     8
140
2.5
141
2.5
143
0.0393700787
147
0.625
171
     3
172
     1
178
     0
271
     2
272
     2
274
     3
278
    44
283
     0
284
     8
340
11
  0
DIMSTYLE
105
A2
102
{ACAD_REACTORS
330
A1
102
}
330
A
100
AcDbSymbolTableRecord
100
AcDbDimStyleTableRecord
  2
SLDDIMSTYLE0
 70
     0
 41
3.0
 44
0.0
 45
0.000000001
 78
    12
 79
     3
140
3.5
141
0.0
147
0.875
173
     1
178
     0
271
     1
272
     3
276
     2
284
    12
340
7B
  0
DIMSTYLE
105
B2
330
A
100
AcDbSymbolTableRecord
100
AcDbDimStyleTableRecord
  2
SLDDIMSTYLE1
 70
     0
 41
3.0
 44
0.0
 45
0.000000001
146
3.0
147
0.0
173
     1
178
     0
271
     0
272
     0
276
     2
340
11
  0
DIMSTYLE
105
194
102
{ACAD_REACTORS
330
193
330
1A1
330
1B9
330
1C6
330
1D3
330
1EA
102
}
330
A
100
AcDbSymbolTableRecord
100
AcDbDimStyleTableRecord
  2
SLDDIMSTYLE2
 70
     0
 41
3.0
 44
0.0
 45
0.000000001
 73
     0
 74
     0
 77
     3
 78
    12
 79
     3
140
3.5
147
0.875
172
     1
173
     1
178
     0
271
     1
272
     3
276
     2
284
    12
289
     0
340
7B
  0
DIMSTYLE
105
1AF
102
{ACAD_REACTORS
330
1AE
330
1E0
102
}
330
A
100
AcDbSymbolTableRecord
100
AcDbDimStyleTableRecord
  2
SLDDIMSTYLE3
 70
     0
 41
3.0
 44
0.0
 45
0.000000001
 73
     0
 74
     0
 77
     3
 78
    12
 79
     3
140
3.5
147
0.875
173
     1
178
     0
271
     1
272
     3
276
     2
284
    12
340
7B
  0
ENDTAB
  0
TABLE
  2
BLOCK_RECORD
  5
1
330
0
100
AcDbSymbolTable
 70
    13
  0
BLOCK_RECORD
  5
1F
330
1
100
AcDbSymbolTableRecord
100
AcDbBlockTableRecord
  2
*Model_Space
340
22
  0
BLOCK_RECORD
  5
1B
330
1
100
AcDbSymbolTableRecord
100
AcDbBlockTableRecord
  2
*Paper_Space
340
1E
  0
BLOCK_RECORD
  5
23
330
1
100
AcDbSymbolTableRecord
100
AcDbBlockTableRecord
  2
*Paper_Space0
340
26
  0
BLOCK_RECORD
  5
A3
330
1
100
AcDbSymbolTableRecord
100
AcDbBlockTableRecord
  2
_D
340
0
  0
BLOCK_RECORD
  5
AC
330
1
100
AcDbSymbolTableRecord
100
AcDbBlockTableRecord
  2
SW_NOTE_0
340
0
102
{BLKREFS
331
B1
102
}
  0
BLOCK_RECORD
  5
B4
330
1
100
AcDbSymbolTableRecord
100
AcDbBlockTableRecord
  2
SW_NOTE_1
340
0
102
{BLKREFS
331
B9
102
}
  0
BLOCK_RECORD
  5
BB
330
1
100
AcDbSymbolTableRecord
100
AcDbBlockTableRecord
  2
SW_CENTERMARKSYMBOL_0
340
0
102
{BLKREFS
331
C6
102
}
  0
BLOCK_RECORD
  5
195
330
1
100
AcDbSymbolTableRecord
100
AcDbBlockTableRecord
  2
_D_1
340
0
  0
BLOCK_RECORD
  5
1A2
330
1
100
AcDbSymbolTableRecord
100
AcDbBlockTableRecord
  2
_D_2
340
0
  0
BLOCK_RECORD
  5
1B0
330
1
100
AcDbSymbolTableRecord
100
AcDbBlockTableRecord
  2
_D_3
340
0
  0
BLOCK_RECORD
  5
1BA
330
1
100
AcDbSymbolTableRecord
100
AcDbBlockTableRecord
  2
_D_4
340
0
  0
BLOCK_RECORD
  5
1C7
330
1
100
AcDbSymbolTableRecord
100
AcDbBlockTableRecord
  2
_D_5
340
0
  0
BLOCK_RECORD
  5
1D4
330
1
100
AcDbSymbolTableRecord
100
AcDbBlockTableRecord
  2
_D_6
340
0
  0
BLOCK_RECORD
  5
1E1
330
1
100
AcDbSymbolTableRecord
100
AcDbBlockTableRecord
  2
_D_7
340
0
  0
BLOCK_RECORD
  5
1EB
330
1
100
AcDbSymbolTableRecord
100
AcDbBlockTableRecord
  2
_D_8
340
0
  0
ENDTAB
  0
ENDSEC
  0
SECTION
  2
BLOCKS
  0
BLOCK
  5
20
330
1F
100
AcDbEntity
  8
0
100
AcDbBlockBegin
  2
*Model_Space
 70
     0
 10
0.0
 20
0.0
 30
0.0
  3
*Model_Space
  1

  0
ENDBLK
  5
21
330
1F
100
AcDbEntity
  8
0
100
AcDbBlockEnd
  0
BLOCK
  5
1C
330
1B
100
AcDbEntity
 67
     1
  8
0
100
AcDbBlockBegin
  2
*Paper_Space
 70
     0
 10
0.0
 20
0.0
 30
0.0
  3
*Paper_Space
  1

  0
ENDBLK
  5
1D
330
1B
100
AcDbEntity
 67
     1
  8
0
100
AcDbBlockEnd
  0
BLOCK
  5
24
330
23
100
AcDbEntity
  8
0
100
AcDbBlockBegin
  2
*Paper_Space0
 70
     0
 10
0.0
 20
0.0
 30
0.0
  3
*Paper_Space0
  1

  0
ENDBLK
  5
25
330
23
100
AcDbEntity
  8
0
100
AcDbBlockEnd
  0
BLOCK
  5
A4
330
A3
100
AcDbEntity
  8
0
100
AcDbBlockBegin
  2
_D
 70
     0
 10
0.0
 20
0.0
 30
0.0
  3
_D
  1

  0
ARC
  5
A6
330
A3
100
AcDbEntity
  8
0
  6
Continuous
 62
     7
370
    18
100
AcDbCircle
 10
63.9125605272
 20
158.3543999122
 30
0.0
 40
7.999999999934927
100
AcDbArc
 50
104.8777807589
 51
142.6411422168
  0
SOLID
  5
A7
330
A3
100
AcDbEntity
  8
0
  6
Continuous
 62
     7
370
    18
100
AcDbTrace
 10
58.2049789956
 20
163.9600678527
 30
0.0
 11
56.5901672906
 21
166.597279099
 31
0.0
 12
55.5391045518
 22
165.5271075618
 32
0.0
 13
55.5391045518
 23
165.5271075618
 33
0.0
  0
LINE
  5
A8
330
A3
100
AcDbEntity
  8
0
  6
Continuous
 62
     7
370
    18
100
AcDbLine
 10
58.2049789956
 20
163.9600678527
 30
0.0
 11
47.8502594796
 21
174.1298952835
 31
0.0
  0
LINE
  5
A9
330
A3
100
AcDbEntity
  8
0
  6
Continuous
 62
     7
370
    18
100
AcDbLine
 10
47.8502594796
 20
174.1298952835
 30
0.0
 11
38.3192177367
 21
174.1298952835
 31
0.0
  0
MTEXT
  5
AA
330
A3
100
AcDbEntity
  8
0
  6
Continuous
 62
     7
370
    18
100
AcDbMText
 10
38.3192177367
 20
178.6416326055
 30
0.0
 40
3.5
 41
0.0
 71
     1
 72
     1
  1
%%c
  7
SLDTEXTSTYLE0
 73
     1
 44
1.0
  0
MTEXT
  5
AB
330
A3
100
AcDbEntity
  8
0
  6
Continuous
 62
     7
370
    18
100
AcDbMText
 10
42.1891482518
 20
178.6416326055
 30
0.0
 40
3.5
 41
0.0
 71
     1
 72
     1
  1
16
  7
SLDTEXTSTYLE0
 73
     1
 44
1.0
  0
ENDBLK
  5
A5
330
A3
100
AcDbEntity
  8
0
100
AcDbBlockEnd
  0
BLOCK
  5
AD
330
AC
100
AcDbEntity
  8
0
100
AcDbBlockBegin
  2
SW_NOTE_0
 70
     0
 10
0.0
 20
0.0
 30
0.0
  3
SW_NOTE_0
  1

  0
LINE
  5
AF
330
AC
100
AcDbEntity
  8
0
  6
Continuous
 62
     0
370
     0
100
AcDbLine
 10
3.9558253648
 20
0.0
 30
0.0
 11
0.0
 21
0.0
 31
0.0
  0
MTEXT
  5
B0
330
AC
100
AcDbEntity
  8
0
  6
Continuous
 62
     0
370
     0
100
AcDbMText
 10
0.3927899249
 20
4.5196854828
 30
0.0
 40
3.5
 41
0.0
 71
     1
 72
     1
  1
M5
  7
SLDTEXTSTYLE0
 73
     1
 44
1.0
  0
ENDBLK
  5
AE
330
AC
100
AcDbEntity
  8
0
100
AcDbBlockEnd
  0
BLOCK
  5
B5
330
B4
100
AcDbEntity
  8
0
100
AcDbBlockBegin
  2
SW_NOTE_1
 70
     0
 10
0.0
 20
0.0
 30
0.0
  3
SW_NOTE_1
  1

  0
LINE
  5
B7
330
B4
100
AcDbEntity
  8
0
  6
Continuous
 62
     0
370
     0
100
AcDbLine
 10
-34.7434797858
 20
0.0
 30
0.0
 11
0.0
 21
0.0
 31
0.0
  0
MTEXT
  5
B8
330
B4
100
AcDbEntity
  8
0
  6
Continuous
 62
     0
370
     0
100
AcDbMText
 10
-35.169923088
 20
4.6023676228
 30
0.0
 40
3.5
 41
0.0
 71
     1
 72
     1
  1
外径φ6配管用継手
  7
SLDTEXTSTYLE0
 73
     1
 44
1.0
  0
ENDBLK
  5
B6
330
B4
100
AcDbEntity
  8
0
100
AcDbBlockEnd
  0
BLOCK
  5
BC
330
BB
100
AcDbEntity
  8
0
100
AcDbBlockBegin
  2
SW_CENTERMARKSYMBOL_0
 70
     0
 10
0.0
 20
0.0
 30
0.0
  3
SW_CENTERMARKSYMBOL_0
  1

  0
LINE
  5
BE
330
BB
100
AcDbEntity
  8
0
  6
Continuous
 62
     0
370
    18
100
AcDbLine
 10
0.0
 20
0.0
 30
0.0
 11
0.0
 21
2.5
 31
0.0
  0
LINE
  5
BF
330
BB
100
AcDbEntity
  8
0
  6
Continuous
 62
     0
370
    18
100
AcDbLine
 10
0.0
 20
0.0
 30
0.0
 11
-2.5
 21
0.0
 31
0.0
  0
LINE
  5
C0
330
BB
100
AcDbEntity
  8
0
  6
Continuous
 62
     0
370
    18
100
AcDbLine
 10
0.0
 20
0.0
 30
0.0
 11
0.0
 21
-2.5
 31
0.0
  0
LINE
  5
C1
330
BB
100
AcDbEntity
  8
0
  6
Continuous
 62
     0
370
    18
100
AcDbLine
 10
0.0
 20
0.0
 30
0.0
 11
2.5
 21
0.0
 31
0.0
  0
LINE
  5
C2
330
BB
100
AcDbEntity
  8
0
  6
Continuous
 62
     0
370
    18
100
AcDbLine
 10
0.0
 20
5.0
 30
0.0
 11
0.0
 21
10.4999999999
 31
0.0
  0
LINE
  5
C3
330
BB
100
AcDbEntity
  8
0
  6
Continuous
 62
     0
370
    18
100
AcDbLine
 10
-5.0
 20
0.0
 30
0.0
 11
-10.4999999999
 21
0.0
 31
0.0
  0
LINE
  5
C4
330
BB
100
AcDbEntity
  8
0
  6
Continuous
 62
     0
370
    18
100
AcDbLine
 10
0.0
 20
-5.0
 30
0.0
 11
0.0
 21
-15.2828377149
 31
0.0
  0
LINE
  5
C5
330
BB
100
AcDbEntity
  8
0
  6
Continuous
 62
     0
370
    18
100
AcDbLine
 10
5.0
 20
0.0
 30
0.0
 11
10.4999999999
 21
0.0
 31
0.0
  0
ENDBLK
  5
BD
330
BB
100
AcDbEntity
  8
0
100
AcDbBlockEnd
  0
BLOCK
  5
196
330
195
100
AcDbEntity
  8
0
100
AcDbBlockBegin
  2
_D_1
 70
     0
 10
0.0
 20
0.0
 30
0.0
  3
_D_1
  1

  0
SOLID
  5
198
330
195
100
AcDbEntity
  8
0
  6
Continuous
 62
     7
370
    18
100
AcDbTrace
 10
181.9684978034
 20
164.354399912
 30
0.0
 11
182.7184978034
 21
167.354399912
 31
0.0
 12
181.2184978034
 22
167.354399912
 32
0.0
 13
181.2184978034
 23
167.354399912
 33
0.0
  0
SOLID
  5
199
330
195
100
AcDbEntity
  8
0
  6
Continuous
 62
     7
370
    18
100
AcDbTrace
 10
181.9684978034
 20
152.3543999124
 30
0.0
 11
181.2184978034
 21
149.3543999124
 31
0.0
 12
182.7184978034
 22
149.3543999124
 32
0.0
 13
182.7184978034
 23
149.3543999124
 33
0.0
  0
LINE
  5
19A
330
195
100
AcDbEntity
  8
0
  6
Continuous
 62
     7
370
    18
100
AcDbLine
 10
157.9634968034
 20
164.354399912
 30
0.0
 11
182.9684978034
 21
164.354399912
 31
0.0
  0
LINE
  5
19B
330
195
100
AcDbEntity
  8
0
  6
Continuous
 62
     7
370
    18
100
AcDbLine
 10
157.9634968034
 20
152.3543999124
 30
0.0
 11
182.9684978034
 21
152.3543999124
 31
0.0
  0
LINE
  5
19C
330
195
100
AcDbEntity
  8
0
  6
Continuous
 62
     7
370
    18
100
AcDbLine
 10
181.9684978034
 20
164.354399912
 30
0.0
 11
181.9684978034
 21
169.354399912
 31
0.0
  0
LINE
  5
19D
330
195
100
AcDbEntity
  8
0
  6
Continuous
 62
     7
370
    18
100
AcDbLine
 10
181.9684978034
 20
164.354399912
 30
0.0
 11
181.9684978034
 21
152.3543999124
 31
0.0
  0
LINE
  5
19E
330
195
100
AcDbEntity
  8
0
  6
Continuous
 62
     7
370
    18
100
AcDbLine
 10
181.9684978034
 20
152.3543999124
 30
0.0
 11
181.9684978034
 21
147.3543999124
 31
0.0
  0
MTEXT
  5
19F
330
195
100
AcDbEntity
  8
0
  6
Continuous
 62
     7
370
    18
100
AcDbMText
 10
177.4567604814
 20
154.3826290408
 30
0.0
 40
3.5
 41
0.0
 71
     1
 72
     1
  1
%%c
  7
SLDTEXTSTYLE0
 11
-7.044195017643634E-15
 21
1.0
 31
0.0
 73
     1
 44
1.0
  0
MTEXT
  5
1A0
330
195
100
AcDbEntity
  8
0
  6
Continuous
 62
     7
370
    18
100
AcDbMText
 10
177.4567604814
 20
158.2525595559
 30
0.0
 40
3.5
 41
0.0
 71
     1
 72
     1
  1
12
  7
SLDTEXTSTYLE0
 11
-7.044195017643634E-15
 21
1.0
 31
0.0
 73
     1
 44
1.0
  0
ENDBLK
  5
197
330
195
100
AcDbEntity
  8
0
100
AcDbBlockEnd
  0
BLOCK
  5
1A3
330
1A2
100
AcDbEntity
  8
0
100
AcDbBlockBegin
  2
_D_2
 70
     0
 10
0.0
 20
0.0
 30
0.0
  3
_D_2
  1

  0
SOLID
  5
1A5
330
1A2
100
AcDbEntity
  8
0
  6
Continuous
 62
     7
370
    18
100
AcDbTrace
 10
169.9684978034
 20
155.4543999125
 30
0.0
 11
169.2184978034
 21
152.4543999125
 31
0.0
 12
170.7184978034
 22
152.4543999125
 32
0.0
 13
170.7184978034
 23
152.4543999125
 33
0.0
  0
SOLID
  5
1A6
330
1A2
100
AcDbEntity
  8
0
  6
Continuous
 62
     7
370
    18
100
AcDbTrace
 10
169.9684978034
 20
161.2543999121
 30
0.0
 11
170.7184978034
 21
164.2543999121
 31
0.0
 12
169.2184978034
 22
164.2543999121
 32
0.0
 13
169.2184978034
 23
164.2543999121
 33
0.0
  0
LINE
  5
1A7
330
1A2
100
AcDbEntity
  8
0
  6
Continuous
 62
     7
370
    18
100
AcDbLine
 10
160.4634968034
 20
155.4543999125
 30
0.0
 11
170.9684978034
 21
155.4543999125
 31
0.0
  0
LINE
  5
1A8
330
1A2
100
AcDbEntity
  8
0
  6
Continuous
 62
     7
370
    18
100
AcDbLine
 10
160.4634968034
 20
161.2543999121
 30
0.0
 11
170.9684978034
 21
161.2543999121
 31
0.0
  0
LINE
  5
1A9
330
1A2
100
AcDbEntity
  8
0
  6
Continuous
 62
     7
370
    18
100
AcDbLine
 10
169.9684978034
 20
155.4543999125
 30
0.0
 11
169.9684978034
 21
150.4543999125
 31
0.0
  0
LINE
  5
1AA
330
1A2
100
AcDbEntity
  8
0
  6
Continuous
 62
     7
370
    18
100
AcDbLine
 10
169.9684978034
 20
155.4543999125
 30
0.0
 11
169.9684978034
 21
161.2543999121
 31
0.0
  0
LINE
  5
1AB
330
1A2
100
AcDbEntity
  8
0
  6
Continuous
 62
     7
370
    18
100
AcDbLine
 10
169.9684978034
 20
161.2543999121
 30
0.0
 11
169.9684978034
 21
175.9425914056
 31
0.0
  0
MTEXT
  5
1AC
330
1A2
100
AcDbEntity
  8
0
  6
Continuous
 62
     7
370
    18
100
AcDbMText
 10
165.4567604814
 20
165.9622443981
 30
0.0
 40
3.5
 41
0.0
 71
     1
 72
     1
  1
%%c
  7
SLDTEXTSTYLE0
 11
6.123233995736766E-17
 21
1.0
 31
0.0
 73
     1
 44
1.0
  0
MTEXT
  5
1AD
330
1A2
100
AcDbEntity
  8
0
  6
Continuous
 62
     7
370
    18
100
AcDbMText
 10
165.4567604814
 20
169.8321749131
 30
0.0
 40
3.5
 41
0.0
 71
     1
 72
     1
  1
5.8
  7
SLDTEXTSTYLE0
 11
6.123233995736766E-17
 21
1.0
 31
0.0
 73
     1
 44
1.0
  0
ENDBLK
  5
1A4
330
1A2
100
AcDbEntity
  8
0
100
AcDbBlockEnd
  0
BLOCK
  5
1B1
330
1B0
100
AcDbEntity
  8
0
100
AcDbBlockBegin
  2
_D_3
 70
     0
 10
0.0
 20
0.0
 30
0.0
  3
_D_3
  1

  0
SOLID
  5
1B3
330
1B0
100
AcDbEntity
  8
0
  6
Continuous
 62
     7
370
    18
100
AcDbTrace
 10
157.9634968042
 20
138.2949887703
 30
0.0
 11
154.9634968042
 21
139.0449887701
 31
0.0
 12
154.9634968043
 22
137.5449887701
 32
0.0
 13
154.9634968043
 23
137.5449887701
 33
0.0
  0
SOLID
  5
1B4
330
1B0
100
AcDbEntity
  8
0
  6
Continuous
 62
     7
370
    18
100
AcDbTrace
 10
136.9634968049
 20
138.2949887692
 30
0.0
 11
139.9634968049
 21
137.5449887693
 31
0.0
 12
139.9634968048
 22
139.0449887693
 32
0.0
 13
139.9634968048
 23
139.0449887693
 33
0.0
  0
LINE
  5
1B5
330
1B0
100
AcDbEntity
  8
0
  6
Continuous
 62
     7
370
    18
100
AcDbLine
 10
157.9634968035
 20
152.400102964
 30
0.0
 11
157.9634968043
 21
137.2949887703
 31
0.0
  0
LINE
  5
1B6
330
1B0
100
AcDbEntity
  8
0
  6
Continuous
 62
     7
370
    18
100
AcDbLine
 10
136.9634968043
 20
149.8238685515
 30
0.0
 11
136.9634968049
 21
137.2949887692
 31
0.0
  0
LINE
  5
1B7
330
1B0
100
AcDbEntity
  8
0
  6
Continuous
 62
     7
370
    18
100
AcDbLine
 10
157.9634968042
 20
138.2949887703
 30
0.0
 11
136.9634968049
 21
138.2949887692
 31
0.0
  0
MTEXT
  5
1B8
330
1B0
100
AcDbEntity
  8
0
  6
Continuous
 62
     7
370
    18
100
AcDbMText
 10
145.4266913066
 20
142.806725626
 30
0.0
 40
3.5
 41
0.0
 71
     1
 72
     1
  1
21
  7
SLDTEXTSTYLE0
 73
     1
 44
1.0
  0
ENDBLK
  5
1B2
330
1B0
100
AcDbEntity
  8
0
100
AcDbBlockEnd
  0
BLOCK
  5
1BB
330
1BA
100
AcDbEntity
  8
0
100
AcDbBlockBegin
  2
_D_4
 70
     0
 10
0.0
 20
0.0
 30
0.0
  3
_D_4
  1

  0
SOLID
  5
1BD
330
1BA
100
AcDbEntity
  8
0
  6
Continuous
 62
     7
370
    18
100
AcDbTrace
 10
131.9634968034
 20
172.1316620405
 30
0.0
 11
134.9634968034
 21
171.3816620405
 31
0.0
 12
134.9634968034
 22
172.8816620405
 32
0.0
 13
134.9634968034
 23
172.8816620405
 33
0.0
  0
SOLID
  5
1BE
330
1BA
100
AcDbEntity
  8
0
  6
Continuous
 62
     7
370
    18
100
AcDbTrace
 10
121.9634968034
 20
172.1316620405
 30
0.0
 11
118.9634968034
 21
172.8816620405
 31
0.0
 12
118.9634968034
 22
171.3816620405
 32
0.0
 13
118.9634968034
 23
171.3816620405
 33
0.0
  0
LINE
  5
1BF
330
1BA
100
AcDbEntity
  8
0
  6
Continuous
 62
     7
370
    18
100
AcDbLine
 10
131.9634968034
 20
163.454435001
 30
0.0
 11
131.9634968034
 21
173.1316620405
 31
0.0
  0
LINE
  5
1C0
330
1BA
100
AcDbEntity
  8
0
  6
Continuous
 62
     7
370
    18
100
AcDbLine
 10
121.9634968034
 20
162.2543999125
 30
0.0
 11
121.9634968034
 21
173.1316620405
 31
0.0
  0
LINE
  5
1C1
330
1BA
100
AcDbEntity
  8
0
  6
Continuous
 62
     7
370
    18
100
AcDbLine
 10
131.9634968034
 20
172.1316620405
 30
0.0
 11
136.9634968034
 21
172.1316620405
 31
0.0
  0
LINE
  5
1C2
330
1BA
100
AcDbEntity
  8
0
  6
Continuous
 62
     7
370
    18
100
AcDbLine
 10
131.9634968034
 20
172.1316620405
 30
0.0
 11
121.9634968034
 21
172.1316620405
 31
0.0
  0
LINE
  5
1C3
330
1BA
100
AcDbEntity
  8
0
  6
Continuous
 62
     7
370
    18
100
AcDbLine
 10
121.9634968034
 20
172.1316620405
 30
0.0
 11
116.9634968034
 21
172.1316620405
 31
0.0
  0
MTEXT
  5
1C4
330
1BA
100
AcDbEntity
  8
0
  6
Continuous
 62
     7
370
    18
100
AcDbMText
 10
122.8898858085
 20
176.6433988968
 30
0.0
 40
3.5
 41
0.0
 71
     1
 72
     1
  1
10
  7
SLDTEXTSTYLE0
 73
     1
 44
1.0
  0
MTEXT
  5
1C5
330
1BA
100
AcDbEntity
  8
0
  6
Continuous
 62
     7
370
    18
100
AcDbMText
 10
126.9634968034
 20
176.6433988968
 30
0.0
 40
3.5
 41
0.0
 71
     1
 72
     1
  1
st
  7
SLDTEXTSTYLE0
 73
     1
 44
1.0
  0
ENDBLK
  5
1BC
330
1BA
100
AcDbEntity
  8
0
100
AcDbBlockEnd
  0
BLOCK
  5
1C8
330
1C7
100
AcDbEntity
  8
0
100
AcDbBlockBegin
  2
_D_5
 70
     0
 10
0.0
 20
0.0
 30
0.0
  3
_D_5
  1

  0
SOLID
  5
1CA
330
1C7
100
AcDbEntity
  8
0
  6
Continuous
 62
     7
370
    18
100
AcDbTrace
 10
93.4928641624
 20
163.8543999122
 30
0.0
 11
94.2428641624
 21
166.8543999122
 31
0.0
 12
92.7428641624
 22
166.8543999122
 32
0.0
 13
92.7428641624
 23
166.8543999122
 33
0.0
  0
SOLID
  5
1CB
330
1C7
100
AcDbEntity
  8
0
  6
Continuous
 62
     7
370
    18
100
AcDbTrace
 10
93.4928641624
 20
152.8543999122
 30
0.0
 11
92.7428641624
 21
149.8543999122
 31
0.0
 12
94.2428641624
 22
149.8543999122
 32
0.0
 13
94.2428641624
 23
149.8543999122
 33
0.0
  0
LINE
  5
1CC
330
1C7
100
AcDbEntity
  8
0
  6
Continuous
 62
     7
370
    18
100
AcDbLine
 10
101.2634968034
 20
163.8543999122
 30
0.0
 11
92.4928641624
 21
163.8543999122
 31
0.0
  0
LINE
  5
1CD
330
1C7
100
AcDbEntity
  8
0
  6
Continuous
 62
     7
370
    18
100
AcDbLine
 10
101.2634968034
 20
152.8543999122
 30
0.0
 11
92.4928641624
 21
152.8543999122
 31
0.0
  0
LINE
  5
1CE
330
1C7
100
AcDbEntity
  8
0
  6
Continuous
 62
     7
370
    18
100
AcDbLine
 10
93.4928641624
 20
163.8543999122
 30
0.0
 11
93.4928641624
 21
168.8543999122
 31
0.0
  0
LINE
  5
1CF
330
1C7
100
AcDbEntity
  8
0
  6
Continuous
 62
     7
370
    18
100
AcDbLine
 10
93.4928641624
 20
163.8543999122
 30
0.0
 11
93.4928641624
 21
152.8543999122
 31
0.0
  0
LINE
  5
1D0
330
1C7
100
AcDbEntity
  8
0
  6
Continuous
 62
     7
370
    18
100
AcDbLine
 10
93.4928641624
 20
152.8543999122
 30
0.0
 11
93.4928641624
 21
147.8543999122
 31
0.0
  0
MTEXT
  5
1D1
330
1C7
100
AcDbEntity
  8
0
  6
Continuous
 62
     7
370
    18
100
AcDbMText
 10
88.9811268403
 20
154.3826290408
 30
0.0
 40
3.5
 41
0.0
 71
     1
 72
     1
  1
%%c
  7
SLDTEXTSTYLE0
 11
-7.044195017643634E-15
 21
1.0
 31
0.0
 73
     1
 44
1.0
  0
MTEXT
  5
1D2
330
1C7
100
AcDbEntity
  8
0
  6
Continuous
 62
     7
370
    18
100
AcDbMText
 10
88.9811268403
 20
158.2525595559
 30
0.0
 40
3.5
 41
0.0
 71
     1
 72
     1
  1
11
  7
SLDTEXTSTYLE0
 11
-7.044195017643634E-15
 21
1.0
 31
0.0
 73
     1
 44
1.0
  0
ENDBLK
  5
1C9
330
1C7
100
AcDbEntity
  8
0
100
AcDbBlockEnd
  0
BLOCK
  5
1D5
330
1D4
100
AcDbEntity
  8
0
100
AcDbBlockBegin
  2
_D_6
 70
     0
 10
0.0
 20
0.0
 30
0.0
  3
_D_6
  1

  0
SOLID
  5
1D7
330
1D4
100
AcDbEntity
  8
0
  6
Continuous
 62
     7
370
    18
100
AcDbTrace
 10
84.5331860322
 20
165.3543999122
 30
0.0
 11
85.2831860322
 21
168.3543999122
 31
0.0
 12
83.7831860322
 22
168.3543999122
 32
0.0
 13
83.7831860322
 23
168.3543999122
 33
0.0
  0
SOLID
  5
1D8
330
1D4
100
AcDbEntity
  8
0
  6
Continuous
 62
     7
370
    18
100
AcDbTrace
 10
84.5331860322
 20
151.3543999122
 30
0.0
 11
83.7831860322
 21
148.3543999122
 31
0.0
 12
85.2831860322
 22
148.3543999122
 32
0.0
 13
85.2831860322
 23
148.3543999122
 33
0.0
  0
LINE
  5
1D9
330
1D4
100
AcDbEntity
  8
0
  6
Continuous
 62
     7
370
    18
100
AcDbLine
 10
110.2634968034
 20
165.3543999122
 30
0.0
 11
83.5331860322
 21
165.3543999122
 31
0.0
  0
LINE
  5
1DA
330
1D4
100
AcDbEntity
  8
0
  6
Continuous
 62
     7
370
    18
100
AcDbLine
 10
110.2634968034
 20
151.3543999122
 30
0.0
 11
83.5331860322
 21
151.3543999122
 31
0.0
  0
LINE
  5
1DB
330
1D4
100
AcDbEntity
  8
0
  6
Continuous
 62
     7
370
    18
100
AcDbLine
 10
84.5331860322
 20
165.3543999122
 30
0.0
 11
84.5331860322
 21
170.3543999122
 31
0.0
  0
LINE
  5
1DC
330
1D4
100
AcDbEntity
  8
0
  6
Continuous
 62
     7
370
    18
100
AcDbLine
 10
84.5331860322
 20
165.3543999122
 30
0.0
 11
84.5331860322
 21
151.3543999122
 31
0.0
  0
LINE
  5
1DD
330
1D4
100
AcDbEntity
  8
0
  6
Continuous
 62
     7
370
    18
100
AcDbLine
 10
84.5331860322
 20
151.3543999122
 30
0.0
 11
84.5331860322
 21
146.3543999122
 31
0.0
  0
MTEXT
  5
1DE
330
1D4
100
AcDbEntity
  8
0
  6
Continuous
 62
     7
370
    18
100
AcDbMText
 10
80.0214487102
 20
154.3826290408
 30
0.0
 40
3.5
 41
0.0
 71
     1
 72
     1
  1
%%c
  7
SLDTEXTSTYLE0
 11
-7.044195017643634E-15
 21
1.0
 31
0.0
 73
     1
 44
1.0
  0
MTEXT
  5
1DF
330
1D4
100
AcDbEntity
  8
0
  6
Continuous
 62
     7
370
    18
100
AcDbMText
 10
80.0214487102
 20
158.2525595559
 30
0.0
 40
3.5
 41
0.0
 71
     1
 72
     1
  1
14
  7
SLDTEXTSTYLE0
 11
-7.044195017643634E-15
 21
1.0
 31
0.0
 73
     1
 44
1.0
  0
ENDBLK
  5
1D6
330
1D4
100
AcDbEntity
  8
0
100
AcDbBlockEnd
  0
BLOCK
  5
1E2
330
1E1
100
AcDbEntity
  8
0
100
AcDbBlockBegin
  2
_D_7
 70
     0
 10
0.0
 20
0.0
 30
0.0
  3
_D_7
  1

  0
SOLID
  5
1E4
330
1E1
100
AcDbEntity
  8
0
  6
Continuous
 62
     7
370
    18
100
AcDbTrace
 10
101.9634968043
 20
181.7593999136
 30
0.0
 11
104.9634968043
 21
181.0093999134
 31
0.0
 12
104.9634968044
 22
182.5093999134
 32
0.0
 13
104.9634968044
 23
182.5093999134
 33
0.0
  0
SOLID
  5
1E5
330
1E1
100
AcDbEntity
  8
0
  6
Continuous
 62
     7
370
    18
100
AcDbTrace
 10
159.9634968045
 20
181.7593999107
 30
0.0
 11
156.9634968045
 21
182.5093999108
 31
0.0
 12
156.9634968044
 22
181.0093999108
 32
0.0
 13
156.9634968044
 23
181.0093999108
 33
0.0
  0
LINE
  5
1E6
330
1E1
100
AcDbEntity
  8
0
  6
Continuous
 62
     7
370
    18
100
AcDbLine
 10
101.9634968035
 20
164.5543999096
 30
0.0
 11
101.9634968044
 21
182.7593999136
 31
0.0
  0
LINE
  5
1E7
330
1E1
100
AcDbEntity
  8
0
  6
Continuous
 62
     7
370
    18
100
AcDbLine
 10
159.9634968035
 20
161.8543999122
 30
0.0
 11
159.9634968045
 21
182.7593999107
 31
0.0
  0
LINE
  5
1E8
330
1E1
100
AcDbEntity
  8
0
  6
Continuous
 62
     7
370
    18
100
AcDbLine
 10
101.9634968043
 20
181.7593999136
 30
0.0
 11
159.9634968045
 21
181.7593999107
 31
0.0
  0
MTEXT
  5
1E9
330
1E1
100
AcDbEntity
  8
0
  6
Continuous
 62
     7
370
    18
100
AcDbMText
 10
128.9266913072
 20
186.2711367686
 30
0.0
 40
3.5
 41
0.0
 71
     1
 72
     1
  1
58
  7
SLDTEXTSTYLE0
 73
     1
 44
1.0
  0
ENDBLK
  5
1E3
330
1E1
100
AcDbEntity
  8
0
100
AcDbBlockEnd
  0
BLOCK
  5
1EC
330
1EB
100
AcDbEntity
  8
0
100
AcDbBlockBegin
  2
_D_8
 70
     0
 10
0.0
 20
0.0
 30
0.0
  3
_D_8
  1

  0
SOLID
  5
1EE
330
1EB
100
AcDbEntity
  8
0
  6
Continuous
 62
     7
370
    18
100
AcDbTrace
 10
110.9634968028
 20
138.2949887697
 30
0.0
 11
113.9634968028
 21
137.5449887696
 31
0.0
 12
113.9634968028
 22
139.0449887696
 32
0.0
 13
113.9634968028
 23
139.0449887696
 33
0.0
  0
SOLID
  5
1EF
330
1EB
100
AcDbEntity
  8
0
  6
Continuous
 62
     7
370
    18
100
AcDbTrace
 10
101.9634968028
 20
138.2949887699
 30
0.0
 11
98.9634968028
 21
139.0449887699
 31
0.0
 12
98.9634968028
 22
137.5449887699
 32
0.0
 13
98.9634968028
 23
137.5449887699
 33
0.0
  0
LINE
  5
1F0
330
1EB
100
AcDbEntity
  8
0
  6
Continuous
 62
     7
370
    18
100
AcDbLine
 10
110.963496803
 20
150.6543999121
 30
0.0
 11
110.9634968028
 21
137.2949887697
 31
0.0
  0
LINE
  5
1F1
330
1EB
100
AcDbEntity
  8
0
  6
Continuous
 62
     7
370
    18
100
AcDbLine
 10
101.963496803
 20
152.1543999121
 30
0.0
 11
101.9634968028
 21
137.2949887699
 31
0.0
  0
LINE
  5
1F2
330
1EB
100
AcDbEntity
  8
0
  6
Continuous
 62
     7
370
    18
100
AcDbLine
 10
110.9634968028
 20
138.2949887697
 30
0.0
 11
115.9634968028
 21
138.2949887696
 31
0.0
  0
LINE
  5
1F3
330
1EB
100
AcDbEntity
  8
0
  6
Continuous
 62
     7
370
    18
100
AcDbLine
 10
110.9634968028
 20
138.2949887697
 30
0.0
 11
101.9634968028
 21
138.2949887699
 31
0.0
  0
LINE
  5
1F4
330
1EB
100
AcDbEntity
  8
0
  6
Continuous
 62
     7
370
    18
100
AcDbLine
 10
101.9634968028
 20
138.2949887699
 30
0.0
 11
96.9634968028
 21
138.29498877
 31
0.0
  0
MTEXT
  5
1F5
330
1EB
100
AcDbEntity
  8
0
  6
Continuous
 62
     7
370
    18
100
AcDbMText
 10
105.4450940541
 20
142.8067256262
 30
0.0
 40
3.5
 41
0.0
 71
     1
 72
     1
  1
9
  7
SLDTEXTSTYLE0
 73
     1
 44
1.0
  0
ENDBLK
  5
1ED
330
1EB
100
AcDbEntity
  8
0
100
AcDbBlockEnd
  0
ENDSEC
  0
SECTION
  2
ENTITIES
  0
LINE
  5
73
330
1F
100
AcDbEntity
  8
0
  6
Continuous
 62
     7
370
    18
100
AcDbLine
 10
20.2604743903
 20
285.0
 30
0.0
 11
196.7604743903
 21
285.0
 31
0.0
  0
LINE
  5
74
330
1F
100
AcDbEntity
  8
0
  6
Continuous
 62
     7
370
    18
100
AcDbLine
 10
20.2604743903
 20
285.0
 30
0.0
 11
20.2604743903
 21
10.0
 31
0.0
  0
LINE
  5
75
330
1F
100
AcDbEntity
  8
0
  6
Continuous
 62
     7
370
    18
100
AcDbLine
 10
20.2604743903
 20
10.0
 30
0.0
 11
196.7604743903
 21
10.0
 31
0.0
  0
LINE
  5
76
330
1F
100
AcDbEntity
  8
0
  6
Continuous
 62
     7
370
    18
100
AcDbLine
 10
196.7604743903
 20
285.0
 30
0.0
 11
196.7604743903
 21
10.0
 31
0.0
  0
LINE
  5
77
330
1F
100
AcDbEntity
  8
0
  6
Continuous
 62
     7
370
    18
100
AcDbLine
 10
127.0104743903
 20
50.75
 30
0.0
 11
196.7604743903
 21
50.75
 31
0.0
  0
LINE
  5
78
330
1F
100
AcDbEntity
  8
0
  6
Continuous
 62
     7
370
    18
100
AcDbLine
 10
127.0104743903
 20
50.75
 30
0.0
 11
127.0104743903
 21
10.0
 31
0.0
  0
LINE
  5
79
330
1F
100
AcDbEntity
  8
0
  6
Continuous
 62
     7
370
    18
100
AcDbLine
 10
127.0104743903
 20
22.75
 30
0.0
 11
196.7604743903
 21
22.75
 31
0.0
  0
LINE
  5
7A
330
1F
100
AcDbEntity
  8
0
  6
Continuous
 62
     7
370
    18
100
AcDbLine
 10
127.0104743903
 20
36.75
 30
0.0
 11
196.7604743903
 21
36.75
 31
0.0
  0
MTEXT
  5
7C
330
1F
100
AcDbEntity
  8
0
  6
Continuous
 62
     7
370
     0
100
AcDbMText
 10
162.1402540682
 20
30.4171582345
 30
0.0
 40
4.2333333333
 41
0.0
 71
     2
 72
     1
  1
VFILP-S-10-P12
  7
SLDTEXTSTYLE0
 73
     1
 44
1.0
  0
MTEXT
  5
7D
330
1F
100
AcDbEntity
  8
0
  6
Continuous
 62
     7
370
     0
100
AcDbMText
 10
160.2799415598
 20
43.9409718514
 30
0.0
 40
4.2333333333
 41
0.0
 71
     2
 72
     1
  1
吸着樹脂具・スモール用
  7
SLDTEXTSTYLE0
 73
     1
 44
1.0
  0
MTEXT
  5
7E
330
1F
100
AcDbEntity
  8
0
  6
Continuous
 62
     7
370
     0
100
AcDbMText
 10
163.0498858773
 20
16.8228189052
 30
0.0
 40
4.2333333333
 41
0.0
 71
     2
 72
     1
  1
211093
  7
SLDTEXTSTYLE0
 73
     1
 44
1.0
  0
LWPOLYLINE
  5
7F
330
1F
100
AcDbEntity
  8
0
  6
Continuous
 62
     7
370
    18
100
AcDbPolyline
 90
        3
 70
   128
 43
0.0
 10
61.5625605611
 20
149.054399878
 10
61.7585604237
 20
147.6543994622
 10
61.9125604322
 20
146.5543994682
  0
LWPOLYLINE
  5
80
330
1F
100
AcDbEntity
  8
0
  6
Continuous
 62
     7
370
    18
100
AcDbPolyline
 90
        3
 70
   128
 43
0.0
 10
65.9125606222
 20
146.5543994682
 10
66.1085604848
 20
147.9543998839
 10
66.2625604933
 20
149.054399878
  0
LWPOLYLINE
  5
81
330
1F
100
AcDbEntity
  8
0
  6
Continuous
 62
     7
370
    18
100
AcDbPolyline
 90
        3
 70
   128
 43
0.0
 10
61.5625605611
 20
146.5543994682
 10
61.7585604237
 20
145.1543999838
 10
61.9125604322
 20
144.0543999897
  0
LWPOLYLINE
  5
82
330
1F
100
AcDbEntity
  8
0
  6
Continuous
 62
     7
370
    18
100
AcDbPolyline
 90
        3
 70
   128
 43
0.0
 10
65.9125606222
 20
144.0543999897
 10
66.1085604848
 20
145.4543994741
 10
66.2625604933
 20
146.5543994682
  0
LINE
  5
83
330
1F
100
AcDbEntity
  8
0
  6
Continuous
 62
     7
370
    18
100
AcDbLine
 10
63.1207688171
 20
151.3944768349
 30
0.0
 11
63.0485837506
 21
151.411027834
 31
0.0
  0
LINE
  5
84
330
1F
100
AcDbEntity
  8
0
  6
Continuous
 62
     7
370
    18
100
AcDbLine
 10
61.7625604542
 20
151.7077453436
 30
0.0
 11
61.7625604542
 21
149.054399878
 31
0.0
  0
LINE
  5
85
330
1F
100
AcDbEntity
  8
0
  6
Continuous
 62
     7
370
    18
100
AcDbLine
 10
66.0625606002
 20
149.054399878
 30
0.0
 11
66.0625606002
 21
151.7077453436
 31
0.0
  0
SPLINE
  5
86
330
1F
100
AcDbEntity
  8
0
  6
Continuous
 62
     7
370
    18
100
AcDbSpline
210
0.0
220
0.0
230
1.0
 70
     8
 71
     3
 72
    33
 73
    29
 74
     0
 42
0.000000001
 43
0.00000001
 40
0.0
 40
0.0
 40
0.0
 40
0.0
 40
0.0125326068134496
 40
0.0250361823974898
 40
0.0375300658794424
 40
0.0500336413586776
 40
0.0625662479630028
 40
0.0938388078910985
 40
0.1251113679925473
 40
0.1563839283128946
 40
0.1876564884698982
 40
0.2501259056882397
 40
0.312595322906581
 40
0.375064740736413
 40
0.4375341581404723
 40
0.5000035755502352
 40
0.5624729929599983
 40
0.6249424103640574
 40
0.6874118281938896
 40
0.7498812454122309
 40
0.8123506626305723
 40
0.843623222787576
 40
0.8748957831079233
 40
0.9061683432093721
 40
0.9374409031374676
 40
0.9583088818550776
 40
0.9791320209916652
 40
1.0
 40
1.0
 40
1.0
 40
1.0
 10
58.7125605297671
 20
158.3543999122258
 30
0.0
 10
58.71332736726235
 20
158.2862263304029
 30
0.0
 10
58.71485926590773
 20
158.1500370878443
 30
0.0
 10
58.72730242088371
 20
157.9461975498477
 30
0.0
 10
58.74718038683495
 20
157.74314714842
 30
0.0
 10
58.77521880266131
 20
157.5408810875044
 30
0.0
 10
58.8290992475208
 20
157.2393208034463
 30
0.0
 10
58.92836119778597
 20
156.8424366382521
 30
0.0
 10
59.10070934594367
 20
156.3612794780185
 30
0.0
 10
59.31912314635999
 20
155.8991218303514
 30
0.0
 10
59.66927656311663
 20
155.3151572009878
 30
0.0
 10
60.21194208602181
 20
154.6536188480092
 30
0.0
 10
61.00496199186898
 20
154.0029199848322
 30
0.0
 10
61.90978184712986
 20
153.519248796734
 30
0.0
 10
62.89155068583006
 20
153.2214428678774
 30
0.0
 10
63.91256052500895
 20
153.120878438795
 30
0.0
 10
64.93357037726156
 20
153.2214428657665
 30
0.0
 10
65.9153391767405
 20
153.5192488051778
 30
0.0
 10
66.8201591758127
 20
154.0029199531682
 30
0.0
 10
67.61317854563585
 20
154.6536189662214
 30
0.0
 10
68.15584573584904
 20
155.3151568529229
 30
0.0
 10
68.50599574945633
 20
155.8991224340203
 30
0.0
 10
68.72441994732192
 20
156.3612771739063
 30
0.0
 10
68.89672905959041
 20
156.8424452510319
 30
0.0
 10
69.00714097527266
 20
157.283356540864
 30
0.0
 10
69.0715533126599
 20
157.6751656558838
 30
0.0
 10
69.10617909345768
 20
158.0140585949607
 30
0.0
 10
69.11043185623971
 20
158.2408714920992
 30
0.0
 10
69.1125605246087
 20
158.3543999122258
 30
0.0
  0
SPLINE
  5
87
330
1F
100
AcDbEntity
  8
0
  6
Continuous
 62
     7
370
    18
100
AcDbSpline
210
0.0
220
0.0
230
1.0
 70
     8
 71
     3
 72
    33
 73
    29
 74
     0
 42
0.000000001
 43
0.00000001
 40
0.0
 40
0.0
 40
0.0
 40
0.0
 40
0.0125326068134497
 40
0.0250361823974899
 40
0.0375300658794425
 40
0.0500336413586776
 40
0.0625662479630028
 40
0.0938388078910984
 40
0.1251113679925473
 40
0.1563839283128946
 40
0.1876564884698983
 40
0.2501259056882397
 40
0.3125953229065811
 40
0.3750647407364132
 40
0.4375341581404723
 40
0.5000035755502354
 40
0.5624729929599984
 40
0.6249424103640576
 40
0.6874118281938897
 40
0.749881245412231
 40
0.8123506626305724
 40
0.8436232227875762
 40
0.8748957831079234
 40
0.9061683432093723
 40
0.9374409031374679
 40
0.958308881855078
 40
0.9791320209916654
 40
1.0
 40
1.0
 40
1.0
 40
1.0
 10
69.1125605246087
 20
158.3543999122258
 30
0.0
 10
69.11179368711343
 20
158.4225734940487
 30
0.0
 10
69.11026178846808
 20
158.5587627366073
 30
0.0
 10
69.09781863349208
 20
158.7626022746039
 30
0.0
 10
69.07794066754084
 20
158.9656526760316
 30
0.0
 10
69.04990225171449
 20
159.1679187369472
 30
0.0
 10
68.996021806855
 20
159.4694790210053
 30
0.0
 10
68.89675985658981
 20
159.8663631861996
 30
0.0
 10
68.72441170843213
 20
160.3475203464331
 30
0.0
 10
68.5059979080158
 20
160.8096779941003
 30
0.0
 10
68.15584449125917
 20
161.3936426234639
 30
0.0
 10
67.61317896835399
 20
162.0551809764424
 30
0.0
 10
66.8201590625068
 20
162.7058798396195
 30
0.0
 10
65.91533920724594
 20
163.1895510277176
 30
0.0
 10
64.93357036854573
 20
163.4873569565742
 30
0.0
 10
63.91256052936686
 20
163.5879213856566
 30
0.0
 10
62.89155067711422
 20
163.4873569586852
 30
0.0
 10
61.9097818776353
 20
163.1895510192739
 30
0.0
 10
61.00496187856309
 20
162.7058798712834
 30
0.0
 10
60.21194250873994
 20
162.0551808582302
 30
0.0
 10
59.66927531852676
 20
161.3936429715288
 30
0.0
 10
59.31912530491947
 20
160.8096773904313
 30
0.0
 10
59.10070110705387
 20
160.3475226505454
 30
0.0
 10
58.92839199478539
 20
159.8663545734197
 30
0.0
 10
58.81798007910312
 20
159.4254432835876
 30
0.0
 10
58.75356774171589
 20
159.0336341685678
 30
0.0
 10
58.71894196091811
 20
158.6947412294909
 30
0.0
 10
58.71468919813609
 20
158.4679283323524
 30
0.0
 10
58.7125605297671
 20
158.3543999122258
 30
0.0
  0
SPLINE
  5
88
330
1F
100
AcDbEntity
  8
0
  6
Continuous
 62
     7
370
    18
100
AcDbSpline
210
0.0
220
0.0
230
1.0
 70
     8
 71
     3
 72
    14
 73
    10
 74
     0
 42
0.000000001
 43
0.00000001
 40
0.0
 40
0.0
 40
0.0
 40
0.0
 40
0.25
 40
0.25
 40
0.4999999999999999
 40
0.4999999999999999
 40
0.75
 40
0.75
 40
1.0
 40
1.0
 40
1.0
 40
1.0
 10
61.8125605271879
 20
158.3543999118487
 30
0.0
 10
61.81256052728791
 20
157.7974610455565
 30
0.0
 10
62.03382103766963
 20
157.2632909207353
 30
0.0
 10
62.8214515358181
 20
156.4756604226374
 30
0.0
 10
63.35562166065352
 20
156.25439991229
 30
0.0
 10
64.46949939323797
 20
156.2543999121616
 30
0.0
 10
65.00366951812441
 20
156.4756604223858
 30
0.0
 10
65.79130001645453
 20
157.263290920302
 30
0.0
 10
66.01256052695943
 20
157.7974610450722
 30
0.0
 10
66.0125605271879
 20
158.3543999113644
 30
0.0
  0
SPLINE
  5
89
330
1F
100
AcDbEntity
  8
0
  6
Continuous
 62
     7
370
    18
100
AcDbSpline
210
0.0
220
0.0
230
1.0
 70
     8
 71
     3
 72
    12
 73
     8
 74
     0
 42
0.000000001
 43
0.00000001
 40
0.0
 40
0.0
 40
0.0
 40
0.0
 40
0.3333333333333334
 40
0.3333333333333334
 40
0.6666666666666666
 40
0.6666666666666666
 40
0.9999999999999999
 40
0.9999999999999999
 40
0.9999999999999999
 40
0.9999999999999999
 10
66.0125605271879
 20
158.3543999113644
 30
0.0
 10
66.01256052749561
 20
159.1045481155569
 30
0.0
 10
65.61220792901662
 20
159.7979791576121
 30
0.0
 10
64.31291312635388
 20
160.5481273621599
 30
0.0
 10
63.5122079289218
 20
160.5481273623241
 30
0.0
 10
62.21291312595133
 20
159.7979791583093
 30
0.0
 10
61.8125605271879
 20
159.1045481164183
 30
0.0
 10
61.8125605271879
 20
158.3543999122258
 30
0.0
  0
SPLINE
  5
8A
330
1F
100
AcDbEntity
  8
0
  6
Continuous
 62
     7
370
    18
100
AcDbSpline
210
0.0
220
0.0
230
1.0
 70
    24
 71
     3
 72
    10
 73
     6
 74
     0
 42
0.000000001
 43
0.00000001
 40
0.0
 40
0.0
 40
0.0
 40
0.0
 40
0.5
 40
0.5
 40
1.0
 40
1.0
 40
1.0
 40
1.0
 10
58.41256052680203
 20
158.3543999122258
 30
0.0
 10
58.41256052689928
 20
158.3543999122258
 30
0.0
 10
58.44184984879999
 20
158.3543999122258
 30
0.0
 10
58.55900713631083
 20
158.3543999122258
 30
0.0
 10
58.64184984878029
 20
158.3543999122258
 30
0.0
 10
58.71256052699533
 20
158.3543999122258
 30
0.0
  0
SPLINE
  5
8B
330
1F
100
AcDbEntity
  8
0
  6
Continuous
 62
     7
370
    18
100
AcDbSpline
210
0.0
220
0.0
230
1.0
 70
     8
 71
     3
 72
    14
 73
    10
 74
     0
 42
0.000000001
 43
0.00000001
 40
0.0
 40
0.0
 40
0.0
 40
0.0
 40
0.25
 40
0.25
 40
0.5
 40
0.5
 40
0.75
 40
0.75
 40
1.0
 40
1.0
 40
1.0
 40
1.0
 10
58.4125605271879
 20
158.3543999112381
 30
0.0
 10
58.41256052744985
 20
156.8957504995204
 30
0.0
 10
58.99205234035436
 20
155.496733505941
 30
0.0
 10
61.05489412121939
 20
153.4338917252086
 30
0.0
 10
62.45391111483597
 20
152.854399912394
 30
0.0
 10
65.37120993827142
 20
152.8543999120576
 30
0.0
 10
66.77022693202163
 20
153.4338917245496
 30
0.0
 10
68.83306871336241
 20
155.4967335048063
 30
0.0
 10
69.41256052658954
 20
156.895750498252
 30
0.0
 10
69.4125605271879
 20
158.3543999099697
 30
0.0
  0
SPLINE
  5
8C
330
1F
100
AcDbEntity
  8
0
  6
Continuous
 62
     7
370
    18
100
AcDbSpline
210
0.0
220
0.0
230
1.0
 70
    24
 71
     3
 72
    10
 73
     6
 74
     0
 42
0.000000001
 43
0.00000001
 40
0.0
 40
0.0
 40
0.0
 40
0.0
 40
0.5
 40
0.5
 40
1.0
 40
1.0
 40
1.0
 40
1.0
 10
69.11256052738047
 20
158.3543999122258
 30
0.0
 10
69.1832712055955
 20
158.3543999122258
 30
0.0
 10
69.26611391806497
 20
158.3543999122258
 30
0.0
 10
69.38327120557581
 20
158.3543999122258
 30
0.0
 10
69.4125605274765
 20
158.3543999122258
 30
0.0
 10
69.41256052757376
 20
158.3543999122258
 30
0.0
  0
SPLINE
  5
8D
330
1F
100
AcDbEntity
  8
0
  6
Continuous
 62
     7
370
    18
100
AcDbSpline
210
0.0
220
0.0
230
1.0
 70
     8
 71
     3
 72
    12
 73
     8
 74
     0
 42
0.000000001
 43
0.00000001
 40
0.0
 40
0.0
 40
0.0
 40
0.0
 40
0.3333333333333332
 40
0.3333333333333332
 40
0.6666666666666665
 40
0.6666666666666665
 40
0.9999999999999999
 40
0.9999999999999999
 40
0.9999999999999999
 40
0.9999999999999999
 10
69.4125605271879
 20
158.3543999099697
 30
0.0
 10
69.41256052799383
 20
160.3190737780928
 30
0.0
 10
68.36401800816789
 20
162.1352026977613
 30
0.0
 10
64.96110304881306
 20
164.0998765668151
 30
0.0
 10
62.86401800791958
 20
164.0998765672452
 30
0.0
 10
59.46110304775881
 20
162.1352026995874
 30
0.0
 10
58.41256052718789
 20
160.319073780349
 30
0.0
 10
58.4125605271879
 20
158.3543999122258
 30
0.0
  0
SPLINE
  5
8E
330
1F
100
AcDbEntity
  8
0
  6
Continuous
 62
     7
370
    18
100
AcDbSpline
210
0.0
220
0.0
230
1.0
 70
     8
 71
     3
 72
    33
 73
    29
 74
     0
 42
0.000000001
 43
0.00000001
 40
0.0
 40
0.0
 40
0.0
 40
0.0
 40
0.0125326068134496
 40
0.0250361823974898
 40
0.0375300658794424
 40
0.0500336413586776
 40
0.0625662479630028
 40
0.0938388078910986
 40
0.1251113679925474
 40
0.1563839283128947
 40
0.1876564884698984
 40
0.2501259056882397
 40
0.3125953229065812
 40
0.3750647407364132
 40
0.4375341581404724
 40
0.5000035755502354
 40
0.5624729929599984
 40
0.6249424103640576
 40
0.6874118281938897
 40
0.7498812454122311
 40
0.8123506626305724
 40
0.843623222787576
 40
0.8748957831079234
 40
0.9061683432093722
 40
0.9374409031374679
 40
0.9583088818550777
 40
0.9791320209916653
 40
1.0
 40
1.0
 40
1.0
 40
1.0
 10
57.2125605305111
 20
158.3543999122258
 30
0.0
 10
57.21354857112998
 20
158.2665608741079
 30
0.0
 10
57.21552236361537
 20
158.0910862731189
 30
0.0
 10
57.23155489021905
 20
157.8284468683925
 30
0.0
 10
57.25716688481007
 20
157.5668242357837
 30
0.0
 10
57.29329330520174
 20
157.3062121957579
 30
0.0
 10
57.36271618607836
 20
156.9176633682215
 30
0.0
 10
57.49061139122773
 20
156.4062933861443
 30
0.0
 10
57.71267535135399
 20
155.786340891228
 30
0.0
 10
57.99409313265964
 20
155.190868537503
 30
0.0
 10
58.44525234271145
 20
154.438452572746
 30
0.0
 10
59.1444559972239
 20
153.586085848716
 30
0.0
 10
60.16623164514237
 20
152.7476853903917
 30
0.0
 10
61.33205722788234
 20
152.1244936672653
 30
0.0
 10
62.59702861620761
 20
151.7407821820077
 30
0.0
 10
63.9125605243804
 20
151.6112087829977
 30
0.0
 10
65.22809244939822
 20
151.7407821792878
 30
0.0
 10
66.49306378718836
 20
152.1244936781447
 30
0.0
 10
67.65888955522371
 20
152.7476853495939
 30
0.0
 10
68.68066451249584
 20
153.5860860010278
 30
0.0
 10
69.37987031527051
 20
154.4384521242778
 30
0.0
 10
69.8310251404953
 20
155.1908693153072
 30
0.0
 10
70.11245631851443
 20
155.786337922468
 30
0.0
 10
70.33446998239883
 20
156.4063044833799
 30
0.0
 10
70.47673148914328
 20
156.9744017222019
 30
0.0
 10
70.55972430846913
 20
157.4792326973236
 30
0.0
 10
70.60433829526627
 20
157.9158832149804
 30
0.0
 10
70.60981781654311
 20
158.2081229093704
 30
0.0
 10
70.61256052386469
 20
158.3543999122258
 30
0.0
  0
SPLINE
  5
8F
330
1F
100
AcDbEntity
  8
0
  6
Continuous
 62
     7
370
    18
100
AcDbSpline
210
0.0
220
0.0
230
1.0
 70
     8
 71
     3
 72
    33
 73
    29
 74
     0
 42
0.000000001
 43
0.00000001
 40
0.0
 40
0.0
 40
0.0
 40
0.0
 40
0.0125326068134496
 40
0.0250361823974898
 40
0.0375300658794425
 40
0.0500336413586776
 40
0.0625662479630028
 40
0.0938388078910984
 40
0.1251113679925473
 40
0.1563839283128946
 40
0.1876564884698983
 40
0.2501259056882397
 40
0.312595322906581
 40
0.3750647407364131
 40
0.4375341581404723
 40
0.5000035755502352
 40
0.5624729929599982
 40
0.6249424103640574
 40
0.6874118281938895
 40
0.7498812454122309
 40
0.8123506626305722
 40
0.843623222787576
 40
0.8748957831079233
 40
0.9061683432093721
 40
0.9374409031374678
 40
0.9583088818550778
 40
0.9791320209916653
 40
1.0
 40
1.0
 40
1.0
 40
1.0
 10
70.61256052386469
 20
158.3543999122258
 30
0.0
 10
70.61157248324582
 20
158.4422389503438
 30
0.0
 10
70.60959869076044
 20
158.6177135513327
 30
0.0
 10
70.59356616415675
 20
158.8803529560592
 30
0.0
 10
70.56795416956574
 20
159.1419755886679
 30
0.0
 10
70.53182774917406
 20
159.4025876286938
 30
0.0
 10
70.46240486829744
 20
159.7911364562302
 30
0.0
 10
70.33450966314805
 20
160.3025064383074
 30
0.0
 10
70.1124457030218
 20
160.9224589332237
 30
0.0
 10
69.83102792171617
 20
161.5179312869487
 30
0.0
 10
69.37986871166434
 20
162.2703472517056
 30
0.0
 10
68.6806650571519
 20
163.1227139757357
 30
0.0
 10
67.65888940923342
 20
163.9611144340599
 30
0.0
 10
66.49306382649345
 20
164.5843061571864
 30
0.0
 10
65.22809243816819
 20
164.968017642444
 30
0.0
 10
63.9125605299954
 20
165.097591041454
 30
0.0
 10
62.5970286049776
 20
164.9680176451638
 30
0.0
 10
61.33205726718743
 20
164.584306146307
 30
0.0
 10
60.16623149915208
 20
163.9611144748578
 30
0.0
 10
59.14445654187995
 20
163.1227138234238
 30
0.0
 10
58.44525073910528
 20
162.2703477001739
 30
0.0
 10
57.99409591388049
 20
161.5179305091444
 30
0.0
 10
57.71266473586136
 20
160.9224619019837
 30
0.0
 10
57.49065107197696
 20
160.3024953410718
 30
0.0
 10
57.34838956523252
 20
159.7343981022497
 30
0.0
 10
57.26539674590666
 20
159.229567127128
 30
0.0
 10
57.22078275910952
 20
158.7929166094712
 30
0.0
 10
57.21530323783268
 20
158.5006769150813
 30
0.0
 10
57.2125605305111
 20
158.3543999122258
 30
0.0
  0
SPLINE
  5
90
330
1F
100
AcDbEntity
  8
0
  6
Continuous
 62
     7
370
    18
100
AcDbSpline
210
0.0
220
0.0
230
1.0
 70
    24
 71
     3
 72
    10
 73
     6
 74
     0
 42
0.000000001
 43
0.00000001
 40
0.0
 40
0.0
 40
0.0
 40
0.0
 40
0.5
 40
0.5
 40
1.0
 40
1.0
 40
1.0
 40
1.0
 10
70.61256052738047
 20
158.3543999122258
 30
0.0
 10
70.6832712055955
 20
158.3543999122258
 30
0.0
 10
70.76611391806497
 20
158.3543999122258
 30
0.0
 10
70.88327120557581
 20
158.3543999122258
 30
0.0
 10
70.91256052747651
 20
158.3543999122258
 30
0.0
 10
70.91256052757376
 20
158.3543999122258
 30
0.0
  0
SPLINE
  5
91
330
1F
100
AcDbEntity
  8
0
  6
Continuous
 62
     7
370
    18
100
AcDbSpline
210
0.0
220
0.0
230
1.0
 70
     8
 71
     3
 72
    12
 73
     8
 74
     0
 42
0.000000001
 43
0.00000001
 40
0.0
 40
0.0
 40
0.0
 40
0.0
 40
0.3333333333333332
 40
0.3333333333333332
 40
0.6666666666666665
 40
0.6666666666666665
 40
0.9999999999999999
 40
0.9999999999999999
 40
0.9999999999999999
 40
0.9999999999999999
 10
70.9125605271879
 20
158.3543999093544
 30
0.0
 10
70.91256052821362
 20
160.8548939233293
 30
0.0
 10
69.57805186661699
 20
163.1663307301801
 30
0.0
 10
65.24706919107447
 20
165.6668247453394
 30
0.0
 10
62.57805186630095
 20
165.6668247458868
 30
0.0
 10
58.24706918973269
 20
163.1663307325042
 30
0.0
 10
56.9125605271879
 20
160.8548939262007
 30
0.0
 10
56.9125605271879
 20
158.3543999122258
 30
0.0
  0
SPLINE
  5
92
330
1F
100
AcDbEntity
  8
0
  6
Continuous
 62
     7
370
    18
100
AcDbSpline
210
0.0
220
0.0
230
1.0
 70
    24
 71
     3
 72
    10
 73
     6
 74
     0
 42
0.000000001
 43
0.00000001
 40
0.0
 40
0.0
 40
0.0
 40
0.0
 40
0.5
 40
0.5
 40
1.0
 40
1.0
 40
1.0
 40
1.0
 10
56.91256052680203
 20
158.3543999122258
 30
0.0
 10
56.91256052689928
 20
158.3543999122258
 30
0.0
 10
56.94184984879998
 20
158.3543999122258
 30
0.0
 10
57.05900713631082
 20
158.3543999122258
 30
0.0
 10
57.14184984878028
 20
158.3543999122258
 30
0.0
 10
57.21256052699533
 20
158.3543999122258
 30
0.0
  0
SPLINE
  5
93
330
1F
100
AcDbEntity
  8
0
  6
Continuous
 62
     7
370
    18
100
AcDbSpline
210
0.0
220
0.0
230
1.0
 70
     8
 71
     3
 72
    14
 73
    10
 74
     0
 42
0.000000001
 43
0.00000001
 40
0.0
 40
0.0
 40
0.0
 40
0.0
 40
0.25
 40
0.25
 40
0.5
 40
0.5
 40
0.75
 40
0.75
 40
1.0
 40
1.0
 40
1.0
 40
1.0
 10
56.9125605271879
 20
158.3543999109687
 30
0.0
 10
56.91256052752129
 20
156.497937023328
 30
0.0
 10
57.65009556212702
 20
154.7173699405907
 30
0.0
 10
60.27553055595526
 20
152.0919349469312
 30
0.0
 10
62.05609763873999
 20
151.3543999124399
 30
0.0
 10
65.76902341402146
 20
151.3543999120118
 30
0.0
 10
67.5495904969763
 20
152.0919349460924
 30
0.0
 10
70.17502549141
 20
154.7173699391464
 30
0.0
 10
70.91256052642636
 20
156.4979370217136
 30
0.0
 10
70.9125605271879
 20
158.3543999093544
 30
0.0
  0
SPLINE
  5
94
330
1F
100
AcDbEntity
  8
0
  6
Continuous
 62
     7
370
    18
100
AcDbSpline
210
0.0
220
0.0
230
1.0
 70
     8
 71
     3
 72
    10
 73
     6
 74
     0
 42
0.000000001
 43
0.00000001
 40
0.0
 40
0.0
 40
0.0
 40
0.0
 40
0.5
 40
0.5
 40
1.0
 40
1.0
 40
1.0
 40
1.0
 10
64.65329867752997
 20
151.1033654812507
 30
0.0
 10
64.64623232968559
 20
151.1722432831738
 30
0.0
 10
64.64763118509039
 20
151.2522846985832
 30
0.0
 10
64.67423112242706
 20
151.3677130751427
 30
0.0
 10
64.69839732273283
 20
151.3986092472912
 30
0.0
 10
64.7219685731511
 20
151.4013531971512
 30
0.0
  0
SPLINE
  5
95
330
1F
100
AcDbEntity
  8
0
  6
Continuous
 62
     7
370
    18
100
AcDbSpline
210
0.0
220
0.0
230
1.0
 70
     8
 71
     3
 72
    10
 73
     6
 74
     0
 42
0.000000001
 43
0.00000001
 40
0.0
 40
0.0
 40
0.0
 40
0.0
 40
0.5
 40
0.5
 40
1.0
 40
1.0
 40
1.0
 40
1.0
 10
63.1718222111879
 20
151.1033655032258
 30
0.0
 10
63.17888856311812
 20
151.1722433079262
 30
0.0
 10
63.17748970936383
 20
151.2522847280326
 30
0.0
 10
63.1508897655841
 20
151.3677131063517
 30
0.0
 10
63.12672355766871
 20
151.3986092744823
 30
0.0
 10
63.1031523001879
 20
151.4013532182258
 30
0.0
  0
SPLINE
  5
96
330
1F
100
AcDbEntity
  8
0
  6
Continuous
 62
     7
370
    18
100
AcDbSpline
210
0.0
220
0.0
230
1.0
 70
     8
 71
     3
 72
    16
 73
    12
 74
     0
 42
0.000000001
 43
0.00000001
 40
0.0
 40
0.0
 40
0.0
 40
0.0
 40
0.0864429162688
 40
0.1715998848054081
 40
0.2555040849425243
 40
0.3381902047989415
 40
0.4196944884322911
 40
0.5000547796939445
 40
0.66188635478642
 40
0.8284401449971457
 40
1.0
 40
1.0
 40
1.0
 40
1.0
 10
63.17182221196213
 20
151.1033655040133
 30
0.0
 10
63.21281079235493
 20
151.0982004870342
 30
0.0
 10
63.29417819615549
 20
151.0879472892373
 30
0.0
 10
63.41859338792115
 20
151.075820642816
 30
0.0
 10
63.54291077880432
 20
151.0662438017348
 30
0.0
 10
63.66690283025896
 20
151.0594305210698
 30
0.0
 10
63.79003750363439
 20
151.055329905458
 30
0.0
 10
63.95363898377192
 20
151.0534603844265
 30
0.0
 10
64.16021120281091
 20
151.0582890498199
 30
0.0
 10
64.40982674576293
 20
151.0742527457775
 30
0.0
 10
64.57134434154014
 20
151.0935659351137
 30
0.0
 10
64.65329884324161
 20
151.1033655040133
 30
0.0
  0
SPLINE
  5
97
330
1F
100
AcDbEntity
  8
0
  6
Continuous
 62
     7
370
    18
100
AcDbSpline
210
0.0
220
0.0
230
1.0
 70
    24
 71
     3
 72
    12
 73
     8
 74
     0
 42
0.000000001
 43
0.00000001
 40
0.0
 40
0.0
 40
0.0
 40
0.0
 40
0.3333333333333333
 40
0.3333333333333333
 40
0.6666666666666665
 40
0.6666666666666665
 40
0.9999999999999999
 40
0.9999999999999999
 40
0.9999999999999999
 40
0.9999999999999999
 10
61.5625605271879
 20
149.0543999122258
 30
0.0
 10
61.5625605271879
 20
149.0543999122258
 30
0.0
 10
62.01057414961365
 20
149.0543999122258
 30
0.0
 10
63.46454690531871
 20
149.0543999122257
 30
0.0
 10
64.36057415006411
 20
149.0543999122257
 30
0.0
 10
65.8145469054248
 20
149.0543999122256
 30
0.0
 10
66.26256052753224
 20
149.0543999122256
 30
0.0
 10
66.2625605271879
 20
149.0543999122256
 30
0.0
  0
SPLINE
  5
98
330
1F
100
AcDbEntity
  8
0
  6
Continuous
 62
     7
370
    18
100
AcDbSpline
210
0.0
220
0.0
230
1.0
 70
    24
 71
     3
 72
    12
 73
     8
 74
     0
 42
0.000000001
 43
0.00000001
 40
0.0
 40
0.0
 40
0.0
 40
0.0
 40
0.3333333333333333
 40
0.3333333333333333
 40
0.6666666666666665
 40
0.6666666666666665
 40
0.9999999999999999
 40
0.9999999999999999
 40
0.9999999999999999
 40
0.9999999999999999
 10
61.5625605271879
 20
146.5543999122258
 30
0.0
 10
61.5625605271879
 20
146.5543999122258
 30
0.0
 10
62.01057414961365
 20
146.5543999122258
 30
0.0
 10
63.46454690531871
 20
146.5543999122258
 30
0.0
 10
64.36057415006411
 20
146.5543999122258
 30
0.0
 10
65.8145469054248
 20
146.5543999122258
 30
0.0
 10
66.26256052753224
 20
146.5543999122258
 30
0.0
 10
66.2625605271879
 20
146.5543999122258
 30
0.0
  0
SPLINE
  5
99
330
1F
100
AcDbEntity
  8
0
  6
Continuous
 62
     7
370
    18
100
AcDbSpline
210
0.0
220
0.0
230
1.0
 70
    24
 71
     3
 72
    12
 73
     8
 74
     0
 42
0.000000001
 43
0.00000001
 40
0.0
 40
0.0
 40
0.0
 40
0.0
 40
0.3333333333333332
 40
0.3333333333333332
 40
0.6666666666666665
 40
0.6666666666666665
 40
0.9999999999999999
 40
0.9999999999999999
 40
0.9999999999999999
 40
0.9999999999999999
 10
65.91256052718789
 20
144.0543999122258
 30
0.0
 10
65.91256052748096
 20
144.0543999122258
 30
0.0
 10
65.53127233845335
 20
144.0543999122258
 30
0.0
 10
64.29384871686977
 20
144.0543999122258
 30
0.0
 10
63.53127233836305
 20
144.0543999122258
 30
0.0
 10
62.29384871648641
 20
144.0543999122258
 30
0.0
 10
61.91256052718789
 20
144.0543999122258
 30
0.0
 10
61.91256052718789
 20
144.0543999122258
 30
0.0
  0
SPLINE
  5
9A
330
1F
100
AcDbEntity
  8
0
  6
Continuous
 62
     7
370
    18
100
AcDbSpline
210
0.0
220
0.0
230
1.0
 70
     8
 71
     3
 72
    30
 73
    26
 74
     0
 42
0.000000001
 43
0.00000001
 40
0.0
 40
0.0
 40
0.0
 40
0.0
 40
0.0367678397484608
 40
0.0805511227901114
 40
0.1243344092136667
 40
0.1681176830868723
 40
0.211900961092114
 40
0.2556842501246534
 40
0.2994675294868441
 40
0.3432508028739693
 40
0.3870340840297792
 40
0.4308173630504364
 40
0.4746006421091443
 40
0.5183839224094078
 40
0.5621671976394089
 40
0.6059504806810595
 40
0.6497337671046148
 40
0.6935170409778204
 40
0.7373003189830621
 40
0.7810836080156015
 40
0.8248668873777922
 40
0.8686501607649174
 40
0.9124334419207273
 40
0.9562167207814595
 40
0.9999999999999999
 40
0.9999999999999999
 40
0.9999999999999999
 40
0.9999999999999999
 10
66.06256060020358
 20
151.0739798659261
 30
0.0
 10
66.32823001042804
 20
151.1579922041853
 30
0.0
 10
66.91025956209522
 20
151.3420467535224
 30
0.0
 10
67.75184917315757
 20
151.7728114861052
 30
0.0
 10
68.57918615414997
 20
152.3276222420004
 30
0.0
 10
69.32561710093414
 20
152.9890015316253
 30
0.0
 10
69.97971180516602
 20
153.7412611678454
 30
0.0
 10
70.52992109006915
 20
154.5726995377104
 30
0.0
 10
70.96692527548142
 20
155.468777934982
 30
0.0
 10
71.28322169641405
 20
156.4142478195939
 30
0.0
 10
71.47340594517415
 20
157.3929093842751
 30
0.0
 10
71.53422138229313
 20
158.3880236947951
 30
0.0
 10
71.46462821515728
 20
159.3825623127585
 30
0.0
 10
71.26581720093304
 20
160.3595089010315
 30
0.0
 10
70.94118977252228
 20
161.3021474226082
 30
0.0
 10
70.49630039233037
 20
162.1943493922686
 30
0.0
 10
69.93876179354726
 20
163.0208479381126
 30
0.0
 10
69.27811308485164
 20
163.7675060563902
 30
0.0
 10
68.52565896715463
 20
164.4215305095964
 30
0.0
 10
67.69426794224219
 20
164.971793627108
 30
0.0
 10
66.79819464668005
 20
165.4086527331579
 30
0.0
 10
65.85265701029311
 20
165.7254756388781
 30
0.0
 10
64.8742613522281
 20
165.9136990273508
 30
0.0
 10
63.87815117183354
 20
165.981831420005
 30
0.0
 10
63.21760381566878
 20
165.9172313351239
 30
0.0
 10
62.88733013623686
 20
165.8849312925514
 30
0.0
  0
SPLINE
  5
9B
330
1F
100
AcDbEntity
  8
0
  6
Continuous
 62
     7
370
    18
100
AcDbSpline
210
0.0
220
0.0
230
1.0
 70
     8
 71
     3
 72
    28
 73
    24
 74
     0
 42
0.000000001
 43
0.00000001
 40
0.0
 40
0.0
 40
0.0
 40
0.0
 40
0.0481427828274393
 40
0.0962855600797698
 40
0.144428345921556
 40
0.1925711354819833
 40
0.2407139112424223
 40
0.2888566915463242
 40
0.3369994839755122
 40
0.3851422657714746
 40
0.433285040997434
 40
0.4814278247656062
 40
0.5295706061860288
 40
0.5777133876482905
 40
0.6258561704757297
 40
0.6739989477280602
 40
0.7221417335698465
 40
0.7702845231302738
 40
0.8184272988907126
 40
0.8665700791946146
 40
0.9147128716238025
 40
0.962855653419765
 40
1.0
 40
1.0
 40
1.0
 40
1.0
 10
62.88733013623686
 20
165.8849312925514
 30
0.0
 10
62.56044205206686
 20
165.8277632672701
 30
0.0
 10
61.9066659215817
 20
165.7134272233279
 30
0.0
 10
60.96502348408743
 20
165.3814829145197
 30
0.0
 10
60.07255479492446
 20
164.9385541113914
 30
0.0
 10
59.24612704286154
 20
164.3804900858293
 30
0.0
 10
58.49945246898571
 20
163.7199825070095
 30
0.0
 10
57.84542304440693
 20
162.9674892964633
 30
0.0
 10
57.29519626799134
 20
162.1361135130679
 30
0.0
 10
56.85819676896003
 20
161.2400183443001
 30
0.0
 10
56.54189909401352
 20
160.2945529592126
 30
0.0
 10
56.35171517492879
 20
159.3158901679271
 30
0.0
 10
56.2908996731223
 20
158.3207762642994
 30
0.0
 10
56.36049276933283
 20
157.3262372453711
 30
0.0
 10
56.55930413194583
 20
156.3492918540655
 30
0.0
 10
56.88393023772696
 20
155.4066489455843
 30
0.0
 10
57.32882456004948
 20
154.5144633265774
 30
0.0
 10
57.88634471293969
 20
153.6879037650236
 30
0.0
 10
58.54706226306029
 20
152.9414733588788
 30
0.0
 10
59.29925946091659
 20
152.2865990727398
 30
0.0
 10
60.13160932394332
 20
151.7395075754098
 30
0.0
 10
60.95613940713089
 20
151.3249806575328
 30
0.0
 10
61.5179012856736
 20
151.1521029717354
 30
0.0
 10
61.76256045417221
 20
151.076811086553
 30
0.0
  0
SPLINE
  5
9C
330
1F
100
AcDbEntity
  8
0
  6
Continuous
 62
     7
370
    18
100
AcDbSpline
210
0.0
220
0.0
230
1.0
 70
     8
 71
     3
 72
    30
 73
    26
 74
     0
 42
0.000000001
 43
0.00000001
 40
0.0
 40
0.0
 40
0.0
 40
0.0
 40
0.04356513451754
 40
0.087130265982615
 40
0.1306953961437772
 40
0.1742605282025442
 40
0.2178256673869391
 40
0.2613907992838053
 40
0.3049559294746605
 40
0.3485210610294585
 40
0.3920861863045061
 40
0.435651318783736
 40
0.4792164525862005
 40
0.5227815788761117
 40
0.5663467132425671
 40
0.6099118448588141
 40
0.6534769750199764
 40
0.6970421070787433
 40
0.7406072462631382
 40
0.7841723781600045
 40
0.8277375083508598
 40
0.8713026399056577
 40
0.9148677651807053
 40
0.9584328976599353
 40
1.0
 40
1.0
 40
1.0
 40
1.0
 10
62.83337058683218
 20
166.2812747062918
 30
0.0
 10
63.18102710788513
 20
166.3152748738861
 30
0.0
 10
63.87634012563188
 20
166.3832752066924
 30
0.0
 10
64.92487716585872
 20
166.3115568318339
 30
0.0
 10
65.95476738414858
 20
166.1134271573279
 30
0.0
 10
66.95007029764939
 20
165.7799293311026
 30
0.0
 10
67.8933049852236
 20
165.3200769645863
 30
0.0
 10
68.76845419084012
 20
164.7408537215914
 30
0.0
 10
69.5605100115549
 20
164.0524056340507
 30
0.0
 10
70.25593042742054
 20
163.2664505417766
 30
0.0
 10
70.84281302878591
 20
162.3964519908341
 30
0.0
 10
71.31111723929948
 20
161.4572919636731
 30
0.0
 10
71.65283083585408
 20
160.4650410607218
 30
0.0
 10
71.86210490632632
 20
159.4366760740733
 30
0.0
 10
71.93536151390096
 20
158.3897933907635
 30
0.0
 10
71.87134509905648
 20
157.3423046857534
 30
0.0
 10
71.67115147151607
 20
156.3121343354232
 30
0.0
 10
71.33820749710526
 20
155.3169036101213
 30
0.0
 10
70.87820367625304
 20
154.3736603006178
 30
0.0
 10
70.29903239870478
 20
153.4984733945149
 30
0.0
 10
69.61052790369962
 20
152.7065769976641
 30
0.0
 10
68.82474647583645
 20
152.0105565868411
 30
0.0
 10
67.95410967476286
 20
151.425914541272
 30
0.0
 10
67.03165020282113
 20
150.9565352331177
 30
0.0
 10
66.38049633366388
 20
150.7517966713287
 30
0.0
 10
66.06256060020358
 20
150.6518299693044
 30
0.0
  0
SPLINE
  5
9D
330
1F
100
AcDbEntity
  8
0
  6
Continuous
 62
     7
370
    18
100
AcDbSpline
210
0.0
220
0.0
230
1.0
 70
     8
 71
     3
 72
    28
 73
    24
 74
     0
 42
0.000000001
 43
0.00000001
 40
0.0
 40
0.0
 40
0.0
 40
0.0
 40
0.0424011038568458
 40
0.0902810571342238
 40
0.1381610024022958
 40
0.1860409457953886
 40
0.2339208906875128
 40
0.2818008286779227
 40
0.3296807745860373
 40
0.3775607219484434
 40
0.4254406610542316
 40
0.473320609036488
 40
0.5212005539961473
 40
0.5690804973566063
 40
0.6169604428026141
 40
0.664840396079992
 40
0.7127203413480641
 40
0.7606002847411568
 40
0.8084802296332811
 40
0.8563601676236909
 40
0.9042401135318057
 40
0.9521200608942118
 40
1.0
 40
1.0
 40
1.0
 40
1.0
 10
61.76256045417221
 20
150.6559240633424
 30
0.0
 10
61.46676967725764
 20
150.7463775850712
 30
0.0
 10
60.83696758246881
 20
150.9389725606823
 30
0.0
 10
59.93240889612438
 20
151.3908171638157
 30
0.0
 10
59.05650801604688
 20
151.9673849358672
 30
0.0
 10
58.26465360587307
 20
152.6565445546672
 30
0.0
 10
57.5691792222407
 20
153.4423089926225
 30
0.0
 10
56.98231108140285
 20
154.3123586295861
 30
0.0
 10
56.51400299654033
 20
155.2515049669618
 30
0.0
 10
56.17229043685229
 20
156.2437595430271
 30
0.0
 10
55.96301609326299
 20
157.2721235270056
 30
0.0
 10
55.88975954129015
 20
158.319006547882
 30
0.0
 10
55.95377600684452
 20
159.3664949052957
 30
0.0
 10
56.15396937594355
 20
160.396666308445
 30
0.0
 10
56.48691433341017
 20
161.3918931700664
 30
0.0
 10
56.94691448048012
 20
162.3351508814743
 30
0.0
 10
57.52609947009961
 20
163.2102840436481
 30
0.0
 10
58.21455279060485
 20
164.0023810143
 30
0.0
 10
59.00052520439269
 20
164.6976528738624
 30
0.0
 10
59.87044923632137
 20
165.285088550462
 30
0.0
 10
60.80989001806434
 20
165.751329016042
 30
0.0
 10
61.80109242170393
 20
166.1007445170787
 30
0.0
 10
62.4892778849017
 20
166.2210979800131
 30
0.0
 10
62.83337058683218
 20
166.2812747062918
 30
0.0
  0
SPLINE
  5
9E
330
1F
100
AcDbEntity
  8
0
  6
Continuous
 62
     8
370
    18
100
AcDbSpline
210
0.0
220
0.0
230
1.0
 70
     8
 71
     3
 72
    11
 73
     7
 74
     0
 42
0.000000001
 43
0.00000001
 40
0.0
 40
0.0
 40
0.0
 40
0.0
 40
0.3353759153242779
 40
0.676457849010102
 40
0.8525919382884285
 40
1.0
 40
1.0
 40
1.0
 40
1.0
 10
64.65329870532558
 20
151.1033654214617
 30
0.0
 10
64.75237387698832
 20
151.1204959443634
 30
0.0
 10
64.9522098653552
 20
151.1550484454376
 30
0.0
 10
65.16498323419712
 20
151.269853844188
 30
0.0
 10
65.2998890501988
 20
151.4008540233292
 30
0.0
 10
65.34683738488759
 20
151.4841451532667
 30
0.0
 10
65.3682273737836
 20
151.522093173283
 30
0.0
  0
LINE
  5
9F
330
1F
100
AcDbEntity
  8
0
  6
Continuous
 62
     8
370
    18
100
AcDbLine
 10
63.0446730107
 20
151.4112844134
 30
0.0
 11
63.1031522103
 21
151.4013532551
 31
0.0
  0
SPLINE
  5
A0
330
1F
100
AcDbEntity
  8
0
  6
Continuous
 62
     8
370
    18
100
AcDbSpline
210
0.0
220
0.0
230
1.0
 70
     8
 71
     3
 72
    11
 73
     7
 74
     0
 42
0.000000001
 43
0.00000001
 40
0.0
 40
0.0
 40
0.0
 40
0.0
 40
0.1478023811632411
 40
0.3240852164396731
 40
0.6652549749851381
 40
1.0
 40
1.0
 40
1.0
 40
1.0
 10
62.45688075849147
 20
151.5220955015894
 30
0.0
 10
62.47833796220692
 20
151.4840536697106
 30
0.0
 10
62.52538701822065
 20
151.4006396189952
 30
0.0
 10
62.66048802734758
 20
151.2695930496514
 30
0.0
 10
62.87324881379246
 20
151.1549698633009
 30
0.0
 10
63.07293039479332
 20
151.120457552788
 30
0.0
 10
63.17182217442723
 20
151.1033654214617
 30
0.0
  0
DIMENSION
  5
A1
330
1F
100
AcDbEntity
  8
0
  6
Continuous
 62
     7
370
    18
100
AcDbDimension
  2
_D
 10
69.6201420588
 20
152.7487319717
 30
0.0
 11
42.2909886082
 21
176.6667008629
 31
0.0
 70
   163
  1
<>
 71
     1
 42
-1.0
  3
SLDDIMSTYLE0
100
AcDbDiametricDimension
 15
58.2049789956
 25
163.9600678527
 35
0.0
 40
0.0
  0
INSERT
  5
B1
330
1F
100
AcDbEntity
  8
0
  6
Continuous
 62
     7
370
     0
100
AcDbBlockReference
  2
SW_NOTE_0
 10
76.41401649
 20
170.7650178616
 30
0.0
  0
LEADER
  5
B3
330
1F
100
AcDbEntity
  8
0
  6
Continuous
 62
     7
370
     0
100
AcDbLeader
  3
SLDDIMSTYLE1
 76
     2
 10
65.0232452712
 20
160.1366399071
 30
0.0
 10
76.41401649
 20
170.7650178616
 30
0.0
  0
INSERT
  5
B9
330
1F
100
AcDbEntity
  8
0
  6
Continuous
 62
     7
370
     0
100
AcDbBlockReference
  2
SW_NOTE_1
 10
58.3294632959
 20
136.9605420076
 30
0.0
  0
LEADER
  5
BA
330
1F
100
AcDbEntity
  8
0
  6
Continuous
 62
     7
370
     0
100
AcDbLeader
  3
SLDDIMSTYLE1
 76
     2
 10
63.9658691552
 20
147.7248424316
 30
0.0
 10
58.3294632959
 20
136.9605420076
 30
0.0
  0
INSERT
  5
C6
330
1F
100
AcDbEntity
  8
0
  6
Continuous
 62
     7
370
    18
100
AcDbBlockReference
  2
SW_CENTERMARKSYMBOL_0
 10
63.9125605272
 20
158.3543999122
 30
0.0
  0
LINE
  5
C7
330
1F
100
AcDbEntity
  8
0
  6
Continuous
 62
     7
370
    18
100
AcDbLine
 10
158.0634968034
 20
153.8543999123
 30
0.0
 11
158.6634968034
 21
153.8543999123
 31
0.0
  0
LINE
  5
C8
330
1F
100
AcDbEntity
  8
0
  6
Continuous
 62
     7
370
    18
100
AcDbLine
 10
158.6634968034
 20
162.196308152
 30
0.0
 11
158.0634968034
 21
162.196308152
 31
0.0
  0
LINE
  5
C9
330
1F
100
AcDbEntity
  8
0
  6
Continuous
 62
     7
370
    18
100
AcDbLine
 10
118.6634968034
 20
165.3543999122
 30
0.0
 11
117.2634968034
 21
165.3543999122
 31
0.0
  0
LINE
  5
CA
330
1F
100
AcDbEntity
  8
0
  6
Continuous
 62
     7
370
    18
100
AcDbLine
 10
117.413486463
 20
151.3543999122
 30
0.0
 11
118.6634968034
 21
151.3543999122
 31
0.0
  0
LINE
  5
CB
330
1F
100
AcDbEntity
  8
0
  6
Continuous
 62
     7
370
    18
100
AcDbLine
 10
112.6634968034
 20
165.3543999122
 30
0.0
 11
111.2634968034
 21
165.3543999122
 31
0.0
  0
LINE
  5
CC
330
1F
100
AcDbEntity
  8
0
  6
Continuous
 62
     7
370
    18
100
AcDbLine
 10
111.2634968034
 20
151.3543999122
 30
0.0
 11
112.5135071438
 21
151.3543999122
 31
0.0
  0
SPLINE
  5
CD
330
1F
100
AcDbEntity
  8
0
  6
Continuous
 62
     7
370
    18
100
AcDbSpline
210
0.0
220
0.0
230
1.0
 70
     8
 71
     3
 72
    13
 73
     9
 74
     0
 42
0.000000001
 43
0.00000001
 40
0.0
 40
0.0
 40
0.0
 40
0.0
 40
0.2394568445579554
 40
0.3683606603995837
 40
0.500000000134529
 40
0.6316393398649053
 40
0.7605431556802862
 40
0.9999999999999999
 40
0.9999999999999999
 40
0.9999999999999999
 40
0.9999999999999999
 10
117.2634968032494
 20
165.3543999121775
 30
0.0
 10
117.2257579070014
 20
165.3503925151867
 30
0.0
 10
117.1677035015391
 20
165.3442278661673
 30
0.0
 10
117.0978586766721
 20
165.3068185868911
 30
0.0
 10
117.0497966589086
 20
165.2681000565107
 30
0.0
 10
117.0110781285169
 20
165.2200380387614
 30
0.0
 10
116.9736688492221
 20
165.1501932139584
 30
0.0
 10
116.9675042001076
 20
165.0921388085531
 30
0.0
 10
116.9634968030561
 20
165.0543999123526
 30
0.0
  0
SPLINE
  5
CE
330
1F
100
AcDbEntity
  8
0
  6
Continuous
 62
     7
370
    18
100
AcDbSpline
210
0.0
220
0.0
230
1.0
 70
     8
 71
     3
 72
    13
 73
     9
 74
     0
 42
0.000000001
 43
0.00000001
 40
0.0
 40
0.0
 40
0.0
 40
0.0
 40
0.2394568443197192
 40
0.3683606601351008
 40
0.4999999998654737
 40
0.6316393396004102
 40
0.7605431554420505
 40
1.0
 40
1.0
 40
1.0
 40
1.0
 10
112.9634968038278
 20
165.0543999123526
 30
0.0
 10
112.9594894067763
 20
165.0921388085531
 30
0.0
 10
112.9533247576618
 20
165.1501932139584
 30
0.0
 10
112.915915478367
 20
165.2200380387614
 30
0.0
 10
112.8771969479753
 20
165.2681000565107
 30
0.0
 10
112.8291349302118
 20
165.3068185868911
 30
0.0
 10
112.7592901053448
 20
165.3442278661673
 30
0.0
 10
112.7012356998825
 20
165.3503925151867
 30
0.0
 10
112.6634968036345
 20
165.3543999121775
 30
0.0
  0
SPLINE
  5
CF
330
1F
100
AcDbEntity
  8
0
  6
Continuous
 62
     7
370
    18
100
AcDbSpline
210
0.0
220
0.0
230
1.0
 70
     8
 71
     3
 72
    13
 73
     9
 74
     0
 42
0.000000001
 43
0.00000001
 40
0.0
 40
0.0
 40
0.0
 40
0.0
 40
0.2394568445579434
 40
0.3683606603995823
 40
0.5000000001345151
 40
0.6316393398648972
 40
0.7605431556802777
 40
1.0
 40
1.0
 40
1.0
 40
1.0
 10
118.6634968036345
 20
151.3543999122742
 30
0.0
 10
118.7012356998826
 20
151.3584073092649
 30
0.0
 10
118.7592901053448
 20
151.3645719582843
 30
0.0
 10
118.8291349302118
 20
151.4019812375605
 30
0.0
 10
118.8771969479753
 20
151.4406997679409
 30
0.0
 10
118.915915478367
 20
151.4887617856903
 30
0.0
 10
118.9533247576618
 20
151.5586066104933
 30
0.0
 10
118.9594894067763
 20
151.6166610158985
 30
0.0
 10
118.9634968038278
 20
151.654399912099
 30
0.0
  0
SPLINE
  5
D0
330
1F
100
AcDbEntity
  8
0
  6
Continuous
 62
     7
370
    18
100
AcDbSpline
210
0.0
220
0.0
230
1.0
 70
     8
 71
     3
 72
    13
 73
     9
 74
     0
 42
0.000000001
 43
0.00000001
 40
0.0
 40
0.0
 40
0.0
 40
0.0
 40
0.2394568443197191
 40
0.3683606601351009
 40
0.4999999998654804
 40
0.6316393396004183
 40
0.7605431554420508
 40
1.0
 40
1.0
 40
1.0
 40
1.0
 10
118.9634968038278
 20
165.0543999123526
 30
0.0
 10
118.9594894067763
 20
165.0921388085531
 30
0.0
 10
118.9533247576618
 20
165.1501932139584
 30
0.0
 10
118.915915478367
 20
165.2200380387614
 30
0.0
 10
118.8771969479753
 20
165.2681000565107
 30
0.0
 10
118.8291349302118
 20
165.3068185868911
 30
0.0
 10
118.7592901053448
 20
165.3442278661673
 30
0.0
 10
118.7012356998825
 20
165.3503925151867
 30
0.0
 10
118.6634968036345
 20
165.3543999121775
 30
0.0
  0
SPLINE
  5
D1
330
1F
100
AcDbEntity
  8
0
  6
Continuous
 62
     7
370
    18
100
AcDbSpline
210
0.0
220
0.0
230
1.0
 70
     8
 71
     3
 72
    13
 73
     9
 74
     0
 42
0.000000001
 43
0.00000001
 40
0.0
 40
0.0
 40
0.0
 40
0.0
 40
0.2394568445579588
 40
0.3683606603995922
 40
0.5000000001345372
 40
0.6316393398649076
 40
0.7605431556802945
 40
1.0
 40
1.0
 40
1.0
 40
1.0
 10
111.2634968032494
 20
165.3543999121775
 30
0.0
 10
111.2257579070014
 20
165.3503925151867
 30
0.0
 10
111.1677035015391
 20
165.3442278661673
 30
0.0
 10
111.0978586766721
 20
165.3068185868911
 30
0.0
 10
111.0497966589086
 20
165.2681000565107
 30
0.0
 10
111.0110781285169
 20
165.2200380387614
 30
0.0
 10
110.9736688492221
 20
165.1501932139584
 30
0.0
 10
110.9675042001076
 20
165.0921388085531
 30
0.0
 10
110.9634968030561
 20
165.0543999123526
 30
0.0
  0
SPLINE
  5
D2
330
1F
100
AcDbEntity
  8
0
  6
Continuous
 62
     7
370
    18
100
AcDbSpline
210
0.0
220
0.0
230
1.0
 70
     8
 71
     3
 72
    13
 73
     9
 74
     0
 42
0.000000001
 43
0.00000001
 40
0.0
 40
0.0
 40
0.0
 40
0.0
 40
0.2394568443197147
 40
0.3683606601351023
 40
0.4999999998654677
 40
0.6316393396004099
 40
0.7605431554420439
 40
1.0
 40
1.0
 40
1.0
 40
1.0
 10
110.9634968030561
 20
151.654399912099
 30
0.0
 10
110.9675042001076
 20
151.6166610158985
 30
0.0
 10
110.9736688492221
 20
151.5586066104933
 30
0.0
 10
111.0110781285169
 20
151.4887617856903
 30
0.0
 10
111.0497966589085
 20
151.4406997679409
 30
0.0
 10
111.0978586766721
 20
151.4019812375605
 30
0.0
 10
111.1677035015391
 20
151.3645719582843
 30
0.0
 10
111.2257579070014
 20
151.3584073092649
 30
0.0
 10
111.2634968032494
 20
151.3543999122742
 30
0.0
  0
SPLINE
  5
D3
330
1F
100
AcDbEntity
  8
0
  6
Continuous
 62
     7
370
    18
100
AcDbSpline
210
0.0
220
0.0
230
1.0
 70
     8
 71
     3
 72
    13
 73
     9
 74
     0
 42
0.000000001
 43
0.00000001
 40
0.0
 40
0.0
 40
0.0
 40
0.0
 40
0.2394568443197142
 40
0.3683606601351004
 40
0.4999999998654692
 40
0.6316393396004082
 40
0.7605431554420459
 40
1.0
 40
1.0
 40
1.0
 40
1.0
 10
103.9634968038278
 20
163.5543999123526
 30
0.0
 10
103.9594894067763
 20
163.5921388085531
 30
0.0
 10
103.9533247576618
 20
163.6501932139584
 30
0.0
 10
103.915915478367
 20
163.7200380387614
 30
0.0
 10
103.8771969479753
 20
163.7681000565107
 30
0.0
 10
103.8291349302118
 20
163.8068185868911
 30
0.0
 10
103.7592901053448
 20
163.8442278661673
 30
0.0
 10
103.7012356998825
 20
163.8503925151867
 30
0.0
 10
103.6634968036345
 20
163.8543999121775
 30
0.0
  0
SPLINE
  5
D4
330
1F
100
AcDbEntity
  8
0
  6
Continuous
 62
     7
370
    18
100
AcDbSpline
210
0.0
220
0.0
230
1.0
 70
     8
 71
     3
 72
    13
 73
     9
 74
     0
 42
0.000000001
 43
0.00000001
 40
0.0
 40
0.0
 40
0.0
 40
0.0
 40
0.2394568445579545
 40
0.3683606603995894
 40
0.50000000013453
 40
0.6316393398648996
 40
0.7605431556802855
 40
1.0
 40
1.0
 40
1.0
 40
1.0
 10
103.6634968036345
 20
152.8543999122742
 30
0.0
 10
103.7012356998825
 20
152.8584073092649
 30
0.0
 10
103.7592901053448
 20
152.8645719582843
 30
0.0
 10
103.8291349302118
 20
152.9019812375605
 30
0.0
 10
103.8771969479753
 20
152.9406997679409
 30
0.0
 10
103.915915478367
 20
152.9887617856903
 30
0.0
 10
103.9533247576618
 20
153.0586066104933
 30
0.0
 10
103.9594894067763
 20
153.1166610158985
 30
0.0
 10
103.9634968038278
 20
153.154399912099
 30
0.0
  0
SPLINE
  5
D5
330
1F
100
AcDbEntity
  8
0
  6
Continuous
 62
     7
370
    18
100
AcDbSpline
210
0.0
220
0.0
230
1.0
 70
     8
 71
     3
 72
    13
 73
     9
 74
     0
 42
0.000000001
 43
0.00000001
 40
0.0
 40
0.0
 40
0.0
 40
0.0
 40
0.2394568443197151
 40
0.3683606601351012
 40
0.4999999998654712
 40
0.6316393396004113
 40
0.7605431554420463
 40
1.0
 40
1.0
 40
1.0
 40
1.0
 10
101.9634968030561
 20
153.154399912099
 30
0.0
 10
101.9675042001076
 20
153.1166610158985
 30
0.0
 10
101.9736688492221
 20
153.0586066104933
 30
0.0
 10
102.0110781285169
 20
152.9887617856903
 30
0.0
 10
102.0497966589086
 20
152.9406997679409
 30
0.0
 10
102.0978586766721
 20
152.9019812375605
 30
0.0
 10
102.1677035015391
 20
152.8645719582843
 30
0.0
 10
102.2257579070014
 20
152.8584073092649
 30
0.0
 10
102.2634968032494
 20
152.8543999122742
 30
0.0
  0
SPLINE
  5
D6
330
1F
100
AcDbEntity
  8
0
  6
Continuous
 62
     7
370
    18
100
AcDbSpline
210
0.0
220
0.0
230
1.0
 70
     8
 71
     3
 72
    13
 73
     9
 74
     0
 42
0.000000001
 43
0.00000001
 40
0.0
 40
0.0
 40
0.0
 40
0.0
 40
0.2394568445579534
 40
0.3683606603995902
 40
0.5000000001345303
 40
0.631639339864899
 40
0.760543155680285
 40
1.0
 40
1.0
 40
1.0
 40
1.0
 10
102.2634968032494
 20
163.8543999121775
 30
0.0
 10
102.2257579070014
 20
163.8503925151867
 30
0.0
 10
102.1677035015391
 20
163.8442278661673
 30
0.0
 10
102.0978586766721
 20
163.8068185868911
 30
0.0
 10
102.0497966589086
 20
163.7681000565107
 30
0.0
 10
102.0110781285169
 20
163.7200380387614
 30
0.0
 10
101.9736688492221
 20
163.6501932139584
 30
0.0
 10
101.9675042001076
 20
163.5921388085531
 30
0.0
 10
101.9634968030561
 20
163.5543999123526
 30
0.0
  0
LINE
  5
D7
330
1F
100
AcDbEntity
  8
0
  6
Continuous
 62
     7
370
    18
100
AcDbLine
 10
103.6634968034
 20
163.8543999122
 30
0.0
 11
102.2634968034
 21
163.8543999122
 31
0.0
  0
LINE
  5
D8
330
1F
100
AcDbEntity
  8
0
  6
Continuous
 62
     7
370
    18
100
AcDbLine
 10
102.2634968034
 20
152.8543999122
 30
0.0
 11
103.6634968034
 21
152.8543999122
 31
0.0
  0
SPLINE
  5
D9
330
1F
100
AcDbEntity
  8
0
  6
Continuous
 62
     7
370
    18
100
AcDbSpline
210
0.0
220
0.0
230
1.0
 70
     8
 71
     3
 72
    13
 73
     9
 74
     0
 42
0.000000001
 43
0.00000001
 40
0.0
 40
0.0
 40
0.0
 40
0.0
 40
0.2394568445579515
 40
0.3683606603995944
 40
0.5000000001345399
 40
0.6316393398649078
 40
0.760543155680291
 40
1.0
 40
1.0
 40
1.0
 40
1.0
 10
121.6634968036345
 20
153.8543999122742
 30
0.0
 10
121.7012356998825
 20
153.8584073092649
 30
0.0
 10
121.7592901053448
 20
153.8645719582843
 30
0.0
 10
121.8291349302118
 20
153.9019812375605
 30
0.0
 10
121.8771969479753
 20
153.9406997679409
 30
0.0
 10
121.915915478367
 20
153.9887617856903
 30
0.0
 10
121.9533247576618
 20
154.0586066104933
 30
0.0
 10
121.9594894067763
 20
154.1166610158985
 30
0.0
 10
121.9634968038278
 20
154.154399912099
 30
0.0
  0
LINE
  5
DA
330
1F
100
AcDbEntity
  8
0
  6
Continuous
 62
     7
370
    18
100
AcDbLine
 10
121.4251882629
 20
162.8543999122
 30
0.0
 11
118.9634968034
 21
162.8543999122
 31
0.0
  0
LINE
  5
DB
330
1F
100
AcDbEntity
  8
0
  6
Continuous
 62
     7
370
    18
100
AcDbLine
 10
118.9634968034
 20
153.8543999122
 30
0.0
 11
121.6634968034
 21
153.8543999122
 31
0.0
  0
LINE
  5
DC
330
1F
100
AcDbEntity
  8
0
  6
Continuous
 62
     7
370
    18
100
AcDbLine
 10
116.9634968034
 20
162.8543999122
 30
0.0
 11
112.9634968034
 21
162.8543999122
 31
0.0
  0
LINE
  5
DD
330
1F
100
AcDbEntity
  8
0
  6
Continuous
 62
     7
370
    18
100
AcDbLine
 10
110.9634968034
 20
162.2543999122
 30
0.0
 11
103.9634968034
 21
162.2543999122
 31
0.0
  0
LINE
  5
DE
330
1F
100
AcDbEntity
  8
0
  6
Continuous
 62
     7
370
    18
100
AcDbLine
 10
103.9634968034
 20
154.4543999122
 30
0.0
 11
110.9634968034
 21
154.4543999122
 31
0.0
  0
SPLINE
  5
DF
330
1F
100
AcDbEntity
  8
0
  6
Continuous
 62
     7
370
    18
100
AcDbSpline
210
0.0
220
0.0
230
1.0
 70
     8
 71
     3
 72
    10
 73
     6
 74
     0
 42
0.000000001
 43
0.00000001
 40
0.0
 40
0.0
 40
0.0
 40
0.0
 40
0.2072307795903056
 40
0.4846517656812702
 40
1.0
 40
1.0
 40
1.0
 40
1.0
 10
157.8860926421349
 20
155.4551491429671
 30
0.0
 10
157.8960100837462
 20
155.4665221326972
 30
0.0
 10
157.9192040590692
 20
155.4931202064229
 30
0.0
 10
157.9529596911787
 20
155.5589352399477
 30
0.0
 10
157.9593455845478
 20
155.6167904833316
 30
0.0
 10
157.9634968038278
 20
155.654399912099
 30
0.0
  0
SPLINE
  5
E0
330
1F
100
AcDbEntity
  8
0
  6
Continuous
 62
     7
370
    18
100
AcDbSpline
210
0.0
220
0.0
230
1.0
 70
     8
 71
     3
 72
    10
 73
     6
 74
     0
 42
0.000000001
 43
0.00000001
 40
0.0
 40
0.0
 40
0.0
 40
0.0
 40
0.5153482314382675
 40
0.7927692159786646
 40
0.9999999999999999
 40
0.9999999999999999
 40
0.9999999999999999
 40
0.9999999999999999
 10
158.6634968030561
 20
155.654399912099
 30
0.0
 10
158.6676480223306
 20
155.6167904833274
 30
0.0
 10
158.6740339156913
 20
155.5589352399369
 30
0.0
 10
158.7077895480278
 20
155.4931202060741
 30
0.0
 10
158.7309835236328
 20
155.4665221320528
 30
0.0
 10
158.7409009655178
 20
155.4551491420207
 30
0.0
  0
SPLINE
  5
E1
330
1F
100
AcDbEntity
  8
0
  6
Continuous
 62
     7
370
    18
100
AcDbSpline
210
0.0
220
0.0
230
1.0
 70
     8
 71
     3
 72
    10
 73
     6
 74
     0
 42
0.000000001
 43
0.00000001
 40
0.0
 40
0.0
 40
0.0
 40
0.0
 40
0.5153981217218988
 40
0.7928459630772114
 40
1.0
 40
1.0
 40
1.0
 40
1.0
 10
157.9634968038278
 20
161.0543999123525
 30
0.0
 10
157.9593454897725
 20
161.0920092676307
 30
0.0
 10
157.9529594506087
 20
161.1498643979649
 30
0.0
 10
157.9192077505843
 20
161.2156735764403
 30
0.0
 10
157.8960186577077
 20
161.2422665320298
 30
0.0
 10
157.8861059553074
 20
161.2536342925586
 30
0.0
  0
SPLINE
  5
E2
330
1F
100
AcDbEntity
  8
0
  6
Continuous
 62
     7
370
    18
100
AcDbSpline
210
0.0
220
0.0
230
1.0
 70
     8
 71
     3
 72
    10
 73
     6
 74
     0
 42
0.000000001
 43
0.00000001
 40
0.0
 40
0.0
 40
0.0
 40
0.0
 40
0.207230784021348
 40
0.4846517685617434
 40
0.9999999999999999
 40
0.9999999999999999
 40
0.9999999999999999
 40
0.9999999999999999
 10
158.7409009655179
 20
161.2536506824309
 30
0.0
 10
158.7309835236328
 20
161.2422776923989
 30
0.0
 10
158.7077895480278
 20
161.2156796183776
 30
0.0
 10
158.6740339156914
 20
161.1498645845147
 30
0.0
 10
158.6676480223306
 20
161.0920093411243
 30
0.0
 10
158.6634968030561
 20
161.0543999123526
 30
0.0
  0
LINE
  5
E3
330
1F
100
AcDbEntity
  8
0
  6
Continuous
 62
     7
370
    18
100
AcDbLine
 10
159.5634830655
 20
155.4543861743
 30
0.0
 11
159.9634968034
 21
155.8543999122
 31
0.0
  0
LINE
  5
E4
330
1F
100
AcDbEntity
  8
0
  6
Continuous
 62
     7
370
    18
100
AcDbLine
 10
159.9634968034
 20
160.8543999122
 30
0.0
 11
159.5634830655
 21
161.2544136502
 31
0.0
  0
LINE
  5
E5
330
1F
100
AcDbEntity
  8
0
  6
Continuous
 62
     7
370
    18
100
AcDbLine
 10
112.6134968034
 20
149.0543999122
 30
0.0
 11
112.9634968034
 21
146.5543999122
 31
0.0
  0
LINE
  5
E6
330
1F
100
AcDbEntity
  8
0
  6
Continuous
 62
     7
370
    18
100
AcDbLine
 10
116.9634968034
 20
146.5543999122
 30
0.0
 11
117.3134968034
 21
149.0543999122
 31
0.0
  0
LINE
  5
E7
330
1F
100
AcDbEntity
  8
0
  6
Continuous
 62
     7
370
    18
100
AcDbLine
 10
112.6134968034
 20
146.5543999122
 30
0.0
 11
112.9634968034
 21
144.0543999122
 31
0.0
  0
LINE
  5
E8
330
1F
100
AcDbEntity
  8
0
  6
Continuous
 62
     7
370
    18
100
AcDbLine
 10
116.9634968034
 20
144.0543999122
 30
0.0
 11
117.3134968034
 21
146.5543999122
 31
0.0
  0
LINE
  5
E9
330
1F
100
AcDbEntity
  8
0
  6
Continuous
 62
     7
370
    18
100
AcDbLine
 10
112.8134968034
 20
151.0544033354
 30
0.0
 11
112.8134968034
 21
149.0543999122
 31
0.0
  0
LINE
  5
EA
330
1F
100
AcDbEntity
  8
0
  6
Continuous
 62
     7
370
    18
100
AcDbLine
 10
117.1134968034
 20
149.0543999122
 30
0.0
 11
117.1134968034
 21
151.0544033354
 31
0.0
  0
LINE
  5
EB
330
1F
100
AcDbEntity
  8
0
  6
Continuous
 62
     7
370
    18
100
AcDbLine
 10
158.0634968034
 20
160.3543999122
 30
0.0
 11
157.9634968034
 21
160.3543999122
 31
0.0
  0
LINE
  5
EC
330
1F
100
AcDbEntity
  8
0
  6
Continuous
 62
     7
370
    18
100
AcDbLine
 10
157.9634968034
 20
156.3543999122
 30
0.0
 11
158.0634968034
 21
156.3543999122
 31
0.0
  0
SPLINE
  5
ED
330
1F
100
AcDbEntity
  8
0
  6
Continuous
 62
     7
370
    18
100
AcDbSpline
210
0.0
220
0.0
230
1.0
 70
     8
 71
     3
 72
    13
 73
     9
 74
     0
 42
0.000000001
 43
0.00000001
 40
0.0
 40
0.0
 40
0.0
 40
0.0
 40
0.2394568444189972
 40
0.3683606602625998
 40
0.5000000000178394
 40
0.6316393397701244
 40
0.7605431556055425
 40
1.0
 40
1.0
 40
1.0
 40
1.0
 10
117.1134968035987
 20
151.054399912279
 30
0.0
 10
117.1175042005806
 20
151.0921388084906
 30
0.0
 10
117.1236688495878
 20
151.1501932139089
 30
0.0
 10
117.1610781288106
 20
151.2200380387486
 30
0.0
 10
117.1997966591568
 20
151.2681000565193
 30
0.0
 10
117.2478586768804
 20
151.3068185869218
 30
0.0
 10
117.3177035016714
 20
151.3442278662243
 30
0.0
 10
117.3757579070779
 20
151.3503925152951
 30
0.0
 10
117.4134968032814
 20
151.3543999123183
 30
0.0
  0
SPLINE
  5
EE
330
1F
100
AcDbEntity
  8
0
  6
Continuous
 62
     7
370
    18
100
AcDbSpline
210
0.0
220
0.0
230
1.0
 70
     8
 71
     3
 72
    13
 73
     9
 74
     0
 42
0.000000001
 43
0.00000001
 40
0.0
 40
0.0
 40
0.0
 40
0.0
 40
0.2394568443944681
 40
0.3683606602298748
 40
0.4999999999821502
 40
0.6316393397373957
 40
0.7605431555809984
 40
0.9999999999999999
 40
0.9999999999999999
 40
0.9999999999999999
 40
0.9999999999999999
 10
112.5134968036025
 20
151.3543999123183
 30
0.0
 10
112.551235699806
 20
151.3503925152951
 30
0.0
 10
112.6092901052125
 20
151.3442278662243
 30
0.0
 10
112.6791349300035
 20
151.3068185869218
 30
0.0
 10
112.7271969477271
 20
151.2681000565193
 30
0.0
 10
112.7659154780733
 20
151.2200380387486
 30
0.0
 10
112.8033247572961
 20
151.1501932139089
 30
0.0
 10
112.8094894063033
 20
151.0921388084906
 30
0.0
 10
112.8134968032852
 20
151.054399912279
 30
0.0
  0
SPLINE
  5
EF
330
1F
100
AcDbEntity
  8
0
  6
Continuous
 62
     7
370
    18
100
AcDbSpline
210
0.0
220
0.0
230
1.0
 70
     8
 71
     3
 72
    14
 73
    10
 74
     0
 42
0.000000001
 43
0.00000001
 40
0.0
 40
0.0
 40
0.0
 40
0.0
 40
0.1563334643343489
 40
0.2920620443860336
 40
0.407512791731395
 40
0.5441537920783948
 40
0.6526573893850045
 40
0.82497834681685
 40
1.0
 40
1.0
 40
1.0
 40
1.0
 10
119.689152591666
 20
152.3758122818999
 30
0.0
 10
119.7489447717487
 20
152.3995536100965
 30
0.0
 10
119.8606484714498
 20
152.4439071391318
 30
0.0
 10
119.9970485175501
 20
152.5833194135006
 30
0.0
 10
120.1099729222566
 20
152.7538513901844
 30
0.0
 10
120.1977918018448
 20
152.9464847586554
 30
0.0
 10
120.2758582983915
 20
153.1802855372696
 30
0.0
 10
120.3517773427804
 20
153.461685199309
 30
0.0
 10
120.4043674795886
 20
153.7228182113945
 30
0.0
 10
120.4308670002463
 20
153.8543999122258
 30
0.0
  0
SPLINE
  5
F0
330
1F
100
AcDbEntity
  8
0
  6
Continuous
 62
     7
370
    18
100
AcDbSpline
210
0.0
220
0.0
230
1.0
 70
     8
 71
     3
 72
    16
 73
    12
 74
     0
 42
0.000000001
 43
0.00000001
 40
0.0
 40
0.0
 40
0.0
 40
0.0
 40
0.0701510841868334
 40
0.1339879879211791
 40
0.2434191829126627
 40
0.3387231674172427
 40
0.4352789703913311
 40
0.6341436603746153
 40
0.842034793454733
 40
0.9779654667218816
 40
1.0
 40
1.0
 40
1.0
 40
1.0
 10
123.5271455734775
 20
152.3547501746595
 30
0.0
 10
123.5983087932364
 20
152.3619926343602
 30
0.0
 10
123.7342299516906
 20
152.375825672212
 30
0.0
 10
123.9372954406657
 20
152.4997539786553
 30
0.0
 10
124.0886501474764
 20
152.6927061277642
 30
0.0
 10
124.1800296182011
 20
152.8978952287508
 30
0.0
 10
124.3003526644945
 20
153.2424083914813
 30
0.0
 10
124.4296814507196
 20
153.7983573809553
 30
0.0
 10
124.5584344274921
 20
154.5612692130713
 30
0.0
 10
124.6430536098181
 20
155.1379087011251
 30
0.0
 10
124.679582084992
 20
155.4156568774997
 30
0.0
 10
124.6846774342744
 20
155.4543999119255
 30
0.0
  0
SPLINE
  5
F1
330
1F
100
AcDbEntity
  8
0
  6
Continuous
 62
     7
370
    18
100
AcDbSpline
210
0.0
220
0.0
230
1.0
 70
     8
 71
     3
 72
     9
 73
     5
 74
     0
 42
0.000000001
 43
0.00000001
 40
0.0
 40
0.0
 40
0.0
 40
0.0
 40
0.7162486549624583
 40
1.0
 40
1.0
 40
1.0
 40
1.0
 10
125.3937592300671
 20
161.2543999123881
 30
0.0
 10
125.428247860557
 20
161.504164623264
 30
0.0
 10
125.4763996165859
 20
161.8528769163279
 30
0.0
 10
125.5240150225489
 20
162.1384965912915
 30
0.0
 10
125.5375259580354
 20
162.2195415582316
 30
0.0
  0
SPLINE
  5
F2
330
1F
100
AcDbEntity
  8
0
  6
Continuous
 62
     7
370
    18
100
AcDbSpline
210
0.0
220
0.0
230
1.0
 70
     8
 71
     3
 72
    19
 73
    15
 74
     0
 42
0.000000001
 43
0.00000001
 40
0.0
 40
0.0
 40
0.0
 40
0.0
 40
0.0743967134794364
 40
0.1616287368629687
 40
0.2607219020259428
 40
0.3452475231804207
 40
0.4057264532895741
 40
0.4522235697240059
 40
0.514298358849625
 40
0.5941592012735228
 40
0.6917016869057264
 40
0.8068371837563996
 40
0.9394629841877297
 40
1.0
 40
1.0
 40
1.0
 40
1.0
 10
127.5273400317808
 20
152.3546485545371
 30
0.0
 10
127.611866473657
 20
152.3660771882204
 30
0.0
 10
127.7955023010077
 20
152.3909061832112
 30
0.0
 10
127.9781643279275
 20
152.5436200947747
 30
0.0
 10
128.1081937804093
 20
152.7284934885009
 30
0.0
 10
128.2015334728292
 20
152.9388753368713
 30
0.0
 10
128.2616276535227
 20
153.1217202839006
 30
0.0
 10
128.3026968087718
 20
153.26737694543
 30
0.0
 10
128.3483364250241
 20
153.4478856521591
 30
0.0
 10
128.4049533024354
 20
153.7043722434776
 30
0.0
 10
128.4735815292631
 20
154.0603835985869
 30
0.0
 10
128.5539534704747
 20
154.5412425757468
 30
0.0
 10
128.6254056889274
 20
155.014121124962
 30
0.0
 10
128.6700226221497
 20
155.3493420422682
 30
0.0
 10
128.6840055203312
 20
155.4543999119255
 30
0.0
  0
SPLINE
  5
F3
330
1F
100
AcDbEntity
  8
0
  6
Continuous
 62
     7
370
    18
100
AcDbSpline
210
0.0
220
0.0
230
1.0
 70
     8
 71
     3
 72
     9
 73
     5
 74
     0
 42
0.000000001
 43
0.00000001
 40
0.0
 40
0.0
 40
0.0
 40
0.0
 40
0.5122967779427582
 40
1.0
 40
1.0
 40
1.0
 40
1.0
 10
129.392692879047
 20
161.2543999123881
 30
0.0
 10
129.4177576488007
 20
161.4348575484351
 30
0.0
 10
129.4666839173873
 20
161.7871096878526
 30
0.0
 10
129.5142405193033
 20
162.08053659974
 30
0.0
 10
129.5374340272879
 20
162.2236418501058
 30
0.0
  0
SPLINE
  5
F4
330
1F
100
AcDbEntity
  8
0
  6
Continuous
 62
     7
370
    18
100
AcDbSpline
210
0.0
220
0.0
230
1.0
 70
     8
 71
     3
 72
    13
 73
     9
 74
     0
 42
0.000000001
 43
0.00000001
 40
0.0
 40
0.0
 40
0.0
 40
0.0
 40
0.097567693056122
 40
0.2798982322746528
 40
0.498703033391317
 40
0.6854004376619318
 40
0.8619368989775589
 40
1.0
 40
1.0
 40
1.0
 40
1.0
 10
131.5266721331593
 20
152.3547231022564
 30
0.0
 10
131.5974761658427
 20
152.3627153615526
 30
0.0
 10
131.8005958970289
 20
152.3856432301822
 30
0.0
 10
132.0099068357439
 20
152.5699293339457
 30
0.0
 10
132.1692787616912
 20
152.8431500150208
 30
0.0
 10
132.2836703752166
 20
153.1867885705733
 30
0.0
 10
132.3613821287995
 20
153.4951409428342
 30
0.0
 10
132.4086156093919
 20
153.7352285100962
 30
0.0
 10
132.4293441849634
 20
153.8405917655527
 30
0.0
  0
SPLINE
  5
F5
330
1F
100
AcDbEntity
  8
0
  6
Continuous
 62
     7
370
    18
100
AcDbSpline
210
0.0
220
0.0
230
1.0
 70
     8
 71
     3
 72
    20
 73
    16
 74
     0
 42
0.000000001
 43
0.00000001
 40
0.0
 40
0.0
 40
0.0
 40
0.0
 40
0.0990312738925799
 40
0.1923588441815858
 40
0.2799650722612563
 40
0.36183878220938
 40
0.461976810001263
 40
0.5517995439131614
 40
0.6312332025755117
 40
0.7306447977574503
 40
0.8061804327676727
 40
0.8412452119376802
 40
0.8847057363551263
 40
0.9375272591511995
 40
1.0
 40
1.0
 40
1.0
 40
1.0
 10
134.9514304097791
 20
159.0973867606703
 30
0.0
 10
134.9197752754866
 20
159.3671704319969
 30
0.0
 10
134.8582881835249
 20
159.8911995912274
 30
0.0
 10
134.7684120639611
 20
160.6218754726241
 30
0.0
 10
134.6836000528752
 20
161.2706480702015
 30
0.0
 10
134.5959627899907
 20
161.8897573070024
 30
0.0
 10
134.5065800956642
 20
162.4551982647696
 30
0.0
 10
134.4161174679578
 20
162.9434574304837
 30
0.0
 10
134.3242405327966
 20
163.3599983415704
 30
0.0
 10
134.2301523613241
 20
163.6874513633669
 30
0.0
 10
134.1538202308953
 20
163.8838211528896
 30
0.0
 10
134.0723307003642
 20
164.0359496337403
 30
0.0
 10
133.9631242798228
 20
164.1791476786144
 30
0.0
 10
133.7837321622964
 20
164.3201152079152
 30
0.0
 10
133.6173324348462
 20
164.3422848935686
 30
0.0
 10
133.5271679572593
 20
164.3542976423624
 30
0.0
  0
LWPOLYLINE
  5
F6
330
1F
100
AcDbEntity
  8
0
  6
Continuous
 62
     7
370
    18
100
AcDbPolyline
 90
       33
 70
   128
 43
0.0
 10
131.6924153161
 20
153.4100669884
 10
131.6942978851
 20
153.4113193387
 10
131.7173267127
 20
153.4624000291
 10
131.720892767
 20
153.5056328874
 10
131.7167206295
 20
153.5440215197
 10
131.7054091867
 20
153.6026940763
 10
131.6872044564
 20
153.6882738649
 10
131.6477204582
 20
153.8771814539
 10
131.5945687756
 20
154.1540366075
 10
131.5286901781
 20
154.5366435617
 10
131.4508710877
 20
155.0409567722
 10
131.3689550591
 20
155.6260929847
 10
131.2963559547
 20
156.1842894791
 10
131.2334819849
 20
156.6914472006
 10
131.1804476481
 20
157.1323265711
 10
131.1251987531
 20
157.6008601732
 10
131.0871576662
 20
157.9271972673
 10
131.0441641626
 20
158.2980433638
 10
130.9849750586
 20
158.8090648618
 10
130.909508036
 20
159.454974311
 10
130.8176555972
 20
160.2203447769
 10
130.7402936573
 20
160.8365846119
 10
130.663244972
 20
161.4145393987
 10
130.5866491397
 20
161.9446377299
 10
130.5099786065
 20
162.4235198111
 10
130.406519503
 20
162.9780919959
 10
130.3000107746
 20
163.4323080353
 10
130.1851177285
 20
163.789521474
 10
130.0784309096
 20
164.0083982483
 10
129.939214491
 20
164.1853815768
 10
129.7555174118
 20
164.3084294794
 10
129.5268759695
 20
164.3539565968
 10
129.5268759695
 20
164.3539565968
  0
SPLINE
  5
F7
330
1F
100
AcDbEntity
  8
0
  6
Continuous
 62
     7
370
    18
100
AcDbSpline
210
0.0
220
0.0
230
1.0
 70
     8
 71
     3
 72
    32
 73
    28
 74
     0
 42
0.000000001
 43
0.00000001
 40
0.0
 40
0.0
 40
0.0
 40
0.0
 40
0.0073204766385118
 40
0.0387015371964679
 40
0.0696835219850229
 40
0.1325243768440846
 40
0.1962901098678604
 40
0.2589454856714874
 40
0.3197005042710027
 40
0.3774389191383892
 40
0.4281696445541563
 40
0.4585452818586191
 40
0.4932618184730312
 40
0.5341779456928528
 40
0.5689615968456326
 40
0.607266857980039
 40
0.6486068890726385
 40
0.6884879937636517
 40
0.7377387980497383
 40
0.7825383453870861
 40
0.8228714997538827
 40
0.8510775483323565
 40
0.8877848251887299
 40
0.910786361472115
 40
0.9371249384847424
 40
0.9668920958808971
 40
1.0
 40
1.0
 40
1.0
 40
1.0
 10
127.7963000511447
 20
153.2792323431385
 30
0.0
 10
127.8003700827395
 20
153.2768280847283
 30
0.0
 10
127.8218873263473
 20
153.2641173691716
 30
0.0
 10
127.771159120986
 20
153.3629531937814
 30
0.0
 10
127.7209967417695
 20
153.5604545782481
 30
0.0
 10
127.6268526635131
 20
153.9598237813169
 30
0.0
 10
127.5114704747849
 20
154.6245350451909
 30
0.0
 10
127.3943294252934
 20
155.42383270217
 30
0.0
 10
127.280826883834
 20
156.2975730997114
 30
0.0
 10
127.1743738394484
 20
157.178297590297
 30
0.0
 10
127.0870791239711
 20
157.9270522925681
 30
0.0
 10
127.0142858845628
 20
158.5563757420061
 30
0.0
 10
126.9476345246282
 20
159.131334211907
 30
0.0
 10
126.8781513873543
 20
159.7223004668093
 30
0.0
 10
126.8063575009181
 20
160.3159748830544
 30
0.0
 10
126.7341776931879
 20
160.88949509127
 30
0.0
 10
126.658706160778
 20
161.4548719676359
 30
0.0
 10
126.5760099096649
 20
162.0275514925318
 30
0.0
 10
126.490239520737
 20
162.5575586663275
 30
0.0
 10
126.403395995979
 20
163.0173395960549
 30
0.0
 10
126.3270600498581
 20
163.3500573709021
 30
0.0
 10
126.2580129725284
 20
163.6058551025856
 30
0.0
 10
126.1705449345405
 20
163.8467209458767
 30
0.0
 10
126.0537671047604
 20
164.0518842865525
 30
0.0
 10
125.9206997001247
 20
164.2061992228171
 30
0.0
 10
125.7426901223329
 20
164.3299213244431
 30
0.0
 10
125.6009834962514
 20
164.3458692483362
 30
0.0
 10
125.5263655272779
 20
164.3542668915738
 30
0.0
  0
SPLINE
  5
F8
330
1F
100
AcDbEntity
  8
0
  6
Continuous
 62
     7
370
    18
100
AcDbSpline
210
0.0
220
0.0
230
1.0
 70
     8
 71
     3
 72
    35
 73
    31
 74
     0
 42
0.000000001
 43
0.00000001
 40
0.0
 40
0.0
 40
0.0
 40
0.0
 40
0.0162461785056461
 40
0.0413488742773829
 40
0.0687329625111339
 40
0.0986052468018026
 40
0.1309645223140817
 40
0.1658039648032555
 40
0.2031095145483511
 40
0.2419191745464498
 40
0.2781519068711987
 40
0.3113197790317403
 40
0.3414009232754236
 40
0.3766637565641547
 40
0.4063686895278399
 40
0.4312702851728748
 40
0.459507767067491
 40
0.4932618280287908
 40
0.5325476457431059
 40
0.5769455431371564
 40
0.6222937328494117
 40
0.6675884181735555
 40
0.7128665247799923
 40
0.7581493883755305
 40
0.8042865853991499
 40
0.8438258090076259
 40
0.8892685016406685
 40
0.9412568367849846
 40
0.9698283269925418
 40
1.0
 40
1.0
 40
1.0
 40
1.0
 10
123.7612450078935
 20
153.33510174561
 30
0.0
 10
123.7654641145531
 20
153.3383628199124
 30
0.0
 10
123.7762023512879
 20
153.3466627257206
 30
0.0
 10
123.7457229309188
 20
153.4394902062909
 30
0.0
 10
123.7138134362781
 20
153.5754676584272
 30
0.0
 10
123.6677481231999
 20
153.7761845393833
 30
0.0
 10
123.6141084498926
 20
154.043411342816
 30
0.0
 10
123.5525389560977
 20
154.38647656254
 30
0.0
 10
123.4851088568818
 20
154.805487790023
 30
0.0
 10
123.4155622170398
 20
155.2803950145643
 30
0.0
 10
123.3485706100586
 20
155.7750134964068
 30
0.0
 10
123.2868274434023
 20
156.2569454087645
 30
0.0
 10
123.2256038549233
 20
156.7537687508774
 30
0.0
 10
123.1664117822085
 20
157.2488754834933
 30
0.0
 10
123.1103827981339
 20
157.726964549043
 30
0.0
 10
123.0587090856082
 20
158.1721855181133
 30
0.0
 10
123.0045099452722
 20
158.6408748671055
 30
0.0
 10
122.9413158928519
 20
159.1855190560257
 30
0.0
 10
122.8679852388321
 20
159.8081817149828
 30
0.0
 10
122.7874023698891
 20
160.4710783109633
 30
0.0
 10
122.702879834851
 20
161.1309001825064
 30
0.0
 10
122.6173244783733
 20
161.7494979568217
 30
0.0
 10
122.5314265845795
 20
162.3114148449588
 30
0.0
 10
122.4432598317606
 20
162.8144210511968
 30
0.0
 10
122.3605811388134
 20
163.2189557865701
 30
0.0
 10
122.2549505446587
 20
163.6115154191364
 30
0.0
 10
122.1059915662294
 20
163.9728032326135
 30
0.0
 10
121.9120915566775
 20
164.2131082282946
 30
0.0
 10
121.707479595195
 20
164.3362743963447
 30
0.0
 10
121.588270250022
 20
164.3479658172904
 30
0.0
 10
121.5270419268412
 20
164.3539707668106
 30
0.0
  0
SPLINE
  5
F9
330
1F
100
AcDbEntity
  8
0
  6
Continuous
 62
     7
370
    18
100
AcDbSpline
210
0.0
220
0.0
230
1.0
 70
     8
 71
     3
 72
    38
 73
    34
 74
     0
 42
0.000000001
 43
0.00000001
 40
0.0
 40
0.0
 40
0.0
 40
0.0
 40
0.0106611088077389
 40
0.0243642842340881
 40
0.0500852550663773
 40
0.081335730449226
 40
0.1179961303728784
 40
0.1585510921545717
 40
0.1983571969673769
 40
0.237082068433831
 40
0.2746638436775343
 40
0.3110463124715394
 40
0.3461890221719873
 40
0.3908147467653668
 40
0.4305028185022079
 40
0.464547199255813
 40
0.4929181345914015
 40
0.5195198589942062
 40
0.552455762041422
 40
0.5815066551564815
 40
0.6143015419143789
 40
0.6508570339712144
 40
0.6912005754560455
 40
0.7450366882742804
 40
0.7935134430943261
 40
0.8367078716084537
 40
0.856341866115316
 40
0.8746634820123619
 40
0.8921812567746319
 40
0.9099057590860096
 40
0.9336486129394833
 40
0.9636699656718167
 40
1.0
 40
1.0
 40
1.0
 40
1.0
 10
121.1500622839411
 20
163.5675424667497
 30
0.0
 10
121.1564345830985
 20
163.5662955030363
 30
0.0
 10
121.1709974686948
 20
163.563445763962
 30
0.0
 10
121.2017873674854
 20
163.5415745267433
 30
0.0
 10
121.241697057403
 20
163.4917686674148
 30
0.0
 10
121.2933664435989
 20
163.3785507404456
 30
0.0
 10
121.3525789467669
 20
163.1852978333867
 30
0.0
 10
121.4180939041822
 20
162.901414098714
 30
0.0
 10
121.4891007185352
 20
162.5299605731626
 30
0.0
 10
121.5610611201484
 20
162.0973225643277
 30
0.0
 10
121.6330232630764
 20
161.6180406518729
 30
0.0
 10
121.7041137153014
 20
161.1046079489101
 30
0.0
 10
121.7807042006722
 20
160.5156082624791
 30
0.0
 10
121.8601932956218
 20
159.8700730416302
 30
0.0
 10
121.9389419245802
 20
159.2050462653576
 30
0.0
 10
122.0068892989472
 20
158.6203853846273
 30
0.0
 10
122.0661286626517
 20
158.1080581646539
 30
0.0
 10
122.1246335420211
 20
157.6036925747954
 30
0.0
 10
122.1836662289789
 20
157.1006382939114
 30
0.0
 10
122.2468793987186
 20
156.5738599494131
 30
0.0
 10
122.3126057263011
 20
156.0431644379222
 30
0.0
 10
122.3860581718926
 20
155.4780976033091
 30
0.0
 10
122.4736852639456
 20
154.8504447710355
 30
0.0
 10
122.5701769130347
 20
154.2338525810116
 30
0.0
 10
122.6724585348882
 20
153.6884039357388
 30
0.0
 10
122.7566608855634
 20
153.3328339196738
 30
0.0
 10
122.8240389120954
 20
153.1042625490738
 30
0.0
 10
122.8745237152301
 20
152.9595487228659
 30
0.0
 10
122.9257648968665
 20
152.8335992551408
 30
0.0
 10
123.0058717314346
 20
152.6854114227772
 30
0.0
 10
123.1263847260222
 20
152.5310342387064
 30
0.0
 10
123.3099593831793
 20
152.3862912433257
 30
0.0
 10
123.4641991984569
 20
152.3659100336234
 30
0.0
 10
123.5486516572834
 20
152.3547505073357
 30
0.0
  0
SPLINE
  5
FA
330
1F
100
AcDbEntity
  8
0
  6
Continuous
 62
     7
370
    18
100
AcDbSpline
210
0.0
220
0.0
230
1.0
 70
     8
 71
     3
 72
    33
 73
    29
 74
     0
 42
0.000000001
 43
0.00000001
 40
0.0
 40
0.0
 40
0.0
 40
0.0
 40
0.0074188936357407
 40
0.0387642158039179
 40
0.069172369378258
 40
0.1289956127402717
 40
0.1875423339126842
 40
0.2494145738063852
 40
0.316356774941977
 40
0.3638509328027262
 40
0.4110172602681577
 40
0.4506640620531552
 40
0.4823440127287894
 40
0.506794454002397
 40
0.5363325823302693
 40
0.5646633560859531
 40
0.5983111740743751
 40
0.6373068514457274
 40
0.67823791313975
 40
0.7290126560272272
 40
0.7754613157603137
 40
0.8175682220042527
 40
0.8471517361653716
 40
0.8851664038258501
 40
0.9088182141634955
 40
0.9358091041051886
 40
0.9662318579192484
 40
1.0
 40
1.0
 40
1.0
 40
1.0
 10
125.2789706622333
 20
163.429586077686
 30
0.0
 10
125.2748644297888
 20
163.432027896161
 30
0.0
 10
125.2534090904302
 20
163.4447865611274
 30
0.0
 10
125.3038209956192
 20
163.3465761474631
 30
0.0
 10
125.3522140241914
 20
163.1557235671899
 30
0.0
 10
125.4403502866616
 20
162.7856563416489
 30
0.0
 10
125.5501459104275
 20
162.1677654739533
 30
0.0
 10
125.6673623085671
 20
161.3854405970571
 30
0.0
 10
125.7778690863843
 20
160.542719629996
 30
0.0
 10
125.8793649466155
 20
159.7106578436855
 30
0.0
 10
125.9637877085292
 20
158.9924154547204
 30
0.0
 10
126.0382749246071
 20
158.3489806319796
 30
0.0
 10
126.098480149328
 20
157.8288299618868
 30
0.0
 10
126.1523092069257
 20
157.3672968249637
 30
0.0
 10
126.2040844948514
 20
156.929230219527
 30
0.0
 10
126.2617030663195
 20
156.4524637740202
 30
0.0
 10
126.3253628049345
 20
155.9426135890326
 30
0.0
 10
126.3970603006939
 20
155.3964139022274
 30
0.0
 10
126.4797434708873
 20
154.8100835303928
 30
0.0
 10
126.5680198487713
 20
154.2497200859866
 30
0.0
 10
126.6577755798709
 20
153.7598022012954
 30
0.0
 10
126.7370432004893
 20
153.4034109278552
 30
0.0
 10
126.8086638992912
 20
153.1308352988016
 30
0.0
 10
126.8975032357989
 20
152.8792802454612
 30
0.0
 10
127.0157952011584
 20
152.6662268762156
 30
0.0
 10
127.1501703335841
 20
152.5068907583136
 30
0.0
 10
127.3300277845261
 20
152.3795560285583
 30
0.0
 10
127.4734076452476
 20
152.3632535572679
 30
0.0
 10
127.5488337853703
 20
152.3546775098529
 30
0.0
  0
SPLINE
  5
FB
330
1F
100
AcDbEntity
  8
0
  6
Continuous
 62
     7
370
    18
100
AcDbSpline
210
0.0
220
0.0
230
1.0
 70
     8
 71
     3
 72
    35
 73
    31
 74
     0
 42
0.000000001
 43
0.00000001
 40
0.0
 40
0.0
 40
0.0
 40
0.0
 40
0.0156625764043977
 40
0.0411563586179133
 40
0.0688216316350107
 40
0.0988505673501495
 40
0.1312423514278762
 40
0.1659924856626306
 40
0.2030786478902809
 40
0.2415664319755347
 40
0.27751146566267
 40
0.310437093612409
 40
0.340318624831796
 40
0.3753857009113959
 40
0.4049805675431659
 40
0.4298482713527609
 40
0.4580625329167588
 40
0.4917865185877285
 40
0.5310407344650975
 40
0.5754039380818087
 40
0.6207111295873369
 40
0.6659675153369236
 40
0.7112059757748014
 40
0.756441581725547
 40
0.8025620335417646
 40
0.8422542598169065
 40
0.8880255809468925
 40
0.9405355298576873
 40
0.9694448270516911
 40
1.0
 40
1.0
 40
1.0
 40
1.0
 10
129.312309284711
 20
163.3769438529555
 30
0.0
 10
129.3081977102362
 20
163.3740180145587
 30
0.0
 10
129.2973937767582
 20
163.3663298251314
 30
0.0
 10
129.328427605412
 20
163.2737209788226
 30
0.0
 10
129.3604548757925
 20
163.1375933406439
 30
0.0
 10
129.4067571149684
 20
162.9365726082866
 30
0.0
 10
129.4604121809362
 20
162.6692823682193
 30
0.0
 10
129.5218122092573
 20
162.3276271274092
 30
0.0
 10
129.5888818550304
 20
161.9117380947174
 30
0.0
 10
129.6579706928335
 20
161.4408691372079
 30
0.0
 10
129.7244727549255
 20
160.9506244280618
 30
0.0
 10
129.7857996009428
 20
160.4729282494245
 30
0.0
 10
129.8466710446535
 20
159.9798855695965
 30
0.0
 10
129.9055962614501
 20
159.4876792791067
 30
0.0
 10
129.9614487564567
 20
159.0114558816805
 30
0.0
 10
130.0130526203612
 20
158.567031518173
 30
0.0
 10
130.0672375030623
 20
158.0984874887761
 30
0.0
 10
130.1304321745981
 20
157.5536297419038
 30
0.0
 10
130.2037524786507
 20
156.930451466346
 30
0.0
 10
130.2843183787467
 20
156.2663514845894
 30
0.0
 10
130.3688335033537
 20
155.6048175124646
 30
0.0
 10
130.4543476415579
 20
154.984495052839
 30
0.0
 10
130.5401771854765
 20
154.4199670562722
 30
0.0
 10
130.6282610570696
 20
153.9141637887418
 30
0.0
 10
130.7109600595432
 20
153.5064692403893
 30
0.0
 10
130.8166739558983
 20
153.1090208321352
 30
0.0
 10
130.9661377249101
 20
152.742299954134
 30
0.0
 10
131.1608938121242
 20
152.4985467761617
 30
0.0
 10
131.3666081117592
 20
152.3729652723408
 30
0.0
 10
131.4865232544577
 20
152.360901783452
 30
0.0
 10
131.548140349767
 20
152.3547030905439
 30
0.0
  0
SPLINE
  5
FC
330
1F
100
AcDbEntity
  8
0
  6
Continuous
 62
     7
370
    18
100
AcDbSpline
210
0.0
220
0.0
230
1.0
 70
     8
 71
     3
 72
    19
 73
    15
 74
     0
 42
0.000000001
 43
0.00000001
 40
0.0
 40
0.0
 40
0.0
 40
0.0
 40
0.0112921452407981
 40
0.0621987658084203
 40
0.1246513968106894
 40
0.2024357676435478
 40
0.2709707308870404
 40
0.3483081000188438
 40
0.4344962760573948
 40
0.5295923006053078
 40
0.6336612316901751
 40
0.7467250666070449
 40
0.8688221632410608
 40
1.0
 40
1.0
 40
1.0
 40
1.0
 10
133.2754939032044
 20
163.4364067001788
 30
0.0
 10
133.2726284312529
 20
163.4381844354488
 30
0.0
 10
133.2568449981632
 20
163.4479764579007
 30
0.0
 10
133.2891551231144
 20
163.3911730554386
 30
0.0
 10
133.3173423243866
 20
163.2919378643263
 30
0.0
 10
133.3634483090873
 20
163.1288548836219
 30
0.0
 10
133.4129038121701
 20
162.9117980594419
 30
0.0
 10
133.4671613980329
 20
162.6428050678162
 30
0.0
 10
133.52910235992
 20
162.2938449620535
 30
0.0
 10
133.598927443587
 20
161.8533866589782
 30
0.0
 10
133.6763948254119
 20
161.3140648506784
 30
0.0
 10
133.7614557544482
 20
160.6707480203379
 30
0.0
 10
133.8539585046508
 20
159.9243989758234
 30
0.0
 10
133.9182593267668
 20
159.3781630162808
 30
0.0
 10
133.9515624358981
 20
159.0952528578499
 30
0.0
  0
SPLINE
  5
FD
330
1F
100
AcDbEntity
  8
0
  6
Continuous
 62
     7
370
    18
100
AcDbSpline
210
0.0
220
0.0
230
1.0
 70
     8
 71
     3
 72
    15
 73
    11
 74
     0
 42
0.000000001
 43
0.00000001
 40
0.0
 40
0.0
 40
0.0
 40
0.0
 40
0.1182162641414901
 40
0.2235137620196568
 40
0.3575226285474464
 40
0.4664187129017626
 40
0.5673564877839776
 40
0.6698203599172281
 40
0.9507273988363177
 40
1.0
 40
1.0
 40
1.0
 40
1.0
 10
133.5486775768011
 20
164.3542869590694
 30
0.0
 10
133.4714742383628
 20
164.3457158214428
 30
0.0
 10
133.3255044029926
 20
164.3295102068463
 30
0.0
 10
133.1332307498174
 20
164.2024007657998
 30
0.0
 10
132.9953435071739
 20
164.0300247040039
 30
0.0
 10
132.9158569697206
 20
163.867634424539
 30
0.0
 10
132.859419868584
 20
163.722948428297
 30
0.0
 10
132.7728067814326
 20
163.4509892016206
 30
0.0
 10
132.7020428641126
 20
163.1806593463619
 30
0.0
 10
132.651985770773
 20
162.8967653250406
 30
0.0
 10
132.6445157668839
 20
162.8543999118316
 30
0.0
  0
SPLINE
  5
FE
330
1F
100
AcDbEntity
  8
0
  6
Continuous
 62
     7
370
    18
100
AcDbSpline
210
0.0
220
0.0
230
1.0
 70
     8
 71
     3
 72
    10
 73
     6
 74
     0
 42
0.000000001
 43
0.00000001
 40
0.0
 40
0.0
 40
0.0
 40
0.0
 40
0.4739974502042573
 40
0.9824454694860519
 40
1.0
 40
1.0
 40
1.0
 40
1.0
 10
131.6828262944964
 20
155.4543999119255
 30
0.0
 10
131.6598461613486
 20
155.2912841169899
 30
0.0
 10
131.6122156779157
 20
154.9531971216546
 30
0.0
 10
131.5634047094383
 20
154.6313107353516
 30
0.0
 10
131.5384302194884
 20
154.4896443386233
 30
0.0
 10
131.5375967340878
 20
154.4849164393286
 30
0.0
  0
SPLINE
  5
FF
330
1F
100
AcDbEntity
  8
0
  6
Continuous
 62
     7
370
    18
100
AcDbSpline
210
0.0
220
0.0
230
1.0
 70
     8
 71
     3
 72
    17
 73
    13
 74
     0
 42
0.000000001
 43
0.00000001
 40
0.0
 40
0.0
 40
0.0
 40
0.0
 40
0.0721197304511883
 40
0.1372387933499657
 40
0.2220329257070853
 40
0.2941174212499587
 40
0.3645319549785376
 40
0.4362088492809116
 40
0.6336583596068825
 40
0.8416132862111966
 40
0.978398933081755
 40
1.0
 40
1.0
 40
1.0
 40
1.0
 10
129.5483827530835
 20
164.3539556325665
 30
0.0
 10
129.4764880459622
 20
164.3465199811855
 30
0.0
 10
129.3396774562408
 20
164.3323704576514
 30
0.0
 10
129.1571721316065
 20
164.2198569116515
 30
0.0
 10
129.0202480045083
 20
164.0634251568313
 30
0.0
 10
128.9385949227503
 20
163.9084563166105
 30
0.0
 10
128.8700017536535
 20
163.7428321139003
 30
0.0
 10
128.7693089163388
 20
163.4382373974872
 30
0.0
 10
128.6452929532477
 20
162.9107665401086
 30
0.0
 10
128.5170771122017
 20
162.1482678311542
 30
0.0
 10
128.4322358848806
 20
161.5711771203112
 30
0.0
 10
128.3955962055318
 20
161.2924176358116
 30
0.0
 10
128.3905992196954
 20
161.2543999123881
 30
0.0
  0
SPLINE
  5
100
330
1F
100
AcDbEntity
  8
0
  6
Continuous
 62
     7
370
    18
100
AcDbSpline
210
0.0
220
0.0
230
1.0
 70
     8
 71
     3
 72
    10
 73
     6
 74
     0
 42
0.000000001
 43
0.00000001
 40
0.0
 40
0.0
 40
0.0
 40
0.0
 40
0.4054597619889703
 40
0.8510558147901276
 40
1.0
 40
1.0
 40
1.0
 40
1.0
 10
127.6826109333969
 20
155.4543999119255
 30
0.0
 10
127.6629483410404
 20
155.3141492518504
 30
0.0
 10
127.6216767646039
 20
155.0197645780185
 30
0.0
 10
127.5730582016466
 20
154.6902625641682
 30
0.0
 10
127.5448161368419
 20
154.5352385908725
 30
0.0
 10
127.5377409364399
 20
154.4964019942651
 30
0.0
  0
SPLINE
  5
101
330
1F
100
AcDbEntity
  8
0
  6
Continuous
 62
     7
370
    18
100
AcDbSpline
210
0.0
220
0.0
230
1.0
 70
     8
 71
     3
 72
    19
 73
    15
 74
     0
 42
0.000000001
 43
0.00000001
 40
0.0
 40
0.0
 40
0.0
 40
0.0
 40
0.0780837648872329
 40
0.1670817617951562
 40
0.266251525342624
 40
0.35054363467768
 40
0.4109302503731592
 40
0.4574070927387677
 40
0.5194674172973658
 40
0.5993206262655241
 40
0.6968618679085635
 40
0.8119857607860338
 40
0.9446084624532695
 40
0.9999999999999999
 40
0.9999999999999999
 40
0.9999999999999999
 40
0.9999999999999999
 10
125.5478598493705
 20
164.35429278791
 30
0.0
 10
125.4594757366294
 20
164.3417738629645
 30
0.0
 10
125.270353538272
 20
164.3149861685097
 30
0.0
 10
125.0857438665539
 20
164.1532117004979
 30
0.0
 10
124.9594911394769
 20
163.9657287012922
 30
0.0
 10
124.8686356339807
 20
163.7559262714659
 30
0.0
 10
124.8095770096864
 20
163.5736212287267
 30
0.0
 10
124.7686285852121
 20
163.4266481247032
 30
0.0
 10
124.7231114352892
 20
163.2445479592917
 30
0.0
 10
124.6665720497427
 20
162.9859060724852
 30
0.0
 10
124.598019379541
 20
162.6276835493933
 30
0.0
 10
124.5176873664794
 20
162.1444138074128
 30
0.0
 10
124.4474560629224
 20
161.6776703080724
 30
0.0
 10
124.404042524064
 20
161.3507230084419
 30
0.0
 10
124.3912523083985
 20
161.2543999123881
 30
0.0
  0
SPLINE
  5
102
330
1F
100
AcDbEntity
  8
0
  6
Continuous
 62
     7
370
    18
100
AcDbSpline
210
0.0
220
0.0
230
1.0
 70
     8
 71
     3
 72
     9
 73
     5
 74
     0
 42
0.000000001
 43
0.00000001
 40
0.0
 40
0.0
 40
0.0
 40
0.0
 40
0.5350165466062301
 40
1.0
 40
1.0
 40
1.0
 40
1.0
 10
123.6827141788267
 20
155.4543999119255
 30
0.0
 10
123.6565047560033
 20
155.2661313565962
 30
0.0
 10
123.6075166957468
 20
154.9142383982874
 30
0.0
 10
123.5599045475803
 20
154.6215771515859
 30
0.0
 10
123.5377656865024
 20
154.4854945144201
 30
0.0
  0
SPLINE
  5
103
330
1F
100
AcDbEntity
  8
0
  6
Continuous
 62
     7
370
    18
100
AcDbSpline
210
0.0
220
0.0
230
1.0
 70
     8
 71
     3
 72
    14
 73
    10
 74
     0
 42
0.000000001
 43
0.00000001
 40
0.0
 40
0.0
 40
0.0
 40
0.0
 40
0.0937194721613423
 40
0.2060491555472386
 40
0.3372609457508465
 40
0.4818761160142866
 40
0.6643563252059149
 40
0.834883969672785
 40
1.0
 40
1.0
 40
1.0
 40
1.0
 10
121.5485136417795
 20
164.3539616801614
 30
0.0
 10
121.4796558680601
 20
164.3467832488629
 30
0.0
 10
121.3282669858934
 20
164.331000939455
 30
0.0
 10
121.1638248915685
 20
164.2244350576662
 30
0.0
 10
121.0232759560479
 20
164.0705551692619
 30
0.0
 10
120.9026079476321
 20
163.8463412641905
 30
0.0
 10
120.8005712118818
 20
163.5538078677832
 30
0.0
 10
120.7177808208586
 20
163.2306410776195
 30
0.0
 10
120.6671282818738
 20
162.9784583119735
 30
0.0
 10
120.6422103501764
 20
162.8543999122258
 30
0.0
  0
SPLINE
  5
104
330
1F
100
AcDbEntity
  8
0
  6
Continuous
 62
     7
370
    18
100
AcDbSpline
210
0.0
220
0.0
230
1.0
 70
     8
 71
     3
 72
    12
 73
     8
 74
     0
 42
0.000000001
 43
0.00000001
 40
0.0
 40
0.0
 40
0.0
 40
0.0
 40
0.086643317268495
 40
0.3397071803483195
 40
0.5510298586332724
 40
0.7746492838906477
 40
1.0
 40
1.0
 40
1.0
 40
1.0
 10
119.4221862400608
 20
153.8543999122258
 30
0.0
 10
119.4164047287314
 20
153.8253125177853
 30
0.0
 10
119.393736841885
 20
153.7112679837047
 30
0.0
 10
119.3609770288603
 20
153.5737048332538
 30
0.0
 10
119.3249244325523
 20
153.4308432239997
 30
0.0
 10
119.3054889859308
 20
153.3499870724375
 30
0.0
 10
119.3194031880621
 20
153.3383122788017
 30
0.0
 10
119.32638711667
 20
153.3324523721758
 30
0.0
  0
LINE
  5
105
330
1F
100
AcDbEntity
  8
0
  6
Continuous
 62
     7
370
    18
100
AcDbLine
 10
135.3634968034
 20
166.3543999122
 30
0.0
 11
134.9634968034
 21
165.9543999121
 31
0.0
  0
LINE
  5
106
330
1F
100
AcDbEntity
  8
0
  6
Continuous
 62
     7
370
    18
100
AcDbLine
 10
134.9634968034
 20
150.7543999123
 30
0.0
 11
135.3634968034
 21
150.3543999123
 31
0.0
  0
LINE
  5
107
330
1F
100
AcDbEntity
  8
0
  6
Continuous
 62
     7
370
    18
100
AcDbLine
 10
136.9634968034
 20
165.9543999121
 30
0.0
 11
136.5634968034
 21
166.3543999122
 31
0.0
  0
LINE
  5
108
330
1F
100
AcDbEntity
  8
0
  6
Continuous
 62
     7
370
    18
100
AcDbLine
 10
136.5634968034
 20
166.3543999122
 30
0.0
 11
135.3634968034
 21
166.3543999122
 31
0.0
  0
LINE
  5
109
330
1F
100
AcDbEntity
  8
0
  6
Continuous
 62
     7
370
    18
100
AcDbLine
 10
135.3634968034
 20
150.3543999123
 30
0.0
 11
136.5634968034
 21
150.3543999123
 31
0.0
  0
LINE
  5
10A
330
1F
100
AcDbEntity
  8
0
  6
Continuous
 62
     7
370
    18
100
AcDbLine
 10
156.9634968034
 20
152.3543999124
 30
0.0
 11
157.9634968034
 21
153.3543999126
 31
0.0
  0
LINE
  5
10B
330
1F
100
AcDbEntity
  8
0
  6
Continuous
 62
     7
370
    18
100
AcDbLine
 10
157.9634968034
 20
163.3543999119
 30
0.0
 11
156.9634968034
 21
164.354399912
 31
0.0
  0
LINE
  5
10C
330
1F
100
AcDbEntity
  8
0
  6
Continuous
 62
     7
370
    18
100
AcDbLine
 10
156.9634968034
 20
164.354399912
 30
0.0
 11
136.9634968034
 21
164.354399912
 31
0.0
  0
LINE
  5
10D
330
1F
100
AcDbEntity
  8
0
  6
Continuous
 62
     7
370
    18
100
AcDbLine
 10
136.9634968034
 20
152.3543999124
 30
0.0
 11
156.9634968034
 21
152.3543999124
 31
0.0
  0
LINE
  5
10E
330
1F
100
AcDbEntity
  8
0
  6
Continuous
 62
     7
370
    18
100
AcDbLine
 10
132.3634968034
 20
162.8543999118
 30
0.0
 11
131.9634968034
 21
162.4543999117
 31
0.0
  0
LINE
  5
10F
330
1F
100
AcDbEntity
  8
0
  6
Continuous
 62
     7
370
    18
100
AcDbLine
 10
131.9634968034
 20
154.2543999128
 30
0.0
 11
132.3634968034
 21
153.8543999126
 31
0.0
  0
LINE
  5
110
330
1F
100
AcDbEntity
  8
0
  6
Continuous
 62
     7
370
    18
100
AcDbLine
 10
134.9634968034
 20
162.8543999118
 30
0.0
 11
134.4300494225
 21
162.8543999118
 31
0.0
  0
LINE
  5
111
330
1F
100
AcDbEntity
  8
0
  6
Continuous
 62
     7
370
    18
100
AcDbLine
 10
133.4234067614
 20
162.8543999118
 30
0.0
 11
132.3634968034
 21
162.8543999118
 31
0.0
  0
LINE
  5
112
330
1F
100
AcDbEntity
  8
0
  6
Continuous
 62
     7
370
    18
100
AcDbLine
 10
132.3634968034
 20
153.8543999126
 30
0.0
 11
134.9634968034
 21
153.8543999126
 31
0.0
  0
LINE
  5
113
330
1F
100
AcDbEntity
  8
0
  6
Continuous
 62
     7
370
    18
100
AcDbLine
 10
136.5634968034
 20
150.3543999123
 30
0.0
 11
136.9636382248
 21
150.7545413337
 31
0.0
  0
SPLINE
  5
114
330
1F
100
AcDbEntity
  8
0
  6
Continuous
 62
     7
370
    18
100
AcDbSpline
210
0.0
220
0.0
230
1.0
 70
    24
 71
     3
 72
    29
 73
    25
 74
     0
 42
0.000000001
 43
0.00000001
 40
0.0
 40
0.0
 40
0.0
 40
0.0
 40
0.0156493635535401
 40
0.031274172865082
 40
0.046898982166746
 40
0.0625483456906982
 40
0.0938163891001444
 40
0.1250844327773272
 40
0.1875713825881403
 40
0.2500583318098413
 40
0.3125452810060201
 40
0.3750322306339816
 40
0.4375191799913908
 40
0.5000061293760605
 40
0.562493078674996
 40
0.6249800282360959
 40
0.6874669779080382
 40
0.7499539273784686
 40
0.8124408768498887
 40
0.874927826231065
 40
0.9061958696459139
 40
0.9374639128793764
 40
0.9687319565189173
 40
1.0
 40
1.0
 40
1.0
 40
1.0
 10
158.6634968034419
 20
153.8595288279263
 30
0.0
 10
158.6634968034419
 20
153.8630397995298
 30
0.0
 10
158.6634968034419
 20
153.8700562339348
 30
0.0
 10
158.6634968034419
 20
153.8894855587058
 30
0.0
 10
158.6634968034419
 20
153.9154270379211
 30
0.0
 10
158.6634968034419
 20
153.9594697631125
 30
0.0
 10
158.6634968034419
 20
154.0316838918773
 30
0.0
 10
158.6634968034419
 20
154.1833517401472
 30
0.0
 10
158.6634968034419
 20
154.439034880106
 30
0.0
 10
158.6634968034419
 20
154.843709667856
 30
0.0
 10
158.663496803442
 20
155.3362198193941
 30
0.0
 10
158.6634968034419
 20
155.9042298020118
 30
0.0
 10
158.6634968034419
 20
156.5335342340605
 30
0.0
 10
158.663496803442
 20
157.2083893579595
 30
0.0
 10
158.6634968034419
 20
157.9119130530173
 30
0.0
 10
158.6634968034419
 20
158.62650664313
 30
0.0
 10
158.6634968034419
 20
159.334290824494
 30
0.0
 10
158.6634968034419
 20
160.0175708625358
 30
0.0
 10
158.6634968034419
 20
160.6592118219513
 30
0.0
 10
158.6634968034419
 20
161.1460443033932
 30
0.0
 10
158.6634968034419
 20
161.4992132500276
 30
0.0
 10
158.6634968034419
 20
161.7440478232123
 30
0.0
 10
158.6634968034419
 20
161.9694284819482
 30
0.0
 10
158.6634968034419
 20
162.100275652543
 30
0.0
 10
158.6634968034419
 20
162.1656992376746
 30
0.0
  0
SPLINE
  5
115
330
1F
100
AcDbEntity
  8
0
  6
Continuous
 62
     7
370
    18
100
AcDbSpline
210
0.0
220
0.0
230
1.0
 70
    24
 71
     3
 72
    14
 73
    10
 74
     0
 42
0.000000001
 43
0.00000001
 40
0.0
 40
0.0
 40
0.0
 40
0.0
 40
0.25
 40
0.25
 40
0.5
 40
0.5
 40
0.75
 40
0.75
 40
1.0
 40
1.0
 40
1.0
 40
1.0
 10
158.063496803442
 20
153.8595288262644
 30
0.0
 10
158.063496803442
 20
153.905253627477
 30
0.0
 10
158.063496803442
 20
154.2551851228832
 30
0.0
 10
158.063496803442
 20
155.4615126678491
 30
0.0
 10
158.063496803442
 20
156.2865112900132
 30
0.0
 10
158.063496803442
 20
158.1398236246497
 30
0.0
 10
158.063496803442
 20
159.1199006540496
 30
0.0
 10
158.063496803442
 20
160.9013613768129
 30
0.0
 10
158.063496803442
 20
161.6563784892801
 30
0.0
 10
158.063496803442
 20
162.1656992340609
 30
0.0
  0
LINE
  5
116
330
1F
100
AcDbEntity
  8
0
  6
Continuous
 62
     7
370
    18
100
AcDbLine
 10
158.6634968034
 20
162.165699233
 30
0.0
 11
158.0634968034
 21
162.165699233
 31
0.0
  0
SPLINE
  5
117
330
1F
100
AcDbEntity
  8
0
  6
Continuous
 62
     7
370
    18
100
AcDbSpline
210
0.0
220
0.0
230
1.0
 70
    24
 71
     3
 72
    14
 73
    10
 74
     0
 42
0.000000001
 43
0.00000001
 40
0.0
 40
0.0
 40
0.0
 40
0.0
 40
0.25
 40
0.25
 40
0.5
 40
0.5
 40
0.75
 40
0.75
 40
1.0
 40
1.0
 40
1.0
 40
1.0
 10
112.9634968038278
 20
151.8908482560431
 30
0.0
 10
112.9634968038278
 20
152.0741779452839
 30
0.0
 10
112.9634968038278
 20
152.3736931530308
 30
0.0
 10
112.9634968038278
 20
153.2029924649671
 30
0.0
 10
112.9634968038278
 20
153.7325369668775
 30
0.0
 10
112.9634968038278
 20
154.9410382028524
 30
0.0
 10
112.9634968038278
 20
155.6179086597776
 30
0.0
 10
112.9634968038278
 20
156.9956455481355
 30
0.0
 10
112.9634968038278
 20
157.694702954204
 30
0.0
 10
112.9634968038278
 20
158.3543999122258
 30
0.0
  0
SPLINE
  5
118
330
1F
100
AcDbEntity
  8
0
  6
Continuous
 62
     7
370
    18
100
AcDbSpline
210
0.0
220
0.0
230
1.0
 70
    24
 71
     3
 72
    10
 73
     6
 74
     0
 42
0.000000001
 43
0.00000001
 40
0.0
 40
0.0
 40
0.0
 40
0.0
 40
0.5
 40
0.5
 40
1.0
 40
1.0
 40
1.0
 40
1.0
 10
112.6634968036345
 20
158.3543999122258
 30
0.0
 10
112.7342074818496
 20
158.3543999122258
 30
0.0
 10
112.817050194319
 20
158.3543999122258
 30
0.0
 10
112.9342074818299
 20
158.3543999122258
 30
0.0
 10
112.9634968037306
 20
158.3543999122258
 30
0.0
 10
112.9634968038278
 20
158.3543999122258
 30
0.0
  0
SPLINE
  5
119
330
1F
100
AcDbEntity
  8
0
  6
Continuous
 62
     7
370
    18
100
AcDbSpline
210
0.0
220
0.0
230
1.0
 70
    24
 71
     3
 72
    10
 73
     6
 74
     0
 42
0.000000001
 43
0.00000001
 40
0.0
 40
0.0
 40
0.0
 40
0.0
 40
0.4999999999999999
 40
0.4999999999999999
 40
1.0
 40
1.0
 40
1.0
 40
1.0
 10
112.663496803442
 20
158.3543999093544
 30
0.0
 10
112.663496803442
 20
156.6381100547343
 30
0.0
 10
112.663496803442
 20
154.9814552661362
 30
0.0
 10
112.663496803442
 20
152.4177642837745
 30
0.0
 10
112.663496803442
 20
151.5998073792221
 30
0.0
 10
112.663496803442
 20
151.4013532185027
 30
0.0
  0
SPLINE
  5
11A
330
1F
100
AcDbEntity
  8
0
  6
Continuous
 62
     7
370
    18
100
AcDbSpline
210
0.0
220
0.0
230
1.0
 70
     8
 71
     3
 72
    14
 73
    10
 74
     0
 42
0.000000001
 43
0.00000001
 40
0.0
 40
0.0
 40
0.0
 40
0.0
 40
0.25
 40
0.25
 40
0.5
 40
0.5
 40
0.75
 40
0.75
 40
1.0
 40
1.0
 40
1.0
 40
1.0
 10
112.663496803442
 20
151.4013532182258
 30
0.0
 10
112.6846856674419
 20
151.4142428552258
 30
0.0
 10
112.709841931442
 20
151.4313900122258
 30
0.0
 10
112.7668095634419
 20
151.4793483802258
 30
0.0
 10
112.7987205914419
 20
151.5103005142258
 30
0.0
 10
112.8624090594419
 20
151.5898839302258
 30
0.0
 10
112.8945116611086
 20
151.6388431945592
 30
0.0
 10
112.945548890442
 20
151.7564704452258
 30
0.0
 10
112.9634968034419
 20
151.8238170292258
 30
0.0
 10
112.9634968034419
 20
151.8908482572258
 30
0.0
  0
SPLINE
  5
11B
330
1F
100
AcDbEntity
  8
0
  6
Continuous
 62
     7
370
    18
100
AcDbSpline
210
0.0
220
0.0
230
1.0
 70
    27
 71
     3
 72
    12
 73
     8
 74
     0
 42
0.000000001
 43
0.00000001
 40
0.0
 40
0.0
 40
0.0
 40
0.0
 40
0.3333333333333333
 40
0.3333333333333333
 40
0.6666666666666665
 40
0.6666666666666665
 40
0.9999999999999999
 40
0.9999999999999999
 40
0.9999999999999999
 40
0.9999999999999999
 10
118.6634968034419
 20
158.3543999122258
 30
0.0
 10
118.6634968034419
 20
160.8548939262007
 30
0.0
 10
118.6634968034419
 20
163.1663307325042
 30
0.0
 10
118.663496803442
 20
165.6668247458868
 30
0.0
 10
118.663496803442
 20
165.6668247453394
 30
0.0
 10
118.663496803442
 20
163.1663307301801
 30
0.0
 10
118.663496803442
 20
160.8548939233293
 30
0.0
 10
118.663496803442
 20
158.3543999093544
 30
0.0
  0
SPLINE
  5
11C
330
1F
100
AcDbEntity
  8
0
  6
Continuous
 62
     7
370
    18
100
AcDbSpline
210
0.0
220
0.0
230
1.0
 70
    27
 71
     3
 72
    14
 73
    10
 74
     0
 42
0.000000001
 43
0.00000001
 40
0.0
 40
0.0
 40
0.0
 40
0.0
 40
0.25
 40
0.25
 40
0.5000000000000001
 40
0.5000000000000001
 40
0.75
 40
0.75
 40
1.0
 40
1.0
 40
1.0
 40
1.0
 10
118.6634968034419
 20
158.3543999093544
 30
0.0
 10
118.6634968034419
 20
156.4979370217136
 30
0.0
 10
118.6634968034419
 20
154.7173699391464
 30
0.0
 10
118.6634968034419
 20
152.0919349460924
 30
0.0
 10
118.6634968034419
 20
151.3543999120118
 30
0.0
 10
118.663496803442
 20
151.3543999124399
 30
0.0
 10
118.663496803442
 20
152.0919349469312
 30
0.0
 10
118.663496803442
 20
154.7173699405907
 30
0.0
 10
118.663496803442
 20
156.497937023328
 30
0.0
 10
118.663496803442
 20
158.3543999109687
 30
0.0
  0
SPLINE
  5
11D
330
1F
100
AcDbEntity
  8
0
  6
Continuous
 62
     7
370
    18
100
AcDbSpline
210
0.0
220
0.0
230
1.0
 70
    24
 71
     3
 72
    10
 73
     6
 74
     0
 42
0.000000001
 43
0.00000001
 40
0.0
 40
0.0
 40
0.0
 40
0.0
 40
0.5000000000000002
 40
0.5000000000000002
 40
1.0
 40
1.0
 40
1.0
 40
1.0
 10
117.263496803442
 20
151.4013532185027
 30
0.0
 10
117.263496803442
 20
151.5998073792221
 30
0.0
 10
117.263496803442
 20
152.4177642837745
 30
0.0
 10
117.263496803442
 20
154.9814552661362
 30
0.0
 10
117.263496803442
 20
156.6381100547343
 30
0.0
 10
117.263496803442
 20
158.3543999093544
 30
0.0
  0
SPLINE
  5
11E
330
1F
100
AcDbEntity
  8
0
  6
Continuous
 62
     7
370
    18
100
AcDbSpline
210
0.0
220
0.0
230
1.0
 70
    27
 71
     3
 72
    12
 73
     8
 74
     0
 42
0.000000001
 43
0.00000001
 40
0.0
 40
0.0
 40
0.0
 40
0.0
 40
0.3333333333333332
 40
0.3333333333333332
 40
0.6666666666666665
 40
0.6666666666666665
 40
0.9999999999999999
 40
0.9999999999999999
 40
0.9999999999999999
 40
0.9999999999999999
 10
117.263496803442
 20
158.3543999093544
 30
0.0
 10
117.263496803442
 20
160.8548939233293
 30
0.0
 10
117.263496803442
 20
163.1663307301801
 30
0.0
 10
117.263496803442
 20
165.6668247453394
 30
0.0
 10
117.2634968034419
 20
165.6668247458868
 30
0.0
 10
117.2634968034419
 20
163.1663307325042
 30
0.0
 10
117.2634968034419
 20
160.8548939262007
 30
0.0
 10
117.2634968034419
 20
158.3543999122258
 30
0.0
  0
SPLINE
  5
11F
330
1F
100
AcDbEntity
  8
0
  6
Continuous
 62
     7
370
    18
100
AcDbSpline
210
0.0
220
0.0
230
1.0
 70
     8
 71
     3
 72
    14
 73
    10
 74
     0
 42
0.000000001
 43
0.00000001
 40
0.0
 40
0.0
 40
0.0
 40
0.0
 40
0.25
 40
0.25
 40
0.5
 40
0.5
 40
0.75
 40
0.75
 40
1.0
 40
1.0
 40
1.0
 40
1.0
 10
116.963496803442
 20
151.8908482572258
 30
0.0
 10
116.963496803442
 20
151.8237200812258
 30
0.0
 10
116.9814691704419
 20
151.7563856002258
 30
0.0
 10
117.0325422291086
 20
151.6387327922258
 30
0.0
 10
117.064673405942
 20
151.5897446752258
 30
0.0
 10
117.128480331942
 20
151.5100698072258
 30
0.0
 10
117.1602857964419
 20
151.4792470975592
 30
0.0
 10
117.217368588442
 20
151.4312231122258
 30
0.0
 10
117.242430429442
 20
151.4141683412258
 30
0.0
 10
117.263496803442
 20
151.4013532182258
 30
0.0
  0
SPLINE
  5
120
330
1F
100
AcDbEntity
  8
0
  6
Continuous
 62
     7
370
    18
100
AcDbSpline
210
0.0
220
0.0
230
1.0
 70
    24
 71
     3
 72
    10
 73
     6
 74
     0
 42
0.000000001
 43
0.00000001
 40
0.0
 40
0.0
 40
0.0
 40
0.0
 40
0.5
 40
0.5
 40
1.0
 40
1.0
 40
1.0
 40
1.0
 10
117.2634968032494
 20
158.3543999122258
 30
0.0
 10
117.1927861250343
 20
158.3543999122258
 30
0.0
 10
117.1099434125649
 20
158.3543999122258
 30
0.0
 10
116.992786125054
 20
158.3543999122258
 30
0.0
 10
116.9634968031533
 20
158.3543999122258
 30
0.0
 10
116.9634968030561
 20
158.3543999122258
 30
0.0
  0
SPLINE
  5
121
330
1F
100
AcDbEntity
  8
0
  6
Continuous
 62
     7
370
    18
100
AcDbSpline
210
0.0
220
0.0
230
1.0
 70
    24
 71
     3
 72
    14
 73
    10
 74
     0
 42
0.000000001
 43
0.00000001
 40
0.0
 40
0.0
 40
0.0
 40
0.0
 40
0.2500000000000001
 40
0.2500000000000001
 40
0.5000000000000001
 40
0.5000000000000001
 40
0.7500000000000002
 40
0.7500000000000002
 40
1.0
 40
1.0
 40
1.0
 40
1.0
 10
116.9634968030561
 20
158.3543999122258
 30
0.0
 10
116.9634968030561
 20
157.694702954204
 30
0.0
 10
116.9634968030561
 20
156.9956455481355
 30
0.0
 10
116.9634968030561
 20
155.6179086597777
 30
0.0
 10
116.9634968030561
 20
154.9410382028524
 30
0.0
 10
116.9634968030561
 20
153.7325369668775
 30
0.0
 10
116.9634968030561
 20
153.2029924649671
 30
0.0
 10
116.9634968030561
 20
152.3736931530308
 30
0.0
 10
116.9634968030561
 20
152.0741779452839
 30
0.0
 10
116.9634968030561
 20
151.8908482560431
 30
0.0
  0
SPLINE
  5
122
330
1F
100
AcDbEntity
  8
0
  6
Continuous
 62
     7
370
    18
100
AcDbSpline
210
0.0
220
0.0
230
1.0
 70
    24
 71
     3
 72
    20
 73
    16
 74
     0
 42
0.000000001
 43
0.00000001
 40
0.0
 40
0.0
 40
0.0
 40
0.0
 40
0.1249999999999999
 40
0.1249999999999999
 40
0.2499999999999998
 40
0.2499999999999998
 40
0.3749999999999997
 40
0.3749999999999997
 40
0.4999999999999997
 40
0.4999999999999997
 40
0.6249999999999998
 40
0.6249999999999998
 40
0.7499999999999998
 40
0.7499999999999998
 40
1.0
 40
1.0
 40
1.0
 40
1.0
 10
116.9634968030561
 20
165.0543999123526
 30
0.0
 10
116.9634968030561
 20
165.0543999123515
 30
0.0
 10
116.9634968030561
 20
164.9835675652091
 30
0.0
 10
116.9634968030561
 20
164.7129245671749
 30
0.0
 10
116.9634968030561
 20
164.5134541222575
 30
0.0
 10
116.9634968030561
 20
164.0188751141737
 30
0.0
 10
116.9634968030561
 20
163.7242066302809
 30
0.0
 10
116.9634968030561
 20
163.0804836053111
 30
0.0
 10
116.9634968030561
 20
162.7317332456374
 30
0.0
 10
116.9634968030561
 20
162.0170665789578
 30
0.0
 10
116.9634968030561
 20
161.6512521615797
 30
0.0
 10
116.9634968030561
 20
160.9294577753361
 30
0.0
 10
116.9634968030561
 20
160.5734399122654
 30
0.0
 10
116.9634968030561
 20
159.5443199122471
 30
0.0
 10
116.9634968030561
 20
158.9127332455692
 30
0.0
 10
116.9634968030561
 20
158.3543999122258
 30
0.0
  0
SPLINE
  5
123
330
1F
100
AcDbEntity
  8
0
  6
Continuous
 62
     7
370
    18
100
AcDbSpline
210
0.0
220
0.0
230
1.0
 70
    24
 71
     3
 72
    20
 73
    16
 74
     0
 42
0.000000001
 43
0.00000001
 40
0.0
 40
0.0
 40
0.0
 40
0.0
 40
0.2500000000000001
 40
0.2500000000000001
 40
0.3750000000000001
 40
0.3750000000000001
 40
0.5
 40
0.5
 40
0.625
 40
0.625
 40
0.75
 40
0.75
 40
0.875
 40
0.875
 40
1.0
 40
1.0
 40
1.0
 40
1.0
 10
112.9634968038278
 20
158.3543999122258
 30
0.0
 10
112.9634968038278
 20
158.9127332455703
 30
0.0
 10
112.9634968038278
 20
159.5443199122496
 30
0.0
 10
112.9634968038278
 20
160.5734399122703
 30
0.0
 10
112.9634968038278
 20
160.9294577753418
 30
0.0
 10
112.9634968038278
 20
161.651252161587
 30
0.0
 10
112.9634968038278
 20
162.0170665789658
 30
0.0
 10
112.9634968038278
 20
162.7317332456466
 30
0.0
 10
112.9634968038278
 20
163.0804836053206
 30
0.0
 10
112.9634968038278
 20
163.7242066302907
 30
0.0
 10
112.9634968038278
 20
164.0188751141832
 30
0.0
 10
112.9634968038278
 20
164.5134541222658
 30
0.0
 10
112.9634968038278
 20
164.7129245671821
 30
0.0
 10
112.9634968038278
 20
164.9835675652133
 30
0.0
 10
112.9634968038278
 20
165.0543999123537
 30
0.0
 10
112.9634968038278
 20
165.0543999123526
 30
0.0
  0
SPLINE
  5
124
330
1F
100
AcDbEntity
  8
0
  6
Continuous
 62
     7
370
    18
100
AcDbSpline
210
0.0
220
0.0
230
1.0
 70
    24
 71
     3
 72
    25
 73
    21
 74
     0
 42
0.000000001
 43
0.00000001
 40
0.0
 40
0.0
 40
0.0
 40
0.0
 40
0.0250529547012751
 40
0.0500478753409906
 40
0.0750234212569811
 40
0.1000183416871891
 40
0.1250712959704198
 40
0.1875858261821789
 40
0.2501003567404747
 40
0.3126148877363534
 40
0.3751294184057044
 40
0.5000071476030016
 40
0.6248848768002989
 40
0.6873994074696499
 40
0.7499139384655285
 40
0.8124284690238243
 40
0.8749429992355833
 40
0.916658544395097
 40
0.9582844542529622
 40
1.0
 40
1.0
 40
1.0
 40
1.0
 10
118.963496803442
 20
158.3543999122258
 30
0.0
 10
118.963496803442
 20
158.2665608740999
 30
0.0
 10
118.963496803442
 20
158.091086273095
 30
0.0
 10
118.963496803442
 20
157.8284468684878
 30
0.0
 10
118.9634968034419
 20
157.5668242354264
 30
0.0
 10
118.963496803442
 20
157.3062121970945
 30
0.0
 10
118.963496803442
 20
156.9176633600588
 30
0.0
 10
118.963496803442
 20
156.4062934700365
 30
0.0
 10
118.963496803442
 20
155.7863405867992
 30
0.0
 10
118.9634968034419
 20
155.1908696713258
 30
0.0
 10
118.963496803442
 20
154.438446557984
 30
0.0
 10
118.9634968034419
 20
153.586134251795
 30
0.0
 10
118.963496803442
 20
152.8871102143738
 30
0.0
 10
118.9634968034419
 20
152.4359315120545
 30
0.0
 10
118.963496803442
 20
152.1545051365537
 30
0.0
 10
118.963496803442
 20
151.932490181261
 30
0.0
 10
118.9634968034419
 20
151.7902289973633
 30
0.0
 10
118.963496803442
 20
151.7072361206002
 30
0.0
 10
118.963496803442
 20
151.6626221467397
 30
0.0
 10
118.963496803442
 20
151.6571426237354
 30
0.0
 10
118.963496803442
 20
151.654399915549
 30
0.0
  0
SPLINE
  5
125
330
1F
100
AcDbEntity
  8
0
  6
Continuous
 62
     7
370
    18
100
AcDbSpline
210
0.0
220
0.0
230
1.0
 70
    24
 71
     3
 72
    10
 73
     6
 74
     0
 42
0.000000001
 43
0.00000001
 40
0.0
 40
0.0
 40
0.0
 40
0.0
 40
0.5
 40
0.5
 40
1.0
 40
1.0
 40
1.0
 40
1.0
 10
118.6634968036345
 20
158.3543999122258
 30
0.0
 10
118.7342074818496
 20
158.3543999122258
 30
0.0
 10
118.817050194319
 20
158.3543999122258
 30
0.0
 10
118.9342074818299
 20
158.3543999122258
 30
0.0
 10
118.9634968037305
 20
158.3543999122258
 30
0.0
 10
118.9634968038278
 20
158.3543999122258
 30
0.0
  0
SPLINE
  5
126
330
1F
100
AcDbEntity
  8
0
  6
Continuous
 62
     7
370
    18
100
AcDbSpline
210
0.0
220
0.0
230
1.0
 70
    24
 71
     3
 72
    10
 73
     6
 74
     0
 42
0.000000001
 43
0.00000001
 40
0.0
 40
0.0
 40
0.0
 40
0.0
 40
0.5
 40
0.5
 40
1.0
 40
1.0
 40
1.0
 40
1.0
 10
118.9634968038278
 20
158.3543999122258
 30
0.0
 10
118.9634968037305
 20
158.3543999122258
 30
0.0
 10
118.9342074818299
 20
158.3543999122258
 30
0.0
 10
118.817050194319
 20
158.3543999122258
 30
0.0
 10
118.7342074818496
 20
158.3543999122258
 30
0.0
 10
118.6634968036345
 20
158.3543999122258
 30
0.0
  0
SPLINE
  5
127
330
1F
100
AcDbEntity
  8
0
  6
Continuous
 62
     7
370
    18
100
AcDbSpline
210
0.0
220
0.0
230
1.0
 70
    24
 71
     3
 72
    25
 73
    21
 74
     0
 42
0.000000001
 43
0.00000001
 40
0.0
 40
0.0
 40
0.0
 40
0.0
 40
0.0250529546961805
 40
0.0500478753371753
 40
0.0750234212544377
 40
0.1000183416859154
 40
0.1250712959704197
 40
0.1875858261821788
 40
0.2501003567404746
 40
0.3126148877363533
 40
0.3751294184057042
 40
0.5000071476030015
 40
0.6248848768002986
 40
0.6873994074696498
 40
0.7499139384655285
 40
0.8124284690238244
 40
0.8749429992355832
 40
0.9166585443972171
 40
0.9582844542572012
 40
1.0
 40
1.0
 40
1.0
 40
1.0
 10
118.963496803442
 20
165.0543999089026
 30
0.0
 10
118.9634968034419
 20
165.0534118682575
 30
0.0
 10
118.963496803442
 20
165.0514380757195
 30
0.0
 10
118.963496803442
 20
165.0354055495162
 30
0.0
 10
118.9634968034419
 20
165.0097935534144
 30
0.0
 10
118.963496803442
 20
164.9736671386749
 30
0.0
 10
118.9634968034419
 20
164.9042442260956
 30
0.0
 10
118.963496803442
 20
164.7763493281542
 30
0.0
 10
118.963496803442
 20
164.5542840721092
 30
0.0
 10
118.9634968034419
 20
164.2728710905879
 30
0.0
 10
118.963496803442
 20
163.8216880240247
 30
0.0
 10
118.9634968034419
 20
163.122665974667
 30
0.0
 10
118.9634968034419
 20
162.2703536460024
 30
0.0
 10
118.963496803442
 20
161.5179293883985
 30
0.0
 10
118.9634968034419
 20
160.9224622025729
 30
0.0
 10
118.963496803442
 20
160.3024952594607
 30
0.0
 10
118.963496803442
 20
159.7343981161866
 30
0.0
 10
118.963496803442
 20
159.2295671240655
 30
0.0
 10
118.963496803442
 20
158.7929166102381
 30
0.0
 10
118.963496803442
 20
158.5006769153371
 30
0.0
 10
118.963496803442
 20
158.3543999122258
 30
0.0
  0
SPLINE
  5
128
330
1F
100
AcDbEntity
  8
0
  6
Continuous
 62
     7
370
    18
100
AcDbSpline
210
0.0
220
0.0
230
1.0
 70
    24
 71
     3
 72
    10
 73
     6
 74
     0
 42
0.000000001
 43
0.00000001
 40
0.0
 40
0.0
 40
0.0
 40
0.0
 40
0.5
 40
0.5
 40
1.0
 40
1.0
 40
1.0
 40
1.0
 10
110.9634968030561
 20
158.3543999122258
 30
0.0
 10
110.9634968031533
 20
158.3543999122258
 30
0.0
 10
110.992786125054
 20
158.3543999122258
 30
0.0
 10
111.1099434125649
 20
158.3543999122258
 30
0.0
 10
111.1927861250343
 20
158.3543999122258
 30
0.0
 10
111.2634968032494
 20
158.3543999122258
 30
0.0
  0
SPLINE
  5
129
330
1F
100
AcDbEntity
  8
0
  6
Continuous
 62
     7
370
    18
100
AcDbSpline
210
0.0
220
0.0
230
1.0
 70
    24
 71
     3
 72
    25
 73
    21
 74
     0
 42
0.000000001
 43
0.00000001
 40
0.0
 40
0.0
 40
0.0
 40
0.0
 40
0.0250529547012752
 40
0.0500478753409905
 40
0.0750234212569812
 40
0.1000183416871889
 40
0.1250712959704198
 40
0.1875858261821786
 40
0.2501003567404746
 40
0.3126148877363532
 40
0.3751294184057043
 40
0.5000071476030015
 40
0.6248848768002988
 40
0.6873994074696499
 40
0.7499139384655283
 40
0.8124284690238244
 40
0.8749429992355832
 40
0.9166585443950973
 40
0.958284454252962
 40
1.0
 40
1.0
 40
1.0
 40
1.0
 10
110.9634968034419
 20
158.3543999122258
 30
0.0
 10
110.9634968034419
 20
158.4422389503518
 30
0.0
 10
110.9634968034419
 20
158.6177135513567
 30
0.0
 10
110.9634968034419
 20
158.8803529559638
 30
0.0
 10
110.9634968034419
 20
159.1419755890253
 30
0.0
 10
110.9634968034419
 20
159.4025876273571
 30
0.0
 10
110.9634968034419
 20
159.7911364643929
 30
0.0
 10
110.9634968034419
 20
160.3025063544151
 30
0.0
 10
110.9634968034419
 20
160.9224592376525
 30
0.0
 10
110.9634968034419
 20
161.5179301531259
 30
0.0
 10
110.9634968034419
 20
162.2703532664676
 30
0.0
 10
110.9634968034419
 20
163.1226655726566
 30
0.0
 10
110.9634968034419
 20
163.8216896100778
 30
0.0
 10
110.9634968034419
 20
164.2728683123972
 30
0.0
 10
110.9634968034419
 20
164.5542946878979
 30
0.0
 10
110.9634968034419
 20
164.7763096431907
 30
0.0
 10
110.9634968034419
 20
164.9185708270883
 30
0.0
 10
110.9634968034419
 20
165.0015637038514
 30
0.0
 10
110.9634968034419
 20
165.0461776777119
 30
0.0
 10
110.9634968034419
 20
165.0516572007162
 30
0.0
 10
110.9634968034419
 20
165.0543999089026
 30
0.0
  0
SPLINE
  5
12A
330
1F
100
AcDbEntity
  8
0
  6
Continuous
 62
     7
370
    18
100
AcDbSpline
210
0.0
220
0.0
230
1.0
 70
    24
 71
     3
 72
    25
 73
    21
 74
     0
 42
0.000000001
 43
0.00000001
 40
0.0
 40
0.0
 40
0.0
 40
0.0
 40
0.0250529546961802
 40
0.0500478753371751
 40
0.0750234212544376
 40
0.1000183416859151
 40
0.1250712959704197
 40
0.1875858261821788
 40
0.2501003567404745
 40
0.3126148877363533
 40
0.3751294184057042
 40
0.5000071476030015
 40
0.6248848768002986
 40
0.6873994074696497
 40
0.7499139384655282
 40
0.8124284690238243
 40
0.8749429992355832
 40
0.9166585443972167
 40
0.958284454257201
 40
1.0
 40
1.0
 40
1.0
 40
1.0
 10
110.9634968034419
 20
151.654399915549
 30
0.0
 10
110.9634968034419
 20
151.6553879561941
 30
0.0
 10
110.9634968034419
 20
151.6573617487322
 30
0.0
 10
110.9634968034419
 20
151.6733942749355
 30
0.0
 10
110.9634968034419
 20
151.6990062710372
 30
0.0
 10
110.9634968034419
 20
151.7351326857768
 30
0.0
 10
110.9634968034419
 20
151.804555598356
 30
0.0
 10
110.9634968034419
 20
151.9324504962974
 30
0.0
 10
110.9634968034419
 20
152.1545157523424
 30
0.0
 10
110.9634968034419
 20
152.4359287338638
 30
0.0
 10
110.9634968034419
 20
152.8871118004269
 30
0.0
 10
110.9634968034419
 20
153.5861338497847
 30
0.0
 10
110.9634968034419
 20
154.4384461784493
 30
0.0
 10
110.9634968034419
 20
155.1908704360531
 30
0.0
 10
110.9634968034419
 20
155.7863376218787
 30
0.0
 10
110.9634968034419
 20
156.406304564991
 30
0.0
 10
110.9634968034419
 20
156.974401708265
 30
0.0
 10
110.9634968034419
 20
157.4792327003861
 30
0.0
 10
110.9634968034419
 20
157.9158832142136
 30
0.0
 10
110.9634968034419
 20
158.2081229091146
 30
0.0
 10
110.9634968034419
 20
158.3543999122258
 30
0.0
  0
SPLINE
  5
12B
330
1F
100
AcDbEntity
  8
0
  6
Continuous
 62
     7
370
    18
100
AcDbSpline
210
0.0
220
0.0
230
1.0
 70
    24
 71
     3
 72
    10
 73
     6
 74
     0
 42
0.000000001
 43
0.00000001
 40
0.0
 40
0.0
 40
0.0
 40
0.0
 40
0.5
 40
0.5
 40
1.0
 40
1.0
 40
1.0
 40
1.0
 10
103.6634968036345
 20
158.3543999122258
 30
0.0
 10
103.7342074818496
 20
158.3543999122258
 30
0.0
 10
103.817050194319
 20
158.3543999122258
 30
0.0
 10
103.9342074818299
 20
158.3543999122258
 30
0.0
 10
103.9634968037305
 20
158.3543999122258
 30
0.0
 10
103.9634968038278
 20
158.3543999122258
 30
0.0
  0
SPLINE
  5
12C
330
1F
100
AcDbEntity
  8
0
  6
Continuous
 62
     7
370
    18
100
AcDbSpline
210
0.0
220
0.0
230
1.0
 70
    24
 71
     3
 72
    20
 73
    16
 74
     0
 42
0.000000001
 43
0.00000001
 40
0.0
 40
0.0
 40
0.0
 40
0.0
 40
0.25
 40
0.25
 40
0.375
 40
0.375
 40
0.5
 40
0.5
 40
0.625
 40
0.625
 40
0.75
 40
0.75
 40
0.875
 40
0.875
 40
1.0
 40
1.0
 40
1.0
 40
1.0
 10
103.9634968038278
 20
158.3543999122258
 30
0.0
 10
103.9634968038278
 20
158.7877332455702
 30
0.0
 10
103.9634968038278
 20
159.2779199122493
 30
0.0
 10
103.9634968038278
 20
160.0766399122697
 30
0.0
 10
103.9634968038278
 20
160.3529522836104
 30
0.0
 10
103.9634968038278
 20
160.913150911744
 30
0.0
 10
103.9634968038278
 20
161.1970665789649
 30
0.0
 10
103.9634968038278
 20
161.7517332456455
 30
0.0
 10
103.9634968038278
 20
162.022405166588
 30
0.0
 10
103.9634968038278
 20
162.5220110964183
 30
0.0
 10
103.9634968038278
 20
162.7507090242168
 30
0.0
 10
103.9634968038278
 20
163.1345613887008
 30
0.0
 10
103.9634968038278
 20
163.2893742713233
 30
0.0
 10
103.9634968038278
 20
163.4994255533785
 30
0.0
 10
103.9634968038278
 20
163.5543999123535
 30
0.0
 10
103.9634968038278
 20
163.5543999123526
 30
0.0
  0
SPLINE
  5
12D
330
1F
100
AcDbEntity
  8
0
  6
Continuous
 62
     7
370
    18
100
AcDbSpline
210
0.0
220
0.0
230
1.0
 70
    24
 71
     3
 72
    20
 73
    16
 74
     0
 42
0.000000001
 43
0.00000001
 40
0.0
 40
0.0
 40
0.0
 40
0.0
 40
0.125
 40
0.125
 40
0.25
 40
0.25
 40
0.375
 40
0.375
 40
0.5
 40
0.5
 40
0.625
 40
0.625
 40
0.75
 40
0.75
 40
1.0
 40
1.0
 40
1.0
 40
1.0
 10
103.9634968038278
 20
153.154399912099
 30
0.0
 10
103.9634968038278
 20
153.1543999120999
 30
0.0
 10
103.9634968038278
 20
153.2093742710763
 30
0.0
 10
103.9634968038278
 20
153.4194255531339
 30
0.0
 10
103.9634968038278
 20
153.5742384357572
 30
0.0
 10
103.9634968038278
 20
153.9580908002423
 30
0.0
 10
103.9634968038278
 20
154.1867887280409
 30
0.0
 10
103.9634968038278
 20
154.686394657871
 30
0.0
 10
103.9634968038278
 20
154.9570665788132
 30
0.0
 10
103.9634968038278
 20
155.5117332454929
 30
0.0
 10
103.9634968038278
 20
155.7956489127133
 30
0.0
 10
103.9634968038278
 20
156.3558475408457
 30
0.0
 10
103.9634968038278
 20
156.6321599121857
 30
0.0
 10
103.9634968038278
 20
157.4308799122043
 30
0.0
 10
103.9634968038278
 20
157.9210665788823
 30
0.0
 10
103.9634968038278
 20
158.3543999122258
 30
0.0
  0
SPLINE
  5
12E
330
1F
100
AcDbEntity
  8
0
  6
Continuous
 62
     7
370
    18
100
AcDbSpline
210
0.0
220
0.0
230
1.0
 70
    24
 71
     3
 72
    25
 73
    21
 74
     0
 42
0.000000001
 43
0.00000001
 40
0.0
 40
0.0
 40
0.0
 40
0.0
 40
0.0250529546961802
 40
0.0500478753371752
 40
0.0750234212544376
 40
0.1000183416859151
 40
0.1250712959704199
 40
0.1875858261821789
 40
0.2501003567404746
 40
0.3126148877363534
 40
0.3751294184057043
 40
0.5000071476030015
 40
0.6248848768002988
 40
0.6873994074696499
 40
0.7499139384655285
 40
0.8124284690238245
 40
0.8749429992355833
 40
0.9166585443972168
 40
0.9582844542572012
 40
1.0
 40
1.0
 40
1.0
 40
1.0
 10
101.9634968034419
 20
153.154399914805
 30
0.0
 10
101.9634968034419
 20
153.1551667523206
 30
0.0
 10
101.9634968034419
 20
153.1566986510069
 30
0.0
 10
101.9634968034419
 20
153.1691418056721
 30
0.0
 10
101.9634968034419
 20
153.1890197727959
 30
0.0
 10
101.9634968034419
 20
153.2170581842355
 30
0.0
 10
101.9634968034419
 20
153.2709386537
 30
0.0
 10
101.9634968034419
 20
153.3702003655351
 30
0.0
 10
101.9634968034419
 20
153.5425495194805
 30
0.0
 10
101.9634968034419
 20
153.7609595946911
 30
0.0
 10
101.9634968034419
 20
154.1111315269491
 30
0.0
 10
101.9634968034419
 20
154.65365610257
 30
0.0
 10
101.9634968034419
 20
155.31515223825
 30
0.0
 10
101.9634968034419
 20
155.899123303853
 30
0.0
 10
101.9634968034419
 20
156.3612769406131
 30
0.0
 10
101.9634968034419
 20
156.8424453143719
 30
0.0
 10
101.9634968034419
 20
157.2833565300473
 30
0.0
 10
101.9634968034419
 20
157.6751656582607
 30
0.0
 10
101.9634968034419
 20
158.0140585943655
 30
0.0
 10
101.9634968034419
 20
158.2408714919007
 30
0.0
 10
101.9634968034419
 20
158.3543999122258
 30
0.0
  0
SPLINE
  5
12F
330
1F
100
AcDbEntity
  8
0
  6
Continuous
 62
     7
370
    18
100
AcDbSpline
210
0.0
220
0.0
230
1.0
 70
    24
 71
     3
 72
    10
 73
     6
 74
     0
 42
0.000000001
 43
0.00000001
 40
0.0
 40
0.0
 40
0.0
 40
0.0
 40
0.5
 40
0.5
 40
1.0
 40
1.0
 40
1.0
 40
1.0
 10
101.9634968030561
 20
158.3543999122258
 30
0.0
 10
101.9634968031533
 20
158.3543999122258
 30
0.0
 10
101.992786125054
 20
158.3543999122258
 30
0.0
 10
102.1099434125649
 20
158.3543999122258
 30
0.0
 10
102.1927861250343
 20
158.3543999122258
 30
0.0
 10
102.2634968032494
 20
158.3543999122258
 30
0.0
  0
SPLINE
  5
130
330
1F
100
AcDbEntity
  8
0
  6
Continuous
 62
     7
370
    18
100
AcDbSpline
210
0.0
220
0.0
230
1.0
 70
    24
 71
     3
 72
    25
 73
    21
 74
     0
 42
0.000000001
 43
0.00000001
 40
0.0
 40
0.0
 40
0.0
 40
0.0
 40
0.0250529547012752
 40
0.0500478753409905
 40
0.0750234212569812
 40
0.1000183416871889
 40
0.1250712959704198
 40
0.1875858261821786
 40
0.2501003567404745
 40
0.312614887736353
 40
0.3751294184057041
 40
0.5000071476030014
 40
0.6248848768002986
 40
0.6873994074696498
 40
0.7499139384655282
 40
0.8124284690238243
 40
0.874942999235583
 40
0.9166585443950973
 40
0.958284454252962
 40
1.0
 40
1.0
 40
1.0
 40
1.0
 10
101.9634968034419
 20
158.3543999122258
 30
0.0
 10
101.9634968034419
 20
158.4225734940549
 30
0.0
 10
101.9634968034419
 20
158.5587627366259
 30
0.0
 10
101.9634968034419
 20
158.76260227453
 30
0.0
 10
101.9634968034419
 20
158.965652676309
 30
0.0
 10
101.9634968034419
 20
159.1679187359098
 30
0.0
 10
101.9634968034419
 20
159.4694790273406
 30
0.0
 10
101.9634968034419
 20
159.8663631210891
 30
0.0
 10
101.9634968034419
 20
160.3475205827062
 30
0.0
 10
101.9634968034419
 20
160.8096771141184
 30
0.0
 10
101.9634968034419
 20
161.3936472916374
 30
0.0
 10
101.9634968034419
 20
162.0551434098736
 30
0.0
 10
101.9634968034419
 20
162.5976695284692
 30
0.0
 10
101.9634968034419
 20
162.9478380735528
 30
0.0
 10
101.9634968034419
 20
163.1662585440907
 30
0.0
 10
101.9634968034419
 20
163.3385686586463
 30
0.0
 10
101.9634968034419
 20
163.4489803237609
 30
0.0
 10
101.9634968034419
 20
163.5133927057263
 30
0.0
 10
101.9634968034419
 20
163.5480184764837
 30
0.0
 10
101.9634968034419
 20
163.5522712406064
 30
0.0
 10
101.9634968034419
 20
163.5543999096466
 30
0.0
  0
SPLINE
  5
131
330
1F
100
AcDbEntity
  8
0
  6
Continuous
 62
     7
370
    18
100
AcDbSpline
210
0.0
220
0.0
230
1.0
 70
    24
 71
     3
 72
    10
 73
     6
 74
     0
 42
0.000000001
 43
0.00000001
 40
0.0
 40
0.0
 40
0.0
 40
0.0
 40
0.5
 40
0.5
 40
1.0
 40
1.0
 40
1.0
 40
1.0
 10
121.9634968038278
 20
158.3543999122258
 30
0.0
 10
121.9634968037306
 20
158.3543999122258
 30
0.0
 10
121.9342074818299
 20
158.3543999122258
 30
0.0
 10
121.817050194319
 20
158.3543999122258
 30
0.0
 10
121.7342074818496
 20
158.3543999122258
 30
0.0
 10
121.6634968036345
 20
158.3543999122258
 30
0.0
  0
SPLINE
  5
132
330
1F
100
AcDbEntity
  8
0
  6
Continuous
 62
     7
370
    18
100
AcDbSpline
210
0.0
220
0.0
230
1.0
 70
    24
 71
     3
 72
    10
 73
     6
 74
     0
 42
0.000000001
 43
0.00000001
 40
0.0
 40
0.0
 40
0.0
 40
0.0
 40
0.5
 40
0.5
 40
1.0
 40
1.0
 40
1.0
 40
1.0
 10
121.6634968036345
 20
158.3543999122258
 30
0.0
 10
121.7342074818496
 20
158.3543999122258
 30
0.0
 10
121.817050194319
 20
158.3543999122258
 30
0.0
 10
121.9342074818299
 20
158.3543999122258
 30
0.0
 10
121.9634968037306
 20
158.3543999122258
 30
0.0
 10
121.9634968038278
 20
158.3543999122258
 30
0.0
  0
SPLINE
  5
133
330
1F
100
AcDbEntity
  8
0
  6
Continuous
 62
     7
370
    18
100
AcDbSpline
210
0.0
220
0.0
230
1.0
 70
    24
 71
     3
 72
     9
 73
     5
 74
     0
 42
0.000000001
 43
0.00000001
 40
0.0
 40
0.0
 40
0.0
 40
0.0
 40
0.8716242291574546
 40
1.0
 40
1.0
 40
1.0
 40
1.0
 10
121.9634968038278
 20
158.3543999122258
 30
0.0
 10
121.9634968038278
 20
158.5418182235347
 30
0.0
 10
121.9634968038278
 20
158.7568401389878
 30
0.0
 10
121.9634968038278
 20
158.9656324498302
 30
0.0
 10
121.9634968038278
 20
158.9924363236806
 30
0.0
  0
SPLINE
  5
134
330
1F
100
AcDbEntity
  8
0
  6
Continuous
 62
     7
370
    18
100
AcDbSpline
210
0.0
220
0.0
230
1.0
 70
    24
 71
     3
 72
    23
 73
    19
 74
     0
 42
0.000000001
 43
0.00000001
 40
0.0
 40
0.0
 40
0.0
 40
0.0
 40
0.0313055084069047
 40
0.0625354171774648
 40
0.0937653257842644
 40
0.1250708337010743
 40
0.1875873933451743
 40
0.2501039533358223
 40
0.3126205137640674
 40
0.3751370738657741
 40
0.5000188570150315
 40
0.6249006401642888
 40
0.6874172002659957
 40
0.7499337606942406
 40
0.8124503206848885
 40
0.8749668803289885
 40
0.9374834398340949
 40
1.0
 40
1.0
 40
1.0
 40
1.0
 10
121.9634968034419
 20
158.3543999122258
 30
0.0
 10
121.9634968034419
 20
158.2855939007954
 30
0.0
 10
121.963496803442
 20
158.1481480374927
 30
0.0
 10
121.9634968034419
 20
157.9425581012421
 30
0.0
 10
121.963496803442
 20
157.7379591109016
 30
0.0
 10
121.9634968034419
 20
157.4671041409533
 30
0.0
 10
121.963496803442
 20
157.1332014388654
 30
0.0
 10
121.9634968034419
 20
156.7445710010144
 30
0.0
 10
121.9634968034419
 20
156.3712915325004
 30
0.0
 10
121.963496803442
 20
155.8996233520186
 30
0.0
 10
121.9634968034419
 20
155.3653356890515
 30
0.0
 10
121.9634968034419
 20
154.9271500191763
 30
0.0
 10
121.9634968034419
 20
154.6443042586647
 30
0.0
 10
121.9634968034419
 20
154.4679406354956
 30
0.0
 10
121.963496803442
 20
154.3285684365806
 30
0.0
 10
121.9634968034419
 20
154.2290077018219
 30
0.0
 10
121.9634968034419
 20
154.1660111488719
 30
0.0
 10
121.9634968034419
 20
154.1582703258436
 30
0.0
 10
121.9634968034419
 20
154.154399914309
 30
0.0
  0
SPLINE
  5
135
330
1F
100
AcDbEntity
  8
0
  6
Continuous
 62
     7
370
    18
100
AcDbSpline
210
0.0
220
0.0
230
1.0
 70
    27
 71
     3
 72
    14
 73
    10
 74
     0
 42
0.000000001
 43
0.00000001
 40
0.0
 40
0.0
 40
0.0
 40
0.0
 40
0.25
 40
0.25
 40
0.5000000000000001
 40
0.5000000000000001
 40
0.75
 40
0.75
 40
1.0
 40
1.0
 40
1.0
 40
1.0
 10
121.6634968034419
 20
158.3543999103799
 30
0.0
 10
121.6634968034419
 20
157.1609594826108
 30
0.0
 10
121.6634968034419
 20
156.0163092152462
 30
0.0
 10
121.6634968034419
 20
154.3285295768543
 30
0.0
 10
121.6634968034419
 20
153.8543999120882
 30
0.0
 10
121.6634968034419
 20
153.8543999123634
 30
0.0
 10
121.6634968034419
 20
154.3285295773935
 30
0.0
 10
121.6634968034419
 20
156.0163092161746
 30
0.0
 10
121.6634968034419
 20
157.1609594836486
 30
0.0
 10
121.6634968034419
 20
158.3543999114177
 30
0.0
  0
LINE
  5
136
330
1F
100
AcDbEntity
  8
0
  6
Continuous
 62
     7
370
    18
100
AcDbLine
 10
116.9634968034
 20
159.6810498278
 30
0.0
 11
112.9634968034
 21
159.6810498278
 31
0.0
  0
LINE
  5
137
330
1F
100
AcDbEntity
  8
0
  6
Continuous
 62
     7
370
    18
100
AcDbLine
 10
112.9634968034
 20
157.0277499974
 30
0.0
 11
116.9634968034
 21
157.0277499974
 31
0.0
  0
SPLINE
  5
138
330
1F
100
AcDbEntity
  8
0
  6
Continuous
 62
     7
370
    18
100
AcDbSpline
210
0.0
220
0.0
230
1.0
 70
     8
 71
     3
 72
    14
 73
    10
 74
     0
 42
0.000000001
 43
0.00000001
 40
0.0
 40
0.0
 40
0.0
 40
0.0
 40
0.0836762611521496
 40
0.1667049001914267
 40
0.2508158839822984
 40
0.499969839815844
 40
0.7492796192960637
 40
0.8740091570941632
 40
1.0
 40
1.0
 40
1.0
 40
1.0
 10
113.2634968034419
 20
154.0992810265627
 30
0.0
 10
113.2499029868308
 20
154.0994574631073
 30
0.0
 10
113.2228205645264
 20
154.0998089706454
 30
0.0
 10
113.1828980558218
 20
154.1027583627674
 30
0.0
 10
113.1194736857719
 20
154.110523510845
 30
0.0
 10
113.0409290407164
 20
154.1299006911932
 30
0.0
 10
112.9885052068629
 20
154.1615505602353
 30
0.0
 10
112.966506134495
 20
154.190868197779
 30
0.0
 10
112.9645032724086
 20
154.2066985491372
 30
0.0
 10
112.9634968034419
 20
154.2146535438829
 30
0.0
  0
SPLINE
  5
139
330
1F
100
AcDbEntity
  8
0
  6
Continuous
 62
     7
370
    18
100
AcDbSpline
210
0.0
220
0.0
230
1.0
 70
     8
 71
     3
 72
    11
 73
     7
 74
     0
 42
0.000000001
 43
0.00000001
 40
0.0
 40
0.0
 40
0.0
 40
0.0
 40
0.2516029273659005
 40
0.500765075458893
 40
0.7508242773942502
 40
1.0
 40
1.0
 40
1.0
 40
1.0
 10
113.4716600674419
 20
154.1291097635847
 30
0.0
 10
113.4572908882115
 20
154.1245850551355
 30
0.0
 10
113.4286919239748
 20
154.115579532061
 30
0.0
 10
113.3770287123943
 20
154.10641784137
 30
0.0
 10
113.3215698558644
 20
154.1003581159258
 30
0.0
 10
113.2828316363394
 20
154.0996396325251
 30
0.0
 10
113.2634968034419
 20
154.0992810265627
 30
0.0
  0
SPLINE
  5
13A
330
1F
100
AcDbEntity
  8
0
  6
Continuous
 62
     7
370
    18
100
AcDbSpline
210
0.0
220
0.0
230
1.0
 70
     8
 71
     3
 72
    17
 73
    13
 74
     0
 42
0.000000001
 43
0.00000001
 40
0.0
 40
0.0
 40
0.0
 40
0.0
 40
0.0810181026343131
 40
0.1497488613456418
 40
0.2061913765211308
 40
0.2503453966508019
 40
0.3826540905712413
 40
0.5004634122027888
 40
0.6287002617002321
 40
0.7498493337919067
 40
0.87606658488559
 40
0.9999999999999999
 40
0.9999999999999999
 40
0.9999999999999999
 40
0.9999999999999999
 10
113.4716600681759
 20
154.1291097656864
 30
0.0
 10
113.5037745561567
 20
154.1402419730386
 30
0.0
 10
113.5631329939806
 20
154.1608180581488
 30
0.0
 10
113.650282762352
 20
154.1888620703814
 30
0.0
 10
113.7242863527085
 20
154.2116399162801
 30
0.0
 10
113.8290312353511
 20
154.2423265169414
 30
0.0
 10
113.9677309841942
 20
154.278926540407
 30
0.0
 10
114.1559972091178
 20
154.3210388752375
 30
0.0
 10
114.3471501545319
 20
154.3550595468741
 30
0.0
 10
114.5495432148449
 20
154.3812217801951
 30
0.0
 10
114.75449138081
 20
154.3980084988752
 30
0.0
 10
114.8942536656639
 20
154.4001671492818
 30
0.0
 10
114.9634968043239
 20
154.4012366204168
 30
0.0
  0
SPLINE
  5
13B
330
1F
100
AcDbEntity
  8
0
  6
Continuous
 62
     7
370
    18
100
AcDbSpline
210
0.0
220
0.0
230
1.0
 70
     8
 71
     3
 72
    16
 73
    12
 74
     0
 42
0.000000001
 43
0.00000001
 40
0.0
 40
0.0
 40
0.0
 40
0.0
 40
0.0822020591374434
 40
0.1653634907306058
 40
0.2495806439942111
 40
0.3711383407280545
 40
0.4998281576374596
 40
0.6176064639588401
 40
0.7498855198296906
 40
0.8503988625841704
 40
1.0
 40
1.0
 40
1.0
 40
1.0
 10
114.9634968043239
 20
154.4012366204168
 30
0.0
 10
115.0094116887005
 20
154.40076678807
 30
0.0
 10
115.1017773257256
 20
154.3998216400076
 30
0.0
 10
115.2404420234417
 20
154.392271656015
 30
0.0
 10
115.3992423879926
 20
154.3785295978329
 30
0.0
 10
115.5795135578403
 20
154.3550774127647
 30
0.0
 10
115.7710780706831
 20
154.3210349738937
 30
0.0
 10
115.959583125143
 20
154.2788576725127
 30
0.0
 10
116.1245832174865
 20
154.2352426774424
 30
0.0
 10
116.2946527291873
 20
154.1839939663851
 30
0.0
 10
116.3951957035143
 20
154.1496512168818
 30
0.0
 10
116.4553335384299
 20
154.1291097656864
 30
0.0
  0
SPLINE
  5
13C
330
1F
100
AcDbEntity
  8
0
  6
Continuous
 62
     7
370
    18
100
AcDbSpline
210
0.0
220
0.0
230
1.0
 70
     8
 71
     3
 72
    12
 73
     8
 74
     0
 42
0.000000001
 43
0.00000001
 40
0.0
 40
0.0
 40
0.0
 40
0.0
 40
0.1667610443292028
 40
0.332355404905959
 40
0.4999001905056926
 40
0.7487321180604072
 40
0.9999999999999999
 40
0.9999999999999999
 40
0.9999999999999999
 40
0.9999999999999999
 10
116.6634968034419
 20
154.0992810265627
 30
0.0
 10
116.6505721737187
 20
154.0994417945913
 30
0.0
 10
116.624813336802
 20
154.0997622058927
 30
0.0
 10
116.586761520711
 20
154.1024210741661
 30
0.0
 10
116.544254611536
 20
154.1073940499835
 30
0.0
 10
116.498252460745
 20
154.1156024987205
 30
0.0
 10
116.4696862279776
 20
154.1245927449905
 30
0.0
 10
116.4553335394419
 20
154.1291097635847
 30
0.0
  0
SPLINE
  5
13D
330
1F
100
AcDbEntity
  8
0
  6
Continuous
 62
     7
370
    18
100
AcDbSpline
210
0.0
220
0.0
230
1.0
 70
     8
 71
     3
 72
    13
 73
     9
 74
     0
 42
0.000000001
 43
0.00000001
 40
0.0
 40
0.0
 40
0.0
 40
0.0
 40
0.126023850968171
 40
0.2507860845933103
 40
0.5004940164429482
 40
0.7497201447862497
 40
0.8751047801654428
 40
1.0
 40
1.0
 40
1.0
 40
1.0
 10
116.963496803442
 20
154.2146535438829
 30
0.0
 10
116.9624901594062
 20
154.2066982715752
 30
0.0
 10
116.9604869487889
 20
154.190867366722
 30
0.0
 10
116.9384775201622
 20
154.1615375192169
 30
0.0
 10
116.8859741500279
 20
154.1298204540081
 30
0.0
 10
116.801879650972
 20
154.1092637033972
 30
0.0
 10
116.7245173948609
 20
154.1004878886042
 30
0.0
 10
116.6838104668129
 20
154.0996827891264
 30
0.0
 10
116.6634968034419
 20
154.0992810265627
 30
0.0
  0
SPLINE
  5
13E
330
1F
100
AcDbEntity
  8
0
  6
Continuous
 62
     7
370
    18
100
AcDbSpline
210
0.0
220
0.0
230
1.0
 70
    24
 71
     3
 72
    10
 73
     6
 74
     0
 42
0.000000001
 43
0.00000001
 40
0.0
 40
0.0
 40
0.0
 40
0.0
 40
0.5
 40
0.5
 40
1.0
 40
1.0
 40
1.0
 40
1.0
 10
158.9634968032494
 20
158.3543999122258
 30
0.0
 10
158.8927861250343
 20
158.3543999122258
 30
0.0
 10
158.8099434125648
 20
158.3543999122258
 30
0.0
 10
158.6927861250541
 20
158.3543999122258
 30
0.0
 10
158.6634968031534
 20
158.3543999122258
 30
0.0
 10
158.6634968030561
 20
158.3543999122258
 30
0.0
  0
SPLINE
  5
13F
330
1F
100
AcDbEntity
  8
0
  6
Continuous
 62
     7
370
    18
100
AcDbSpline
210
0.0
220
0.0
230
1.0
 70
    24
 71
     3
 72
    13
 73
     9
 74
     0
 42
0.000000001
 43
0.00000001
 40
0.0
 40
0.0
 40
0.0
 40
0.0
 40
0.3773382869334918
 40
0.7462480129018679
 40
0.8727456408929544
 40
0.9430037977921807
 40
0.9722806858950075
 40
1.0
 40
1.0
 40
1.0
 40
1.0
 10
158.7399786405612
 20
155.4543999122258
 30
0.0
 10
158.742907124179
 20
155.4543999122258
 30
0.0
 10
158.7486986782203
 20
155.4543999122258
 30
0.0
 10
158.7915784589593
 20
155.4543999122258
 30
0.0
 10
158.861745470812
 20
155.4543999122258
 30
0.0
 10
158.9069033632082
 20
155.4543999122258
 30
0.0
 10
158.9396394138495
 20
155.4543999122258
 30
0.0
 10
158.9556905539612
 20
155.4543999122258
 30
0.0
 10
158.9634968038036
 20
155.4543999122258
 30
0.0
  0
SPLINE
  5
140
330
1F
100
AcDbEntity
  8
0
  6
Continuous
 62
     7
370
    18
100
AcDbSpline
210
0.0
220
0.0
230
1.0
 70
    24
 71
     3
 72
    10
 73
     6
 74
     0
 42
0.000000001
 43
0.00000001
 40
0.0
 40
0.0
 40
0.0
 40
0.0
 40
0.5000000000000002
 40
0.5000000000000002
 40
1.0
 40
1.0
 40
1.0
 40
1.0
 10
158.963496803442
 20
155.4543999125165
 30
0.0
 10
158.963496803442
 20
155.6238599937473
 30
0.0
 10
158.963496803442
 20
156.0001884577048
 30
0.0
 10
158.963496803442
 20
157.0491971305841
 30
0.0
 10
158.963496803442
 20
157.6925452090365
 30
0.0
 10
158.963496803442
 20
158.3543999109952
 30
0.0
  0
SPLINE
  5
141
330
1F
100
AcDbEntity
  8
0
  6
Continuous
 62
     7
370
    18
100
AcDbSpline
210
0.0
220
0.0
230
1.0
 70
    24
 71
     3
 72
    10
 73
     6
 74
     0
 42
0.000000001
 43
0.00000001
 40
0.0
 40
0.0
 40
0.0
 40
0.0
 40
0.5
 40
0.5
 40
1.0
 40
1.0
 40
1.0
 40
1.0
 10
158.6634968030561
 20
158.3543999122258
 30
0.0
 10
158.6634968031534
 20
158.3543999122258
 30
0.0
 10
158.6927861250541
 20
158.3543999122258
 30
0.0
 10
158.8099434125648
 20
158.3543999122258
 30
0.0
 10
158.8927861250343
 20
158.3543999122258
 30
0.0
 10
158.9634968032494
 20
158.3543999122258
 30
0.0
  0
SPLINE
  5
142
330
1F
100
AcDbEntity
  8
0
  6
Continuous
 62
     7
370
    18
100
AcDbSpline
210
0.0
220
0.0
230
1.0
 70
    24
 71
     3
 72
    17
 73
    13
 74
     0
 42
0.000000001
 43
0.00000001
 40
0.0
 40
0.0
 40
0.0
 40
0.0
 40
0.0274677448720734
 40
0.0564576112342444
 40
0.1258917426685078
 40
0.1837233365304917
 40
0.2511977507332247
 40
0.3656255199532283
 40
0.5003367620168643
 40
0.7490603161974606
 40
0.9980067748822787
 40
1.0
 40
1.0
 40
1.0
 40
1.0
 10
158.9634968038036
 20
161.2543999122258
 30
0.0
 10
158.9557508979254
 20
161.2543999122258
 30
0.0
 10
158.9398298478079
 20
161.2543999122258
 30
0.0
 10
158.907363057034
 20
161.2543999122258
 30
0.0
 10
158.8759038304761
 20
161.2543999122258
 30
0.0
 10
158.8466233752289
 20
161.2543999122258
 30
0.0
 10
158.8185368025298
 20
161.2543999122258
 30
0.0
 10
158.7917794279546
 20
161.2543999122258
 30
0.0
 10
158.763112629698
 20
161.2543999122258
 30
0.0
 10
158.7461433703833
 20
161.2543999122258
 30
0.0
 10
158.7362235743598
 20
161.2543999122258
 30
0.0
 10
158.7399490489501
 20
161.2543999122258
 30
0.0
 10
158.7399786405612
 20
161.2543999122258
 30
0.0
  0
SPLINE
  5
143
330
1F
100
AcDbEntity
  8
0
  6
Continuous
 62
     7
370
    18
100
AcDbSpline
210
0.0
220
0.0
230
1.0
 70
    24
 71
     3
 72
    10
 73
     6
 74
     0
 42
0.000000001
 43
0.00000001
 40
0.0
 40
0.0
 40
0.0
 40
0.0
 40
0.4999999999999999
 40
0.4999999999999999
 40
1.0
 40
1.0
 40
1.0
 40
1.0
 10
158.963496803442
 20
158.3543999109952
 30
0.0
 10
158.963496803442
 20
159.0162546134675
 30
0.0
 10
158.963496803442
 20
159.6596026925695
 30
0.0
 10
158.963496803442
 20
160.7086113665214
 30
0.0
 10
158.963496803442
 20
161.0849398308258
 30
0.0
 10
158.963496803442
 20
161.254399912073
 30
0.0
  0
LINE
  5
144
330
1F
100
AcDbEntity
  8
0
  6
Continuous
 62
     7
370
    18
100
AcDbLine
 10
122.6846204784
 20
161.2543999121
 30
0.0
 11
125.6819521912
 21
161.2543999121
 31
0.0
  0
LINE
  5
145
330
1F
100
AcDbEntity
  8
0
  6
Continuous
 62
     7
370
    18
100
AcDbLine
 10
126.6845229076
 20
161.2543999121
 30
0.0
 11
129.68250584
 21
161.2543999121
 31
0.0
  0
LINE
  5
146
330
1F
100
AcDbEntity
  8
0
  6
Continuous
 62
     7
370
    18
100
AcDbLine
 10
130.6845935916
 20
161.2543999121
 30
0.0
 11
131.9634968034
 21
161.2543999121
 31
0.0
  0
LINE
  5
147
330
1F
100
AcDbEntity
  8
0
  6
Continuous
 62
     7
370
    18
100
AcDbLine
 10
131.9634968034
 20
155.4543999125
 30
0.0
 11
131.3929911968
 21
155.4543999125
 31
0.0
  0
LINE
  5
148
330
1F
100
AcDbEntity
  8
0
  6
Continuous
 62
     7
370
    18
100
AcDbLine
 10
130.3907438636
 20
155.4543999125
 30
0.0
 11
127.3924816327
 21
155.4543999125
 31
0.0
  0
LINE
  5
149
330
1F
100
AcDbEntity
  8
0
  6
Continuous
 62
     7
370
    18
100
AcDbLine
 10
126.3902692786
 20
155.4543999125
 30
0.0
 11
123.3927635763
 21
155.4543999125
 31
0.0
  0
LINE
  5
14A
330
1F
100
AcDbEntity
  8
0
  6
Continuous
 62
     7
370
    18
100
AcDbLine
 10
122.3904336909
 20
155.4543999125
 30
0.0
 11
121.9634968034
 21
155.4543999125
 31
0.0
  0
LINE
  5
14B
330
1F
100
AcDbEntity
  8
0
  6
Continuous
 62
     7
370
    18
100
AcDbLine
 10
158.9634968034
 20
161.2543999121
 30
0.0
 11
159.4634968034
 21
161.2543999121
 31
0.0
  0
LINE
  5
14C
330
1F
100
AcDbEntity
  8
0
  6
Continuous
 62
     7
370
    18
100
AcDbLine
 10
159.4634968034
 20
155.4543999125
 30
0.0
 11
158.9634968034
 21
155.4543999125
 31
0.0
  0
SPLINE
  5
14D
330
1F
100
AcDbEntity
  8
0
  6
Continuous
 62
     7
370
    18
100
AcDbSpline
210
0.0
220
0.0
230
1.0
 70
    24
 71
     3
 72
    10
 73
     6
 74
     0
 42
0.000000001
 43
0.00000001
 40
0.0
 40
0.0
 40
0.0
 40
0.0
 40
0.4999999999999998
 40
0.4999999999999998
 40
1.0
 40
1.0
 40
1.0
 40
1.0
 10
159.463496803442
 20
158.3543999109952
 30
0.0
 10
159.463496803442
 20
157.6925452090365
 30
0.0
 10
159.463496803442
 20
157.0491971305841
 30
0.0
 10
159.463496803442
 20
156.0001884577048
 30
0.0
 10
159.463496803442
 20
155.6238599937473
 30
0.0
 10
159.463496803442
 20
155.4543999125165
 30
0.0
  0
SPLINE
  5
14E
330
1F
100
AcDbEntity
  8
0
  6
Continuous
 62
     7
370
    18
100
AcDbSpline
210
0.0
220
0.0
230
1.0
 70
    24
 71
     3
 72
    10
 73
     6
 74
     0
 42
0.000000001
 43
0.00000001
 40
0.0
 40
0.0
 40
0.0
 40
0.0
 40
0.5000000000000001
 40
0.5000000000000001
 40
1.0
 40
1.0
 40
1.0
 40
1.0
 10
159.463496803442
 20
161.254399912073
 30
0.0
 10
159.463496803442
 20
161.0849398308258
 30
0.0
 10
159.463496803442
 20
160.7086113665215
 30
0.0
 10
159.463496803442
 20
159.6596026925695
 30
0.0
 10
159.463496803442
 20
159.0162546134675
 30
0.0
 10
159.463496803442
 20
158.3543999109952
 30
0.0
  0
SPLINE
  5
14F
330
1F
100
AcDbEntity
  8
0
  6
Continuous
 62
     7
370
    18
100
AcDbSpline
210
0.0
220
0.0
230
1.0
 70
     8
 71
     3
 72
     9
 73
     5
 74
     0
 42
0.000000001
 43
0.00000001
 40
0.0
 40
0.0
 40
0.0
 40
0.0
 40
0.0002747512244898
 40
1.0
 40
1.0
 40
1.0
 40
1.0
 10
159.5634693277428
 20
155.4543999120357
 30
0.0
 10
159.5634784861588
 20
155.4543999120357
 30
0.0
 10
159.5968119717958
 20
155.4543999118747
 30
0.0
 10
159.5301452292343
 20
155.4543999119001
 30
0.0
 10
159.463496803442
 20
155.4543999119255
 30
0.0
  0
SPLINE
  5
150
330
1F
100
AcDbEntity
  8
0
  6
Continuous
 62
     7
370
    18
100
AcDbSpline
210
0.0
220
0.0
230
1.0
 70
    24
 71
     3
 72
     9
 73
     5
 74
     0
 42
0.000000001
 43
0.00000001
 40
0.0
 40
0.0
 40
0.0
 40
0.0
 40
0.9997252481033678
 40
1.0
 40
1.0
 40
1.0
 40
1.0
 10
159.463496803442
 20
161.2543999123881
 30
0.0
 10
159.5301452292015
 20
161.2543999124593
 30
0.0
 10
159.5968119717751
 20
161.2543999125304
 30
0.0
 10
159.563478486114
 20
161.254399912416
 30
0.0
 10
159.5634693276756
 20
161.2543999124159
 30
0.0
  0
SPLINE
  5
151
330
1F
100
AcDbEntity
  8
0
  6
Continuous
 62
     7
370
    18
100
AcDbSpline
210
0.0
220
0.0
230
1.0
 70
    24
 71
     3
 72
    10
 73
     6
 74
     0
 42
0.000000001
 43
0.00000001
 40
0.0
 40
0.0
 40
0.0
 40
0.0
 40
0.4999999999999999
 40
0.4999999999999999
 40
0.9999999999999999
 40
0.9999999999999999
 40
0.9999999999999999
 40
0.9999999999999999
 10
159.963496803442
 20
158.3543999117769
 30
0.0
 10
159.963496803442
 20
157.6913774519051
 30
0.0
 10
159.963496803442
 20
157.0554606366418
 30
0.0
 10
159.963496803442
 20
156.1178052817634
 30
0.0
 10
159.963496803442
 20
155.8543999123023
 30
0.0
 10
159.963496803442
 20
155.8543999122258
 30
0.0
  0
SPLINE
  5
152
330
1F
100
AcDbEntity
  8
0
  6
Continuous
 62
     7
370
    18
100
AcDbSpline
210
0.0
220
0.0
230
1.0
 70
    24
 71
     3
 72
    10
 73
     6
 74
     0
 42
0.000000001
 43
0.00000001
 40
0.0
 40
0.0
 40
0.0
 40
0.0
 40
0.5000000000000002
 40
0.5000000000000002
 40
1.0
 40
1.0
 40
1.0
 40
1.0
 10
159.963496803442
 20
160.8543999122258
 30
0.0
 10
159.963496803442
 20
160.8543999123618
 30
0.0
 10
159.963496803442
 20
160.5909945429335
 30
0.0
 10
159.963496803442
 20
159.6533391878135
 30
0.0
 10
159.963496803442
 20
159.017422372315
 30
0.0
 10
159.963496803442
 20
158.3543999122258
 30
0.0
  0
SPLINE
  5
153
330
1F
100
AcDbEntity
  8
0
  6
Continuous
 62
     7
370
    18
100
AcDbSpline
210
0.0
220
0.0
230
1.0
 70
    24
 71
     3
 72
    10
 73
     6
 74
     0
 42
0.000000001
 43
0.00000001
 40
0.0
 40
0.0
 40
0.0
 40
0.0
 40
0.4999999999999999
 40
0.4999999999999999
 40
1.0
 40
1.0
 40
1.0
 40
1.0
 10
114.9634968044059
 20
146.5543999122258
 30
0.0
 10
115.5867379166853
 20
146.5543999122258
 30
0.0
 10
116.1844997229758
 20
146.5543999122258
 30
0.0
 10
117.0658957563582
 20
146.5543999122258
 30
0.0
 10
117.3134968035138
 20
146.5543999122258
 30
0.0
 10
117.3134968034419
 20
146.5543999122258
 30
0.0
  0
SPLINE
  5
154
330
1F
100
AcDbEntity
  8
0
  6
Continuous
 62
     7
370
    18
100
AcDbSpline
210
0.0
220
0.0
230
1.0
 70
    24
 71
     3
 72
    10
 73
     6
 74
     0
 42
0.000000001
 43
0.00000001
 40
0.0
 40
0.0
 40
0.0
 40
0.0
 40
0.5000000000000001
 40
0.5000000000000001
 40
1.0
 40
1.0
 40
1.0
 40
1.0
 10
112.6134968034419
 20
146.5543999122258
 30
0.0
 10
112.6134968035698
 20
146.5543999122258
 30
0.0
 10
112.8610978510776
 20
146.5543999122258
 30
0.0
 10
113.742493885252
 20
146.5543999122258
 30
0.0
 10
114.3402556919221
 20
146.5543999122258
 30
0.0
 10
114.9634968044059
 20
146.5543999122258
 30
0.0
  0
SPLINE
  5
155
330
1F
100
AcDbEntity
  8
0
  6
Continuous
 62
     7
370
    18
100
AcDbSpline
210
0.0
220
0.0
230
1.0
 70
    24
 71
     3
 72
    10
 73
     6
 74
     0
 42
0.000000001
 43
0.00000001
 40
0.0
 40
0.0
 40
0.0
 40
0.0
 40
0.4999999999999999
 40
0.4999999999999999
 40
1.0
 40
1.0
 40
1.0
 40
1.0
 10
114.9634968044059
 20
149.0543999122258
 30
0.0
 10
115.5867379166853
 20
149.0543999122258
 30
0.0
 10
116.1844997229758
 20
149.0543999122258
 30
0.0
 10
117.0658957563582
 20
149.0543999122258
 30
0.0
 10
117.3134968035138
 20
149.0543999122258
 30
0.0
 10
117.3134968034419
 20
149.0543999122257
 30
0.0
  0
SPLINE
  5
156
330
1F
100
AcDbEntity
  8
0
  6
Continuous
 62
     7
370
    18
100
AcDbSpline
210
0.0
220
0.0
230
1.0
 70
    24
 71
     3
 72
    10
 73
     6
 74
     0
 42
0.000000001
 43
0.00000001
 40
0.0
 40
0.0
 40
0.0
 40
0.0
 40
0.5000000000000001
 40
0.5000000000000001
 40
1.0
 40
1.0
 40
1.0
 40
1.0
 10
112.6134968034419
 20
149.0543999122258
 30
0.0
 10
112.6134968035698
 20
149.0543999122258
 30
0.0
 10
112.8610978510776
 20
149.0543999122258
 30
0.0
 10
113.742493885252
 20
149.0543999122258
 30
0.0
 10
114.3402556919221
 20
149.0543999122258
 30
0.0
 10
114.9634968044059
 20
149.0543999122257
 30
0.0
  0
SPLINE
  5
157
330
1F
100
AcDbEntity
  8
0
  6
Continuous
 62
     7
370
    18
100
AcDbSpline
210
0.0
220
0.0
230
1.0
 70
    24
 71
     3
 72
    10
 73
     6
 74
     0
 42
0.000000001
 43
0.00000001
 40
0.0
 40
0.0
 40
0.0
 40
0.0
 40
0.5000000000000001
 40
0.5000000000000001
 40
1.0
 40
1.0
 40
1.0
 40
1.0
 10
116.963496803442
 20
144.0543999122258
 30
0.0
 10
116.9634968035031
 20
144.0543999122258
 30
0.0
 10
116.7527725080515
 20
144.0543999122258
 30
0.0
 10
116.0026482243218
 20
144.0543999122258
 30
0.0
 10
115.4939147721597
 20
144.0543999122258
 30
0.0
 10
114.9634968042623
 20
144.0543999122258
 30
0.0
  0
SPLINE
  5
158
330
1F
100
AcDbEntity
  8
0
  6
Continuous
 62
     7
370
    18
100
AcDbSpline
210
0.0
220
0.0
230
1.0
 70
    24
 71
     3
 72
    10
 73
     6
 74
     0
 42
0.000000001
 43
0.00000001
 40
0.0
 40
0.0
 40
0.0
 40
0.0
 40
0.5000000000000002
 40
0.5000000000000002
 40
1.0
 40
1.0
 40
1.0
 40
1.0
 10
114.9634968042623
 20
144.0543999122258
 30
0.0
 10
114.433078836191
 20
144.0543999122258
 30
0.0
 10
113.9243453837058
 20
144.0543999122258
 30
0.0
 10
113.1742210993021
 20
144.0543999122258
 30
0.0
 10
112.9634968035507
 20
144.0543999122258
 30
0.0
 10
112.9634968034419
 20
144.0543999122258
 30
0.0
  0
SPLINE
  5
159
330
1F
100
AcDbEntity
  8
0
  6
Continuous
 62
     7
370
    18
100
AcDbSpline
210
0.0
220
0.0
230
1.0
 70
     8
 71
     3
 72
    14
 73
    10
 74
     0
 42
0.000000001
 43
0.00000001
 40
0.0
 40
0.0
 40
0.0
 40
0.0
 40
0.2500000000000002
 40
0.2500000000000002
 40
0.5000000000000001
 40
0.5000000000000001
 40
0.75
 40
0.75
 40
1.0
 40
1.0
 40
1.0
 40
1.0
 10
116.9818641504419
 20
151.1033655032258
 30
0.0
 10
116.9448950214419
 20
151.1167281962258
 30
0.0
 10
116.9009044244419
 20
151.1365269652258
 30
0.0
 10
116.8007183031086
 20
151.2004230212258
 30
0.0
 10
116.7448964564419
 20
151.2443919122258
 30
0.0
 10
116.6329088084419
 20
151.3672605402258
 30
0.0
 10
116.5765152984419
 20
151.4463603862258
 30
0.0
 10
116.4868768824419
 20
151.6465745782258
 30
0.0
 10
116.4553336744419
 20
151.7653233772258
 30
0.0
 10
116.4553335384419
 20
151.8908482572258
 30
0.0
  0
LINE
  5
15A
330
1F
100
AcDbEntity
  8
0
  6
Continuous
 62
     7
370
    18
100
AcDbLine
 10
116.4553335384
 20
154.1291097657
 30
0.0
 11
116.4553335384
 21
151.8908482576
 31
0.0
  0
LINE
  5
15B
330
1F
100
AcDbEntity
  8
0
  6
Continuous
 62
     7
370
    18
100
AcDbLine
 10
113.4716600682
 20
151.8908482576
 30
0.0
 11
113.4716600682
 21
154.1291097657
 31
0.0
  0
SPLINE
  5
15C
330
1F
100
AcDbEntity
  8
0
  6
Continuous
 62
     7
370
    18
100
AcDbSpline
210
0.0
220
0.0
230
1.0
 70
     8
 71
     3
 72
    18
 73
    14
 74
     0
 42
0.000000001
 43
0.00000001
 40
0.0
 40
0.0
 40
0.0
 40
0.0
 40
0.0884096293516565
 40
0.1712958459353656
 40
0.248965413543748
 40
0.3779336499071835
 40
0.498511365860921
 40
0.626538449220377
 40
0.7488730468569605
 40
0.8122711756634334
 40
0.8742355429967265
 40
0.9380760258737805
 40
0.9999999999999999
 40
0.9999999999999999
 40
0.9999999999999999
 40
0.9999999999999999
 10
112.9451294565177
 20
151.1033655040133
 30
0.0
 10
112.959486376355
 20
151.1089014400243
 30
0.0
 10
112.9873032640241
 20
151.1196274531182
 30
0.0
 10
113.0343266014502
 20
151.1430121670681
 30
0.0
 10
113.0933699898119
 20
151.178093278086
 30
0.0
 10
113.1660347958557
 20
151.2321468246968
 30
0.0
 10
113.2530687890575
 20
151.3179925056813
 30
0.0
 10
113.3357899983873
 20
151.4271329508841
 30
0.0
 10
113.3956427955196
 20
151.5409510837308
 30
0.0
 10
113.4327702039633
 20
151.6407773724519
 30
0.0
 10
113.4543277874184
 20
151.7216312359811
 30
0.0
 10
113.4688455371408
 20
151.8052376569396
 30
0.0
 10
113.4707314710005
 20
151.8626027840566
 30
0.0
 10
113.4716600681759
 20
151.8908482576347
 30
0.0
  0
SPLINE
  5
15D
330
1F
100
AcDbEntity
  8
0
  6
Continuous
 62
     7
370
    18
100
AcDbSpline
210
0.0
220
0.0
230
1.0
 70
     8
 71
     3
 72
    12
 73
     8
 74
     0
 42
0.000000001
 43
0.00000001
 40
0.0
 40
0.0
 40
0.0
 40
0.0
 40
0.5
 40
0.5
 40
0.75
 40
0.75
 40
1.0
 40
1.0
 40
1.0
 40
1.0
 10
112.9634968034419
 20
151.8908481671999
 30
0.0
 10
112.9634968077413
 20
151.890848182362
 30
0.0
 10
112.9835826088997
 20
151.8908481961319
 30
0.0
 10
113.0647910175256
 20
151.8908481983
 30
0.0
 10
113.0998545614696
 20
151.8908481958535
 30
0.0
 10
113.1785924097792
 20
151.8908481843139
 30
0.0
 10
113.221959421131
 20
151.8908481752612
 30
0.0
 10
113.2634968092381
 20
151.8908481644112
 30
0.0
  0
LINE
  5
15E
330
1F
100
AcDbEntity
  8
0
  6
Continuous
 62
     7
370
    18
100
AcDbLine
 10
113.2634968035
 20
151.8908482572
 30
0.0
 11
113.2634968035
 21
154.0992810277
 31
0.0
  0
SPLINE
  5
15F
330
1F
100
AcDbEntity
  8
0
  6
Continuous
 62
     7
370
    18
100
AcDbSpline
210
0.0
220
0.0
230
1.0
 70
     8
 71
     3
 72
    10
 73
     6
 74
     0
 42
0.000000001
 43
0.00000001
 40
0.0
 40
0.0
 40
0.0
 40
0.0
 40
0.5
 40
0.5
 40
1.0
 40
1.0
 40
1.0
 40
1.0
 10
117.2634967900358
 20
151.4013532263811
 30
0.0
 10
117.1983993447793
 20
151.3986092850041
 30
0.0
 10
117.1227509974889
 20
151.3677131184281
 30
0.0
 10
117.0136579034482
 20
151.252284739428
 30
0.0
 10
116.984457470225
 20
151.1722433175043
 30
0.0
 10
116.9818641269157
 20
151.1033655117295
 30
0.0
  0
SPLINE
  5
160
330
1F
100
AcDbEntity
  8
0
  6
Continuous
 62
     7
370
    18
100
AcDbSpline
210
0.0
220
0.0
230
1.0
 70
    24
 71
     3
 72
    12
 73
     8
 74
     0
 42
0.000000001
 43
0.00000001
 40
0.0
 40
0.0
 40
0.0
 40
0.0
 40
0.2500000000000016
 40
0.2500000000000016
 40
0.500000000000003
 40
0.500000000000003
 40
1.0
 40
1.0
 40
1.0
 40
1.0
 10
116.6634968038122
 20
151.8908482572258
 30
0.0
 10
116.7050341934027
 20
151.8908482572258
 30
0.0
 10
116.7484012062591
 20
151.8908482572258
 30
0.0
 10
116.8271390563066
 20
151.8908482572258
 30
0.0
 10
116.8622026004326
 20
151.8908482572258
 30
0.0
 10
116.9434110070125
 20
151.8908482572258
 30
0.0
 10
116.963496803442
 20
151.8908482572258
 30
0.0
 10
116.963496803442
 20
151.8908482572258
 30
0.0
  0
SPLINE
  5
161
330
1F
100
AcDbEntity
  8
0
  6
Continuous
 62
     7
370
    18
100
AcDbSpline
210
0.0
220
0.0
230
1.0
 70
    24
 71
     3
 72
    10
 73
     6
 74
     0
 42
0.000000001
 43
0.00000001
 40
0.0
 40
0.0
 40
0.0
 40
0.0
 40
0.5
 40
0.5
 40
1.0
 40
1.0
 40
1.0
 40
1.0
 10
116.4553335384419
 20
151.8908482572258
 30
0.0
 10
116.4782631277184
 20
151.8908482572258
 30
0.0
 10
116.5073472249505
 20
151.8908482572258
 30
0.0
 10
116.5779312484269
 20
151.8908482572258
 30
0.0
 10
116.6195450643712
 20
151.8908482572258
 30
0.0
 10
116.6634968038122
 20
151.8908482572258
 30
0.0
  0
LINE
  5
162
330
1F
100
AcDbEntity
  8
0
  6
Continuous
 62
     7
370
    18
100
AcDbLine
 10
116.6634968034
 20
154.0992810277
 30
0.0
 11
116.6634968034
 21
151.8908482572
 31
0.0
  0
SPLINE
  5
163
330
1F
100
AcDbEntity
  8
0
  6
Continuous
 62
     7
370
    18
100
AcDbSpline
210
0.0
220
0.0
230
1.0
 70
     8
 71
     3
 72
    10
 73
     6
 74
     0
 42
0.000000001
 43
0.00000001
 40
0.0
 40
0.0
 40
0.0
 40
0.0
 40
0.5
 40
0.5
 40
1.0
 40
1.0
 40
1.0
 40
1.0
 10
112.9451293956457
 20
151.1033654812507
 30
0.0
 10
112.9425360553284
 20
151.1722432831738
 30
0.0
 10
112.9133356286466
 20
151.2522846985832
 30
0.0
 10
112.8042425514204
 20
151.3677130751427
 30
0.0
 10
112.7285942124218
 20
151.3986092472912
 30
0.0
 10
112.6634967687981
 20
151.4013531971512
 30
0.0
  0
SPLINE
  5
164
330
1F
100
AcDbEntity
  8
0
  6
Continuous
 62
     7
370
    18
100
AcDbSpline
210
0.0
220
0.0
230
1.0
 70
     8
 71
     3
 72
    10
 73
     6
 74
     0
 42
0.000000001
 43
0.00000001
 40
0.0
 40
0.0
 40
0.0
 40
0.0
 40
0.5
 40
0.5
 40
1.0
 40
1.0
 40
1.0
 40
1.0
 10
113.2634968092381
 20
151.8908481644112
 30
0.0
 10
113.3074485471095
 20
151.8908481529304
 30
0.0
 10
113.3490623615569
 20
151.8908481395696
 30
0.0
 10
113.4196463829243
 20
151.8908481133056
 30
0.0
 10
113.4487304795155
 20
151.8908481004378
 30
0.0
 10
113.4716600684418
 20
151.8908480888823
 30
0.0
  0
LINE
  5
165
330
1F
100
AcDbEntity
  8
0
  6
Continuous
 62
     7
370
    18
100
AcDbLine
 10
123.5342275164
 20
152.3715943053
 30
0.0
 11
123.5391638985
 21
152.373760752
 31
0.0
  0
LINE
  5
166
330
1F
100
AcDbEntity
  8
0
  6
Continuous
 62
     7
370
    18
100
AcDbLine
 10
125.5353176544
 20
164.3300371399
 30
0.0
 11
125.5403103805
 21
164.3293899288
 31
0.0
  0
LINE
  5
167
330
1F
100
AcDbEntity
  8
0
  6
Continuous
 62
     7
370
    18
100
AcDbLine
 10
127.534943195
 20
152.3790178132
 30
0.0
 11
127.5398123134
 21
152.3781434585
 31
0.0
  0
SPLINE
  5
168
330
1F
100
AcDbEntity
  8
0
  6
Continuous
 62
     7
370
    18
100
AcDbSpline
210
0.0
220
0.0
230
1.0
 70
     8
 71
     3
 72
    20
 73
    16
 74
     0
 42
0.000000001
 43
0.00000001
 40
0.0
 40
0.0
 40
0.0
 40
0.0
 40
0.0415257692634468
 40
0.0831033285623948
 40
0.1254609811218709
 40
0.188557713308994
 40
0.2507151954353413
 40
0.3752409483024442
 40
0.4997564808524942
 40
0.6244058717325962
 40
0.7490711498726249
 40
0.8113103143667147
 40
0.8744942865580502
 40
0.9377175068287796
 40
1.0
 40
1.0
 40
1.0
 40
1.0
 10
119.5515014480907
 20
152.3559965178629
 30
0.0
 10
119.573164557242
 20
152.3568179777141
 30
0.0
 10
119.6165177933029
 20
152.3584619219234
 30
0.0
 10
119.6808119742958
 20
152.3719811412467
 30
0.0
 10
119.7534556510389
 20
152.3968217266856
 30
0.0
 10
119.8312781932098
 20
152.4378626331483
 30
0.0
 10
119.9327041808359
 20
152.5207235170064
 30
0.0
 10
120.0244227364841
 20
152.6598226596722
 30
0.0
 10
120.0649695200035
 20
152.8554416561312
 30
0.0
 10
120.0247353066496
 20
153.0512397624886
 30
0.0
 10
119.9330844248924
 20
153.1905569717196
 30
0.0
 10
119.8315940615912
 20
153.2737370687119
 30
0.0
 10
119.7440802130556
 20
153.319610862933
 30
0.0
 10
119.6495715469504
 20
153.3500900289127
 30
0.0
 10
119.5840277179195
 20
153.3538597059292
 30
0.0
 10
119.5515014450345
 20
153.355730416645
 30
0.0
  0
SPLINE
  5
169
330
1F
100
AcDbEntity
  8
0
  6
Continuous
 62
     7
370
    18
100
AcDbSpline
210
0.0
220
0.0
230
1.0
 70
     8
 71
     3
 72
    11
 73
     7
 74
     0
 42
0.000000001
 43
0.00000001
 40
0.0
 40
0.0
 40
0.0
 40
0.0
 40
0.25
 40
0.5
 40
0.75
 40
1.0
 40
1.0
 40
1.0
 40
1.0
 10
134.4515014378062
 20
159.1637687692877
 30
0.0
 10
134.5821025076603
 20
159.1637685752013
 30
0.0
 10
134.8433034811341
 20
159.1491735837876
 30
0.0
 10
135.0055926062005
 20
159.0963213654194
 30
0.0
 10
134.8433036324847
 20
159.0434691258271
 30
0.0
 10
134.5821025099824
 20
159.0288741543552
 30
0.0
 10
134.4515014412421
 20
159.028873960087
 30
0.0
  0
SPLINE
  5
16A
330
1F
100
AcDbEntity
  8
0
  6
Continuous
 62
     7
370
    18
100
AcDbSpline
210
0.0
220
0.0
230
1.0
 70
     8
 71
     3
 72
    11
 73
     7
 74
     0
 42
0.000000001
 43
0.00000001
 40
0.0
 40
0.0
 40
0.0
 40
0.0
 40
0.25
 40
0.5
 40
0.75
 40
1.0
 40
1.0
 40
1.0
 40
1.0
 10
119.5515014550777
 20
152.3559965186671
 30
0.0
 10
119.4209003852236
 20
152.355997955721
 30
0.0
 10
119.1596992629215
 20
152.4641643683557
 30
0.0
 10
118.9974102868102
 20
152.8558634662421
 30
0.0
 10
119.1596994094067
 20
153.2475624162576
 30
0.0
 10
119.4209003829017
 20
153.3557289788555
 30
0.0
 10
119.5515014516423
 20
153.3557304172565
 30
0.0
  0
SPLINE
  5
16B
330
1F
100
AcDbEntity
  8
0
  6
Continuous
 62
     7
370
    18
100
AcDbSpline
210
0.0
220
0.0
230
1.0
 70
     8
 71
     3
 72
    11
 73
     7
 74
     0
 42
0.000000001
 43
0.00000001
 40
0.0
 40
0.0
 40
0.0
 40
0.0
 40
0.25
 40
0.5
 40
0.75
 40
1.0
 40
1.0
 40
1.0
 40
1.0
 10
134.4515014410468
 20
159.0288739597156
 30
0.0
 10
134.3208986354034
 20
159.0288737658787
 30
0.0
 10
134.0596918585365
 20
159.0434684426917
 30
0.0
 10
133.8973984181157
 20
159.096321364547
 30
0.0
 10
134.0596920050254
 20
159.1491742664498
 30
0.0
 10
134.3208986324444
 20
159.1637689636273
 30
0.0
 10
134.4515014373057
 20
159.1637687698421
 30
0.0
  0
SPLINE
  5
16C
330
1F
100
AcDbEntity
  8
0
  6
Continuous
 62
     7
370
    18
100
AcDbSpline
210
0.0
220
0.0
230
1.0
 70
    24
 71
     3
 72
    30
 73
    26
 74
     0
 42
0.000000001
 43
0.00000001
 40
0.0
 40
0.0
 40
0.0
 40
0.0
 40
0.0420737096167712
 40
0.0856158137250998
 40
0.1291579178334282
 40
0.1727000219417568
 40
0.2162421260500855
 40
0.2597842301584141
 40
0.3033263342667428
 40
0.3468684383750713
 40
0.3904105424833997
 40
0.4339526465917282
 40
0.477494750700057
 40
0.5210368548083855
 40
0.5645789589167138
 40
0.6081210630250427
 40
0.6516631671333714
 40
0.6952052712417001
 40
0.7387473753500285
 40
0.782289479458357
 40
0.8258315835666857
 40
0.8693736876750146
 40
0.9129157917833427
 40
0.9564578958916714
 40
1.0
 40
1.0
 40
1.0
 40
1.0
 10
135.363496803442
 20
166.3521693600607
 30
0.0
 10
135.363496803442
 20
166.3407457754247
 30
0.0
 10
135.363496803442
 20
166.3174999170683
 30
0.0
 10
135.363496803442
 20
166.111206181385
 30
0.0
 10
135.363496803442
 20
165.7805241289762
 30
0.0
 10
135.363496803442
 20
165.3199178334817
 30
0.0
 10
135.363496803442
 20
164.7408962511221
 30
0.0
 10
135.363496803442
 20
164.0523945209302
 30
0.0
 10
135.363496803442
 20
163.266453566682
 30
0.0
 10
135.363496803442
 20
162.3964512636237
 30
0.0
 10
135.363496803442
 20
161.4572922935976
 30
0.0
 10
135.363496803442
 20
160.4650409144089
 30
0.0
 10
135.363496803442
 20
159.4366761712205
 30
0.0
 10
135.363496803442
 20
158.3897932865795
 30
0.0
 10
135.363496803442
 20
157.3423049011944
 30
0.0
 10
135.363496803442
 20
156.3121334778369
 30
0.0
 10
135.363496803442
 20
155.3169067665198
 30
0.0
 10
135.363496803442
 20
154.3736488007171
 30
0.0
 10
135.363496803442
 20
153.4985160403068
 30
0.0
 10
135.363496803442
 20
152.7064186026517
 30
0.0
 10
135.3634968034419
 20
152.0111470271264
 30
0.0
 10
135.363496803442
 20
151.4237111195017
 30
0.0
 10
135.363496803442
 20
150.9574704730019
 30
0.0
 10
135.363496803442
 20
150.6080554700774
 30
0.0
 10
135.363496803442
 20
150.4877016856389
 30
0.0
 10
135.363496803442
 20
150.4275247934196
 30
0.0
  0
SPLINE
  5
16D
330
1F
100
AcDbEntity
  8
0
  6
Continuous
 62
     7
370
    18
100
AcDbSpline
210
0.0
220
0.0
230
1.0
 70
    24
 71
     3
 72
     9
 73
     5
 74
     0
 42
0.000000001
 43
0.00000001
 40
0.0
 40
0.0
 40
0.0
 40
0.0
 40
0.9673766197789092
 40
1.0
 40
1.0
 40
1.0
 40
1.0
 10
135.363496803442
 20
150.4275247932258
 30
0.0
 10
135.363496803442
 20
150.3811065540127
 30
0.0
 10
135.363496803442
 20
150.3331229266808
 30
0.0
 10
135.363496803442
 20
150.3558877975339
 30
0.0
 10
135.363496803442
 20
150.3566304645715
 30
0.0
  0
SPLINE
  5
16E
330
1F
100
AcDbEntity
  8
0
  6
Continuous
 62
     7
370
    18
100
AcDbSpline
210
0.0
220
0.0
230
1.0
 70
    24
 71
     3
 72
     9
 73
     5
 74
     0
 42
0.000000001
 43
0.00000001
 40
0.0
 40
0.0
 40
0.0
 40
0.0
 40
0.0319196048983434
 40
1.0
 40
1.0
 40
1.0
 40
1.0
 10
134.9634968034419
 20
150.7564733646061
 30
0.0
 10
134.9634968034419
 20
150.7557840559672
 30
0.0
 10
134.9634968034419
 20
150.7341889064971
 30
0.0
 10
134.9634968034419
 20
150.7797559691801
 30
0.0
 10
134.9634968034419
 20
150.8238685492258
 30
0.0
  0
SPLINE
  5
16F
330
1F
100
AcDbEntity
  8
0
  6
Continuous
 62
     7
370
    18
100
AcDbSpline
210
0.0
220
0.0
230
1.0
 70
    24
 71
     3
 72
    30
 73
    26
 74
     0
 42
0.000000001
 43
0.00000001
 40
0.0
 40
0.0
 40
0.0
 40
0.0
 40
0.0435406793813871
 40
0.0870813587627742
 40
0.1306220381441616
 40
0.174162717525549
 40
0.217703396906936
 40
0.2612440762883231
 40
0.3047847556697102
 40
0.3483254350510975
 40
0.3918661144324849
 40
0.435406793813872
 40
0.4789474731952598
 40
0.5224881525766468
 40
0.5660288319580342
 40
0.6095695113394214
 40
0.6531101907208088
 40
0.6966508701021958
 40
0.7401915494835831
 40
0.7837322288649703
 40
0.8272729082463575
 40
0.8708135876277447
 40
0.9143542670091317
 40
0.957894946390519
 40
1.0
 40
1.0
 40
1.0
 40
1.0
 10
134.9634968034419
 20
150.8238685494099
 30
0.0
 10
134.9634968034419
 20
150.8810365970247
 30
0.0
 10
134.9634968034419
 20
150.9953726922542
 30
0.0
 10
134.963496803442
 20
151.3273169450505
 30
0.0
 10
134.9634968034419
 20
151.7702455592419
 30
0.0
 10
134.9634968034419
 20
152.3283096715
 30
0.0
 10
134.9634968034419
 20
152.9888176682617
 30
0.0
 10
134.9634968034419
 20
153.7413102340446
 30
0.0
 10
134.9634968034419
 20
154.5726863564425
 30
0.0
 10
134.9634968034419
 20
155.4687814239603
 30
0.0
 10
134.9634968034419
 20
156.4142467997149
 30
0.0
 10
134.9634968034419
 20
157.3929096519027
 30
0.0
 10
134.9634968034419
 20
158.3880236180234
 30
0.0
 10
134.9634968034419
 20
159.3825623583994
 30
0.0
 10
134.9634968034419
 20
160.3595088645237
 30
0.0
 10
134.9634968034419
 20
161.3021476743575
 30
0.0
 10
134.9634968034419
 20
162.1943486973074
 30
0.0
 10
134.9634968034419
 20
163.0208508798329
 30
0.0
 10
134.9634968034419
 20
163.7674948063762
 30
0.0
 10
134.9634968034419
 20
164.4215713753099
 30
0.0
 10
134.9634968034419
 20
164.9716421574315
 30
0.0
 10
134.9634968034419
 20
165.4092170972654
 30
0.0
 10
134.9634968034419
 20
165.7233689315977
 30
0.0
 10
134.9634968034419
 20
165.9193832930829
 30
0.0
 10
134.9634968034419
 20
165.9414688062468
 30
0.0
 10
134.9634968034419
 20
165.9523264600175
 30
0.0
  0
LINE
  5
170
330
1F
100
AcDbEntity
  8
0
  6
Continuous
 62
     7
370
    18
100
AcDbLine
 10
136.9634968058
 20
150.823868552
 30
0.0
 11
136.5634968034
 21
150.4275247937
 31
0.0
  0
SPLINE
  5
171
330
1F
100
AcDbEntity
  8
0
  6
Continuous
 62
     7
370
    18
100
AcDbSpline
210
0.0
220
0.0
230
1.0
 70
    24
 71
     3
 72
    30
 73
    26
 74
     0
 42
0.000000001
 43
0.00000001
 40
0.0
 40
0.0
 40
0.0
 40
0.0
 40
0.0420737095432431
 40
0.0856158136549141
 40
0.1291579177665853
 40
0.1727000218782558
 40
0.2162421259899265
 40
0.2597842301015974
 40
0.3033263342132679
 40
0.3468684383249389
 40
0.3904105424366097
 40
0.43395264654828
 40
0.4774947506599509
 40
0.5210368547716215
 40
0.564578958883292
 40
0.608121062994963
 40
0.651663167106634
 40
0.6952052712183048
 40
0.7387473753299754
 40
0.7822894794416462
 40
0.825831583553317
 40
0.8693736876649877
 40
0.9129157917766584
 40
0.956457895888329
 40
1.0
 40
1.0
 40
1.0
 40
1.0
 10
136.5634968034419
 20
166.3521693599482
 30
0.0
 10
136.5634968034419
 20
166.3407457754029
 30
0.0
 10
136.563496803442
 20
166.3174999172097
 30
0.0
 10
136.5634968034419
 20
166.1112061818485
 30
0.0
 10
136.5634968034419
 20
165.7805241296787
 30
0.0
 10
136.563496803442
 20
165.3199178343991
 30
0.0
 10
136.5634968034419
 20
164.7408962522422
 30
0.0
 10
136.563496803442
 20
164.0523945222327
 30
0.0
 10
136.563496803442
 20
163.266453568145
 30
0.0
 10
136.5634968034419
 20
162.3964512652219
 30
0.0
 10
136.563496803442
 20
161.4572922953038
 30
0.0
 10
136.5634968034419
 20
160.465040916194
 30
0.0
 10
136.5634968034419
 20
159.4366761730539
 30
0.0
 10
136.563496803442
 20
158.3897932884298
 30
0.0
 10
136.563496803442
 20
157.3423049030299
 30
0.0
 10
136.5634968034419
 20
156.3121334796262
 30
0.0
 10
136.563496803442
 20
155.3169067682323
 30
0.0
 10
136.563496803442
 20
154.3736488023236
 30
0.0
 10
136.5634968034419
 20
153.4985160417796
 30
0.0
 10
136.5634968034419
 20
152.7064186039657
 30
0.0
 10
136.563496803442
 20
152.0111470282592
 30
0.0
 10
136.5634968034419
 20
151.4237111204339
 30
0.0
 10
136.563496803442
 20
150.9574704737175
 30
0.0
 10
136.5634968034419
 20
150.6080554705643
 30
0.0
 10
136.5634968034419
 20
150.4877016859671
 30
0.0
 10
136.5634968034419
 20
150.4275247936685
 30
0.0
  0
SPLINE
  5
172
330
1F
100
AcDbEntity
  8
0
  6
Continuous
 62
     7
370
    18
100
AcDbSpline
210
0.0
220
0.0
230
1.0
 70
    24
 71
     3
 72
    30
 73
    26
 74
     0
 42
0.000000001
 43
0.00000001
 40
0.0
 40
0.0
 40
0.0
 40
0.0
 40
0.0421050535359049
 40
0.0856457329206363
 40
0.1291864123053681
 40
0.1727270916900999
 40
0.2162677710748313
 40
0.2598084504595631
 40
0.3033491298442949
 40
0.346889809229026
 40
0.3904304886137581
 40
0.4339711679984893
 40
0.477511847383221
 40
0.5210525267679526
 40
0.5645932061526843
 40
0.608133885537416
 40
0.6516745649221474
 40
0.6952152443068791
 40
0.7387559236916107
 40
0.7822966030763423
 40
0.8258372824610738
 40
0.8693779618458054
 40
0.9129186412305368
 40
0.9564593206152685
 40
1.0
 40
1.0
 40
1.0
 40
1.0
 10
136.963496803442
 20
165.9523264599104
 30
0.0
 10
136.963496803442
 20
165.9414688062259
 30
0.0
 10
136.963496803442
 20
165.9193832932171
 30
0.0
 10
136.963496803442
 20
165.7233689320379
 30
0.0
 10
136.963496803442
 20
165.4092170979328
 30
0.0
 10
136.963496803442
 20
164.9716421583031
 30
0.0
 10
136.963496803442
 20
164.4215713763739
 30
0.0
 10
136.963496803442
 20
163.7674948076136
 30
0.0
 10
136.963496803442
 20
163.0208508812227
 30
0.0
 10
136.963496803442
 20
162.1943486988258
 30
0.0
 10
136.963496803442
 20
161.3021476759784
 30
0.0
 10
136.963496803442
 20
160.3595088662196
 30
0.0
 10
136.963496803442
 20
159.3825623601411
 30
0.0
 10
136.963496803442
 20
158.3880236197811
 30
0.0
 10
136.963496803442
 20
157.3929096536464
 30
0.0
 10
136.963496803442
 20
156.4142468014147
 30
0.0
 10
136.963496803442
 20
155.4687814255872
 30
0.0
 10
136.963496803442
 20
154.5726863579686
 30
0.0
 10
136.963496803442
 20
153.7413102354438
 30
0.0
 10
136.963496803442
 20
152.9888176695101
 30
0.0
 10
136.963496803442
 20
152.3283096725762
 30
0.0
 10
136.963496803442
 20
151.7702455601274
 30
0.0
 10
136.963496803442
 20
151.3273169457303
 30
0.0
 10
136.963496803442
 20
150.9953726927168
 30
0.0
 10
136.963496803442
 20
150.8810365973365
 30
0.0
 10
136.963496803442
 20
150.8238685496464
 30
0.0
  0
SPLINE
  5
173
330
1F
100
AcDbEntity
  8
0
  6
Continuous
 62
     7
370
    18
100
AcDbSpline
210
0.0
220
0.0
230
1.0
 70
    24
 71
     3
 72
     9
 73
     5
 74
     0
 42
0.000000001
 43
0.00000001
 40
0.0
 40
0.0
 40
0.0
 40
0.0
 40
0.9674374605247801
 40
1.0
 40
1.0
 40
1.0
 40
1.0
 10
136.563496803442
 20
150.4275247936685
 30
0.0
 10
136.563496803442
 20
150.3811051663235
 30
0.0
 10
136.563496803442
 20
150.3331231217583
 30
0.0
 10
136.5634968034419
 20
150.355885126107
 30
0.0
 10
136.5634968034419
 20
150.3566263147721
 30
0.0
  0
SPLINE
  5
174
330
1F
100
AcDbEntity
  8
0
  6
Continuous
 62
     7
370
    18
100
AcDbSpline
210
0.0
220
0.0
230
1.0
 70
    24
 71
     3
 72
    23
 73
    19
 74
     0
 42
0.000000001
 43
0.00000001
 40
0.0
 40
0.0
 40
0.0
 40
0.0
 40
0.0202666349213486
 40
0.0855821925932588
 40
0.1508977502651692
 40
0.2162133079370791
 40
0.281528865608989
 40
0.3468444232808992
 40
0.4121599809528094
 40
0.4774755386247196
 40
0.5427910962966296
 40
0.6081066539685398
 40
0.6734222116404497
 40
0.7387377693123598
 40
0.80405332698427
 40
0.86936888465618
 40
0.9346844423280899
 40
1.0
 40
1.0
 40
1.0
 40
1.0
 10
157.963496803442
 20
163.3337966972665
 30
0.0
 10
157.963496803442
 20
163.3396341502828
 30
0.0
 10
157.9634968034419
 20
163.3642846179227
 30
0.0
 10
157.9634968034419
 20
163.2121685980787
 30
0.0
 10
157.963496803442
 20
162.87977449547
 30
0.0
 10
157.9634968034419
 20
162.3595887721306
 30
0.0
 10
157.963496803442
 20
161.6892060730766
 30
0.0
 10
157.9634968034419
 20
160.8896719129984
 30
0.0
 10
157.963496803442
 20
159.9929754077516
 30
0.0
 10
157.963496803442
 20
159.0332391517
 30
0.0
 10
157.963496803442
 20
158.047429602231
 30
0.0
 10
157.963496803442
 20
157.073430491685
 30
0.0
 10
157.9634968034419
 20
156.1485892314668
 30
0.0
 10
157.963496803442
 20
155.3087786410174
 30
0.0
 10
157.963496803442
 20
154.5850282445943
 30
0.0
 10
157.963496803442
 20
154.0097953785578
 30
0.0
 10
157.9634968034419
 20
153.5878537870166
 30
0.0
 10
157.963496803442
 20
153.4626865713405
 30
0.0
 10
157.963496803442
 20
153.4001029635025
 30
0.0
  0
SPLINE
  5
175
330
1F
100
AcDbEntity
  8
0
  6
Continuous
 62
     7
370
    18
100
AcDbSpline
210
0.0
220
0.0
230
1.0
 70
    24
 71
     3
 72
    23
 73
    19
 74
     0
 42
0.000000001
 43
0.00000001
 40
0.0
 40
0.0
 40
0.0
 40
0.0
 40
0.0653125397614335
 40
0.1306250795228667
 40
0.1959376192843005
 40
0.2612501590457337
 40
0.3265626988071669
 40
0.3918752385686004
 40
0.4571877783300339
 40
0.5225003180914674
 40
0.5878128578529008
 40
0.6531253976143343
 40
0.7184379373757676
 40
0.783750477137201
 40
0.8490630168986345
 40
0.9143755566600678
 40
0.9796880964215011
 40
1.0
 40
1.0
 40
1.0
 40
1.0
 10
156.963496803442
 20
152.4092435733712
 30
0.0
 10
156.963496803442
 20
152.4843439026884
 30
0.0
 10
156.9634968034419
 20
152.6345445613227
 30
0.0
 10
156.963496803442
 20
153.1408744709385
 30
0.0
 10
156.963496803442
 20
153.8311539099713
 30
0.0
 10
156.9634968034419
 20
154.6996543855487
 30
0.0
 10
156.963496803442
 20
155.7074270938625
 30
0.0
 10
156.9634968034419
 20
156.8172366064849
 30
0.0
 10
156.963496803442
 20
157.9860355375645
 30
0.0
 10
156.9634968034419
 20
159.169007002836
 30
0.0
 10
156.963496803442
 20
160.320690488333
 30
0.0
 10
156.963496803442
 20
161.396726376391
 30
0.0
 10
156.963496803442
 20
162.3561670641059
 30
0.0
 10
156.9634968034419
 20
163.1606274398856
 30
0.0
 10
156.963496803442
 20
163.7848460659868
 30
0.0
 10
156.9634968034419
 20
164.1837348213618
 30
0.0
 10
156.963496803442
 20
164.3662844261036
 30
0.0
 10
156.963496803442
 20
164.3366702583906
 30
0.0
 10
156.963496803442
 20
164.3296451602331
 30
0.0
  0
LINE
  5
176
330
1F
100
AcDbEntity
  8
0
  6
Continuous
 62
     7
370
    18
100
AcDbLine
 10
156.9634968034
 20
152.3791546642
 30
0.0
 11
156.9634968034
 21
152.4092435732
 31
0.0
  0
SPLINE
  5
177
330
1F
100
AcDbEntity
  8
0
  6
Continuous
 62
     7
370
    18
100
AcDbSpline
210
0.0
220
0.0
230
1.0
 70
    24
 71
     3
 72
    23
 73
    19
 74
     0
 42
0.000000001
 43
0.00000001
 40
0.0
 40
0.0
 40
0.0
 40
0.0
 40
0.0203119036049714
 40
0.0856244433646399
 40
0.1509369831243084
 40
0.216249522883977
 40
0.2815620626436456
 40
0.346874602403314
 40
0.4121871421629827
 40
0.4774996819226514
 40
0.54281222168232
 40
0.6081247614419887
 40
0.673437301201657
 40
0.7387498409613257
 40
0.8040623807209943
 40
0.869374920480663
 40
0.9346874602403313
 40
1.0
 40
1.0
 40
1.0
 40
1.0
 10
132.363496803442
 20
162.8358338479711
 30
0.0
 10
132.363496803442
 20
162.8411026715984
 30
0.0
 10
132.363496803442
 20
162.8633132973996
 30
0.0
 10
132.363496803442
 20
162.7264010938512
 30
0.0
 10
132.363496803442
 20
162.4272345273358
 30
0.0
 10
132.363496803442
 20
161.9590705577932
 30
0.0
 10
132.363496803442
 20
161.355725275996
 30
0.0
 10
132.363496803442
 20
160.6361447602534
 30
0.0
 10
132.363496803442
 20
159.8291178442571
 30
0.0
 10
132.363496803442
 20
158.9653552301835
 30
0.0
 10
132.363496803442
 20
158.0781266312789
 30
0.0
 10
132.363496803442
 20
157.2015274330164
 30
0.0
 10
132.363496803442
 20
156.3691702985931
 30
0.0
 10
132.363496803442
 20
155.6133407673959
 30
0.0
 10
132.363496803442
 20
154.9619654107442
 30
0.0
 10
132.363496803442
 20
154.4442558314927
 30
0.0
 10
132.363496803442
 20
154.0645083992957
 30
0.0
 10
132.363496803442
 20
153.9518579053218
 30
0.0
 10
132.363496803442
 20
153.8955326583348
 30
0.0
  0
LINE
  5
178
330
1F
100
AcDbEntity
  8
0
  6
Continuous
 62
     7
370
    18
100
AcDbLine
 10
132.3634968034
 20
153.8955326582
 30
0.0
 11
132.3634968034
 21
153.8729659764
 31
0.0
  0
SPLINE
  5
179
330
1F
100
AcDbEntity
  8
0
  6
Continuous
 62
     7
370
    18
100
AcDbSpline
210
0.0
220
0.0
230
1.0
 70
    24
 71
     3
 72
    23
 73
    19
 74
     0
 42
0.000000001
 43
0.00000001
 40
0.0
 40
0.0
 40
0.0
 40
0.0
 40
0.0653155273859547
 40
0.13063105477191
 40
0.195946582157865
 40
0.2612621095438197
 40
0.3265776369297748
 40
0.3918931643157295
 40
0.4572086917016844
 40
0.5225242190876395
 40
0.5878397464735944
 40
0.6531552738595493
 40
0.7184708012455041
 40
0.783786328631459
 40
0.8491018560174143
 40
0.9144173834033689
 40
0.9797329107893239
 40
1.0
 40
1.0
 40
1.0
 40
1.0
 10
131.9634968034419
 20
154.2918764143251
 30
0.0
 10
131.9634968034419
 20
154.3431949726385
 30
0.0
 10
131.9634968034419
 20
154.4458320892651
 30
0.0
 10
131.963496803442
 20
154.7918241939979
 30
0.0
 10
131.9634968034419
 20
155.2635151438406
 30
0.0
 10
131.9634968034419
 20
155.8569904686363
 30
0.0
 10
131.9634968034419
 20
156.5456351525786
 30
0.0
 10
131.9634968034419
 20
157.3040049857898
 30
0.0
 10
131.9634968034419
 20
158.1026842563174
 30
0.0
 10
131.9634968034419
 20
158.9110480868783
 30
0.0
 10
131.9634968034419
 20
159.6980318167138
 30
0.0
 10
131.9634968034419
 20
160.4333229516658
 30
0.0
 10
131.963496803442
 20
161.0889409609925
 30
0.0
 10
131.9634968034419
 20
161.6386547822253
 30
0.0
 10
131.9634968034419
 20
162.0652070465151
 30
0.0
 10
131.9634968034419
 20
162.33777031958
 30
0.0
 10
131.9634968034419
 20
162.4625055271923
 30
0.0
 10
131.9634968034419
 20
162.4422919134203
 30
0.0
 10
131.9634968034419
 20
162.4375050638253
 30
0.0
  0
SPLINE
  5
17A
330
1F
100
AcDbEntity
  8
0
  6
Continuous
 62
     7
370
    18
100
AcDbSpline
210
0.0
220
0.0
230
1.0
 70
    24
 71
     3
 72
     9
 73
     5
 74
     0
 42
0.000000001
 43
0.00000001
 40
0.0
 40
0.0
 40
0.0
 40
0.0
 40
0.9680763259570512
 40
1.0
 40
1.0
 40
1.0
 40
1.0
 10
136.9634968058123
 20
150.823868551995
 30
0.0
 10
136.9634968058123
 20
150.7797560600172
 30
0.0
 10
136.9634968058124
 20
150.734188896773
 30
0.0
 10
136.9634968058122
 20
150.7557842279657
 30
0.0
 10
136.9634968058122
 20
150.7564736302796
 30
0.0
  0
SPLINE
  5
17B
330
1F
100
AcDbEntity
  8
0
  6
Continuous
 62
     8
370
    18
100
AcDbSpline
210
0.0
220
0.0
230
1.0
 70
     8
 71
     3
 72
    10
 73
     6
 74
     0
 42
0.000000001
 43
0.00000001
 40
0.0
 40
0.0
 40
0.0
 40
0.0
 40
0.0001366618878448
 40
0.4999060885768762
 40
1.0
 40
1.0
 40
1.0
 40
1.0
 10
117.4134864630372
 20
151.3544032173261
 30
0.0
 10
117.4134899096524
 20
151.3544021156957
 30
0.0
 10
117.4260975501839
 20
151.3503723769724
 30
0.0
 10
117.3857846566234
 20
151.3635389354144
 30
0.0
 10
117.3042682393185
 20
151.3887457305093
 30
0.0
 10
117.263496803442
 20
151.4013532182258
 30
0.0
  0
SPLINE
  5
17C
330
1F
100
AcDbEntity
  8
0
  6
Continuous
 62
     8
370
    18
100
AcDbSpline
210
0.0
220
0.0
230
1.0
 70
     8
 71
     3
 72
     9
 73
     5
 74
     0
 42
0.000000001
 43
0.00000001
 40
0.0
 40
0.0
 40
0.0
 40
0.0
 40
0.4976554200565522
 40
1.0
 40
1.0
 40
1.0
 40
1.0
 10
112.5135071438467
 20
151.3544032173261
 30
0.0
 10
112.5199460018363
 20
151.3565426334051
 30
0.0
 10
112.5328843879768
 20
151.3608416242186
 30
0.0
 10
112.6198233717326
 20
151.3878071837736
 30
0.0
 10
112.6634966990081
 20
151.4013531864611
 30
0.0
  0
SPLINE
  5
17D
330
1F
100
AcDbEntity
  8
0
  6
Continuous
 62
     8
370
    18
100
AcDbSpline
210
0.0
220
0.0
230
1.0
 70
    24
 71
     3
 72
    10
 73
     6
 74
     0
 42
0.000000001
 43
0.00000001
 40
0.0
 40
0.0
 40
0.0
 40
0.0
 40
0.4999999999999999
 40
0.4999999999999999
 40
1.0
 40
1.0
 40
1.0
 40
1.0
 10
112.663496803442
 20
165.3543999122258
 30
0.0
 10
112.663496803442
 20
165.354399911845
 30
0.0
 10
112.663496803442
 20
164.6168648767153
 30
0.0
 10
112.663496803442
 20
161.9914298813023
 30
0.0
 10
112.663496803442
 20
160.2108627976042
 30
0.0
 10
112.663496803442
 20
158.3543999093544
 30
0.0
  0
SPLINE
  5
17E
330
1F
100
AcDbEntity
  8
0
  6
Continuous
 62
     8
370
    18
100
AcDbSpline
210
0.0
220
0.0
230
1.0
 70
    24
 71
     3
 72
    10
 73
     6
 74
     0
 42
0.000000001
 43
0.00000001
 40
0.0
 40
0.0
 40
0.0
 40
0.0
 40
0.5000000000000001
 40
0.5000000000000001
 40
1.0
 40
1.0
 40
1.0
 40
1.0
 10
111.2634968034419
 20
151.3543999122258
 30
0.0
 10
111.2634968034419
 20
151.3543999120118
 30
0.0
 10
111.2634968034419
 20
152.0919349460925
 30
0.0
 10
111.2634968034419
 20
154.7173699391464
 30
0.0
 10
111.2634968034419
 20
156.4979370217137
 30
0.0
 10
111.2634968034419
 20
158.3543999093544
 30
0.0
  0
SPLINE
  5
17F
330
1F
100
AcDbEntity
  8
0
  6
Continuous
 62
     8
370
    18
100
AcDbSpline
210
0.0
220
0.0
230
1.0
 70
    24
 71
     3
 72
    10
 73
     6
 74
     0
 42
0.000000001
 43
0.00000001
 40
0.0
 40
0.0
 40
0.0
 40
0.0
 40
0.5000000000000002
 40
0.5000000000000002
 40
1.0
 40
1.0
 40
1.0
 40
1.0
 10
111.2634968034419
 20
158.3543999093544
 30
0.0
 10
111.2634968034419
 20
160.2108627976042
 30
0.0
 10
111.2634968034419
 20
161.9914298813024
 30
0.0
 10
111.2634968034419
 20
164.6168648767154
 30
0.0
 10
111.2634968034419
 20
165.3543999118451
 30
0.0
 10
111.2634968034419
 20
165.3543999122258
 30
0.0
  0
SPLINE
  5
180
330
1F
100
AcDbEntity
  8
0
  6
Continuous
 62
     8
370
    18
100
AcDbSpline
210
0.0
220
0.0
230
1.0
 70
    24
 71
     3
 72
    10
 73
     6
 74
     0
 42
0.000000001
 43
0.00000001
 40
0.0
 40
0.0
 40
0.0
 40
0.0
 40
0.4999999999999999
 40
0.4999999999999999
 40
1.0
 40
1.0
 40
1.0
 40
1.0
 10
103.6634968034419
 20
163.8543999122258
 30
0.0
 10
103.6634968034419
 20
163.8543999119266
 30
0.0
 10
103.6634968034419
 20
163.2749080986104
 30
0.0
 10
103.6634968034419
 20
161.2120663165002
 30
0.0
 10
103.6634968034419
 20
159.813049322166
 30
0.0
 10
103.6634968034419
 20
158.3543999099697
 30
0.0
  0
SPLINE
  5
181
330
1F
100
AcDbEntity
  8
0
  6
Continuous
 62
     8
370
    18
100
AcDbSpline
210
0.0
220
0.0
230
1.0
 70
    24
 71
     3
 72
    10
 73
     6
 74
     0
 42
0.000000001
 43
0.00000001
 40
0.0
 40
0.0
 40
0.0
 40
0.0
 40
0.4999999999999999
 40
0.4999999999999999
 40
1.0
 40
1.0
 40
1.0
 40
1.0
 10
103.6634968034419
 20
158.3543999099697
 30
0.0
 10
103.6634968034419
 20
156.8957504982519
 30
0.0
 10
103.6634968034419
 20
155.4967335048062
 30
0.0
 10
103.6634968034419
 20
153.4338917245495
 30
0.0
 10
103.6634968034419
 20
152.8543999120576
 30
0.0
 10
103.6634968034419
 20
152.8543999122258
 30
0.0
  0
SPLINE
  5
182
330
1F
100
AcDbEntity
  8
0
  6
Continuous
 62
     8
370
    18
100
AcDbSpline
210
0.0
220
0.0
230
1.0
 70
    24
 71
     3
 72
    10
 73
     6
 74
     0
 42
0.000000001
 43
0.00000001
 40
0.0
 40
0.0
 40
0.0
 40
0.0
 40
0.5000000000000001
 40
0.5000000000000001
 40
1.0
 40
1.0
 40
1.0
 40
1.0
 10
102.263496803442
 20
152.8543999122258
 30
0.0
 10
102.263496803442
 20
152.8543999120577
 30
0.0
 10
102.263496803442
 20
153.4338917245496
 30
0.0
 10
102.263496803442
 20
155.4967335048063
 30
0.0
 10
102.2634968034419
 20
156.895750498252
 30
0.0
 10
102.2634968034419
 20
158.3543999099697
 30
0.0
  0
SPLINE
  5
183
330
1F
100
AcDbEntity
  8
0
  6
Continuous
 62
     8
370
    18
100
AcDbSpline
210
0.0
220
0.0
230
1.0
 70
    24
 71
     3
 72
    10
 73
     6
 74
     0
 42
0.000000001
 43
0.00000001
 40
0.0
 40
0.0
 40
0.0
 40
0.0
 40
0.4999999999999999
 40
0.4999999999999999
 40
1.0
 40
1.0
 40
1.0
 40
1.0
 10
102.263496803442
 20
158.3543999099697
 30
0.0
 10
102.263496803442
 20
159.813049322166
 30
0.0
 10
102.263496803442
 20
161.2120663165003
 30
0.0
 10
102.263496803442
 20
163.2749080986105
 30
0.0
 10
102.2634968034419
 20
163.8543999119267
 30
0.0
 10
102.2634968034419
 20
163.8543999122258
 30
0.0
  0
SPLINE
  5
184
330
1F
100
AcDbEntity
  8
0
  6
Continuous
 62
     8
370
    18
100
AcDbSpline
210
0.0
220
0.0
230
1.0
 70
    24
 71
     3
 72
    11
 73
     7
 74
     0
 42
0.000000001
 43
0.00000001
 40
0.0
 40
0.0
 40
0.0
 40
0.0
 40
0.2080286393908224
 40
0.472019092927215
 40
0.7360095464636076
 40
1.0
 40
1.0
 40
1.0
 40
1.0
 10
121.6634968034419
 20
161.3918253104626
 30
0.0
 10
121.6634968034419
 20
161.2177516467372
 30
0.0
 10
121.6634968034419
 20
160.822776738019
 30
0.0
 10
121.6634968034419
 20
160.0853728008161
 30
0.0
 10
121.6634968034419
 20
159.2385163616026
 30
0.0
 10
121.6634968034419
 20
158.6491053941208
 30
0.0
 10
121.6634968034419
 20
158.3543999103799
 30
0.0
  0
SPLINE
  5
185
330
1F
100
AcDbEntity
  8
0
  6
Continuous
 62
     8
370
    18
100
AcDbSpline
210
0.0
220
0.0
230
1.0
 70
     8
 71
     3
 72
    14
 73
    10
 74
     0
 42
0.000000001
 43
0.00000001
 40
0.0
 40
0.0
 40
0.0
 40
0.0
 40
0.1728443973603828
 40
0.3431175153567852
 40
0.5108856967489199
 40
0.6762183011457958
 40
0.839187799288613
 40
0.9998698607396219
 40
0.9999999999999999
 40
0.9999999999999999
 40
0.9999999999999999
 40
0.9999999999999999
 10
116.9818641502331
 20
151.1033655040133
 30
0.0
 10
116.9961010211644
 20
151.0982004825335
 30
0.0
 10
117.0243629715369
 20
151.0879472758113
 30
0.0
 10
117.0571900396007
 20
151.0758206953288
 30
0.0
 10
117.0827554948895
 20
151.0662436091766
 30
0.0
 10
117.1006175474733
 20
151.0594312244801
 30
0.0
 10
117.1111735040848
 20
151.0553273359563
 30
0.0
 10
117.1134961663784
 20
151.0544001358234
 30
0.0
 10
117.1134968029267
 20
151.0543999135579
 30
0.0
 10
117.1134968034418
 20
151.054399913378
 30
0.0
  0
SPLINE
  5
186
330
1F
100
AcDbEntity
  8
0
  6
Continuous
 62
     8
370
    18
100
AcDbSpline
210
0.0
220
0.0
230
1.0
 70
     8
 71
     3
 72
    12
 73
     8
 74
     0
 42
0.000000001
 43
0.00000001
 40
0.0
 40
0.0
 40
0.0
 40
0.0
 40
0.1931171764648191
 40
0.3895498845214436
 40
0.5894272634168065
 40
0.7928718889556684
 40
1.0
 40
1.0
 40
1.0
 40
1.0
 10
112.8134968034421
 20
151.054399913378
 30
0.0
 10
112.8144609282099
 20
151.0547845558809
 30
0.0
 10
112.8164057303182
 20
151.0555604446201
 30
0.0
 10
112.8322259761476
 20
151.0616892108766
 30
0.0
 10
112.858211030037
 20
151.0715050981612
 30
0.0
 10
112.8947552596824
 20
151.0850761154856
 30
0.0
 10
112.9282379267814
 20
151.097232686627
 30
0.0
 10
112.9451294565177
 20
151.1033655040133
 30
0.0
  0
SPLINE
  5
187
330
1F
100
AcDbEntity
  8
0
  6
Continuous
 62
     8
370
    18
100
AcDbSpline
210
0.0
220
0.0
230
1.0
 70
     8
 71
     3
 72
    25
 73
    21
 74
     0
 42
0.000000001
 43
0.00000001
 40
0.0
 40
0.0
 40
0.0
 40
0.0
 40
0.0536536760232673
 40
0.1120168059034496
 40
0.1703859954391492
 40
0.228748480484115
 40
0.2871181246890319
 40
0.3454801805169943
 40
0.4038500832345128
 40
0.4622119505729689
 40
0.5205819055411165
 40
0.5789438358872101
 40
0.6373136348606673
 40
0.6956758761518211
 40
0.7540453169227243
 40
0.8124080991337217
 40
0.8707769935381189
 40
0.929140514368562
 40
0.9875086963932199
 40
1.0
 40
1.0
 40
1.0
 40
1.0
 10
121.5398107318264
 20
164.3466408748552
 30
0.0
 10
121.575477254876
 20
164.3322901402793
 30
0.0
 10
121.6499409316607
 20
164.3023290347466
 30
0.0
 10
121.7632299619798
 20
164.0097196625298
 30
0.0
 10
121.8796154422467
 20
163.5389596552799
 30
0.0
 10
121.9960445369804
 20
162.8897460401566
 30
0.0
 10
122.1124264043808
 20
162.0912718936831
 30
0.0
 10
122.2288581883225
 20
161.1673942737435
 30
0.0
 10
122.3452381525683
 20
160.1501058969877
 30
0.0
 10
122.4616710812898
 20
159.0727686261465
 30
0.0
 10
122.5780506628242
 20
157.9715768204746
 30
0.0
 10
122.694483211816
 20
156.8830470791436
 30
0.0
 10
122.8108639288805
 20
155.8437469351643
 30
0.0
 10
122.9272945996036
 20
154.8878864069566
 30
0.0
 10
123.0436779058521
 20
154.0478448888208
 30
0.0
 10
123.1601053204511
 20
153.3517905364288
 30
0.0
 10
123.2764924376258
 20
152.8190541010068
 30
0.0
 10
123.3929157648903
 20
152.4865392317409
 30
0.0
 10
123.4788133551857
 20
152.3398496049202
 30
0.0
 10
123.5259229146239
 20
152.3668369095284
 30
0.0
 10
123.5342275163928
 20
152.3715943052727
 30
0.0
  0
SPLINE
  5
188
330
1F
100
AcDbEntity
  8
0
  6
Continuous
 62
     8
370
    18
100
AcDbSpline
210
0.0
220
0.0
230
1.0
 70
     8
 71
     3
 72
    25
 73
    21
 74
     0
 42
0.000000001
 43
0.00000001
 40
0.0
 40
0.0
 40
0.0
 40
0.0
 40
0.0322422717541766
 40
0.0906058956760735
 40
0.1489616733408231
 40
0.2073250388728281
 40
0.2656812456145862
 40
0.3240441566283644
 40
0.3824010080568011
 40
0.4407632864498551
 40
0.4991209587184808
 40
0.5574824525755897
 40
0.6158410682512938
 40
0.6742016598522312
 40
0.7325612736810158
 40
0.7909208875036589
 40
0.8492814790951284
 40
0.9076400947738845
 40
0.9660015886480717
 40
0.9999999999999999
 40
0.9999999999999999
 40
0.9999999999999999
 40
0.9999999999999999
 10
125.5403103804773
 20
164.3293899287911
 30
0.0
 10
125.5617498464141
 20
164.3322765474331
 30
0.0
 10
125.621998144947
 20
164.3403884034938
 30
0.0
 10
125.7210197874217
 20
164.1330477839722
 30
0.0
 10
125.8374514723781
 20
163.7327642987271
 30
0.0
 10
125.9538333418237
 20
163.143051005056
 30
0.0
 10
126.0702625250172
 20
162.3968809419387
 30
0.0
 10
126.1866476523935
 20
161.5145838736698
 30
0.0
 10
126.3030729092374
 20
160.5277019485404
 30
0.0
 10
126.4194625573561
 20
159.4678566619512
 30
0.0
 10
126.5358827531534
 20
158.3711346159821
 30
0.0
 10
126.6522779202971
 20
157.2738944215542
 30
0.0
 10
126.7686922050345
 20
156.2123098191963
 30
0.0
 10
126.8850935722396
 20
155.2228808876127
 30
0.0
 10
127.0015014492361
 20
154.3366759876824
 30
0.0
 10
127.1179093109423
 20
153.5863713075092
 30
0.0
 10
127.2343107240646
 20
152.9910979545656
 30
0.0
 10
127.3507248405063
 20
152.5853568039567
 30
0.0
 10
127.4509260298967
 20
152.3710901818942
 30
0.0
 10
127.5123372421807
 20
152.3768847769129
 30
0.0
 10
127.5349431949666
 20
152.3790178131539
 30
0.0
  0
SPLINE
  5
189
330
1F
100
AcDbEntity
  8
0
  6
Continuous
 62
     8
370
    18
100
AcDbSpline
210
0.0
220
0.0
230
1.0
 70
     8
 71
     3
 72
    25
 73
    21
 74
     0
 42
0.000000001
 43
0.00000001
 40
0.0
 40
0.0
 40
0.0
 40
0.0
 40
0.011413787744502
 40
0.0696640325492071
 40
0.1279171939576164
 40
0.1861684170796358
 40
0.2444206344110698
 40
0.3026728521862889
 40
0.3609240748543025
 40
0.4191772366712944
 40
0.4774274810490247
 40
0.53568148945682
 40
0.5939308457831484
 40
0.6521855651645726
 40
0.7104341842961523
 40
0.7686894489606094
 40
0.8269375282409023
 40
0.8851931504266782
 40
0.9434409193699547
 40
0.9999999999999999
 40
0.9999999999999999
 40
0.9999999999999999
 40
0.9999999999999999
 10
129.5396313103562
 20
164.3383216495672
 30
0.0
 10
129.5472337991986
 20
164.3430051065222
 30
0.0
 10
129.5936355758945
 20
164.3715905774511
 30
0.0
 10
129.6788501974273
 20
164.2294484296679
 30
0.0
 10
129.7952481745691
 20
163.9030080249954
 30
0.0
 10
129.9116593516206
 20
163.3757680529622
 30
0.0
 10
130.0280639439323
 20
162.684205949351
 30
0.0
 10
130.1444685541488
 20
161.848418697813
 30
0.0
 10
130.2608796715232
 20
160.895347634899
 30
0.0
 10
130.3772778753592
 20
159.8582817561009
 30
0.0
 10
130.4936952026518
 20
158.7706156412523
 30
0.0
 10
130.6100875026555
 20
157.6692310478043
 30
0.0
 10
130.7265103547828
 20
156.5908114984683
 30
0.0
 10
130.8428976026067
 20
155.570858973717
 30
0.0
 10
130.9593249697498
 20
154.6441498575294
 30
0.0
 10
131.0757083352356
 20
153.8408454112709
 30
0.0
 10
131.1921388165502
 20
153.1875183824391
 30
0.0
 10
131.3085202320252
 20
152.710071580021
 30
0.0
 10
131.4238197848816
 20
152.4087283191924
 30
0.0
 10
131.5002847475724
 20
152.3743546850717
 30
0.0
 10
131.537954869227
 20
152.3574206680596
 30
0.0
  0
SPLINE
  5
18A
330
1F
100
AcDbEntity
  8
0
  6
Continuous
 62
     8
370
    18
100
AcDbSpline
210
0.0
220
0.0
230
1.0
 70
     8
 71
     3
 72
    15
 73
    11
 74
     0
 42
0.000000001
 43
0.00000001
 40
0.0
 40
0.0
 40
0.0
 40
0.0
 40
0.1069939227361074
 40
0.2345707395521839
 40
0.3621357010695778
 40
0.4897138997128836
 40
0.6172773015388248
 40
0.744856465728016
 40
0.8724198946861045
 40
1.0
 40
1.0
 40
1.0
 40
1.0
 10
133.5390244108213
 20
164.3407705512742
 30
0.0
 10
133.5715697545607
 20
164.3318303777298
 30
0.0
 10
133.6429213337411
 20
164.3122301699198
 30
0.0
 10
133.7530551703199
 20
164.0424839510655
 30
0.0
 10
133.8694801837929
 20
163.5872312240982
 30
0.0
 10
133.9858653512424
 20
162.9530185266233
 30
0.0
 10
134.1022944070876
 20
162.1662544814658
 30
0.0
 10
134.2186774727391
 20
161.2520899863541
 30
0.0
 10
134.3351057445747
 20
160.2429617861585
 30
0.0
 10
134.412701188586
 20
159.523515356661
 30
0.0
 10
134.4515014464373
 20
159.163768630157
 30
0.0
  0
SPLINE
  5
18B
330
1F
100
AcDbEntity
  8
0
  6
Continuous
 62
     8
370
    18
100
AcDbSpline
210
0.0
220
0.0
230
1.0
 70
     8
 71
     3
 72
     9
 73
     5
 74
     0
 42
0.000000001
 43
0.00000001
 40
0.0
 40
0.0
 40
0.0
 40
0.0
 40
0.6867504138073625
 40
0.9999999999999999
 40
0.9999999999999999
 40
0.9999999999999999
 40
0.9999999999999999
 10
133.3586861889299
 20
163.1389931327213
 30
0.0
 10
133.3349368337883
 20
163.0945404683257
 30
0.0
 10
133.3003546119736
 20
163.0298114728976
 30
0.0
 10
133.2657741398106
 20
162.8962408531843
 30
0.0
 10
133.2549418212152
 20
162.8543999118316
 30
0.0
  0
SPLINE
  5
18C
330
1F
100
AcDbEntity
  8
0
  6
Continuous
 62
     8
370
    18
100
AcDbSpline
210
0.0
220
0.0
230
1.0
 70
     8
 71
     3
 72
    10
 73
     6
 74
     0
 42
0.000000001
 43
0.00000001
 40
0.0
 40
0.0
 40
0.0
 40
0.0
 40
0.291210773275477
 40
0.7559446500399332
 40
1.0
 40
1.0
 40
1.0
 40
1.0
 10
131.9634968034419
 20
154.447610954208
 30
0.0
 10
131.939186753841
 20
154.3287659669493
 30
0.0
 10
131.8760810804781
 20
154.0202600992173
 30
0.0
 10
131.7925777295481
 20
153.7210390242832
 30
0.0
 10
131.7334085855797
 20
153.6035822370598
 30
0.0
 10
131.7130350449084
 20
153.5631386803151
 30
0.0
  0
SPLINE
  5
18D
330
1F
100
AcDbEntity
  8
0
  6
Continuous
 62
     8
370
    18
100
AcDbSpline
210
0.0
220
0.0
230
1.0
 70
     8
 71
     3
 72
    12
 73
     8
 74
     0
 42
0.000000001
 43
0.00000001
 40
0.0
 40
0.0
 40
0.0
 40
0.0
 40
0.0687386299806123
 40
0.3423112227094249
 40
0.6158553105348478
 40
0.8894304518418119
 40
1.0
 40
1.0
 40
1.0
 40
1.0
 10
129.3588776929174
 20
163.1431534791076
 30
0.0
 10
129.3491271338079
 20
163.1264836391231
 30
0.0
 10
129.3005703643197
 20
163.0434695710643
 30
0.0
 10
129.2132306782584
 20
162.7365372472712
 30
0.0
 10
129.0968027530193
 20
162.2225109978445
 30
0.0
 10
129.0035319954543
 20
161.7149393294743
 30
0.0
 10
128.949039353048
 20
161.3573313248756
 30
0.0
 10
128.9333545680853
 20
161.2543999123881
 30
0.0
  0
SPLINE
  5
18E
330
1F
100
AcDbEntity
  8
0
  6
Continuous
 62
     8
370
    18
100
AcDbSpline
210
0.0
220
0.0
230
1.0
 70
     8
 71
     3
 72
    11
 73
     7
 74
     0
 42
0.000000001
 43
0.00000001
 40
0.0
 40
0.0
 40
0.0
 40
0.0
 40
0.2210962469673912
 40
0.4968947492680735
 40
0.7727247818207084
 40
1.0
 40
1.0
 40
1.0
 40
1.0
 10
128.142464380014
 20
155.4543999119255
 30
0.0
 10
128.1113633510913
 20
155.2583129591212
 30
0.0
 10
128.0414664705223
 20
154.8176244418583
 30
0.0
 10
127.9327410520283
 20
154.2687833578286
 30
0.0
 10
127.8231798828515
 20
153.8179149527763
 30
0.0
 10
127.7523963275369
 20
153.6475641905784
 30
0.0
 10
127.720420219249
 20
153.5706091069468
 30
0.0
  0
SPLINE
  5
18F
330
1F
100
AcDbEntity
  8
0
  6
Continuous
 62
     8
370
    18
100
AcDbSpline
210
0.0
220
0.0
230
1.0
 70
     8
 71
     3
 72
    11
 73
     7
 74
     0
 42
0.000000001
 43
0.00000001
 40
0.0
 40
0.0
 40
0.0
 40
0.0
 40
0.2352223255946568
 40
0.5113296907501553
 40
0.7874014819298583
 40
1.0
 40
1.0
 40
1.0
 40
1.0
 10
125.3545902085516
 20
163.1390010080604
 30
0.0
 10
125.3215279101755
 20
163.0583212637886
 30
0.0
 10
125.2496566081575
 20
162.8829384697277
 30
0.0
 10
125.1390131891838
 20
162.4234829928468
 30
0.0
 10
125.031511439782
 20
161.8781063208038
 30
0.0
 10
124.9628396149163
 20
161.4434844017797
 30
0.0
 10
124.9329635861844
 20
161.2543999123882
 30
0.0
  0
SPLINE
  5
190
330
1F
100
AcDbEntity
  8
0
  6
Continuous
 62
     8
370
    18
100
AcDbSpline
210
0.0
220
0.0
230
1.0
 70
     8
 71
     3
 72
    12
 73
     8
 74
     0
 42
0.000000001
 43
0.00000001
 40
0.0
 40
0.0
 40
0.0
 40
0.0
 40
0.1188534701736285
 40
0.3925908699521395
 40
0.6663282718294601
 40
0.9400610204105724
 40
1.0
 40
1.0
 40
1.0
 40
1.0
 10
124.1418882400045
 20
155.4543999119255
 30
0.0
 10
124.1250405169557
 20
155.344125203615
 30
0.0
 10
124.0693899563219
 20
154.9798712730723
 30
0.0
 10
123.9749388545582
 20
154.468375608728
 30
0.0
 10
123.858534371298
 20
153.9590871589323
 30
0.0
 10
123.7724308619697
 20
153.6585413018354
 30
0.0
 10
123.7251340707948
 20
153.5790758742399
 30
0.0
 10
123.7166379317409
 20
153.5648011358051
 30
0.0
  0
SPLINE
  5
191
330
1F
100
AcDbEntity
  8
0
  6
Continuous
 62
     8
370
    18
100
AcDbSpline
210
0.0
220
0.0
230
1.0
 70
     8
 71
     3
 72
     9
 73
     5
 74
     0
 42
0.000000001
 43
0.00000001
 40
0.0
 40
0.0
 40
0.0
 40
0.0
 40
0.5979595634168673
 40
1.0
 40
1.0
 40
1.0
 40
1.0
 10
121.3599959576033
 20
163.1409242061698
 30
0.0
 10
121.3391960081121
 20
163.103169314453
 30
0.0
 10
121.3044111317362
 20
163.0400297745466
 30
0.0
 10
121.2696236951941
 20
162.9076299824456
 30
0.0
 10
121.255637739019
 20
162.8543999122258
 30
0.0
  0
SPLINE
  5
192
330
1F
100
AcDbEntity
  8
0
  6
Continuous
 62
     8
370
    18
100
AcDbSpline
210
0.0
220
0.0
230
1.0
 70
     8
 71
     3
 72
    10
 73
     6
 74
     0
 42
0.000000001
 43
0.00000001
 40
0.0
 40
0.0
 40
0.0
 40
0.0
 40
0.1331225920745809
 40
0.5665331046843431
 40
1.0
 40
1.0
 40
1.0
 40
1.0
 10
119.8200638833745
 20
153.8543999122258
 30
0.0
 10
119.8081474771013
 20
153.8098075303615
 30
0.0
 10
119.7574345324582
 20
153.620034628939
 30
0.0
 10
119.6678969493017
 20
153.4301579576583
 30
0.0
 10
119.5903016275664
 20
153.3805406713783
 30
0.0
 10
119.5515014432542
 20
153.3557304146556
 30
0.0
  0
DIMENSION
  5
193
330
1F
100
AcDbEntity
  8
0
  6
Continuous
 62
     7
370
    18
100
AcDbDimension
  2
_D_1
 10
181.9684978034
 20
152.3543999124
 30
0.0
 11
181.9684978034
 21
158.3543999122
 31
0.0
 70
   160
  1
%%c<>
 71
     2
 42
-1.0
  3
SLDDIMSTYLE2
100
AcDbAlignedDimension
 13
156.9634968034
 23
164.354399912
 33
0.0
 14
156.9634968034
 24
152.3543999124
 34
0.0
 50
90.0
100
AcDbRotatedDimension
  0
DIMENSION
  5
1A1
330
1F
100
AcDbEntity
  8
0
  6
Continuous
 62
     7
370
    18
100
AcDbDimension
  2
_D_2
 10
169.9684978034
 20
161.2543999121
 30
0.0
 11
169.9684978034
 21
170.9524179018
 31
0.0
 70
   160
  1
%%c<>
 71
     2
 42
-1.0
  3
SLDDIMSTYLE2
100
AcDbAlignedDimension
 13
159.4634968034
 23
155.4543999125
 33
0.0
 14
159.4634968034
 24
161.2543999121
 34
0.0
 50
90.0
100
AcDbRotatedDimension
  0
DIMENSION
  5
1AE
330
1F
100
AcDbEntity
  8
0
  6
Continuous
 62
     7
370
    18
100
AcDbDimension
  2
_D_3
 10
136.9634968049
 20
138.2949887692
 30
0.0
 11
147.4634968043
 21
138.2949887697
 31
0.0
 70
   160
  1
<>
 71
     2
 42
-1.0
  3
SLDDIMSTYLE3
100
AcDbAlignedDimension
 13
157.9634968034
 23
153.400102964
 33
0.0
 14
136.9634968042
 24
150.8238685515
 34
0.0
 50
0.000000003
100
AcDbRotatedDimension
  0
DIMENSION
  5
1B9
330
1F
100
AcDbEntity
  8
0
  6
Continuous
 62
     7
370
    18
100
AcDbDimension
  2
_D_4
 10
121.9634968034
 20
172.1316620405
 30
0.0
 11
126.9634968034
 21
172.1316620405
 31
0.0
 70
   160
  1
<>st
 71
     2
 42
-1.0
  3
SLDDIMSTYLE2
100
AcDbAlignedDimension
 13
131.9634968034
 23
162.454435001
 33
0.0
 14
121.9634968034
 24
161.2543999125
 34
0.0
100
AcDbRotatedDimension
  0
DIMENSION
  5
1C6
330
1F
100
AcDbEntity
  8
0
  6
Continuous
 62
     7
370
    18
100
AcDbDimension
  2
_D_5
 10
93.4928641624
 20
152.8543999122
 30
0.0
 11
93.4928641624
 21
158.3543999122
 31
0.0
 70
   160
  1
%%c<>
 71
     2
 42
-1.0
  3
SLDDIMSTYLE2
100
AcDbAlignedDimension
 13
102.2634968034
 23
163.8543999122
 33
0.0
 14
102.2634968034
 24
152.8543999122
 34
0.0
 50
90.0
100
AcDbRotatedDimension
  0
DIMENSION
  5
1D3
330
1F
100
AcDbEntity
  8
0
  6
Continuous
 62
     7
370
    18
100
AcDbDimension
  2
_D_6
 10
84.5331860322
 20
151.3543999122
 30
0.0
 11
84.5331860322
 21
158.3543999122
 31
0.0
 70
   160
  1
%%c<>
 71
     2
 42
-1.0
  3
SLDDIMSTYLE2
100
AcDbAlignedDimension
 13
111.2634968034
 23
165.3543999122
 33
0.0
 14
111.2634968034
 24
151.3543999122
 34
0.0
 50
90.0
100
AcDbRotatedDimension
  0
DIMENSION
  5
1E0
330
1F
100
AcDbEntity
  8
0
  6
Continuous
 62
     7
370
    18
100
AcDbDimension
  2
_D_7
 10
159.9634968045
 20
181.7593999107
 30
0.0
 11
130.9634968045
 21
181.7593999121
 31
0.0
 70
   160
  1
<>
 71
     2
 42
-1.0
  3
SLDDIMSTYLE3
100
AcDbAlignedDimension
 13
101.9634968034
 23
163.5543999096
 33
0.0
 14
159.9634968034
 24
160.8543999122
 34
0.0
 50
-0.0000000028
100
AcDbRotatedDimension
  0
DIMENSION
  5
1EA
330
1F
100
AcDbEntity
  8
0
  6
Continuous
 62
     7
370
    18
100
AcDbDimension
  2
_D_8
 10
101.9634968028
 20
138.2949887699
 30
0.0
 11
106.4634968028
 21
138.2949887698
 31
0.0
 70
   160
  1
<>
 71
     2
 42
-1.0
  3
SLDDIMSTYLE2
100
AcDbAlignedDimension
 13
110.9634968031
 23
151.6543999121
 33
0.0
 14
101.9634968031
 24
153.1543999121
 34
0.0
 50
-0.0000000011
100
AcDbRotatedDimension
  0
LINE
  5
1F6
330
1F
100
AcDbEntity
  8
0
  6
CENTERX2
 62
     7
370
    18
100
AcDbLine
 10
99.3896623324
 20
158.3543999122
 30
0.0
 11
163.3063411109
 21
158.3543999122
 31
0.0
  0
ENDSEC
  0
SECTION
  2
OBJECTS
  0
DICTIONARY
  5
C
330
0
100
AcDbDictionary
281
     1
  3
ACAD_GROUP
350
D
  3
ACAD_LAYOUT
350
1A
  3
ACAD_MLINESTYLE
350
17
  3
ACAD_PLOTSETTINGS
350
19
  3
ACAD_PLOTSTYLENAME
350
E
  3
ACAD_SCALELIST
350
47
  0
DICTIONARY
  5
D
102
{ACAD_REACTORS
330
C
102
}
330
C
100
AcDbDictionary
281
     1
  0
DICTIONARY
  5
1A
102
{ACAD_REACTORS
330
C
102
}
330
C
100
AcDbDictionary
281
     1
  3
Layout1
350
1E
  3
Layout2
350
26
  3
Model
350
22
  0
DICTIONARY
  5
17
102
{ACAD_REACTORS
330
C
102
}
330
C
100
AcDbDictionary
281
     1
  3
Standard
350
18
  0
DICTIONARY
  5
19
102
{ACAD_REACTORS
330
C
102
}
330
C
100
AcDbDictionary
281
     1
  0
ACDBDICTIONARYWDFLT
  5
E
102
{ACAD_REACTORS
330
C
102
}
330
C
100
AcDbDictionary
281
     1
  3
Normal
350
F
100
AcDbDictionaryWithDefault
340
F
  0
DICTIONARY
  5
47
102
{ACAD_REACTORS
330
C
102
}
330
C
100
AcDbDictionary
281
     1
  3
A0
350
48
  3
A1
350
49
  3
A2
350
4A
  3
A3
350
4B
  3
A4
350
4C
  3
A5
350
4D
  3
A6
350
4E
  3
A7
350
4F
  3
A8
350
50
  3
A9
350
51
  3
B0
350
52
  3
B1
350
53
  3
B2
350
54
  3
B3
350
55
  3
B4
350
56
  3
B5
350
57
  3
B6
350
58
  3
B7
350
59
  3
B8
350
5A
  3
B9
350
5B
  3
C0
350
5C
  3
C1
350
5D
  3
C2
350
5E
  3
C3
350
5F
  3
C4
350
60
  3
C5
350
61
  3
C6
350
62
  3
C7
350
63
  3
C8
350
64
  3
C9
350
65
  3
D0
350
66
  3
D1
350
67
  3
D2
350
68
  0
LAYOUT
  5
1E
102
{ACAD_REACTORS
330
1A
102
}
330
1A
100
AcDbPlotSettings
  1

  2
none_device
  4

  6

 40
0.0
 41
0.0
 42
0.0
 43
0.0
 44
0.0
 45
0.0
 46
0.0
 47
0.0
 48
0.0
 49
0.0
140
0.0
141
0.0
142
1.0
143
1.0
 70
   688
 72
     1
 73
     0
 74
     5
  7

 75
    16
147
1.0
148
0.0
149
0.0
100
AcDbLayout
  1
Layout1
 70
     1
 71
     1
 10
0.0
 20
0.0
 11
420.0
 21
297.0
 12
0.0
 22
0.0
 32
0.0
 14
1.0000000000E+20
 24
1.0000000000E+20
 34
1.0000000000E+20
 15
-1.0000000000E+20
 25
-1.0000000000E+20
 35
-1.0000000000E+20
146
0.0
 13
0.0
 23
0.0
 33
0.0
 16
1.0
 26
0.0
 36
0.0
 17
0.0
 27
1.0
 37
0.0
 76
     0
330
1B
  0
LAYOUT
  5
26
102
{ACAD_REACTORS
330
1A
102
}
330
1A
100
AcDbPlotSettings
  1

  2
none_device
  4

  6

 40
0.0
 41
0.0
 42
0.0
 43
0.0
 44
0.0
 45
0.0
 46
0.0
 47
0.0
 48
0.0
 49
0.0
140
0.0
141
0.0
142
1.0
143
1.0
 70
   688
 72
     1
 73
     0
 74
     5
  7

 75
    16
147
1.0
148
0.0
149
0.0
100
AcDbLayout
  1
Layout2
 70
     1
 71
     2
 10
0.0
 20
0.0
 11
0.0
 21
0.0
 12
0.0
 22
0.0
 32
0.0
 14
0.0
 24
0.0
 34
0.0
 15
0.0
 25
0.0
 35
0.0
146
0.0
 13
0.0
 23
0.0
 33
0.0
 16
1.0
 26
0.0
 36
0.0
 17
0.0
 27
1.0
 37
0.0
 76
     0
330
23
  0
LAYOUT
  5
22
102
{ACAD_REACTORS
330
1A
102
}
330
1A
100
AcDbPlotSettings
  1

  2
none_device
  4
Letter_(8.50_x_11.00_Inches)
  6

 40
6.35
 41
6.35
 42
6.35000508
 43
6.35000508
 44
215.9
 45
279.4
 46
0.0
 47
0.0
 48
0.0
 49
0.0
140
0.0
141
0.0
142
1.0
143
1.0
 70
  1712
 72
     1
 73
     0
 74
     0
  7

 75
     0
147
1.0
148
0.0
149
0.0
100
AcDbLayout
  1
Model
 70
     1
 71
     0
 10
0.0
 20
0.0
 11
210.0
 21
297.0
 12
0.0
 22
0.0
 32
0.0
 14
0.0
 24
0.0
 34
0.0
 15
210.0
 25
297.0
 35
0.0
146
0.0
 13
0.0
 23
0.0
 33
0.0
 16
1.0
 26
0.0
 36
0.0
 17
0.0
 27
1.0
 37
0.0
 76
     0
330
1F
331
29
  0
MLINESTYLE
  5
18
102
{ACAD_REACTORS
330
17
102
}
330
17
100
AcDbMlineStyle
  2
Standard
 70
     0
  3

 62
   256
 51
90.0
 52
90.0
 71
     2
 49
0.5
 62
   256
  6
BYLAYER
 49
-0.5
 62
   256
  6
BYLAYER
  0
ACDBPLACEHOLDER
  5
F
102
{ACAD_REACTORS
330
E
102
}
330
E
  0
SCALE
  5
48
102
{ACAD_REACTORS
330
47
102
}
330
47
100
AcDbScale
 70
     0
300
1:1
140
1.0
141
1.0
290
     1
  0
SCALE
  5
49
102
{ACAD_REACTORS
330
47
102
}
330
47
100
AcDbScale
 70
     0
300
1:2
140
1.0
141
2.0
290
     0
  0
SCALE
  5
4A
102
{ACAD_REACTORS
330
47
102
}
330
47
100
AcDbScale
 70
     0
300
1:4
140
1.0
141
4.0
290
     0
  0
SCALE
  5
4B
102
{ACAD_REACTORS
330
47
102
}
330
47
100
AcDbScale
 70
     0
300
1:5
140
1.0
141
5.0
290
     0
  0
SCALE
  5
4C
102
{ACAD_REACTORS
330
47
102
}
330
47
100
AcDbScale
 70
     0
300
1:8
140
1.0
141
8.0
290
     0
  0
SCALE
  5
4D
102
{ACAD_REACTORS
330
47
102
}
330
47
100
AcDbScale
 70
     0
300
1:10
140
1.0
141
10.0
290
     0
  0
SCALE
  5
4E
102
{ACAD_REACTORS
330
47
102
}
330
47
100
AcDbScale
 70
     0
300
1:16
140
1.0
141
16.0
290
     0
  0
SCALE
  5
4F
102
{ACAD_REACTORS
330
47
102
}
330
47
100
AcDbScale
 70
     0
300
1:20
140
1.0
141
20.0
290
     0
  0
SCALE
  5
50
102
{ACAD_REACTORS
330
47
102
}
330
47
100
AcDbScale
 70
     0
300
1:30
140
1.0
141
30.0
290
     0
  0
SCALE
  5
51
102
{ACAD_REACTORS
330
47
102
}
330
47
100
AcDbScale
 70
     0
300
1:40
140
1.0
141
40.0
290
     0
  0
SCALE
  5
52
102
{ACAD_REACTORS
330
47
102
}
330
47
100
AcDbScale
 70
     0
300
1:50
140
1.0
141
50.0
290
     0
  0
SCALE
  5
53
102
{ACAD_REACTORS
330
47
102
}
330
47
100
AcDbScale
 70
     0
300
1:100
140
1.0
141
100.0
290
     0
  0
SCALE
  5
54
102
{ACAD_REACTORS
330
47
102
}
330
47
100
AcDbScale
 70
     0
300
2:1
140
2.0
141
1.0
290
     0
  0
SCALE
  5
55
102
{ACAD_REACTORS
330
47
102
}
330
47
100
AcDbScale
 70
     0
300
4:1
140
4.0
141
1.0
290
     0
  0
SCALE
  5
56
102
{ACAD_REACTORS
330
47
102
}
330
47
100
AcDbScale
 70
     0
300
8:1
140
8.0
141
1.0
290
     0
  0
SCALE
  5
57
102
{ACAD_REACTORS
330
47
102
}
330
47
100
AcDbScale
 70
     0
300
10:1
140
10.0
141
1.0
290
     0
  0
SCALE
  5
58
102
{ACAD_REACTORS
330
47
102
}
330
47
100
AcDbScale
 70
     0
300
100:1
140
100.0
141
1.0
290
     0
  0
SCALE
  5
59
102
{ACAD_REACTORS
330
47
102
}
330
47
100
AcDbScale
 70
     0
300
1/128" = 1'-0"
140
0.0078125
141
12.0
290
     0
  0
SCALE
  5
5A
102
{ACAD_REACTORS
330
47
102
}
330
47
100
AcDbScale
 70
     0
300
1/64" = 1'-0"
140
0.015625
141
12.0
290
     0
  0
SCALE
  5
5B
102
{ACAD_REACTORS
330
47
102
}
330
47
100
AcDbScale
 70
     0
300
1/32" = 1'-0"
140
0.03125
141
12.0
290
     0
  0
SCALE
  5
5C
102
{ACAD_REACTORS
330
47
102
}
330
47
100
AcDbScale
 70
     0
300
1/16" = 1'-0"
140
0.0625
141
12.0
290
     0
  0
SCALE
  5
5D
102
{ACAD_REACTORS
330
47
102
}
330
47
100
AcDbScale
 70
     0
300
3/32" = 1'-0"
140
0.09375
141
12.0
290
     0
  0
SCALE
  5
5E
102
{ACAD_REACTORS
330
47
102
}
330
47
100
AcDbScale
 70
     0
300
1/8" = 1'-0"
140
0.125
141
12.0
290
     0
  0
SCALE
  5
5F
102
{ACAD_REACTORS
330
47
102
}
330
47
100
AcDbScale
 70
     0
300
3/16" = 1'-0"
140
0.1875
141
12.0
290
     0
  0
SCALE
  5
60
102
{ACAD_REACTORS
330
47
102
}
330
47
100
AcDbScale
 70
     0
300
1/4" = 1'-0"
140
0.25
141
12.0
290
     0
  0
SCALE
  5
61
102
{ACAD_REACTORS
330
47
102
}
330
47
100
AcDbScale
 70
     0
300
3/8" = 1'-0"
140
0.375
141
12.0
290
     0
  0
SCALE
  5
62
102
{ACAD_REACTORS
330
47
102
}
330
47
100
AcDbScale
 70
     0
300
1/2" = 1'-0"
140
0.5
141
12.0
290
     0
  0
SCALE
  5
63
102
{ACAD_REACTORS
330
47
102
}
330
47
100
AcDbScale
 70
     0
300
3/4" = 1'-0"
140
0.75
141
12.0
290
     0
  0
SCALE
  5
64
102
{ACAD_REACTORS
330
47
102
}
330
47
100
AcDbScale
 70
     0
300
1" = 1'-0"
140
1.0
141
12.0
290
     0
  0
SCALE
  5
65
102
{ACAD_REACTORS
330
47
102
}
330
47
100
AcDbScale
 70
     0
300
1-1/2" = 1'-0"
140
1.5
141
12.0
290
     0
  0
SCALE
  5
66
102
{ACAD_REACTORS
330
47
102
}
330
47
100
AcDbScale
 70
     0
300
3" = 1'-0"
140
3.0
141
12.0
290
     0
  0
SCALE
  5
67
102
{ACAD_REACTORS
330
47
102
}
330
47
100
AcDbScale
 70
     0
300
6" = 1'-0"
140
6.0
141
12.0
290
     0
  0
SCALE
  5
68
102
{ACAD_REACTORS
330
47
102
}
330
47
100
AcDbScale
 70
     0
300
1'-0" = 1'-0"
140
12.0
141
12.0
290
     0
  0
ENDSEC
  0
EOF
