  0
SECTION
  2
HEADER
  9
$ACADVER
  1
AC1015
  9
$ACADMAINTVER
 70
     6
  9
$DWGCODEPAGE
  3
DOS932
  9
$INSBASE
 10
0.0
 20
0.0
 30
0.0
  9
$EXTMIN
 10
0.0
 20
0.0
 30
0.0
  9
$EXTMAX
 10
210.0
 20
297.0
 30
0.0
  9
$LIMMIN
 10
0.0
 20
0.0
  9
$LIMMAX
 10
210.0
 20
297.0
  9
$ORTHOMODE
 70
     0
  9
$REGENMODE
 70
     1
  9
$FILLMODE
 70
     1
  9
$QTEXTMODE
 70
     0
  9
$MIRRTEXT
 70
     1
  9
$LTSCALE
 40
1.0
  9
$ATTMODE
 70
     1
  9
$TEXTSIZE
 40
3.5
  9
$TRACEWID
 40
1.0
  9
$TEXTSTYLE
  7
Standard
  9
$CLAYER
  8
0
  9
$CELTYPE
  6
ByLayer
  9
$CECOLOR
 62
   256
  9
$CELTSCALE
 40
1.0
  9
$DISPSILH
 70
     0
  9
$DIMSCALE
 40
1.0
  9
$DIMASZ
 40
3.0
  9
$DIMEXO
 40
1.0
  9
$DIMDLI
 40
3.75
  9
$DIMRND
 40
0.0
  9
$DIMDLE
 40
0.0
  9
$DIMEXE
 40
1.0
  9
$DIMTP
 40
0.0
  9
$DIMTM
 40
0.0
  9
$DIMTXT
 40
3.5
  9
$DIMCEN
 40
2.5
  9
$DIMTSZ
 40
0.0
  9
$DIMTOL
 70
     0
  9
$DIMLIM
 70
     0
  9
$DIMTIH
 70
     1
  9
$DIMTOH
 70
     1
  9
$DIMSE1
 70
     0
  9
$DIMSE2
 70
     0
  9
$DIMTAD
 70
     1
  9
$DIMZIN
 70
     0
  9
$DIMBLK
  1

  9
$DIMASO
 70
     1
  9
$DIMSHO
 70
     1
  9
$DIMPOST
  1

  9
$DIMAPOST
  1

  9
$DIMALT
 70
     0
  9
$DIMALTD
 70
     3
  9
$DIMALTF
 40
0.0393700787
  9
$DIMLFAC
 40
1.0
  9
$DIMTOFL
 70
     1
  9
$DIMTVP
 40
0.0
  9
$DIMTIX
 70
     0
  9
$DIMSOXD
 70
     0
  9
$DIMSAH
 70
     0
  9
$DIMBLK1
  1

  9
$DIMBLK2
  1

  9
$DIMSTYLE
  2
ISO-25
  9
$DIMCLRD
 70
     0
  9
$DIMCLRE
 70
     0
  9
$DIMCLRT
 70
     0
  9
$DIMTFAC
 40
1.0
  9
$DIMGAP
 40
1.524
  9
$DIMJUST
 70
     0
  9
$DIMSD1
 70
     0
  9
$DIMSD2
 70
     0
  9
$DIMTOLJ
 70
     0
  9
$DIMTZIN
 70
     0
  9
$DIMALTZ
 70
     0
  9
$DIMALTTZ
 70
     0
  9
$DIMUPT
 70
     0
  9
$DIMDEC
 70
     1
  9
$DIMTDEC
 70
     3
  9
$DIMALTU
 70
     2
  9
$DIMALTTD
 70
     3
  9
$DIMTXSTY
  7
Standard
  9
$DIMAUNIT
 70
     0
  9
$DIMADEC
 70
     2
  9
$DIMALTRND
 40
0.0
  9
$DIMAZIN
 70
     0
  9
$DIMDSEP
 70
    44
  9
$DIMATFIT
 70
     3
  9
$DIMFRAC
 70
     0
  9
$DIMLDRBLK
  1

  9
$DIMLUNIT
 70
     2
  9
$DIMLWD
 70
    -2
  9
$DIMLWE
 70
    -2
  9
$DIMTMOVE
 70
     0
  9
$LUNITS
 70
     2
  9
$LUPREC
 70
     1
  9
$SKETCHINC
 40
1.0
  9
$FILLETRAD
 40
10.0
  9
$AUNITS
 70
     0
  9
$AUPREC
 70
     2
  9
$MENU
  1
.
  9
$ELEVATION
 40
0.0
  9
$PELEVATION
 40
0.0
  9
$THICKNESS
 40
0.0
  9
$LIMCHECK
 70
     0
  9
$CHAMFERA
 40
0.0
  9
$CHAMFERB
 40
0.0
  9
$CHAMFERC
 40
0.0
  9
$CHAMFERD
 40
0.0
  9
$SKPOLY
 70
     0
  9
$TDCREATE
 40
2458675.807173229
  9
$TDUCREATE
 40
2458675.432173229
  9
$TDUPDATE
 40
2458675.80717669
  9
$TDUUPDATE
 40
2458675.43217669
  9
$TDINDWG
 40
0.0000000116
  9
$TDUSRTIMER
 40
0.0000000116
  9
$USRTIMER
 70
     1
  9
$ANGBASE
 50
0.0
  9
$ANGDIR
 70
     0
  9
$PDMODE
 70
     0
  9
$PDSIZE
 40
-1.0
  9
$PLINEWID
 40
0.0
  9
$SPLFRAME
 70
     0
  9
$SPLINETYPE
 70
     6
  9
$SPLINESEGS
 70
     8
  9
$HANDSEED
  5
27C
  9
$SURFTAB1
 70
     6
  9
$SURFTAB2
 70
     6
  9
$SURFTYPE
 70
     6
  9
$SURFU
 70
     6
  9
$SURFV
 70
     6
  9
$UCSBASE
  2

  9
$UCSNAME
  2

  9
$UCSORG
 10
0.0
 20
0.0
 30
0.0
  9
$UCSXDIR
 10
1.0
 20
0.0
 30
0.0
  9
$UCSYDIR
 10
0.0
 20
1.0
 30
0.0
  9
$UCSORTHOREF
  2

  9
$UCSORTHOVIEW
 70
     0
  9
$UCSORGTOP
 10
0.0
 20
0.0
 30
0.0
  9
$UCSORGBOTTOM
 10
0.0
 20
0.0
 30
0.0
  9
$UCSORGLEFT
 10
0.0
 20
0.0
 30
0.0
  9
$UCSORGRIGHT
 10
0.0
 20
0.0
 30
0.0
  9
$UCSORGFRONT
 10
0.0
 20
0.0
 30
0.0
  9
$UCSORGBACK
 10
0.0
 20
0.0
 30
0.0
  9
$PUCSBASE
  2

  9
$PUCSNAME
  2

  9
$PUCSORG
 10
0.0
 20
0.0
 30
0.0
  9
$PUCSXDIR
 10
1.0
 20
0.0
 30
0.0
  9
$PUCSYDIR
 10
0.0
 20
1.0
 30
0.0
  9
$PUCSORTHOREF
  2

  9
$PUCSORTHOVIEW
 70
     0
  9
$PUCSORGTOP
 10
0.0
 20
0.0
 30
0.0
  9
$PUCSORGBOTTOM
 10
0.0
 20
0.0
 30
0.0
  9
$PUCSORGLEFT
 10
0.0
 20
0.0
 30
0.0
  9
$PUCSORGRIGHT
 10
0.0
 20
0.0
 30
0.0
  9
$PUCSORGFRONT
 10
0.0
 20
0.0
 30
0.0
  9
$PUCSORGBACK
 10
0.0
 20
0.0
 30
0.0
  9
$USERI1
 70
     0
  9
$USERI2
 70
     0
  9
$USERI3
 70
     0
  9
$USERI4
 70
     0
  9
$USERI5
 70
     0
  9
$USERR1
 40
0.0
  9
$USERR2
 40
0.0
  9
$USERR3
 40
0.0
  9
$USERR4
 40
0.0
  9
$USERR5
 40
0.0
  9
$WORLDVIEW
 70
     1
  9
$SHADEDGE
 70
     3
  9
$SHADEDIF
 70
    70
  9
$TILEMODE
 70
     1
  9
$MAXACTVP
 70
    64
  9
$PINSBASE
 10
0.0
 20
0.0
 30
0.0
  9
$PLIMCHECK
 70
     0
  9
$PEXTMIN
 10
1.0000000000E+20
 20
1.0000000000E+20
 30
1.0000000000E+20
  9
$PEXTMAX
 10
-1.0000000000E+20
 20
-1.0000000000E+20
 30
-1.0000000000E+20
  9
$PLIMMIN
 10
0.0
 20
0.0
  9
$PLIMMAX
 10
420.0
 20
297.0
  9
$UNITMODE
 70
     0
  9
$VISRETAIN
 70
     1
  9
$PLINEGEN
 70
     0
  9
$PSLTSCALE
 70
     1
  9
$TREEDEPTH
 70
  3020
  9
$CMLSTYLE
  2
Standard
  9
$CMLJUST
 70
     0
  9
$CMLSCALE
 40
20.0
  9
$PROXYGRAPHICS
 70
     1
  9
$MEASUREMENT
 70
     1
  9
$CELWEIGHT
370
    -1
  9
$ENDCAPS
280
     0
  9
$JOINSTYLE
280
     0
  9
$LWDISPLAY
290
     1
  9
$INSUNITS
 70
     4
  9
$HYPERLINKBASE
  1

  9
$STYLESHEET
  1

  9
$XEDIT
290
     1
  9
$CEPSNTYPE
380
     0
  9
$PSTYLEMODE
290
     1
  9
$FINGERPRINTGUID
  2
{59334B64-1360-49B4-933E-DBB739BD723A}
  9
$VERSIONGUID
  2
{FAEB1C32-E019-11D5-929B-00C0DF256EC4}
  9
$EXTNAMES
290
     1
  9
$PSVPSCALE
 40
0.0
  9
$OLESTARTUP
290
     0
  0
ENDSEC
  0
SECTION
  2
CLASSES
  0
CLASS
  1
ACDBDICTIONARYWDFLT
  2
AcDbDictionaryWithDefault
  3
ObjectDBX Classes
 90
        0
280
     0
281
     0
  0
CLASS
  1
VISUALSTYLE
  2
AcDbVisualStyle
  3
ObjectDBX Classes
 90
     4095
280
     0
281
     0
  0
CLASS
  1
MATERIAL
  2
AcDbMaterial
  3
ObjectDBX Classes
 90
     1153
280
     0
281
     0
  0
CLASS
  1
SCALE
  2
AcDbScale
  3
ObjectDBX Classes
 90
     1153
280
     0
281
     0
  0
CLASS
  1
TABLESTYLE
  2
AcDbTableStyle
  3
ObjectDBX Classes
 90
     4095
280
     0
281
     0
  0
CLASS
  1
MLEADERSTYLE
  2
AcDbMLeaderStyle
  3
ACDB_MLEADERSTYLE_CLASS
 90
     4095
280
     0
281
     0
  0
CLASS
  1
SUN
  2
AcDbSun
  3
SCENEOE
 90
     1153
280
     0
281
     0
  0
CLASS
  1
ACDBPLACEHOLDER
  2
AcDbPlaceHolder
  3
ObjectDBX Classes
 90
        0
280
     0
281
     0
  0
CLASS
  1
LAYOUT
  2
AcDbLayout
  3
ObjectDBX Classes
 90
        0
280
     0
281
     0
  0
ENDSEC
  0
SECTION
  2
TABLES
  0
TABLE
  2
VPORT
  5
8
330
0
100
AcDbSymbolTable
 70
     1
  0
VPORT
  5
29
330
8
100
AcDbSymbolTableRecord
100
AcDbViewportTableRecord
  2
*Active
 70
     0
 10
0.0
 20
0.0
 11
1.0
 21
1.0
 12
105.0
 22
148.5
 13
0.0
 23
0.0
 14
10.0
 24
10.0
 15
10.0
 25
10.0
 16
0.0
 26
0.0
 36
1.0
 17
0.0
 27
0.0
 37
0.0
 40
297.0
 41
0.7070707071
 42
50.0
 43
0.0
 44
0.0
 50
0.0
 51
0.0
 71
     0
 72
  2000
 73
     1
 74
     3
 75
     0
 76
     0
 77
     0
 78
     0
281
     0
 65
     1
110
0.0
120
0.0
130
0.0
111
1.0
121
0.0
131
0.0
112
0.0
122
1.0
132
0.0
 79
     0
146
0.0
  0
ENDTAB
  0
TABLE
  2
LTYPE
  5
5
330
0
100
AcDbSymbolTable
 70
     6
  0
LTYPE
  5
14
330
5
100
AcDbSymbolTableRecord
100
AcDbLinetypeTableRecord
  2
ByBlock
 70
     0
  3

 72
    65
 73
     0
 40
0.0
  0
LTYPE
  5
15
330
5
100
AcDbSymbolTableRecord
100
AcDbLinetypeTableRecord
  2
ByLayer
 70
     0
  3

 72
    65
 73
     0
 40
0.0
  0
LTYPE
  5
16
330
5
100
AcDbSymbolTableRecord
100
AcDbLinetypeTableRecord
  2
Continuous
 70
     0
  3
Solid line
 72
    65
 73
     0
 40
0.0
  0
LTYPE
  5
6E
330
5
100
AcDbSymbolTableRecord
100
AcDbLinetypeTableRecord
  2
HIDDEN
 70
     0
  3
Hidden __ __ __ __ __ __ __ __ __ __ __ __ __ __
 72
    65
 73
     2
 40
1.905
 49
1.27
 74
     0
 49
-0.635
 74
     0
  0
LTYPE
  5
6F
330
5
100
AcDbSymbolTableRecord
100
AcDbLinetypeTableRecord
  2
PHANTOM
 70
     0
  3
Phantom ______  __  __  ______  __  __  ______
 72
    65
 73
     6
 40
12.7
 49
6.35
 74
     0
 49
-1.27
 74
     0
 49
1.27
 74
     0
 49
-1.27
 74
     0
 49
1.27
 74
     0
 49
-1.27
 74
     0
  0
LTYPE
  5
70
330
5
100
AcDbSymbolTableRecord
100
AcDbLinetypeTableRecord
  2
CENTER
 70
     0
  3
Center ____ _ ____ _ ____ _ ____ _ ____ _ ____
 72
    65
 73
     4
 40
10.16
 49
6.35
 74
     0
 49
-1.27
 74
     0
 49
1.27
 74
     0
 49
-1.27
 74
     0
  0
LTYPE
  5
71
330
5
100
AcDbSymbolTableRecord
100
AcDbLinetypeTableRecord
  2
CENTERX2
 70
     0
  3
Center (2x) ________  __  ________  __  _____
 72
    65
 73
     4
 40
20.32
 49
12.7
 74
     0
 49
-2.54
 74
     0
 49
2.54
 74
     0
 49
-2.54
 74
     0
  0
LTYPE
  5
72
330
5
100
AcDbSymbolTableRecord
100
AcDbLinetypeTableRecord
  2
DOT2
 70
     0
  3
Dot (.5x) ........................................
 72
    65
 73
     2
 40
0.635
 49
0.0
 74
     0
 49
-0.635
 74
     0
  0
ENDTAB
  0
TABLE
  2
LAYER
  5
2
330
0
100
AcDbSymbolTable
 70
     1
  0
LAYER
  5
10
330
2
100
AcDbSymbolTableRecord
100
AcDbLayerTableRecord
  2
0
 70
     0
 62
     7
  6
Continuous
370
    -3
390
F
  0
ENDTAB
  0
TABLE
  2
STYLE
  5
3
330
0
100
AcDbSymbolTable
 70
     2
  0
STYLE
  5
11
330
3
100
AcDbSymbolTableRecord
100
AcDbTextStyleTableRecord
  2
Standard
 70
     0
 40
0.0
 41
1.0
 50
0.0
 71
     0
 42
3.5
  3
txt
  4
bigfont
  0
STYLE
  5
7B
330
3
100
AcDbSymbolTableRecord
100
AcDbTextStyleTableRecord
  2
SLDTEXTSTYLE0
 70
     0
 40
0.0
 41
0.7
 50
0.0
 71
     0
 42
3.5
  3
TXT
  4
bigfont
  0
ENDTAB
  0
TABLE
  2
VIEW
  5
6
330
0
100
AcDbSymbolTable
 70
     0
  0
ENDTAB
  0
TABLE
  2
UCS
  5
7
330
0
100
AcDbSymbolTable
 70
     0
  0
ENDTAB
  0
TABLE
  2
APPID
  5
9
330
0
100
AcDbSymbolTable
 70
     1
  0
APPID
  5
12
330
9
100
AcDbSymbolTableRecord
100
AcDbRegAppTableRecord
  2
ACAD
 70
     0
  0
ENDTAB
  0
TABLE
  2
DIMSTYLE
  5
A
330
0
100
AcDbSymbolTable
 70
     4
100
AcDbDimStyleTable
  0
DIMSTYLE
105
27
330
A
100
AcDbSymbolTableRecord
100
AcDbDimStyleTableRecord
  2
ISO-25
 70
     0
 41
2.5
 42
0.625
 43
3.75
 44
1.25
 73
     0
 74
     0
 77
     1
 78
     8
140
2.5
141
2.5
143
0.0393700787
147
0.625
171
     3
172
     1
178
     0
271
     2
272
     2
274
     3
278
    44
283
     0
284
     8
340
11
  0
DIMSTYLE
105
AA
330
A
100
AcDbSymbolTableRecord
100
AcDbDimStyleTableRecord
  2
SLDDIMSTYLE0
 70
     0
 41
3.0
 44
0.0
 45
0.000000001
146
3.0
147
0.0
173
     1
178
     0
271
     0
272
     0
276
     2
340
11
  0
DIMSTYLE
105
1F5
102
{ACAD_REACTORS
330
1F4
330
202
330
224
330
245
330
251
330
268
102
}
330
A
100
AcDbSymbolTableRecord
100
AcDbDimStyleTableRecord
  2
SLDDIMSTYLE1
 70
     0
 41
3.0
 44
0.0
 45
0.000000001
 73
     0
 74
     0
 77
     3
 78
    12
 79
     3
140
3.5
147
0.875
172
     1
173
     1
178
     0
271
     1
272
     3
276
     2
284
    12
289
     0
340
7B
  0
DIMSTYLE
105
210
102
{ACAD_REACTORS
330
20F
330
21A
330
231
330
23B
330
25D
102
}
330
A
100
AcDbSymbolTableRecord
100
AcDbDimStyleTableRecord
  2
SLDDIMSTYLE2
 70
     0
 41
3.0
 44
0.0
 45
0.000000001
 73
     0
 74
     0
 77
     3
 78
    12
 79
     3
140
3.5
147
0.875
173
     1
178
     0
271
     1
272
     3
276
     2
284
    12
340
7B
  0
ENDTAB
  0
TABLE
  2
BLOCK_RECORD
  5
1
330
0
100
AcDbSymbolTable
 70
    16
  0
BLOCK_RECORD
  5
1F
330
1
100
AcDbSymbolTableRecord
100
AcDbBlockTableRecord
  2
*Model_Space
340
22
  0
BLOCK_RECORD
  5
1B
330
1
100
AcDbSymbolTableRecord
100
AcDbBlockTableRecord
  2
*Paper_Space
340
1E
  0
BLOCK_RECORD
  5
23
330
1
100
AcDbSymbolTableRecord
100
AcDbBlockTableRecord
  2
*Paper_Space0
340
26
  0
BLOCK_RECORD
  5
A4
330
1
100
AcDbSymbolTableRecord
100
AcDbBlockTableRecord
  2
SW_NOTE_0
340
0
102
{BLKREFS
331
A9
102
}
  0
BLOCK_RECORD
  5
AC
330
1
100
AcDbSymbolTableRecord
100
AcDbBlockTableRecord
  2
SW_NOTE_1
340
0
102
{BLKREFS
331
B1
102
}
  0
BLOCK_RECORD
  5
B3
330
1
100
AcDbSymbolTableRecord
100
AcDbBlockTableRecord
  2
SW_CENTERMARKSYMBOL_0
340
0
102
{BLKREFS
331
BE
102
}
  0
BLOCK_RECORD
  5
1F6
330
1
100
AcDbSymbolTableRecord
100
AcDbBlockTableRecord
  2
_D
340
0
  0
BLOCK_RECORD
  5
203
330
1
100
AcDbSymbolTableRecord
100
AcDbBlockTableRecord
  2
_D_1
340
0
  0
BLOCK_RECORD
  5
211
330
1
100
AcDbSymbolTableRecord
100
AcDbBlockTableRecord
  2
_D_2
340
0
  0
BLOCK_RECORD
  5
21B
330
1
100
AcDbSymbolTableRecord
100
AcDbBlockTableRecord
  2
_D_3
340
0
  0
BLOCK_RECORD
  5
225
330
1
100
AcDbSymbolTableRecord
100
AcDbBlockTableRecord
  2
_D_4
340
0
  0
BLOCK_RECORD
  5
232
330
1
100
AcDbSymbolTableRecord
100
AcDbBlockTableRecord
  2
_D_5
340
0
  0
BLOCK_RECORD
  5
23C
330
1
100
AcDbSymbolTableRecord
100
AcDbBlockTableRecord
  2
_D_6
340
0
  0
BLOCK_RECORD
  5
246
330
1
100
AcDbSymbolTableRecord
100
AcDbBlockTableRecord
  2
_D_7
340
0
  0
BLOCK_RECORD
  5
252
330
1
100
AcDbSymbolTableRecord
100
AcDbBlockTableRecord
  2
_D_8
340
0
  0
BLOCK_RECORD
  5
25E
330
1
100
AcDbSymbolTableRecord
100
AcDbBlockTableRecord
  2
_D_9
340
0
  0
BLOCK_RECORD
  5
269
330
1
100
AcDbSymbolTableRecord
100
AcDbBlockTableRecord
  2
_D_10
340
0
  0
BLOCK_RECORD
  5
274
330
1
100
AcDbSymbolTableRecord
100
AcDbBlockTableRecord
  2
SW_NOTE_2
340
0
102
{BLKREFS
331
279
102
}
  0
ENDTAB
  0
ENDSEC
  0
SECTION
  2
BLOCKS
  0
BLOCK
  5
20
330
1F
100
AcDbEntity
  8
0
100
AcDbBlockBegin
  2
*Model_Space
 70
     0
 10
0.0
 20
0.0
 30
0.0
  3
*Model_Space
  1

  0
ENDBLK
  5
21
330
1F
100
AcDbEntity
  8
0
100
AcDbBlockEnd
  0
BLOCK
  5
1C
330
1B
100
AcDbEntity
 67
     1
  8
0
100
AcDbBlockBegin
  2
*Paper_Space
 70
     0
 10
0.0
 20
0.0
 30
0.0
  3
*Paper_Space
  1

  0
ENDBLK
  5
1D
330
1B
100
AcDbEntity
 67
     1
  8
0
100
AcDbBlockEnd
  0
BLOCK
  5
24
330
23
100
AcDbEntity
  8
0
100
AcDbBlockBegin
  2
*Paper_Space0
 70
     0
 10
0.0
 20
0.0
 30
0.0
  3
*Paper_Space0
  1

  0
ENDBLK
  5
25
330
23
100
AcDbEntity
  8
0
100
AcDbBlockEnd
  0
BLOCK
  5
A5
330
A4
100
AcDbEntity
  8
0
100
AcDbBlockBegin
  2
SW_NOTE_0
 70
     0
 10
0.0
 20
0.0
 30
0.0
  3
SW_NOTE_0
  1

  0
LINE
  5
A7
330
A4
100
AcDbEntity
  8
0
  6
Continuous
 62
     0
370
     0
100
AcDbLine
 10
3.9558253648
 20
0.0
 30
0.0
 11
0.0
 21
0.0
 31
0.0
  0
MTEXT
  5
A8
330
A4
100
AcDbEntity
  8
0
  6
Continuous
 62
     0
370
     0
100
AcDbMText
 10
0.4305239044
 20
4.5562648918
 30
0.0
 40
3.5
 41
0.0
 71
     1
 72
     1
  1
M5
  7
SLDTEXTSTYLE0
 73
     1
 44
1.0
  0
ENDBLK
  5
A6
330
A4
100
AcDbEntity
  8
0
100
AcDbBlockEnd
  0
BLOCK
  5
AD
330
AC
100
AcDbEntity
  8
0
100
AcDbBlockBegin
  2
SW_NOTE_1
 70
     0
 10
0.0
 20
0.0
 30
0.0
  3
SW_NOTE_1
  1

  0
LINE
  5
AF
330
AC
100
AcDbEntity
  8
0
  6
Continuous
 62
     0
370
     0
100
AcDbLine
 10
-34.7434797858
 20
0.0
 30
0.0
 11
0.0
 21
0.0
 31
0.0
  0
MTEXT
  5
B0
330
AC
100
AcDbEntity
  8
0
  6
Continuous
 62
     0
370
     0
100
AcDbMText
 10
-35.2250481149
 20
4.6074398183
 30
0.0
 40
3.5
 41
0.0
 71
     1
 72
     1
  1
外径φ6配管用継手
  7
SLDTEXTSTYLE0
 73
     1
 44
1.0
  0
ENDBLK
  5
AE
330
AC
100
AcDbEntity
  8
0
100
AcDbBlockEnd
  0
BLOCK
  5
B4
330
B3
100
AcDbEntity
  8
0
100
AcDbBlockBegin
  2
SW_CENTERMARKSYMBOL_0
 70
     0
 10
0.0
 20
0.0
 30
0.0
  3
SW_CENTERMARKSYMBOL_0
  1

  0
LINE
  5
B6
330
B3
100
AcDbEntity
  8
0
  6
Continuous
 62
     0
370
    18
100
AcDbLine
 10
0.0
 20
0.0
 30
0.0
 11
0.0
 21
2.5
 31
0.0
  0
LINE
  5
B7
330
B3
100
AcDbEntity
  8
0
  6
Continuous
 62
     0
370
    18
100
AcDbLine
 10
0.0
 20
0.0
 30
0.0
 11
-2.5
 21
0.0
 31
0.0
  0
LINE
  5
B8
330
B3
100
AcDbEntity
  8
0
  6
Continuous
 62
     0
370
    18
100
AcDbLine
 10
0.0
 20
0.0
 30
0.0
 11
0.0
 21
-2.5
 31
0.0
  0
LINE
  5
B9
330
B3
100
AcDbEntity
  8
0
  6
Continuous
 62
     0
370
    18
100
AcDbLine
 10
0.0
 20
0.0
 30
0.0
 11
2.5
 21
0.0
 31
0.0
  0
LINE
  5
BA
330
B3
100
AcDbEntity
  8
0
  6
Continuous
 62
     0
370
    18
100
AcDbLine
 10
0.0
 20
5.0
 30
0.0
 11
0.0
 21
9.5000000002
 31
0.0
  0
LINE
  5
BB
330
B3
100
AcDbEntity
  8
0
  6
Continuous
 62
     0
370
    18
100
AcDbLine
 10
-5.0
 20
0.0
 30
0.0
 11
-9.5000000002
 21
0.0
 31
0.0
  0
LINE
  5
BC
330
B3
100
AcDbEntity
  8
0
  6
Continuous
 62
     0
370
    18
100
AcDbLine
 10
0.0
 20
-5.0
 30
0.0
 11
0.0
 21
-9.5000000002
 31
0.0
  0
LINE
  5
BD
330
B3
100
AcDbEntity
  8
0
  6
Continuous
 62
     0
370
    18
100
AcDbLine
 10
5.0
 20
0.0
 30
0.0
 11
9.5000000002
 21
0.0
 31
0.0
  0
ENDBLK
  5
B5
330
B3
100
AcDbEntity
  8
0
100
AcDbBlockEnd
  0
BLOCK
  5
1F7
330
1F6
100
AcDbEntity
  8
0
100
AcDbBlockBegin
  2
_D
 70
     0
 10
0.0
 20
0.0
 30
0.0
  3
_D
  1

  0
SOLID
  5
1F9
330
1F6
100
AcDbEntity
  8
0
  6
Continuous
 62
     7
370
    18
100
AcDbTrace
 10
92.3821351002
 20
167.9132828374
 30
0.0
 11
93.1321351002
 21
170.9132828374
 31
0.0
 12
91.6321351002
 22
170.9132828374
 32
0.0
 13
91.6321351002
 23
170.9132828374
 33
0.0
  0
SOLID
  5
1FA
330
1F6
100
AcDbEntity
  8
0
  6
Continuous
 62
     7
370
    18
100
AcDbTrace
 10
92.3821351002
 20
156.9132828374
 30
0.0
 11
91.6321351002
 21
153.9132828374
 31
0.0
 12
93.1321351002
 22
153.9132828374
 32
0.0
 13
93.1321351002
 23
153.9132828374
 33
0.0
  0
LINE
  5
1FB
330
1F6
100
AcDbEntity
  8
0
  6
Continuous
 62
     7
370
    18
100
AcDbLine
 10
100.9778938772
 20
167.9132828374
 30
0.0
 11
91.3821351002
 21
167.9132828374
 31
0.0
  0
LINE
  5
1FC
330
1F6
100
AcDbEntity
  8
0
  6
Continuous
 62
     7
370
    18
100
AcDbLine
 10
100.9778938772
 20
156.9132828374
 30
0.0
 11
91.3821351002
 21
156.9132828374
 31
0.0
  0
LINE
  5
1FD
330
1F6
100
AcDbEntity
  8
0
  6
Continuous
 62
     7
370
    18
100
AcDbLine
 10
92.3821351002
 20
167.9132828374
 30
0.0
 11
92.3821351002
 21
172.9132828374
 31
0.0
  0
LINE
  5
1FE
330
1F6
100
AcDbEntity
  8
0
  6
Continuous
 62
     7
370
    18
100
AcDbLine
 10
92.3821351002
 20
167.9132828374
 30
0.0
 11
92.3821351002
 21
156.9132828374
 31
0.0
  0
LINE
  5
1FF
330
1F6
100
AcDbEntity
  8
0
  6
Continuous
 62
     7
370
    18
100
AcDbLine
 10
92.3821351002
 20
156.9132828374
 30
0.0
 11
92.3821351002
 21
151.9132828374
 31
0.0
  0
MTEXT
  5
200
330
1F6
100
AcDbEntity
  8
0
  6
Continuous
 62
     7
370
    18
100
AcDbMText
 10
87.8703977782
 20
158.441511966
 30
0.0
 40
3.5
 41
0.0
 71
     1
 72
     1
  1
%%c
  7
SLDTEXTSTYLE0
 11
-7.044195017643634E-15
 21
1.0
 31
0.0
 73
     1
 44
1.0
  0
MTEXT
  5
201
330
1F6
100
AcDbEntity
  8
0
  6
Continuous
 62
     7
370
    18
100
AcDbMText
 10
87.8703977782
 20
162.311442481
 30
0.0
 40
3.5
 41
0.0
 71
     1
 72
     1
  1
11
  7
SLDTEXTSTYLE0
 11
-7.044195017643634E-15
 21
1.0
 31
0.0
 73
     1
 44
1.0
  0
ENDBLK
  5
1F8
330
1F6
100
AcDbEntity
  8
0
100
AcDbBlockEnd
  0
BLOCK
  5
204
330
203
100
AcDbEntity
  8
0
100
AcDbBlockBegin
  2
_D_1
 70
     0
 10
0.0
 20
0.0
 30
0.0
  3
_D_1
  1

  0
SOLID
  5
206
330
203
100
AcDbEntity
  8
0
  6
Continuous
 62
     7
370
    18
100
AcDbTrace
 10
82.105608649
 20
169.4132828374
 30
0.0
 11
82.855608649
 21
172.4132828374
 31
0.0
 12
81.355608649
 22
172.4132828374
 32
0.0
 13
81.355608649
 23
172.4132828374
 33
0.0
  0
SOLID
  5
207
330
203
100
AcDbEntity
  8
0
  6
Continuous
 62
     7
370
    18
100
AcDbTrace
 10
82.105608649
 20
155.4132828374
 30
0.0
 11
81.355608649
 21
152.4132828374
 31
0.0
 12
82.855608649
 22
152.4132828374
 32
0.0
 13
82.855608649
 23
152.4132828374
 33
0.0
  0
LINE
  5
208
330
203
100
AcDbEntity
  8
0
  6
Continuous
 62
     7
370
    18
100
AcDbLine
 10
109.9778938772
 20
169.4132828374
 30
0.0
 11
81.105608649
 21
169.4132828374
 31
0.0
  0
LINE
  5
209
330
203
100
AcDbEntity
  8
0
  6
Continuous
 62
     7
370
    18
100
AcDbLine
 10
109.9778938772
 20
155.4132828374
 30
0.0
 11
81.105608649
 21
155.4132828374
 31
0.0
  0
LINE
  5
20A
330
203
100
AcDbEntity
  8
0
  6
Continuous
 62
     7
370
    18
100
AcDbLine
 10
82.105608649
 20
169.4132828374
 30
0.0
 11
82.105608649
 21
174.4132828374
 31
0.0
  0
LINE
  5
20B
330
203
100
AcDbEntity
  8
0
  6
Continuous
 62
     7
370
    18
100
AcDbLine
 10
82.105608649
 20
169.4132828374
 30
0.0
 11
82.105608649
 21
155.4132828374
 31
0.0
  0
LINE
  5
20C
330
203
100
AcDbEntity
  8
0
  6
Continuous
 62
     7
370
    18
100
AcDbLine
 10
82.105608649
 20
155.4132828374
 30
0.0
 11
82.105608649
 21
150.4132828374
 31
0.0
  0
MTEXT
  5
20D
330
203
100
AcDbEntity
  8
0
  6
Continuous
 62
     7
370
    18
100
AcDbMText
 10
77.593871327
 20
158.441511966
 30
0.0
 40
3.5
 41
0.0
 71
     1
 72
     1
  1
%%c
  7
SLDTEXTSTYLE0
 11
-7.044195017643634E-15
 21
1.0
 31
0.0
 73
     1
 44
1.0
  0
MTEXT
  5
20E
330
203
100
AcDbEntity
  8
0
  6
Continuous
 62
     7
370
    18
100
AcDbMText
 10
77.593871327
 20
162.311442481
 30
0.0
 40
3.5
 41
0.0
 71
     1
 72
     1
  1
14
  7
SLDTEXTSTYLE0
 11
-7.044195017643634E-15
 21
1.0
 31
0.0
 73
     1
 44
1.0
  0
ENDBLK
  5
205
330
203
100
AcDbEntity
  8
0
100
AcDbBlockEnd
  0
BLOCK
  5
212
330
211
100
AcDbEntity
  8
0
100
AcDbBlockBegin
  2
_D_2
 70
     0
 10
0.0
 20
0.0
 30
0.0
  3
_D_2
  1

  0
SOLID
  5
214
330
211
100
AcDbEntity
  8
0
  6
Continuous
 62
     7
370
    18
100
AcDbTrace
 10
101.6778938789
 20
201.7564436733
 30
0.0
 11
104.6778938788
 21
201.0064436732
 31
0.0
 12
104.6778938789
 22
202.5064436732
 32
0.0
 13
104.6778938789
 23
202.5064436732
 33
0.0
  0
SOLID
  5
215
330
211
100
AcDbEntity
  8
0
  6
Continuous
 62
     7
370
    18
100
AcDbTrace
 10
171.677893879
 20
201.7564436699
 30
0.0
 11
168.677893879
 21
202.50644367
 31
0.0
 12
168.677893879
 22
201.00644367
 32
0.0
 13
168.677893879
 23
201.00644367
 33
0.0
  0
LINE
  5
216
330
211
100
AcDbEntity
  8
0
  6
Continuous
 62
     7
370
    18
100
AcDbLine
 10
101.6778938772
 20
168.6132828348
 30
0.0
 11
101.6778938789
 21
202.7564436733
 31
0.0
  0
LINE
  5
217
330
211
100
AcDbEntity
  8
0
  6
Continuous
 62
     7
370
    18
100
AcDbLine
 10
171.6778938772
 20
165.9132828374
 30
0.0
 11
171.6778938791
 21
202.7564436699
 31
0.0
  0
LINE
  5
218
330
211
100
AcDbEntity
  8
0
  6
Continuous
 62
     7
370
    18
100
AcDbLine
 10
101.6778938789
 20
201.7564436733
 30
0.0
 11
171.677893879
 21
201.7564436699
 31
0.0
  0
MTEXT
  5
219
330
211
100
AcDbEntity
  8
0
  6
Continuous
 62
     7
370
    18
100
AcDbMText
 10
134.6410883817
 20
206.2681805281
 30
0.0
 40
3.5
 41
0.0
 71
     1
 72
     1
  1
70
  7
SLDTEXTSTYLE0
 73
     1
 44
1.0
  0
ENDBLK
  5
213
330
211
100
AcDbEntity
  8
0
100
AcDbBlockEnd
  0
BLOCK
  5
21C
330
21B
100
AcDbEntity
  8
0
100
AcDbBlockBegin
  2
_D_3
 70
     0
 10
0.0
 20
0.0
 30
0.0
  3
_D_3
  1

  0
SOLID
  5
21E
330
21B
100
AcDbEntity
  8
0
  6
Continuous
 62
     7
370
    18
100
AcDbTrace
 10
189.4474260718
 20
172.2282374134
 30
0.0
 11
188.6974260718
 21
169.2282374134
 31
0.0
 12
190.1974260718
 22
169.2282374134
 32
0.0
 13
190.1974260718
 23
169.2282374134
 33
0.0
  0
SOLID
  5
21F
330
21B
100
AcDbEntity
  8
0
  6
Continuous
 62
     7
370
    18
100
AcDbTrace
 10
189.4474260718
 20
152.5983282604
 30
0.0
 11
190.1974260718
 21
155.5983282604
 31
0.0
 12
188.6974260718
 22
155.5983282604
 32
0.0
 13
188.6974260718
 23
155.5983282604
 33
0.0
  0
LINE
  5
220
330
21B
100
AcDbEntity
  8
0
  6
Continuous
 62
     7
370
    18
100
AcDbLine
 10
168.0030582032
 20
172.2282374134
 30
0.0
 11
190.4474260718
 21
172.2282374134
 31
0.0
  0
LINE
  5
221
330
21B
100
AcDbEntity
  8
0
  6
Continuous
 62
     7
370
    18
100
AcDbLine
 10
168.0030582032
 20
152.5983282604
 30
0.0
 11
190.4474260718
 21
152.5983282604
 31
0.0
  0
LINE
  5
222
330
21B
100
AcDbEntity
  8
0
  6
Continuous
 62
     7
370
    18
100
AcDbLine
 10
189.4474260718
 20
172.2282374134
 30
0.0
 11
189.4474260718
 21
152.5983282604
 31
0.0
  0
MTEXT
  5
223
330
21B
100
AcDbEntity
  8
0
  6
Continuous
 62
     7
370
    18
100
AcDbMText
 10
184.9356892155
 20
158.3396718419
 30
0.0
 40
3.5
 41
0.0
 71
     1
 72
     1
  1
19.6
  7
SLDTEXTSTYLE0
 11
-7.044195017643634E-15
 21
1.0
 31
0.0
 73
     1
 44
1.0
  0
ENDBLK
  5
21D
330
21B
100
AcDbEntity
  8
0
100
AcDbBlockEnd
  0
BLOCK
  5
226
330
225
100
AcDbEntity
  8
0
100
AcDbBlockBegin
  2
_D_4
 70
     0
 10
0.0
 20
0.0
 30
0.0
  3
_D_4
  1

  0
SOLID
  5
228
330
225
100
AcDbEntity
  8
0
  6
Continuous
 62
     7
370
    18
100
AcDbTrace
 10
178.8304616955
 20
165.3132828373
 30
0.0
 11
179.5804616955
 21
168.3132828373
 31
0.0
 12
178.0804616955
 22
168.3132828373
 32
0.0
 13
178.0804616955
 23
168.3132828373
 33
0.0
  0
SOLID
  5
229
330
225
100
AcDbEntity
  8
0
  6
Continuous
 62
     7
370
    18
100
AcDbTrace
 10
178.8304616955
 20
159.5132828377
 30
0.0
 11
178.0804616955
 21
156.5132828377
 31
0.0
 12
179.5804616955
 22
156.5132828377
 32
0.0
 13
179.5804616955
 23
156.5132828377
 33
0.0
  0
LINE
  5
22A
330
225
100
AcDbEntity
  8
0
  6
Continuous
 62
     7
370
    18
100
AcDbLine
 10
172.1778938772
 20
165.3132828373
 30
0.0
 11
179.8304616955
 21
165.3132828373
 31
0.0
  0
LINE
  5
22B
330
225
100
AcDbEntity
  8
0
  6
Continuous
 62
     7
370
    18
100
AcDbLine
 10
172.1778938772
 20
159.5132828377
 30
0.0
 11
179.8304616955
 21
159.5132828377
 31
0.0
  0
LINE
  5
22C
330
225
100
AcDbEntity
  8
0
  6
Continuous
 62
     7
370
    18
100
AcDbLine
 10
178.8304616955
 20
165.3132828373
 30
0.0
 11
178.8304616955
 21
182.6995620766
 31
0.0
  0
LINE
  5
22D
330
225
100
AcDbEntity
  8
0
  6
Continuous
 62
     7
370
    18
100
AcDbLine
 10
178.8304616955
 20
165.3132828373
 30
0.0
 11
178.8304616955
 21
159.5132828377
 31
0.0
  0
LINE
  5
22E
330
225
100
AcDbEntity
  8
0
  6
Continuous
 62
     7
370
    18
100
AcDbLine
 10
178.8304616955
 20
159.5132828377
 30
0.0
 11
178.8304616955
 21
154.5132828377
 31
0.0
  0
MTEXT
  5
22F
330
225
100
AcDbEntity
  8
0
  6
Continuous
 62
     7
370
    18
100
AcDbMText
 10
174.3187243735
 20
172.7192150691
 30
0.0
 40
3.5
 41
0.0
 71
     1
 72
     1
  1
%%c
  7
SLDTEXTSTYLE0
 11
-7.044195017643634E-15
 21
1.0
 31
0.0
 73
     1
 44
1.0
  0
MTEXT
  5
230
330
225
100
AcDbEntity
  8
0
  6
Continuous
 62
     7
370
    18
100
AcDbMText
 10
174.3187243735
 20
176.5891455842
 30
0.0
 40
3.5
 41
0.0
 71
     1
 72
     1
  1
5.8
  7
SLDTEXTSTYLE0
 11
-7.044195017643634E-15
 21
1.0
 31
0.0
 73
     1
 44
1.0
  0
ENDBLK
  5
227
330
225
100
AcDbEntity
  8
0
100
AcDbBlockEnd
  0
BLOCK
  5
233
330
232
100
AcDbEntity
  8
0
100
AcDbBlockBegin
  2
_D_5
 70
     0
 10
0.0
 20
0.0
 30
0.0
  3
_D_5
  1

  0
SOLID
  5
235
330
232
100
AcDbEntity
  8
0
  6
Continuous
 62
     7
370
    18
100
AcDbTrace
 10
149.6778938772
 20
190.7934480082
 30
0.0
 11
152.6778938772
 21
190.0434480082
 31
0.0
 12
152.6778938772
 22
191.5434480082
 32
0.0
 13
152.6778938772
 23
191.5434480082
 33
0.0
  0
SOLID
  5
236
330
232
100
AcDbEntity
  8
0
  6
Continuous
 62
     7
370
    18
100
AcDbTrace
 10
171.6778938772
 20
190.7934480082
 30
0.0
 11
168.6778938772
 21
191.5434480082
 31
0.0
 12
168.6778938772
 22
190.0434480082
 32
0.0
 13
168.6778938772
 23
190.0434480082
 33
0.0
  0
LINE
  5
237
330
232
100
AcDbEntity
  8
0
  6
Continuous
 62
     7
370
    18
100
AcDbLine
 10
149.6778938772
 20
173.2282374117
 30
0.0
 11
149.6778938772
 21
191.7934480082
 31
0.0
  0
LINE
  5
238
330
232
100
AcDbEntity
  8
0
  6
Continuous
 62
     7
370
    18
100
AcDbLine
 10
171.6778938772
 20
165.9132828374
 30
0.0
 11
171.6778938772
 21
191.7934480082
 31
0.0
  0
LINE
  5
239
330
232
100
AcDbEntity
  8
0
  6
Continuous
 62
     7
370
    18
100
AcDbLine
 10
149.6778938772
 20
190.7934480082
 30
0.0
 11
171.6778938772
 21
190.7934480082
 31
0.0
  0
MTEXT
  5
23A
330
232
100
AcDbEntity
  8
0
  6
Continuous
 62
     7
370
    18
100
AcDbMText
 10
158.6410883797
 20
195.3051848646
 30
0.0
 40
3.5
 41
0.0
 71
     1
 72
     1
  1
22
  7
SLDTEXTSTYLE0
 73
     1
 44
1.0
  0
ENDBLK
  5
234
330
232
100
AcDbEntity
  8
0
100
AcDbBlockEnd
  0
BLOCK
  5
23D
330
23C
100
AcDbEntity
  8
0
100
AcDbBlockBegin
  2
_D_6
 70
     0
 10
0.0
 20
0.0
 30
0.0
  3
_D_6
  1

  0
SOLID
  5
23F
330
23C
100
AcDbEntity
  8
0
  6
Continuous
 62
     7
370
    18
100
AcDbTrace
 10
169.6778938772
 20
181.3803010681
 30
0.0
 11
166.6778938772
 21
182.1303010681
 31
0.0
 12
166.6778938772
 22
180.6303010681
 32
0.0
 13
166.6778938772
 23
180.6303010681
 33
0.0
  0
SOLID
  5
240
330
23C
100
AcDbEntity
  8
0
  6
Continuous
 62
     7
370
    18
100
AcDbTrace
 10
149.6778938772
 20
181.3803010681
 30
0.0
 11
152.6778938772
 21
180.6303010681
 31
0.0
 12
152.6778938772
 22
182.1303010681
 32
0.0
 13
152.6778938772
 23
182.1303010681
 33
0.0
  0
LINE
  5
241
330
23C
100
AcDbEntity
  8
0
  6
Continuous
 62
     7
370
    18
100
AcDbLine
 10
169.6778938772
 20
168.4133288761
 30
0.0
 11
169.6778938772
 21
182.3803010681
 31
0.0
  0
LINE
  5
242
330
23C
100
AcDbEntity
  8
0
  6
Continuous
 62
     7
370
    18
100
AcDbLine
 10
149.6778938772
 20
173.2282374117
 30
0.0
 11
149.6778938772
 21
182.3803010681
 31
0.0
  0
LINE
  5
243
330
23C
100
AcDbEntity
  8
0
  6
Continuous
 62
     7
370
    18
100
AcDbLine
 10
169.6778938772
 20
181.3803010681
 30
0.0
 11
149.6778938772
 21
181.3803010681
 31
0.0
  0
MTEXT
  5
244
330
23C
100
AcDbEntity
  8
0
  6
Continuous
 62
     7
370
    18
100
AcDbMText
 10
157.6410883797
 20
185.8920379245
 30
0.0
 40
3.5
 41
0.0
 71
     1
 72
     1
  1
20
  7
SLDTEXTSTYLE0
 73
     1
 44
1.0
  0
ENDBLK
  5
23E
330
23C
100
AcDbEntity
  8
0
100
AcDbBlockEnd
  0
BLOCK
  5
247
330
246
100
AcDbEntity
  8
0
100
AcDbBlockBegin
  2
_D_7
 70
     0
 10
0.0
 20
0.0
 30
0.0
  3
_D_7
  1

  0
SOLID
  5
249
330
246
100
AcDbEntity
  8
0
  6
Continuous
 62
     7
370
    18
100
AcDbTrace
 10
143.6778938772
 20
181.3803010681
 30
0.0
 11
140.6778938772
 21
182.1303010681
 31
0.0
 12
140.6778938772
 22
180.6303010681
 32
0.0
 13
140.6778938772
 23
180.6303010681
 33
0.0
  0
SOLID
  5
24A
330
246
100
AcDbEntity
  8
0
  6
Continuous
 62
     7
370
    18
100
AcDbTrace
 10
149.6778938772
 20
181.3803010681
 30
0.0
 11
152.6778938772
 21
180.6303010681
 31
0.0
 12
152.6778938772
 22
182.1303010681
 32
0.0
 13
152.6778938772
 23
182.1303010681
 33
0.0
  0
LINE
  5
24B
330
246
100
AcDbEntity
  8
0
  6
Continuous
 62
     7
370
    18
100
AcDbLine
 10
143.6778938772
 20
167.4133196679
 30
0.0
 11
143.6778938772
 21
182.3803010681
 31
0.0
  0
LINE
  5
24C
330
246
100
AcDbEntity
  8
0
  6
Continuous
 62
     7
370
    18
100
AcDbLine
 10
149.6778938772
 20
173.2282374117
 30
0.0
 11
149.6778938772
 21
182.3803010681
 31
0.0
  0
LINE
  5
24D
330
246
100
AcDbEntity
  8
0
  6
Continuous
 62
     7
370
    18
100
AcDbLine
 10
143.6778938772
 20
181.3803010681
 30
0.0
 11
138.6778938772
 21
181.3803010681
 31
0.0
  0
LINE
  5
24E
330
246
100
AcDbEntity
  8
0
  6
Continuous
 62
     7
370
    18
100
AcDbLine
 10
143.6778938772
 20
181.3803010681
 30
0.0
 11
149.6778938772
 21
181.3803010681
 31
0.0
  0
LINE
  5
24F
330
246
100
AcDbEntity
  8
0
  6
Continuous
 62
     7
370
    18
100
AcDbLine
 10
149.6778938772
 20
181.3803010681
 30
0.0
 11
154.6778938772
 21
181.3803010681
 31
0.0
  0
MTEXT
  5
250
330
246
100
AcDbEntity
  8
0
  6
Continuous
 62
     7
370
    18
100
AcDbMText
 10
145.6594911284
 20
185.8920379245
 30
0.0
 40
3.5
 41
0.0
 71
     1
 72
     1
  1
6
  7
SLDTEXTSTYLE0
 73
     1
 44
1.0
  0
ENDBLK
  5
248
330
246
100
AcDbEntity
  8
0
100
AcDbBlockEnd
  0
BLOCK
  5
253
330
252
100
AcDbEntity
  8
0
100
AcDbBlockBegin
  2
_D_8
 70
     0
 10
0.0
 20
0.0
 30
0.0
  3
_D_8
  1

  0
SOLID
  5
255
330
252
100
AcDbEntity
  8
0
  6
Continuous
 62
     7
370
    18
100
AcDbTrace
 10
149.6778938772
 20
145.2630079485
 30
0.0
 11
152.6778938772
 21
144.5130079485
 31
0.0
 12
152.6778938772
 22
146.0130079485
 32
0.0
 13
152.6778938772
 23
146.0130079485
 33
0.0
  0
SOLID
  5
256
330
252
100
AcDbEntity
  8
0
  6
Continuous
 62
     7
370
    18
100
AcDbTrace
 10
146.6778938772
 20
145.2630079485
 30
0.0
 11
143.6778938772
 21
146.0130079485
 31
0.0
 12
143.6778938772
 22
144.5130079485
 32
0.0
 13
143.6778938772
 23
144.5130079485
 33
0.0
  0
LINE
  5
257
330
252
100
AcDbEntity
  8
0
  6
Continuous
 62
     7
370
    18
100
AcDbLine
 10
149.6778938772
 20
151.5983282621
 30
0.0
 11
149.6778938772
 21
144.2630079485
 31
0.0
  0
LINE
  5
258
330
252
100
AcDbEntity
  8
0
  6
Continuous
 62
     7
370
    18
100
AcDbLine
 10
146.6778938772
 20
151.5983282621
 30
0.0
 11
146.6778938772
 21
144.2630079485
 31
0.0
  0
LINE
  5
259
330
252
100
AcDbEntity
  8
0
  6
Continuous
 62
     7
370
    18
100
AcDbLine
 10
149.6778938772
 20
145.2630079485
 30
0.0
 11
156.660055649
 21
145.2630079485
 31
0.0
  0
LINE
  5
25A
330
252
100
AcDbEntity
  8
0
  6
Continuous
 62
     7
370
    18
100
AcDbLine
 10
149.6778938772
 20
145.2630079485
 30
0.0
 11
146.6778938772
 21
145.2630079485
 31
0.0
  0
LINE
  5
25B
330
252
100
AcDbEntity
  8
0
  6
Continuous
 62
     7
370
    18
100
AcDbLine
 10
146.6778938772
 20
145.2630079485
 30
0.0
 11
141.6778938772
 21
145.2630079485
 31
0.0
  0
MTEXT
  5
25C
330
252
100
AcDbEntity
  8
0
  6
Continuous
 62
     7
370
    18
100
AcDbMText
 10
154.6232501515
 20
149.7747448048
 30
0.0
 40
3.5
 41
0.0
 71
     1
 72
     1
  1
3
  7
SLDTEXTSTYLE0
 73
     1
 44
1.0
  0
ENDBLK
  5
254
330
252
100
AcDbEntity
  8
0
100
AcDbBlockEnd
  0
BLOCK
  5
25F
330
25E
100
AcDbEntity
  8
0
100
AcDbBlockBegin
  2
_D_9
 70
     0
 10
0.0
 20
0.0
 30
0.0
  3
_D_9
  1

  0
SOLID
  5
261
330
25E
100
AcDbEntity
  8
0
  6
Continuous
 62
     7
370
    18
100
AcDbTrace
 10
143.6778938772
 20
139.8788602458
 30
0.0
 11
140.6778938772
 21
140.6288602458
 31
0.0
 12
140.6778938772
 22
139.1288602458
 32
0.0
 13
140.6778938772
 23
139.1288602458
 33
0.0
  0
SOLID
  5
262
330
25E
100
AcDbEntity
  8
0
  6
Continuous
 62
     7
370
    18
100
AcDbTrace
 10
123.6778938772
 20
139.8788602458
 30
0.0
 11
126.6778938772
 21
139.1288602458
 31
0.0
 12
126.6778938772
 22
140.6288602458
 32
0.0
 13
126.6778938772
 23
140.6288602458
 33
0.0
  0
LINE
  5
263
330
25E
100
AcDbEntity
  8
0
  6
Continuous
 62
     7
370
    18
100
AcDbLine
 10
143.6778938772
 20
157.4132460059
 30
0.0
 11
143.6778938772
 21
138.8788602458
 31
0.0
  0
LINE
  5
264
330
25E
100
AcDbEntity
  8
0
  6
Continuous
 62
     7
370
    18
100
AcDbLine
 10
123.6778938772
 20
157.2132828395
 30
0.0
 11
123.6778938772
 21
138.8788602458
 31
0.0
  0
LINE
  5
265
330
25E
100
AcDbEntity
  8
0
  6
Continuous
 62
     7
370
    18
100
AcDbLine
 10
143.6778938772
 20
139.8788602458
 30
0.0
 11
123.6778938772
 21
139.8788602458
 31
0.0
  0
MTEXT
  5
266
330
25E
100
AcDbEntity
  8
0
  6
Continuous
 62
     7
370
    18
100
AcDbMText
 10
129.6042828822
 20
144.3905971022
 30
0.0
 40
3.5
 41
0.0
 71
     1
 72
     1
  1
20
  7
SLDTEXTSTYLE0
 73
     1
 44
1.0
  0
MTEXT
  5
267
330
25E
100
AcDbEntity
  8
0
  6
Continuous
 62
     7
370
    18
100
AcDbMText
 10
133.6778938772
 20
144.3905971022
 30
0.0
 40
3.5
 41
0.0
 71
     1
 72
     1
  1
st
  7
SLDTEXTSTYLE0
 73
     1
 44
1.0
  0
ENDBLK
  5
260
330
25E
100
AcDbEntity
  8
0
100
AcDbBlockEnd
  0
BLOCK
  5
26A
330
269
100
AcDbEntity
  8
0
100
AcDbBlockBegin
  2
_D_10
 70
     0
 10
0.0
 20
0.0
 30
0.0
  3
_D_10
  1

  0
SOLID
  5
26C
330
269
100
AcDbEntity
  8
0
  6
Continuous
 62
     7
370
    18
100
AcDbTrace
 10
101.6778938777
 20
181.3803010683
 30
0.0
 11
98.6778938777
 21
182.1303010684
 31
0.0
 12
98.6778938777
 22
180.6303010684
 32
0.0
 13
98.6778938777
 23
180.6303010684
 33
0.0
  0
SOLID
  5
26D
330
269
100
AcDbEntity
  8
0
  6
Continuous
 62
     7
370
    18
100
AcDbTrace
 10
110.6778938777
 20
181.3803010679
 30
0.0
 11
113.6778938776
 21
180.6303010678
 31
0.0
 12
113.6778938777
 22
182.1303010678
 32
0.0
 13
113.6778938777
 23
182.1303010678
 33
0.0
  0
LINE
  5
26E
330
269
100
AcDbEntity
  8
0
  6
Continuous
 62
     7
370
    18
100
AcDbLine
 10
101.6778938772
 20
168.6132828348
 30
0.0
 11
101.6778938778
 21
182.3803010683
 31
0.0
  0
LINE
  5
26F
330
269
100
AcDbEntity
  8
0
  6
Continuous
 62
     7
370
    18
100
AcDbLine
 10
110.6778938772
 20
170.1132828341
 30
0.0
 11
110.6778938777
 21
182.3803010679
 31
0.0
  0
LINE
  5
270
330
269
100
AcDbEntity
  8
0
  6
Continuous
 62
     7
370
    18
100
AcDbLine
 10
101.6778938777
 20
181.3803010683
 30
0.0
 11
96.6778938777
 21
181.3803010685
 31
0.0
  0
LINE
  5
271
330
269
100
AcDbEntity
  8
0
  6
Continuous
 62
     7
370
    18
100
AcDbLine
 10
101.6778938777
 20
181.3803010683
 30
0.0
 11
110.6778938777
 21
181.3803010679
 31
0.0
  0
LINE
  5
272
330
269
100
AcDbEntity
  8
0
  6
Continuous
 62
     7
370
    18
100
AcDbLine
 10
110.6778938777
 20
181.3803010679
 30
0.0
 11
115.6778938777
 21
181.3803010677
 31
0.0
  0
MTEXT
  5
273
330
269
100
AcDbEntity
  8
0
  6
Continuous
 62
     7
370
    18
100
AcDbMText
 10
105.1594911291
 20
185.8920379245
 30
0.0
 40
3.5
 41
0.0
 71
     1
 72
     1
  1
9
  7
SLDTEXTSTYLE0
 73
     1
 44
1.0
  0
ENDBLK
  5
26B
330
269
100
AcDbEntity
  8
0
100
AcDbBlockEnd
  0
BLOCK
  5
275
330
274
100
AcDbEntity
  8
0
100
AcDbBlockBegin
  2
SW_NOTE_2
 70
     0
 10
0.0
 20
0.0
 30
0.0
  3
SW_NOTE_2
  1

  0
LINE
  5
277
330
274
100
AcDbEntity
  8
0
  6
Continuous
 62
     0
370
     0
100
AcDbLine
 10
18.2134645457
 20
0.0
 30
0.0
 11
0.0
 21
0.0
 31
0.0
  0
MTEXT
  5
278
330
274
100
AcDbEntity
  8
0
  6
Continuous
 62
     0
370
     0
100
AcDbMText
 10
0.4903579505
 20
4.6185172347
 30
0.0
 40
3.5
 41
0.0
 71
     1
 72
     1
  1
M12 P=1.0
  7
SLDTEXTSTYLE0
 73
     1
 44
1.0
  0
ENDBLK
  5
276
330
274
100
AcDbEntity
  8
0
100
AcDbBlockEnd
  0
ENDSEC
  0
SECTION
  2
ENTITIES
  0
LINE
  5
73
330
1F
100
AcDbEntity
  8
0
  6
Continuous
 62
     7
370
    18
100
AcDbLine
 10
20.2604743903
 20
285.0
 30
0.0
 11
196.7604743903
 21
285.0
 31
0.0
  0
LINE
  5
74
330
1F
100
AcDbEntity
  8
0
  6
Continuous
 62
     7
370
    18
100
AcDbLine
 10
20.2604743903
 20
285.0
 30
0.0
 11
20.2604743903
 21
10.0
 31
0.0
  0
LINE
  5
75
330
1F
100
AcDbEntity
  8
0
  6
Continuous
 62
     7
370
    18
100
AcDbLine
 10
20.2604743903
 20
10.0
 30
0.0
 11
196.7604743903
 21
10.0
 31
0.0
  0
LINE
  5
76
330
1F
100
AcDbEntity
  8
0
  6
Continuous
 62
     7
370
    18
100
AcDbLine
 10
196.7604743903
 20
285.0
 30
0.0
 11
196.7604743903
 21
10.0
 31
0.0
  0
LINE
  5
77
330
1F
100
AcDbEntity
  8
0
  6
Continuous
 62
     7
370
    18
100
AcDbLine
 10
127.0104743903
 20
50.75
 30
0.0
 11
196.7604743903
 21
50.75
 31
0.0
  0
LINE
  5
78
330
1F
100
AcDbEntity
  8
0
  6
Continuous
 62
     7
370
    18
100
AcDbLine
 10
127.0104743903
 20
50.75
 30
0.0
 11
127.0104743903
 21
10.0
 31
0.0
  0
LINE
  5
79
330
1F
100
AcDbEntity
  8
0
  6
Continuous
 62
     7
370
    18
100
AcDbLine
 10
127.0104743903
 20
22.75
 30
0.0
 11
196.7604743903
 21
22.75
 31
0.0
  0
LINE
  5
7A
330
1F
100
AcDbEntity
  8
0
  6
Continuous
 62
     7
370
    18
100
AcDbLine
 10
127.0104743903
 20
36.75
 30
0.0
 11
196.7604743903
 21
36.75
 31
0.0
  0
MTEXT
  5
7C
330
1F
100
AcDbEntity
  8
0
  6
Continuous
 62
     7
370
     0
100
AcDbMText
 10
162.5003819534
 20
30.4171582345
 30
0.0
 40
4.2333333333
 41
0.0
 71
     2
 72
     1
  1
VFILP-S-20
  7
SLDTEXTSTYLE0
 73
     1
 44
1.0
  0
MTEXT
  5
7D
330
1F
100
AcDbEntity
  8
0
  6
Continuous
 62
     7
370
     0
100
AcDbMText
 10
160.2799415598
 20
43.9409718514
 30
0.0
 40
4.2333333333
 41
0.0
 71
     2
 72
     1
  1
吸着樹脂具・スモール用
  7
SLDTEXTSTYLE0
 73
     1
 44
1.0
  0
MTEXT
  5
7E
330
1F
100
AcDbEntity
  8
0
  6
Continuous
 62
     7
370
     0
100
AcDbMText
 10
163.0528251313
 20
16.8228189052
 30
0.0
 40
4.2333333333
 41
0.0
 71
     2
 72
     1
  1
211099
  7
SLDTEXTSTYLE0
 73
     1
 44
1.0
  0
LWPOLYLINE
  5
7F
330
1F
100
AcDbEntity
  8
0
  6
Continuous
 62
     7
370
    18
100
AcDbPolyline
 90
        3
 70
   128
 43
0.0
 10
63.4498205482
 20
153.113282857
 10
63.6458204109
 20
151.7132824413
 10
63.7998204193
 20
150.6132824473
  0
LWPOLYLINE
  5
80
330
1F
100
AcDbEntity
  8
0
  6
Continuous
 62
     7
370
    18
100
AcDbPolyline
 90
        3
 70
   128
 43
0.0
 10
67.7998206093
 20
150.6132824473
 10
67.995820472
 20
152.013282863
 10
68.1498204804
 20
153.113282857
  0
LWPOLYLINE
  5
81
330
1F
100
AcDbEntity
  8
0
  6
Continuous
 62
     7
370
    18
100
AcDbPolyline
 90
        3
 70
   128
 43
0.0
 10
63.4498205482
 20
150.6132824473
 10
63.6458204109
 20
149.2132829628
 10
63.7998204193
 20
148.1132829688
  0
LWPOLYLINE
  5
82
330
1F
100
AcDbEntity
  8
0
  6
Continuous
 62
     7
370
    18
100
AcDbPolyline
 90
        3
 70
   128
 43
0.0
 10
67.7998206093
 20
148.1132829688
 10
67.995820472
 20
149.5132824532
 10
68.1498204804
 20
150.6132824473
  0
SPLINE
  5
83
330
1F
100
AcDbEntity
  8
0
  6
Continuous
 62
     7
370
    18
100
AcDbSpline
210
0.0
220
0.0
230
1.0
 70
     8
 71
     3
 72
     9
 73
     5
 74
     0
 42
0.000000001
 43
0.00000001
 40
0.0
 40
0.0
 40
0.0
 40
0.0
 40
0.8823400433492361
 40
1.0
 40
1.0
 40
1.0
 40
1.0
 10
65.00802880426805
 20
155.4533598139448
 30
0.0
 10
64.9095911797517
 20
155.4627023417868
 30
0.0
 10
64.79802690783823
 20
155.4732906947834
 30
0.0
 10
64.70916348869768
 20
155.5163727855264
 30
0.0
 10
64.69870782265376
 20
155.5214418224557
 30
0.0
  0
LINE
  5
84
330
1F
100
AcDbEntity
  8
0
  6
Continuous
 62
     7
370
    18
100
AcDbLine
 10
63.6498204413
 20
155.7857213668
 30
0.0
 11
63.6498204413
 21
153.113282857
 31
0.0
  0
LINE
  5
85
330
1F
100
AcDbEntity
  8
0
  6
Continuous
 62
     7
370
    18
100
AcDbLine
 10
67.9498205874
 20
153.113282857
 30
0.0
 11
67.9498205874
 21
155.7857213668
 31
0.0
  0
SPLINE
  5
86
330
1F
100
AcDbEntity
  8
0
  6
Continuous
 62
     7
370
    18
100
AcDbSpline
210
0.0
220
0.0
230
1.0
 70
     8
 71
     3
 72
    33
 73
    29
 74
     0
 42
0.000000001
 43
0.00000001
 40
0.0
 40
0.0
 40
0.0
 40
0.0
 40
0.0125326068134496
 40
0.0250361823974898
 40
0.0375300658794424
 40
0.0500336413586776
 40
0.0625662479630028
 40
0.0938388078910985
 40
0.1251113679925474
 40
0.1563839283128947
 40
0.1876564884698983
 40
0.2501259056882397
 40
0.312595322906581
 40
0.3750647407364131
 40
0.4375341581404723
 40
0.5000035755502352
 40
0.5624729929599982
 40
0.6249424103640574
 40
0.6874118281938895
 40
0.7498812454122309
 40
0.8123506626305723
 40
0.843623222787576
 40
0.8748957831079233
 40
0.9061683432093721
 40
0.9374409031374676
 40
0.9583088818550776
 40
0.9791320209916652
 40
1.0
 40
1.0
 40
1.0
 40
1.0
 10
60.59982051691851
 20
162.4132828374134
 30
0.0
 10
60.60058735441378
 20
162.3451092555905
 30
0.0
 10
60.60211925305914
 20
162.2089200130319
 30
0.0
 10
60.61456240803513
 20
162.0050804750353
 30
0.0
 10
60.63444037398637
 20
161.8020300736076
 30
0.0
 10
60.66247878981274
 20
161.599764012692
 30
0.0
 10
60.71635923467222
 20
161.2982037286339
 30
0.0
 10
60.81562118493739
 20
160.9013195634397
 30
0.0
 10
60.98796933309509
 20
160.4201624032061
 30
0.0
 10
61.20638313351142
 20
159.958004755539
 30
0.0
 10
61.55653655026804
 20
159.3740401261753
 30
0.0
 10
62.09920207317322
 20
158.7125017731968
 30
0.0
 10
62.89222197902041
 20
158.0618029100198
 30
0.0
 10
63.79704183428128
 20
157.5781317219216
 30
0.0
 10
64.77881067298148
 20
157.280325793065
 30
0.0
 10
65.79982051216035
 20
157.1797613639826
 30
0.0
 10
66.820830364413
 20
157.280325790954
 30
0.0
 10
67.80259916389191
 20
157.5781317303654
 30
0.0
 10
68.70741916296413
 20
158.0618028783558
 30
0.0
 10
69.50043853278727
 20
158.712501891409
 30
0.0
 10
70.04310572300047
 20
159.3740397781105
 30
0.0
 10
70.39325573660774
 20
159.9580053592079
 30
0.0
 10
70.61167993447334
 20
160.4201600990939
 30
0.0
 10
70.78398904674184
 20
160.9013281762196
 30
0.0
 10
70.89440096242409
 20
161.3422394660516
 30
0.0
 10
70.95881329981133
 20
161.7340485810714
 30
0.0
 10
70.99343908060911
 20
162.0729415201483
 30
0.0
 10
70.99769184339114
 20
162.2997544172868
 30
0.0
 10
70.9998205117601
 20
162.4132828374134
 30
0.0
  0
SPLINE
  5
87
330
1F
100
AcDbEntity
  8
0
  6
Continuous
 62
     7
370
    18
100
AcDbSpline
210
0.0
220
0.0
230
1.0
 70
     8
 71
     3
 72
    33
 73
    29
 74
     0
 42
0.000000001
 43
0.00000001
 40
0.0
 40
0.0
 40
0.0
 40
0.0
 40
0.0125326068134496
 40
0.0250361823974899
 40
0.0375300658794425
 40
0.0500336413586776
 40
0.0625662479630028
 40
0.0938388078910984
 40
0.1251113679925473
 40
0.1563839283128946
 40
0.1876564884698983
 40
0.2501259056882398
 40
0.3125953229065812
 40
0.3750647407364132
 40
0.4375341581404723
 40
0.5000035755502353
 40
0.5624729929599984
 40
0.6249424103640575
 40
0.6874118281938896
 40
0.749881245412231
 40
0.8123506626305724
 40
0.8436232227875762
 40
0.8748957831079234
 40
0.9061683432093723
 40
0.9374409031374679
 40
0.958308881855078
 40
0.9791320209916654
 40
1.0
 40
1.0
 40
1.0
 40
1.0
 10
70.9998205117601
 20
162.4132828374134
 30
0.0
 10
70.99905367426486
 20
162.4814564192363
 30
0.0
 10
70.99752177561949
 20
162.6176456617949
 30
0.0
 10
70.9850786206435
 20
162.8214851997915
 30
0.0
 10
70.96520065469227
 20
163.0245356012192
 30
0.0
 10
70.9371622388659
 20
163.2268016621348
 30
0.0
 10
70.88328179400642
 20
163.5283619461929
 30
0.0
 10
70.78401984374123
 20
163.9252461113872
 30
0.0
 10
70.61167169558355
 20
164.4064032716207
 30
0.0
 10
70.39325789516722
 20
164.8685609192879
 30
0.0
 10
70.0431044784106
 20
165.4525255486515
 30
0.0
 10
69.5004389555054
 20
166.11406390163
 30
0.0
 10
68.70741904965823
 20
166.7647627648071
 30
0.0
 10
67.80259919439735
 20
167.2484339529052
 30
0.0
 10
66.82083035569715
 20
167.5462398817618
 30
0.0
 10
65.79982051651828
 20
167.6468043108442
 30
0.0
 10
64.77881066426565
 20
167.5462398838728
 30
0.0
 10
63.79704186478671
 20
167.2484339444615
 30
0.0
 10
62.8922218657145
 20
166.764762796471
 30
0.0
 10
62.09920249589136
 20
166.1140637834178
 30
0.0
 10
61.55653530567817
 20
165.4525258967164
 30
0.0
 10
61.20638529207089
 20
164.8685603156189
 30
0.0
 10
60.98796109420529
 20
164.406405575733
 30
0.0
 10
60.8156519819368
 20
163.9252374986073
 30
0.0
 10
60.70524006625455
 20
163.4843262087753
 30
0.0
 10
60.64082772886731
 20
163.0925170937554
 30
0.0
 10
60.60620194806953
 20
162.7536241546785
 30
0.0
 10
60.6019491852875
 20
162.52681125754
 30
0.0
 10
60.59982051691851
 20
162.4132828374134
 30
0.0
  0
SPLINE
  5
88
330
1F
100
AcDbEntity
  8
0
  6
Continuous
 62
     7
370
    18
100
AcDbSpline
210
0.0
220
0.0
230
1.0
 70
     8
 71
     3
 72
    14
 73
    10
 74
     0
 42
0.000000001
 43
0.00000001
 40
0.0
 40
0.0
 40
0.0
 40
0.0
 40
0.25
 40
0.25
 40
0.4999999999999999
 40
0.4999999999999999
 40
0.75
 40
0.75
 40
1.0
 40
1.0
 40
1.0
 40
1.0
 10
63.69982051433931
 20
162.4132828370363
 30
0.0
 10
63.69982051443933
 20
161.8563439707441
 30
0.0
 10
63.92108102482105
 20
161.3221738459229
 30
0.0
 10
64.70871152296952
 20
160.534543347825
 30
0.0
 10
65.24288164780494
 20
160.3132828374777
 30
0.0
 10
66.35675938038939
 20
160.3132828373492
 30
0.0
 10
66.89092950527584
 20
160.5345433475734
 30
0.0
 10
67.67856000360595
 20
161.3221738454896
 30
0.0
 10
67.89982051411086
 20
161.8563439702598
 30
0.0
 10
67.89982051433932
 20
162.413282836552
 30
0.0
  0
SPLINE
  5
89
330
1F
100
AcDbEntity
  8
0
  6
Continuous
 62
     7
370
    18
100
AcDbSpline
210
0.0
220
0.0
230
1.0
 70
     8
 71
     3
 72
    12
 73
     8
 74
     0
 42
0.000000001
 43
0.00000001
 40
0.0
 40
0.0
 40
0.0
 40
0.0
 40
0.3333333333333334
 40
0.3333333333333334
 40
0.6666666666666666
 40
0.6666666666666666
 40
0.9999999999999999
 40
0.9999999999999999
 40
0.9999999999999999
 40
0.9999999999999999
 10
67.89982051433932
 20
162.413282836552
 30
0.0
 10
67.89982051464703
 20
163.1634310407444
 30
0.0
 10
67.49946791616804
 20
163.8568620827997
 30
0.0
 10
66.20017311350529
 20
164.6070102873475
 30
0.0
 10
65.39946791607322
 20
164.6070102875117
 30
0.0
 10
64.10017311310276
 20
163.8568620834969
 30
0.0
 10
63.69982051433931
 20
163.1634310416059
 30
0.0
 10
63.69982051433931
 20
162.4132828374134
 30
0.0
  0
SPLINE
  5
8A
330
1F
100
AcDbEntity
  8
0
  6
Continuous
 62
     7
370
    18
100
AcDbSpline
210
0.0
220
0.0
230
1.0
 70
    24
 71
     3
 72
    10
 73
     6
 74
     0
 42
0.000000001
 43
0.00000001
 40
0.0
 40
0.0
 40
0.0
 40
0.0
 40
0.5
 40
0.5
 40
1.0
 40
1.0
 40
1.0
 40
1.0
 10
60.29982051395346
 20
162.4132828374134
 30
0.0
 10
60.2998205140507
 20
162.4132828374134
 30
0.0
 10
60.32910983595141
 20
162.4132828374134
 30
0.0
 10
60.44626712346223
 20
162.4132828374134
 30
0.0
 10
60.52910983593171
 20
162.4132828374134
 30
0.0
 10
60.59982051414674
 20
162.4132828374134
 30
0.0
  0
SPLINE
  5
8B
330
1F
100
AcDbEntity
  8
0
  6
Continuous
 62
     7
370
    18
100
AcDbSpline
210
0.0
220
0.0
230
1.0
 70
     8
 71
     3
 72
    14
 73
    10
 74
     0
 42
0.000000001
 43
0.00000001
 40
0.0
 40
0.0
 40
0.0
 40
0.0
 40
0.25
 40
0.25
 40
0.5
 40
0.5
 40
0.75
 40
0.75
 40
1.0
 40
1.0
 40
1.0
 40
1.0
 10
60.29982051433932
 20
162.4132828364257
 30
0.0
 10
60.29982051460127
 20
160.954633424708
 30
0.0
 10
60.87931232750578
 20
159.5556164311286
 30
0.0
 10
62.94215410837081
 20
157.4927746503962
 30
0.0
 10
64.3411711019874
 20
156.9132828375816
 30
0.0
 10
67.25846992542284
 20
156.9132828372452
 30
0.0
 10
68.65748691917305
 20
157.4927746497372
 30
0.0
 10
70.72032870051383
 20
159.5556164299938
 30
0.0
 10
71.29982051374097
 20
160.9546334234396
 30
0.0
 10
71.29982051433932
 20
162.4132828351573
 30
0.0
  0
SPLINE
  5
8C
330
1F
100
AcDbEntity
  8
0
  6
Continuous
 62
     7
370
    18
100
AcDbSpline
210
0.0
220
0.0
230
1.0
 70
    24
 71
     3
 72
    10
 73
     6
 74
     0
 42
0.000000001
 43
0.00000001
 40
0.0
 40
0.0
 40
0.0
 40
0.0
 40
0.5
 40
0.5
 40
1.0
 40
1.0
 40
1.0
 40
1.0
 10
70.99982051453189
 20
162.4132828374134
 30
0.0
 10
71.07053119274693
 20
162.4132828374134
 30
0.0
 10
71.1533739052164
 20
162.4132828374134
 30
0.0
 10
71.27053119272722
 20
162.4132828374134
 30
0.0
 10
71.29982051462792
 20
162.4132828374134
 30
0.0
 10
71.29982051472518
 20
162.4132828374134
 30
0.0
  0
SPLINE
  5
8D
330
1F
100
AcDbEntity
  8
0
  6
Continuous
 62
     7
370
    18
100
AcDbSpline
210
0.0
220
0.0
230
1.0
 70
     8
 71
     3
 72
    12
 73
     8
 74
     0
 42
0.000000001
 43
0.00000001
 40
0.0
 40
0.0
 40
0.0
 40
0.0
 40
0.3333333333333332
 40
0.3333333333333332
 40
0.6666666666666665
 40
0.6666666666666665
 40
0.9999999999999999
 40
0.9999999999999999
 40
0.9999999999999999
 40
0.9999999999999999
 10
71.29982051433932
 20
162.4132828351573
 30
0.0
 10
71.29982051514524
 20
164.3779567032804
 30
0.0
 10
70.25127799531931
 20
166.1940856229489
 30
0.0
 10
66.84836303596448
 20
168.1587594920026
 30
0.0
 10
64.75127799507099
 20
168.1587594924328
 30
0.0
 10
61.34836303491023
 20
166.1940856247749
 30
0.0
 10
60.29982051433931
 20
164.3779567055365
 30
0.0
 10
60.29982051433932
 20
162.4132828374134
 30
0.0
  0
SPLINE
  5
8E
330
1F
100
AcDbEntity
  8
0
  6
Continuous
 62
     7
370
    18
100
AcDbSpline
210
0.0
220
0.0
230
1.0
 70
     8
 71
     3
 72
    33
 73
    29
 74
     0
 42
0.000000001
 43
0.00000001
 40
0.0
 40
0.0
 40
0.0
 40
0.0
 40
0.0125326068134496
 40
0.0250361823974899
 40
0.0375300658794424
 40
0.0500336413586776
 40
0.0625662479630028
 40
0.0938388078910985
 40
0.1251113679925474
 40
0.1563839283128946
 40
0.1876564884698984
 40
0.2501259056882397
 40
0.312595322906581
 40
0.3750647407364131
 40
0.4375341581404723
 40
0.5000035755502353
 40
0.5624729929599983
 40
0.6249424103640575
 40
0.6874118281938896
 40
0.749881245412231
 40
0.8123506626305723
 40
0.8436232227875761
 40
0.8748957831079234
 40
0.9061683432093723
 40
0.937440903137468
 40
0.9583088818550778
 40
0.9791320209916653
 40
1.0
 40
1.0
 40
1.0
 40
1.0
 10
59.09982051766251
 20
162.4132828374134
 30
0.0
 10
59.10080855828141
 20
162.3254437992954
 30
0.0
 10
59.10278235076679
 20
162.1499691983065
 30
0.0
 10
59.11881487737047
 20
161.8873297935801
 30
0.0
 10
59.14442687196149
 20
161.6257071609713
 30
0.0
 10
59.18055329235315
 20
161.3650951209455
 30
0.0
 10
59.24997617322978
 20
160.9765462934091
 30
0.0
 10
59.37787137837915
 20
160.4651763113319
 30
0.0
 10
59.5999353385054
 20
159.8452238164155
 30
0.0
 10
59.88135311981105
 20
159.2497514626906
 30
0.0
 10
60.33251232986287
 20
158.4973354979336
 30
0.0
 10
61.03171598437531
 20
157.6449687739035
 30
0.0
 10
62.05349163229379
 20
156.8065683155793
 30
0.0
 10
63.21931721503377
 20
156.1833765924528
 30
0.0
 10
64.48428860335903
 20
155.7996651071953
 30
0.0
 10
65.7998205115318
 20
155.6700917081853
 30
0.0
 10
67.11535243654963
 20
155.7996651044754
 30
0.0
 10
68.38032377433979
 20
156.1833766033322
 30
0.0
 10
69.54614954237513
 20
156.8065682747815
 30
0.0
 10
70.56792449964726
 20
157.6449689262154
 30
0.0
 10
71.26713030242195
 20
158.4973350494654
 30
0.0
 10
71.71828512764672
 20
159.2497522404948
 30
0.0
 10
71.99971630566584
 20
159.8452208476555
 30
0.0
 10
72.22172996955025
 20
160.4651874085675
 30
0.0
 10
72.36399147629469
 20
161.0332846473895
 30
0.0
 10
72.44698429562055
 20
161.5381156225112
 30
0.0
 10
72.4915982824177
 20
161.974766140168
 30
0.0
 10
72.49707780369454
 20
162.267005834558
 30
0.0
 10
72.49982051101611
 20
162.4132828374134
 30
0.0
  0
SPLINE
  5
8F
330
1F
100
AcDbEntity
  8
0
  6
Continuous
 62
     7
370
    18
100
AcDbSpline
210
0.0
220
0.0
230
1.0
 70
     8
 71
     3
 72
    33
 73
    29
 74
     0
 42
0.000000001
 43
0.00000001
 40
0.0
 40
0.0
 40
0.0
 40
0.0
 40
0.0125326068134496
 40
0.0250361823974899
 40
0.0375300658794425
 40
0.0500336413586776
 40
0.0625662479630028
 40
0.0938388078910984
 40
0.1251113679925473
 40
0.1563839283128945
 40
0.1876564884698983
 40
0.2501259056882396
 40
0.312595322906581
 40
0.375064740736413
 40
0.4375341581404722
 40
0.5000035755502352
 40
0.5624729929599982
 40
0.6249424103640574
 40
0.6874118281938894
 40
0.7498812454122309
 40
0.8123506626305722
 40
0.843623222787576
 40
0.8748957831079233
 40
0.9061683432093722
 40
0.9374409031374678
 40
0.9583088818550778
 40
0.9791320209916653
 40
1.0
 40
1.0
 40
1.0
 40
1.0
 10
72.49982051101611
 20
162.4132828374134
 30
0.0
 10
72.49883247039723
 20
162.5011218755314
 30
0.0
 10
72.49685867791185
 20
162.6765964765204
 30
0.0
 10
72.48082615130816
 20
162.9392358812468
 30
0.0
 10
72.45521415671716
 20
163.2008585138555
 30
0.0
 10
72.41908773632548
 20
163.4614705538814
 30
0.0
 10
72.34966485544886
 20
163.8500193814178
 30
0.0
 10
72.22176965029948
 20
164.361389363495
 30
0.0
 10
71.99970569017322
 20
164.9813418584113
 30
0.0
 10
71.71828790886758
 20
165.5768142121363
 30
0.0
 10
71.26712869881577
 20
166.3292301768932
 30
0.0
 10
70.56792504430331
 20
167.1815969009233
 30
0.0
 10
69.54614939638485
 20
168.0199973592475
 30
0.0
 10
68.38032381364486
 20
168.643189082374
 30
0.0
 10
67.1153524253196
 20
169.0269005676316
 30
0.0
 10
65.79982051714683
 20
169.1564739666416
 30
0.0
 10
64.484288592129
 20
169.0269005703514
 30
0.0
 10
63.21931725433885
 20
168.6431890714946
 30
0.0
 10
62.0534914863035
 20
168.0199974000453
 30
0.0
 10
61.03171652903138
 20
167.1815967486114
 30
0.0
 10
60.33251072625669
 20
166.3292306253614
 30
0.0
 10
59.88135590103191
 20
165.576813434332
 30
0.0
 10
59.59992472301278
 20
164.9813448271713
 30
0.0
 10
59.37791105912838
 20
164.3613782662594
 30
0.0
 10
59.23564955238393
 20
163.7932810274373
 30
0.0
 10
59.15265673305808
 20
163.2884500523156
 30
0.0
 10
59.10804274626094
 20
162.8517995346588
 30
0.0
 10
59.1025632249841
 20
162.5595598402689
 30
0.0
 10
59.09982051766251
 20
162.4132828374134
 30
0.0
  0
SPLINE
  5
90
330
1F
100
AcDbEntity
  8
0
  6
Continuous
 62
     7
370
    18
100
AcDbSpline
210
0.0
220
0.0
230
1.0
 70
    24
 71
     3
 72
    10
 73
     6
 74
     0
 42
0.000000001
 43
0.00000001
 40
0.0
 40
0.0
 40
0.0
 40
0.0
 40
0.5
 40
0.5
 40
1.0
 40
1.0
 40
1.0
 40
1.0
 10
72.49982051453188
 20
162.4132828374134
 30
0.0
 10
72.57053119274693
 20
162.4132828374134
 30
0.0
 10
72.6533739052164
 20
162.4132828374134
 30
0.0
 10
72.77053119272722
 20
162.4132828374134
 30
0.0
 10
72.79982051462792
 20
162.4132828374134
 30
0.0
 10
72.79982051472518
 20
162.4132828374134
 30
0.0
  0
SPLINE
  5
91
330
1F
100
AcDbEntity
  8
0
  6
Continuous
 62
     7
370
    18
100
AcDbSpline
210
0.0
220
0.0
230
1.0
 70
     8
 71
     3
 72
    12
 73
     8
 74
     0
 42
0.000000001
 43
0.00000001
 40
0.0
 40
0.0
 40
0.0
 40
0.0
 40
0.3333333333333332
 40
0.3333333333333332
 40
0.6666666666666665
 40
0.6666666666666665
 40
0.9999999999999999
 40
0.9999999999999999
 40
0.9999999999999999
 40
0.9999999999999999
 10
72.79982051433932
 20
162.4132828345419
 30
0.0
 10
72.79982051536503
 20
164.9137768485168
 30
0.0
 10
71.46531185376841
 20
167.2252136553677
 30
0.0
 10
67.13432917822588
 20
169.725707670527
 30
0.0
 10
64.46531185345236
 20
169.7257076710744
 30
0.0
 10
60.13432917688411
 20
167.2252136576917
 30
0.0
 10
58.79982051433932
 20
164.9137768513883
 30
0.0
 10
58.79982051433932
 20
162.4132828374134
 30
0.0
  0
SPLINE
  5
92
330
1F
100
AcDbEntity
  8
0
  6
Continuous
 62
     7
370
    18
100
AcDbSpline
210
0.0
220
0.0
230
1.0
 70
    24
 71
     3
 72
    10
 73
     6
 74
     0
 42
0.000000001
 43
0.00000001
 40
0.0
 40
0.0
 40
0.0
 40
0.0
 40
0.5
 40
0.5
 40
1.0
 40
1.0
 40
1.0
 40
1.0
 10
58.79982051395345
 20
162.4132828374134
 30
0.0
 10
58.79982051405071
 20
162.4132828374134
 30
0.0
 10
58.82910983595141
 20
162.4132828374134
 30
0.0
 10
58.94626712346223
 20
162.4132828374134
 30
0.0
 10
59.02910983593171
 20
162.4132828374134
 30
0.0
 10
59.09982051414674
 20
162.4132828374134
 30
0.0
  0
SPLINE
  5
93
330
1F
100
AcDbEntity
  8
0
  6
Continuous
 62
     7
370
    18
100
AcDbSpline
210
0.0
220
0.0
230
1.0
 70
     8
 71
     3
 72
    14
 73
    10
 74
     0
 42
0.000000001
 43
0.00000001
 40
0.0
 40
0.0
 40
0.0
 40
0.0
 40
0.25
 40
0.25
 40
0.5
 40
0.5
 40
0.75
 40
0.75
 40
1.0
 40
1.0
 40
1.0
 40
1.0
 10
58.79982051433932
 20
162.4132828361563
 30
0.0
 10
58.79982051467271
 20
160.5568199485156
 30
0.0
 10
59.53735554927844
 20
158.7762528657782
 30
0.0
 10
62.16279054310667
 20
156.1508178721188
 30
0.0
 10
63.9433576258914
 20
155.4132828376275
 30
0.0
 10
67.65628340117289
 20
155.4132828371993
 30
0.0
 10
69.4368504841277
 20
156.15081787128
 30
0.0
 10
72.06228547856142
 20
158.776252864334
 30
0.0
 10
72.79982051357779
 20
160.5568199469012
 30
0.0
 10
72.79982051433932
 20
162.413282834542
 30
0.0
  0
SPLINE
  5
94
330
1F
100
AcDbEntity
  8
0
  6
Continuous
 62
     7
370
    18
100
AcDbSpline
210
0.0
220
0.0
230
1.0
 70
     8
 71
     3
 72
    10
 73
     6
 74
     0
 42
0.000000001
 43
0.00000001
 40
0.0
 40
0.0
 40
0.0
 40
0.0
 40
0.5
 40
0.5
 40
1.0
 40
1.0
 40
1.0
 40
1.0
 10
66.5405586646814
 20
155.1622484064383
 30
0.0
 10
66.533492316837
 20
155.2311262083614
 30
0.0
 10
66.5348911722418
 20
155.3111676237708
 30
0.0
 10
66.56149110957848
 20
155.4265960003303
 30
0.0
 10
66.58565730988427
 20
155.4574921724788
 30
0.0
 10
66.60922856030253
 20
155.4602361223388
 30
0.0
  0
SPLINE
  5
95
330
1F
100
AcDbEntity
  8
0
  6
Continuous
 62
     7
370
    18
100
AcDbSpline
210
0.0
220
0.0
230
1.0
 70
     8
 71
     3
 72
    10
 73
     6
 74
     0
 42
0.000000001
 43
0.00000001
 40
0.0
 40
0.0
 40
0.0
 40
0.0
 40
0.5
 40
0.5
 40
1.0
 40
1.0
 40
1.0
 40
1.0
 10
65.05908219833933
 20
155.1622484284134
 30
0.0
 10
65.06614855026955
 20
155.2311262331138
 30
0.0
 10
65.06474969651525
 20
155.3111676532202
 30
0.0
 10
65.03814975273552
 20
155.4265960315394
 30
0.0
 10
65.01398354482014
 20
155.4574921996699
 30
0.0
 10
64.99041228733931
 20
155.4602361434134
 30
0.0
  0
SPLINE
  5
96
330
1F
100
AcDbEntity
  8
0
  6
Continuous
 62
     7
370
    18
100
AcDbSpline
210
0.0
220
0.0
230
1.0
 70
     8
 71
     3
 72
    16
 73
    12
 74
     0
 42
0.000000001
 43
0.00000001
 40
0.0
 40
0.0
 40
0.0
 40
0.0
 40
0.0864429162688003
 40
0.1715998848054072
 40
0.2555040849425256
 40
0.3381902047989417
 40
0.4196944884322913
 40
0.5000547796939435
 40
0.6618863547864201
 40
0.8284401449971459
 40
1.0
 40
1.0
 40
1.0
 40
1.0
 10
65.05908219911355
 20
155.1622484292009
 30
0.0
 10
65.10007077950634
 20
155.1570834122218
 30
0.0
 10
65.18143818330691
 20
155.1468302144249
 30
0.0
 10
65.30585337507257
 20
155.1347035680036
 30
0.0
 10
65.43017076595574
 20
155.1251267269224
 30
0.0
 10
65.55416281741037
 20
155.1183134462574
 30
0.0
 10
65.6772974907858
 20
155.1142128306456
 30
0.0
 10
65.84089897092333
 20
155.1123433096141
 30
0.0
 10
66.04747118996234
 20
155.1171719750075
 30
0.0
 10
66.29708673291435
 20
155.1331356709651
 30
0.0
 10
66.45860432869156
 20
155.1524488603013
 30
0.0
 10
66.54055883039304
 20
155.1622484292009
 30
0.0
  0
SPLINE
  5
97
330
1F
100
AcDbEntity
  8
0
  6
Continuous
 62
     7
370
    18
100
AcDbSpline
210
0.0
220
0.0
230
1.0
 70
    24
 71
     3
 72
    12
 73
     8
 74
     0
 42
0.000000001
 43
0.00000001
 40
0.0
 40
0.0
 40
0.0
 40
0.0
 40
0.3333333333333333
 40
0.3333333333333333
 40
0.6666666666666665
 40
0.6666666666666665
 40
0.9999999999999999
 40
0.9999999999999999
 40
0.9999999999999999
 40
0.9999999999999999
 10
63.44982051433931
 20
153.1132828374134
 30
0.0
 10
63.44982051433931
 20
153.1132828374134
 30
0.0
 10
63.89783413676507
 20
153.1132828374134
 30
0.0
 10
65.35180689247012
 20
153.1132828374135
 30
0.0
 10
66.24783413721552
 20
153.1132828374135
 30
0.0
 10
67.70180689257623
 20
153.1132828374135
 30
0.0
 10
68.14982051468365
 20
153.1132828374135
 30
0.0
 10
68.14982051433932
 20
153.1132828374135
 30
0.0
  0
SPLINE
  5
98
330
1F
100
AcDbEntity
  8
0
  6
Continuous
 62
     7
370
    18
100
AcDbSpline
210
0.0
220
0.0
230
1.0
 70
    24
 71
     3
 72
    12
 73
     8
 74
     0
 42
0.000000001
 43
0.00000001
 40
0.0
 40
0.0
 40
0.0
 40
0.0
 40
0.3333333333333333
 40
0.3333333333333333
 40
0.6666666666666665
 40
0.6666666666666665
 40
0.9999999999999999
 40
0.9999999999999999
 40
0.9999999999999999
 40
0.9999999999999999
 10
63.44982051433931
 20
150.6132828374134
 30
0.0
 10
63.44982051433931
 20
150.6132828374134
 30
0.0
 10
63.89783413676507
 20
150.6132828374134
 30
0.0
 10
65.35180689247012
 20
150.6132828374134
 30
0.0
 10
66.24783413721552
 20
150.6132828374134
 30
0.0
 10
67.70180689257623
 20
150.6132828374134
 30
0.0
 10
68.14982051468365
 20
150.6132828374134
 30
0.0
 10
68.14982051433932
 20
150.6132828374134
 30
0.0
  0
SPLINE
  5
99
330
1F
100
AcDbEntity
  8
0
  6
Continuous
 62
     7
370
    18
100
AcDbSpline
210
0.0
220
0.0
230
1.0
 70
    24
 71
     3
 72
    12
 73
     8
 74
     0
 42
0.000000001
 43
0.00000001
 40
0.0
 40
0.0
 40
0.0
 40
0.0
 40
0.3333333333333332
 40
0.3333333333333332
 40
0.6666666666666665
 40
0.6666666666666665
 40
0.9999999999999999
 40
0.9999999999999999
 40
0.9999999999999999
 40
0.9999999999999999
 10
67.79982051433932
 20
148.1132828374134
 30
0.0
 10
67.79982051463237
 20
148.1132828374134
 30
0.0
 10
67.41853232560477
 20
148.1132828374134
 30
0.0
 10
66.18110870402118
 20
148.1132828374135
 30
0.0
 10
65.41853232551446
 20
148.1132828374135
 30
0.0
 10
64.18110870363783
 20
148.1132828374135
 30
0.0
 10
63.79982051433932
 20
148.1132828374135
 30
0.0
 10
63.79982051433932
 20
148.1132828374135
 30
0.0
  0
LINE
  5
9A
330
1F
100
AcDbEntity
  8
0
  6
Continuous
 62
     7
370
    18
100
AcDbLine
 10
66.6092285402
 20
155.4602362342
 30
0.0
 11
66.7938865236
 21
155.5058510169
 31
0.0
  0
LINE
  5
9B
330
1F
100
AcDbEntity
  8
0
  6
Continuous
 62
     7
370
    18
100
AcDbLine
 10
67.9498205874
 20
153.8396315775
 30
0.0
 11
74.2998209763
 21
157.5058057099
 31
0.0
  0
LINE
  5
9C
330
1F
100
AcDbEntity
  8
0
  6
Continuous
 62
     7
370
    18
100
AcDbLine
 10
57.2998209837
 20
157.5058057099
 30
0.0
 11
63.6498204413
 21
153.8396315775
 31
0.0
  0
LINE
  5
9D
330
1F
100
AcDbEntity
  8
0
  6
Continuous
 62
     7
370
    18
100
AcDbLine
 10
57.2998200524
 20
167.3207600727
 30
0.0
 11
57.2998209837
 21
157.5058057099
 31
0.0
  0
LINE
  5
9E
330
1F
100
AcDbEntity
  8
0
  6
Continuous
 62
     7
370
    18
100
AcDbLine
 10
65.7998205122
 20
172.2282372541
 30
0.0
 11
57.2998200524
 21
167.3207600727
 31
0.0
  0
LINE
  5
9F
330
1F
100
AcDbEntity
  8
0
  6
Continuous
 62
     7
370
    18
100
AcDbLine
 10
74.2998209763
 20
157.5058057099
 30
0.0
 11
74.299820045
 21
167.3207600727
 31
0.0
  0
LINE
  5
A0
330
1F
100
AcDbEntity
  8
0
  6
Continuous
 62
     7
370
    18
100
AcDbLine
 10
74.299820045
 20
167.3207600727
 30
0.0
 11
65.7998205122
 21
172.2282372541
 31
0.0
  0
SPLINE
  5
A1
330
1F
100
AcDbEntity
  8
0
  6
Continuous
 62
     8
370
    18
100
AcDbSpline
210
0.0
220
0.0
230
1.0
 70
     8
 71
     3
 72
    11
 73
     7
 74
     0
 42
0.000000001
 43
0.00000001
 40
0.0
 40
0.0
 40
0.0
 40
0.0
 40
0.3386679565311906
 40
0.6830979415508188
 40
0.8609607222684013
 40
0.9999999999999999
 40
0.9999999999999999
 40
0.9999999999999999
 40
0.9999999999999999
 10
66.540558692477
 20
155.1622484005554
 30
0.0
 10
66.63964413514653
 20
155.1793682439844
 30
0.0
 10
66.83950084027583
 20
155.2138992044149
 30
0.0
 10
67.05214226339142
 20
155.3288417040387
 30
0.0
 10
67.18534177243158
 20
155.4576485293913
 30
0.0
 10
67.23097721563839
 20
155.5383351693993
 30
0.0
 10
67.25099955027859
 20
155.5737360506816
 30
0.0
  0
LINE
  5
A2
330
1F
100
AcDbEntity
  8
0
  6
Continuous
 62
     8
370
    18
100
AcDbLine
 10
64.769598118
 20
155.5147507354
 30
0.0
 11
64.9904121975
 21
155.4602362342
 31
0.0
  0
SPLINE
  5
A3
330
1F
100
AcDbEntity
  8
0
  6
Continuous
 62
     8
370
    18
100
AcDbSpline
210
0.0
220
0.0
230
1.0
 70
     8
 71
     3
 72
    11
 73
     7
 74
     0
 42
0.000000001
 43
0.00000001
 40
0.0
 40
0.0
 40
0.0
 40
0.0
 40
0.1394358981503701
 40
0.3174492096156306
 40
0.6619685099982178
 40
1.0
 40
1.0
 40
1.0
 40
1.0
 10
64.34863193234365
 20
155.5737393103106
 30
0.0
 10
64.36872053565985
 20
155.5382445588583
 30
0.0
 10
64.41445561055517
 20
155.4574348036695
 30
0.0
 10
64.54784884853433
 20
155.3285808395063
 30
0.0
 10
64.76047793168848
 20
155.2138207274757
 30
0.0
 10
64.96018015760458
 20
155.1793298949599
 30
0.0
 10
65.05908216157864
 20
155.1622484005554
 30
0.0
  0
INSERT
  5
A9
330
1F
100
AcDbEntity
  8
0
  6
Continuous
 62
     7
370
     0
100
AcDbBlockReference
  2
SW_NOTE_0
 10
75.3539458186
 20
179.1277976024
 30
0.0
  0
LEADER
  5
AB
330
1F
100
AcDbEntity
  8
0
  6
Continuous
 62
     7
370
     0
100
AcDbLeader
  3
SLDDIMSTYLE0
 76
     2
 10
67.6606830677
 20
164.44136206
 30
0.0
 10
75.3539458186
 20
179.1277976024
 30
0.0
  0
INSERT
  5
B1
330
1F
100
AcDbEntity
  8
0
  6
Continuous
 62
     7
370
     0
100
AcDbBlockReference
  2
SW_NOTE_1
 10
58.0938920356
 20
138.8451120901
 30
0.0
  0
LEADER
  5
B2
330
1F
100
AcDbEntity
  8
0
  6
Continuous
 62
     7
370
     0
100
AcDbLeader
  3
SLDDIMSTYLE0
 76
     2
 10
64.958812594
 20
152.3548394513
 30
0.0
 10
58.0938920356
 20
138.8451120901
 30
0.0
  0
INSERT
  5
BE
330
1F
100
AcDbEntity
  8
0
  6
Continuous
 62
     7
370
    18
100
AcDbBlockReference
  2
SW_CENTERMARKSYMBOL_0
 10
65.7998205143
 20
162.4132828374
 30
0.0
  0
LWPOLYLINE
  5
BF
330
1F
100
AcDbEntity
  8
0
  6
Continuous
 62
     7
370
    18
100
AcDbPolyline
 90
        3
 70
   128
 43
0.0
 10
162.1206331553
 20
172.2340272866
 10
161.8067774476
 20
171.6904105745
 10
161.5601744057
 20
171.2632827587
  0
LWPOLYLINE
  5
C0
330
1F
100
AcDbEntity
  8
0
  6
Continuous
 62
     7
370
    18
100
AcDbPolyline
 90
        3
 70
   128
 43
0.0
 10
163.9997142853
 20
152.5925384961
 10
164.3135737182
 20
153.1361552082
 10
164.5601767601
 20
153.5632830239
  0
LWPOLYLINE
  5
C1
330
1F
100
AcDbEntity
  8
0
  6
Continuous
 62
     7
370
    18
100
AcDbPolyline
 90
        3
 70
   128
 43
0.0
 10
161.5601744057
 20
153.5632830239
 10
161.8740338387
 20
153.0196663118
 10
162.1206331553
 20
152.5925384961
  0
LWPOLYLINE
  5
C2
330
1F
100
AcDbEntity
  8
0
  6
Continuous
 62
     7
370
    18
100
AcDbPolyline
 90
        3
 70
   128
 43
0.0
 10
164.5601767601
 20
171.2632827587
 10
164.2463173272
 20
171.8068994708
 10
163.9997142853
 20
172.2340272866
  0
LINE
  5
C3
330
1F
100
AcDbEntity
  8
0
  6
Continuous
 62
     7
370
    18
100
AcDbLine
 10
118.3778935598
 20
169.4132826417
 30
0.0
 11
116.9778940754
 21
169.4132826417
 31
0.0
  0
LINE
  5
C4
330
1F
100
AcDbEntity
  8
0
  6
Continuous
 62
     7
370
    18
100
AcDbLine
 10
117.127883576
 20
155.4132826753
 30
0.0
 11
118.3778935598
 21
155.4132826753
 31
0.0
  0
LINE
  5
C5
330
1F
100
AcDbEntity
  8
0
  6
Continuous
 62
     7
370
    18
100
AcDbLine
 10
112.3778939733
 20
169.4132826417
 30
0.0
 11
110.9778940232
 21
169.4132826417
 31
0.0
  0
LINE
  5
C6
330
1F
100
AcDbEntity
  8
0
  6
Continuous
 62
     7
370
    18
100
AcDbLine
 10
110.9778940232
 20
155.4132826753
 30
0.0
 11
112.227904007
 21
155.4132826753
 31
0.0
  0
SPLINE
  5
C7
330
1F
100
AcDbEntity
  8
0
  6
Continuous
 62
     7
370
    18
100
AcDbSpline
210
0.0
220
0.0
230
1.0
 70
     8
 71
     3
 72
    13
 73
     9
 74
     0
 42
0.000000001
 43
0.00000001
 40
0.0
 40
0.0
 40
0.0
 40
0.0
 40
0.2394573254594161
 40
0.3683609142556412
 40
0.4999999916447646
 40
0.6316384436415126
 40
0.7605424886985238
 40
1.0
 40
1.0
 40
1.0
 40
1.0
 10
116.9778940753699
 20
169.4132826417251
 30
0.0
 10
116.9401550874376
 20
169.4092753150189
 30
0.0
 10
116.8821006175184
 20
169.4031107822513
 30
0.0
 10
116.8122554343351
 20
169.3657018979934
 30
0.0
 10
116.7641942037514
 20
169.3269826622724
 30
0.0
 10
116.7254754193567
 20
169.2789210784986
 30
0.0
 10
116.6880657623246
 20
169.2090763232137
 30
0.0
 10
116.6819010761936
 20
169.151021722285
 30
0.0
 10
116.677893653667
 20
169.1132826856835
 30
0.0
  0
SPLINE
  5
C8
330
1F
100
AcDbEntity
  8
0
  6
Continuous
 62
     7
370
    18
100
AcDbSpline
210
0.0
220
0.0
230
1.0
 70
     8
 71
     3
 72
    13
 73
     9
 74
     0
 42
0.000000001
 43
0.00000001
 40
0.0
 40
0.0
 40
0.0
 40
0.0
 40
0.2394576695113924
 40
0.3683613434744008
 40
0.4999998824448602
 40
0.6316398166760369
 40
0.7605434906390452
 40
1.0
 40
1.0
 40
1.0
 40
1.0
 10
112.6778939293385
 20
169.1132826856835
 30
0.0
 10
112.6738864158539
 20
169.1510216768472
 30
0.0
 10
112.6677215974367
 20
169.2090761359706
 30
0.0
 10
112.6303126970818
 20
169.2789211815872
 30
0.0
 10
112.5915937961274
 20
169.326982815602
 30
0.0
 10
112.5435321960972
 20
169.3657017603715
 30
0.0
 10
112.4736871328128
 20
169.4031107484348
 30
0.0
 10
112.4156328111314
 20
169.4092753051544
 30
0.0
 10
112.3778939732969
 20
169.4132826417251
 30
0.0
  0
SPLINE
  5
C9
330
1F
100
AcDbEntity
  8
0
  6
Continuous
 62
     7
370
    18
100
AcDbSpline
210
0.0
220
0.0
230
1.0
 70
     8
 71
     3
 72
    13
 73
     9
 74
     0
 42
0.000000001
 43
0.00000001
 40
0.0
 40
0.0
 40
0.0
 40
0.0
 40
0.2394575113014762
 40
0.3683615563584874
 40
0.5000000083552355
 40
0.6316390857443589
 40
0.7605426745405839
 40
1.0
 40
1.0
 40
1.0
 40
1.0
 10
118.6778939814926
 20
169.1132826856835
 30
0.0
 10
118.673886558966
 20
169.151021722285
 30
0.0
 10
118.667721872835
 20
169.2090763232137
 30
0.0
 10
118.6303122158029
 20
169.2789210784986
 30
0.0
 10
118.5915934314082
 20
169.3269826622724
 30
0.0
 10
118.5435322008245
 20
169.3657018979934
 30
0.0
 10
118.4736870176412
 20
169.4031107822513
 30
0.0
 10
118.415632547722
 20
169.4092753150189
 30
0.0
 10
118.3778935597897
 20
169.4132826417251
 30
0.0
  0
SPLINE
  5
CA
330
1F
100
AcDbEntity
  8
0
  6
Continuous
 62
     7
370
    18
100
AcDbSpline
210
0.0
220
0.0
230
1.0
 70
     8
 71
     3
 72
    13
 73
     9
 74
     0
 42
0.000000001
 43
0.00000001
 40
0.0
 40
0.0
 40
0.0
 40
0.0
 40
0.2394576655088826
 40
0.3683613373172795
 40
0.4999998740874145
 40
0.6316391807291228
 40
0.7605433087985998
 40
1.0
 40
1.0
 40
1.0
 40
1.0
 10
118.3778935597897
 20
155.4132826752527
 30
0.0
 10
118.4156325579978
 20
155.4172901833956
 30
0.0
 10
118.4736870279578
 20
155.4234549935958
 30
0.0
 10
118.5435320204017
 20
155.4608639342702
 30
0.0
 10
118.5915937513038
 20
155.4995826418994
 30
0.0
 10
118.6303120514182
 20
155.547644692005
 30
0.0
 10
118.6677218525758
 20
155.6174892742199
 30
0.0
 10
118.6738865544426
 20
155.6755437377466
 30
0.0
 10
118.6778939814926
 20
155.7132826312943
 30
0.0
  0
SPLINE
  5
CB
330
1F
100
AcDbEntity
  8
0
  6
Continuous
 62
     7
370
    18
100
AcDbSpline
210
0.0
220
0.0
230
1.0
 70
     8
 71
     3
 72
    13
 73
     9
 74
     0
 42
0.000000001
 43
0.00000001
 40
0.0
 40
0.0
 40
0.0
 40
0.0
 40
0.2394573294608609
 40
0.3683609204111256
 40
0.5
 40
0.6316390795888743
 40
0.7605426705391392
 40
0.9999999999999999
 40
0.9999999999999999
 40
0.9999999999999999
 40
0.9999999999999999
 10
110.9778940232158
 20
169.4132826417251
 30
0.0
 10
110.9401550423279
 20
169.4092753096772
 30
0.0
 10
110.8821005832452
 20
169.4031107686925
 30
0.0
 10
110.8122553468894
 20
169.3657019247545
 30
0.0
 10
110.7641942131935
 20
169.3269824957059
 30
0.0
 10
110.7254747841449
 20
169.2789213620099
 30
0.0
 10
110.6880659402068
 20
169.2090761256541
 30
0.0
 10
110.6819013992221
 20
169.1510216665714
 30
0.0
 10
110.6778940671742
 20
169.1132826856835
 30
0.0
  0
SPLINE
  5
CC
330
1F
100
AcDbEntity
  8
0
  6
Continuous
 62
     7
370
    18
100
AcDbSpline
210
0.0
220
0.0
230
1.0
 70
     8
 71
     3
 72
    13
 73
     9
 74
     0
 42
0.000000001
 43
0.00000001
 40
0.0
 40
0.0
 40
0.0
 40
0.0
 40
0.2394565093609548
 40
0.3683601833239631
 40
0.5000001175551397
 40
0.6316386565255991
 40
0.7605423304886075
 40
1.0
 40
1.0
 40
1.0
 40
1.0
 10
110.6778940671742
 20
155.7132826312943
 30
0.0
 10
110.681901403745
 20
155.6755437934598
 30
0.0
 10
110.6880659604646
 20
155.6174894717784
 30
0.0
 10
110.7254749485279
 20
155.547644408494
 30
0.0
 10
110.7641938932973
 20
155.4995828084639
 30
0.0
 10
110.8122555273122
 20
155.4608639075094
 30
0.0
 10
110.8821005729287
 20
155.4234550071545
 30
0.0
 10
110.9401550320521
 20
155.4172901887373
 30
0.0
 10
110.9778940232158
 20
155.4132826752527
 30
0.0
  0
SPLINE
  5
CD
330
1F
100
AcDbEntity
  8
0
  6
Continuous
 62
     7
370
    18
100
AcDbSpline
210
0.0
220
0.0
230
1.0
 70
     8
 71
     3
 72
    13
 73
     9
 74
     0
 42
0.000000001
 43
0.00000001
 40
0.0
 40
0.0
 40
0.0
 40
0.0
 40
0.2394567241113507
 40
0.3683606917871737
 40
0.5000000676039478
 40
0.6316394434207218
 40
0.7605431829666371
 40
1.0
 40
1.0
 40
1.0
 40
1.0
 10
103.6778938511074
 20
167.6132829054756
 30
0.0
 10
103.6738864817509
 20
167.6510217826605
 30
0.0
 10
103.6677218716157
 20
167.7090761929456
 30
0.0
 10
103.6303124063961
 20
167.778920885257
 30
0.0
 10
103.5915940568551
 20
167.8269830575559
 30
0.0
 10
103.5435319325777
 20
167.8657014624893
 30
0.0
 10
103.4736870673634
 20
167.9031105105672
 30
0.0
 10
103.4156327441474
 20
167.9092753439865
 30
0.0
 10
103.3778938950658
 20
167.9132828615172
 30
0.0
  0
SPLINE
  5
CE
330
1F
100
AcDbEntity
  8
0
  6
Continuous
 62
     7
370
    18
100
AcDbSpline
210
0.0
220
0.0
230
1.0
 70
     8
 71
     3
 72
    13
 73
     9
 74
     0
 42
0.000000001
 43
0.00000001
 40
0.0
 40
0.0
 40
0.0
 40
0.0
 40
0.2394565664368951
 40
0.3683607273860878
 40
0.500000067605177
 40
0.6316394078242663
 40
0.7605433406421088
 40
1.0
 40
1.0
 40
1.0
 40
1.0
 10
103.3778938950658
 20
156.9132829211219
 30
0.0
 10
103.4156328022969
 20
156.9172901413511
 30
0.0
 10
103.47368730264
 20
156.9234545267359
 30
0.0
 10
103.5435318073828
 20
156.9608644162923
 30
0.0
 10
103.5915940755635
 20
156.9995826869569
 30
0.0
 10
103.6303124016199
 20
157.0476449071157
 30
0.0
 10
103.6677218740356
 20
157.1174895847618
 30
0.0
 10
103.6738864827043
 20
157.1755439980357
 30
0.0
 10
103.6778938511074
 20
157.2132828771634
 30
0.0
  0
SPLINE
  5
CF
330
1F
100
AcDbEntity
  8
0
  6
Continuous
 62
     7
370
    18
100
AcDbSpline
210
0.0
220
0.0
230
1.0
 70
     8
 71
     3
 72
    13
 73
     9
 74
     0
 42
0.000000001
 43
0.00000001
 40
0.0
 40
0.0
 40
0.0
 40
0.0
 40
0.2394567846563175
 40
0.3683605067731103
 40
0.4999998647908752
 40
0.6316392228086402
 40
0.7605434011866908
 40
0.9999999999999999
 40
0.9999999999999999
 40
0.9999999999999999
 40
0.9999999999999999
 10
101.9778939449847
 20
167.9132828615172
 30
0.0
 10
101.9401550949318
 20
167.9092753444631
 30
0.0
 10
101.8821007702213
 20
167.9031105117771
 30
0.0
 10
101.8122559123397
 20
167.8657014601011
 30
0.0
 10
101.7641937641323
 20
167.8269830669101
 30
0.0
 10
101.7254754817255
 20
167.7789208226594
 30
0.0
 10
101.6880655957671
 20
167.709076310584
 30
0.0
 10
101.6819012096491
 20
167.6510218117352
 30
0.0
 10
101.6778939889431
 20
167.6132829054756
 30
0.0
  0
SPLINE
  5
D0
330
1F
100
AcDbEntity
  8
0
  6
Continuous
 62
     7
370
    18
100
AcDbSpline
210
0.0
220
0.0
230
1.0
 70
     8
 71
     3
 72
    13
 73
     9
 74
     0
 42
0.000000001
 43
0.00000001
 40
0.0
 40
0.0
 40
0.0
 40
0.0
 40
0.2394565340598923
 40
0.3683606775799101
 40
0.4999999999999999
 40
0.6316393224200898
 40
0.7605434659401077
 40
1.0
 40
1.0
 40
1.0
 40
1.0
 10
101.6778939889431
 20
157.2132828771634
 30
0.0
 10
101.6819012086957
 20
157.175543968961
 30
0.0
 10
101.6880655933472
 20
157.1174894671234
 30
0.0
 10
101.7254754865017
 20
157.0476449697132
 30
0.0
 10
101.764193745424
 20
156.9995826776027
 30
0.0
 10
101.8122560375345
 20
156.9608644186804
 30
0.0
 10
101.8821005349447
 20
156.9234545255259
 30
0.0
 10
101.9401550367822
 20
156.9172901408744
 30
0.0
 10
101.9778939449847
 20
156.9132829211219
 30
0.0
  0
LINE
  5
D1
330
1F
100
AcDbEntity
  8
0
  6
Continuous
 62
     7
370
    18
100
AcDbLine
 10
103.3778938951
 20
167.9132828615
 30
0.0
 11
101.977893945
 21
167.9132828615
 31
0.0
  0
LINE
  5
D2
330
1F
100
AcDbEntity
  8
0
  6
Continuous
 62
     7
370
    18
100
AcDbLine
 10
101.977893945
 20
156.9132829211
 30
0.0
 11
103.3778938951
 21
156.9132829211
 31
0.0
  0
SPLINE
  5
D3
330
1F
100
AcDbEntity
  8
0
  6
Continuous
 62
     7
370
    18
100
AcDbSpline
210
0.0
220
0.0
230
1.0
 70
     8
 71
     3
 72
    13
 73
     9
 74
     0
 42
0.000000001
 43
0.00000001
 40
0.0
 40
0.0
 40
0.0
 40
0.0
 40
0.239457139924063
 40
0.3683622902122021
 40
0.5000005380493583
 40
0.631639555756398
 40
0.7605424883805008
 40
1.0
 40
1.0
 40
1.0
 40
1.0
 10
123.377893448031
 20
157.9132826193733
 30
0.0
 10
123.4156323842089
 20
157.9172902461827
 30
0.0
 10
123.4736870363487
 20
157.9234552684086
 30
0.0
 10
123.5435327002396
 20
157.960863584011
 30
0.0
 10
123.5915944793954
 20
157.9995826534351
 30
0.0
 10
123.630313066848
 20
158.0476443779189
 30
0.0
 10
123.6677212540127
 20
158.1174898297231
 30
0.0
 10
123.673886804524
 20
158.1755441032917
 30
0.0
 10
123.6778948010564
 20
158.2132830410762
 30
0.0
  0
SPLINE
  5
D4
330
1F
100
AcDbEntity
  8
0
  6
Continuous
 62
     7
370
    18
100
AcDbSpline
210
0.0
220
0.0
230
1.0
 70
     8
 71
     3
 72
    13
 73
     9
 74
     0
 42
0.000000001
 43
0.00000001
 40
0.0
 40
0.0
 40
0.0
 40
0.0
 40
0.2394567058672698
 40
0.3683597292251484
 40
0.4999988395918731
 40
0.6316371800881725
 40
0.7605428773658136
 40
1.0
 40
1.0
 40
1.0
 40
1.0
 10
123.6778948010564
 20
166.6132827415629
 30
0.0
 10
123.6738867795751
 20
166.6510215192274
 30
0.0
 10
123.6677211819059
 20
166.7090756291403
 30
0.0
 10
123.6303130624008
 20
166.7789209291538
 30
0.0
 10
123.5915944980145
 20
166.8269827017149
 30
0.0
 10
123.5435325750705
 20
166.865701636814
 30
0.0
 10
123.4736872716106
 20
166.9031107939123
 30
0.0
 10
123.4156324423529
 20
166.9092753680989
 30
0.0
 10
123.377893448031
 20
166.9132826976044
 30
0.0
  0
LINE
  5
D5
330
1F
100
AcDbEntity
  8
0
  6
Continuous
 62
     7
370
    18
100
AcDbLine
 10
123.377893448
 20
166.9132826976
 30
0.0
 11
119.5856298806
 21
166.9132826976
 31
0.0
  0
LINE
  5
D6
330
1F
100
AcDbEntity
  8
0
  6
Continuous
 62
     7
370
    18
100
AcDbLine
 10
118.8544215189
 20
166.9132826976
 30
0.0
 11
118.6778939815
 21
166.9132826976
 31
0.0
  0
LINE
  5
D7
330
1F
100
AcDbEntity
  8
0
  6
Continuous
 62
     7
370
    18
100
AcDbLine
 10
118.6778939815
 20
157.9132826194
 30
0.0
 11
120.1862873064
 21
157.9132826194
 31
0.0
  0
LINE
  5
D8
330
1F
100
AcDbEntity
  8
0
  6
Continuous
 62
     7
370
    18
100
AcDbLine
 10
121.2157684864
 20
157.9132826194
 30
0.0
 11
123.377893448
 21
157.9132826194
 31
0.0
  0
LINE
  5
D9
330
1F
100
AcDbEntity
  8
0
  6
Continuous
 62
     7
370
    18
100
AcDbLine
 10
116.6778936537
 20
166.9132826976
 30
0.0
 11
112.6778939293
 21
166.9132826976
 31
0.0
  0
LINE
  5
DA
330
1F
100
AcDbEntity
  8
0
  6
Continuous
 62
     7
370
    18
100
AcDbLine
 10
110.6778940672
 20
166.3132827855
 30
0.0
 11
103.6778938511
 21
166.3132827855
 31
0.0
  0
LINE
  5
DB
330
1F
100
AcDbEntity
  8
0
  6
Continuous
 62
     7
370
    18
100
AcDbLine
 10
103.6778938511
 20
158.5132827643
 30
0.0
 11
110.6778940672
 21
158.5132827643
 31
0.0
  0
SPLINE
  5
DC
330
1F
100
AcDbEntity
  8
0
  6
Continuous
 62
     7
370
    18
100
AcDbSpline
210
0.0
220
0.0
230
1.0
 70
     8
 71
     3
 72
    10
 73
     6
 74
     0
 42
0.000000001
 43
0.00000001
 40
0.0
 40
0.0
 40
0.0
 40
0.0
 40
0.2072194286344445
 40
0.4846516026800153
 40
1.0
 40
1.0
 40
1.0
 40
1.0
 10
169.600490808642
 20
159.5140319443805
 30
0.0
 10
169.6104062872403
 20
159.5254053373457
 30
0.0
 10
169.6335969341103
 20
159.5520058021998
 30
0.0
 10
169.6673616110233
 20
159.6178155910837
 30
0.0
 10
169.6737452165337
 20
159.6756727038889
 30
0.0
 10
169.6778948904634
 20
159.7132828212841
 30
0.0
  0
SPLINE
  5
DD
330
1F
100
AcDbEntity
  8
0
  6
Continuous
 62
     7
370
    18
100
AcDbSpline
210
0.0
220
0.0
230
1.0
 70
     8
 71
     3
 72
    10
 73
     6
 74
     0
 42
0.000000001
 43
0.00000001
 40
0.0
 40
0.0
 40
0.0
 40
0.0
 40
0.5154014191206564
 40
0.792861572402593
 40
1.0
 40
1.0
 40
1.0
 40
1.0
 10
169.6778948904634
 20
165.1132827285244
 30
0.0
 10
169.673745201641
 20
165.1508929079481
 30
0.0
 10
169.6673615777651
 20
165.2087500749833
 30
0.0
 10
169.6336004971468
 20
165.2745533586764
 30
0.0
 10
169.6104158376813
 20
165.3011491246884
 30
0.0
 10
169.6005057098032
 20
165.3125173072828
 30
0.0
  0
SPLINE
  5
DE
330
1F
100
AcDbEntity
  8
0
  6
Continuous
 62
     7
370
    18
100
AcDbSpline
210
0.0
220
0.0
230
1.0
 70
     8
 71
     3
 72
    10
 73
     6
 74
     0
 42
0.000000001
 43
0.00000001
 40
0.0
 40
0.0
 40
0.0
 40
0.0
 40
0.5153488242839235
 40
0.7927812281808615
 40
1.0
 40
1.0
 40
1.0
 40
1.0
 10
170.3778918387056
 20
159.7132828212841
 30
0.0
 10
170.3820415226958
 20
159.6756727120304
 30
0.0
 10
170.3884251436829
 20
159.6178156117496
 30
0.0
 10
170.4221897220501
 20
159.5520058202785
 30
0.0
 10
170.4453804359588
 20
159.525405487623
 30
0.0
 10
170.455295920527
 20
159.5140321772112
 30
0.0
  0
SPLINE
  5
DF
330
1F
100
AcDbEntity
  8
0
  6
Continuous
 62
     7
370
    18
100
AcDbSpline
210
0.0
220
0.0
230
1.0
 70
     8
 71
     3
 72
    10
 73
     6
 74
     0
 42
0.000000001
 43
0.00000001
 40
0.0
 40
0.0
 40
0.0
 40
0.0
 40
0.2072185545638651
 40
0.4846506675911478
 40
1.0
 40
1.0
 40
1.0
 40
1.0
 10
170.455295920527
 20
165.3125336054279
 30
0.0
 10
170.445380436
 20
165.3011602950245
 30
0.0
 10
170.4221897221876
 20
165.2745599623888
 30
0.0
 10
170.3884251072247
 20
165.2087501016751
 30
0.0
 10
170.3820415101232
 20
165.1508929184635
 30
0.0
 10
170.3778918387056
 20
165.1132827285244
 30
0.0
  0
LWPOLYLINE
  5
E0
330
1F
100
AcDbEntity
  8
0
  6
Continuous
 62
     7
370
    18
100
AcDbPolyline
 90
        3
 70
   128
 43
0.0
 10
171.2778772713
 20
159.5132691912
 10
171.4578907491
 20
159.6932829018
 10
171.677891493
 20
159.9132829472
  0
LWPOLYLINE
  5
E1
330
1F
100
AcDbEntity
  8
0
  6
Continuous
 62
     7
370
    18
100
AcDbPolyline
 90
        3
 70
   128
 43
0.0
 10
171.677891493
 20
164.9132828354
 10
171.3978912236
 20
165.193282872
 10
171.2778772713
 20
165.3132965914
  0
LWPOLYLINE
  5
E2
330
1F
100
AcDbEntity
  8
0
  6
Continuous
 62
     7
370
    18
100
AcDbPolyline
 90
        3
 70
   128
 43
0.0
 10
112.3278940582
 20
153.113282857
 10
112.523893688
 20
151.7132824413
 10
112.6778939293
 20
150.6132824473
  0
LWPOLYLINE
  5
E3
330
1F
100
AcDbEntity
  8
0
  6
Continuous
 62
     7
370
    18
100
AcDbPolyline
 90
        3
 70
   128
 43
0.0
 10
116.6778936537
 20
150.6132824473
 10
116.8738942148
 20
152.013282863
 10
117.0278939904
 20
153.113282857
  0
LWPOLYLINE
  5
E4
330
1F
100
AcDbEntity
  8
0
  6
Continuous
 62
     7
370
    18
100
AcDbPolyline
 90
        3
 70
   128
 43
0.0
 10
112.3278940582
 20
150.6132824473
 10
112.523893688
 20
149.2132829628
 10
112.6778939293
 20
148.1132829688
  0
LWPOLYLINE
  5
E5
330
1F
100
AcDbEntity
  8
0
  6
Continuous
 62
     7
370
    18
100
AcDbPolyline
 90
        3
 70
   128
 43
0.0
 10
116.6778936537
 20
148.1132829688
 10
116.8738942148
 20
149.5132824532
 10
117.0278939904
 20
150.6132824473
  0
LINE
  5
E6
330
1F
100
AcDbEntity
  8
0
  6
Continuous
 62
     7
370
    18
100
AcDbLine
 10
112.5278937185
 20
155.1132864445
 30
0.0
 11
112.5278937185
 21
153.113282857
 31
0.0
  0
LINE
  5
E7
330
1F
100
AcDbEntity
  8
0
  6
Continuous
 62
     7
370
    18
100
AcDbLine
 10
116.8278943302
 20
153.113282857
 30
0.0
 11
116.8278943302
 21
155.1132864445
 31
0.0
  0
LINE
  5
E8
330
1F
100
AcDbEntity
  8
0
  6
Continuous
 62
     7
370
    18
100
AcDbLine
 10
169.7778965832
 20
164.4132827535
 30
0.0
 11
169.6778948905
 21
164.4132827535
 31
0.0
  0
LINE
  5
E9
330
1F
100
AcDbEntity
  8
0
  6
Continuous
 62
     7
370
    18
100
AcDbLine
 10
169.6778948905
 20
160.4132827963
 30
0.0
 11
169.7778518798
 21
160.4132827963
 31
0.0
  0
SPLINE
  5
EA
330
1F
100
AcDbEntity
  8
0
  6
Continuous
 62
     7
370
    18
100
AcDbSpline
210
0.0
220
0.0
230
1.0
 70
     8
 71
     3
 72
    13
 73
     9
 74
     0
 42
0.000000001
 43
0.00000001
 40
0.0
 40
0.0
 40
0.0
 40
0.0
 40
0.2394563032678542
 40
0.3683604225887545
 40
0.4999997202962614
 40
0.6316388735249949
 40
0.7605425365848819
 40
1.0
 40
1.0
 40
1.0
 40
1.0
 10
116.8278943301797
 20
155.1132827192111
 30
0.0
 10
116.8319013552776
 20
155.1510216250573
 30
0.0
 10
116.8380654421621
 20
155.2090761390368
 30
0.0
 10
116.8754753318831
 20
155.278920680046
 30
0.0
 10
116.9141937707824
 20
155.3269826830645
 30
0.0
 10
116.9622552009224
 20
155.3657019153677
 30
0.0
 10
117.0321003518675
 20
155.4031108239631
 30
0.0
 10
117.0901548283568
 20
155.4092753517707
 30
0.0
 10
117.12789382056
 20
155.4132826752527
 30
0.0
  0
SPLINE
  5
EB
330
1F
100
AcDbEntity
  8
0
  6
Continuous
 62
     7
370
    18
100
AcDbSpline
210
0.0
220
0.0
230
1.0
 70
     8
 71
     3
 72
    13
 73
     9
 74
     0
 42
0.000000001
 43
0.00000001
 40
0.0
 40
0.0
 40
0.0
 40
0.0
 40
0.2394564935611597
 40
0.368360159018829
 40
0.5000000845641064
 40
0.631639384720282
 40
0.760543506438973
 40
1.0
 40
1.0
 40
1.0
 40
1.0
 10
112.2278937624455
 20
155.4132826752527
 30
0.0
 10
112.2656326061483
 20
155.4092753427925
 30
0.0
 10
112.3236869368571
 20
155.4031107923961
 30
0.0
 10
112.3935319558457
 20
155.3657017733059
 30
0.0
 10
112.4415937947832
 20
155.3269828537862
 30
0.0
 10
112.4803122478578
 20
155.2789206628186
 30
0.0
 10
112.5177221004391
 20
155.2090761109318
 30
0.0
 10
112.5238864933593
 20
155.1510216201965
 30
0.0
 10
112.5278937184871
 20
155.1132827192111
 30
0.0
  0
LWPOLYLINE
  5
EC
330
1F
100
AcDbEntity
  8
0
  6
Continuous
 62
     7
370
    18
100
AcDbPolyline
 90
        3
 70
   128
 43
0.0
 10
165.1206355096
 20
172.2340272866
 10
164.8067760767
 20
171.6904105745
 10
164.5601767601
 20
171.2632827587
  0
LWPOLYLINE
  5
ED
330
1F
100
AcDbEntity
  8
0
  6
Continuous
 62
     7
370
    18
100
AcDbPolyline
 90
        3
 70
   128
 43
0.0
 10
166.9997166397
 20
152.5925384961
 10
167.3135723473
 20
153.1361552082
 10
167.5601753892
 20
153.5632830239
  0
LWPOLYLINE
  5
EE
330
1F
100
AcDbEntity
  8
0
  6
Continuous
 62
     7
370
    18
100
AcDbPolyline
 90
        3
 70
   128
 43
0.0
 10
164.5601767601
 20
153.5632830239
 10
164.8740324678
 20
153.0196663118
 10
165.1206355096
 20
152.5925384961
  0
LWPOLYLINE
  5
EF
330
1F
100
AcDbEntity
  8
0
  6
Continuous
 62
     7
370
    18
100
AcDbPolyline
 90
        3
 70
   128
 43
0.0
 10
167.5601753892
 20
171.2632827587
 10
167.2463159563
 20
171.8068994708
 10
166.9997166397
 20
172.2340272866
  0
SPLINE
  5
F0
330
1F
100
AcDbEntity
  8
0
  6
Continuous
 62
     7
370
    18
100
AcDbSpline
210
0.0
220
0.0
230
1.0
 70
     8
 71
     3
 72
    25
 73
    21
 74
     0
 42
0.000000001
 43
0.00000001
 40
0.0
 40
0.0
 40
0.0
 40
0.0
 40
0.0592675666083746
 40
0.1149059988721643
 40
0.166931200774105
 40
0.2153096803036472
 40
0.2740364774135142
 40
0.326134703850344
 40
0.3715922448733827
 40
0.4272195736769016
 40
0.4687432246239018
 40
0.550998081720176
 40
0.6424200106023474
 40
0.6919437168857675
 40
0.7443243045615308
 40
0.7997585437508923
 40
0.8589163821958571
 40
0.9249527876132392
 40
0.9613565650647664
 40
1.0
 40
1.0
 40
1.0
 40
1.0
 10
118.726247318244
 20
166.6125712111159
 30
0.0
 10
118.7646115171917
 20
166.4254883195644
 30
0.0
 10
118.8389907578671
 20
166.0627781940137
 30
0.0
 10
118.9472204381486
 20
165.4451891797235
 30
0.0
 10
119.0483827833687
 20
164.8239106610421
 30
0.0
 10
119.1515537177873
 20
164.1535673191347
 30
0.0
 10
119.2549262186134
 20
163.4551856614034
 30
0.0
 10
119.3565189013882
 20
162.7545032840813
 30
0.0
 10
119.4560858868565
 20
162.0657446819845
 30
0.0
 10
119.5488606339011
 20
161.4307713725337
 30
0.0
 10
119.6654159471287
 20
160.6538266436698
 30
0.0
 10
119.8059991001671
 20
159.7642520395413
 30
0.0
 10
119.9519444602524
 20
158.9493337647161
 30
0.0
 10
120.0803027513034
 20
158.3352490205441
 30
0.0
 10
120.1885342649801
 20
157.888339722615
 30
0.0
 10
120.3109079327574
 20
157.4861301726615
 30
0.0
 10
120.4470404601076
 20
157.1401326791668
 30
0.0
 10
120.6458998648459
 20
156.8524942097652
 30
0.0
 10
120.892103463496
 20
156.6873566852695
 30
0.0
 10
121.0505887492667
 20
156.6696467774049
 30
0.0
 10
121.1321962551833
 20
156.6605275623067
 30
0.0
  0
LWPOLYLINE
  5
F1
330
1F
100
AcDbEntity
  8
0
  6
Continuous
 62
     7
370
    18
100
AcDbPolyline
 90
       30
 70
   128
 43
0.0
 10
123.4383306952
 20
167.6926008552
 10
123.4256889226
 20
167.6923661619
 10
123.4654861988
 20
167.5805711314
 10
123.5196984859
 20
167.4225121863
 10
123.5736052992
 20
167.2434621617
 10
123.6369873883
 20
167.0032782606
 10
123.7101204248
 20
166.6889475785
 10
123.792918727
 20
166.2887838795
 10
123.8853003384
 20
165.7936560116
 10
123.9852796795
 20
165.2089032471
 10
124.078400761
 20
164.6267940416
 10
124.1615734549
 20
164.0828252896
 10
124.2568011881
 20
163.440019813
 10
124.33391656
 20
162.9100909816
 10
124.3977214696
 20
162.4691672953
 10
124.4756489547
 20
161.9320978246
 10
124.5720594676
 20
161.2772435076
 10
124.687180251
 20
160.5217256477
 10
124.7859656365
 20
159.9067455284
 10
124.8917769195
 20
159.2927869536
 10
124.990126446
 20
158.7729885835
 10
125.0796507599
 20
158.3494130648
 10
125.185450867
 20
157.9152719244
 10
125.2759512068
 20
157.6037012167
 10
125.3667383941
 20
157.3482906572
 10
125.4769343437
 20
157.1130041159
 10
125.6419814678
 20
156.8807122424
 10
125.8599891813
 20
156.7205689974
 10
126.1314119698
 20
156.6619091793
 10
126.1314119698
 20
156.6619091793
  0
SPLINE
  5
F2
330
1F
100
AcDbEntity
  8
0
  6
Continuous
 62
     7
370
    18
100
AcDbSpline
210
0.0
220
0.0
230
1.0
 70
     8
 71
     3
 72
    33
 73
    29
 74
     0
 42
0.000000001
 43
0.00000001
 40
0.0
 40
0.0
 40
0.0
 40
0.0
 40
0.0248399941030678
 40
0.0745863052988177
 40
0.1085446730944058
 40
0.1332102419573508
 40
0.1614338392640412
 40
0.1934894355158008
 40
0.2293838548194078
 40
0.2691192023209421
 40
0.3116775056754967
 40
0.3511102187452729
 40
0.3864281235114915
 40
0.4270375708049466
 40
0.4602078783080815
 40
0.4887098535539493
 40
0.523987330246068
 40
0.5673133078099127
 40
0.6187236753061599
 40
0.6620223061976186
 40
0.7034274717389248
 40
0.7414661456782746
 40
0.7761133990816123
 40
0.8351160328980475
 40
0.885805967876478
 40
0.940592387538975
 40
0.9696850598480026
 40
1.0
 40
1.0
 40
1.0
 40
1.0
 10
128.4373703898549
 20
167.693759886132
 30
0.0
 10
128.4371470674828
 20
167.6860625514943
 30
0.0
 10
128.4364765040936
 20
167.6629499956341
 30
0.0
 10
128.485398702237
 20
167.5363015557081
 30
0.0
 10
128.5506608673949
 20
167.3285558110537
 30
0.0
 10
128.6189171615361
 20
167.0800634498559
 30
0.0
 10
128.6838363724511
 20
166.8107948469074
 30
0.0
 10
128.7589622076689
 20
166.4638749832691
 30
0.0
 10
128.8433936705444
 20
166.0312227939837
 30
0.0
 10
128.9366504245315
 20
165.5073783325053
 30
0.0
 10
129.0330055494806
 20
164.920883606965
 30
0.0
 10
129.1258987813188
 20
164.3218380583387
 30
0.0
 10
129.2173087025824
 20
163.7105822809622
 30
0.0
 10
129.3038909743682
 20
163.1177281214463
 30
0.0
 10
129.3851380553994
 20
162.5561564815645
 30
0.0
 10
129.4621420772642
 20
162.0244771449634
 30
0.0
 10
129.5472451845547
 20
161.4421753926299
 30
0.0
 10
129.6506556526413
 20
160.7512987963753
 30
0.0
 10
129.7607522741294
 20
160.0505681525925
 30
0.0
 10
129.8694826648073
 20
159.4088005725451
 30
0.0
 10
129.9680225928953
 20
158.8773366979615
 30
0.0
 10
130.0602607228688
 20
158.42965997556
 30
0.0
 10
130.1683815078438
 20
157.9652015688861
 30
0.0
 10
130.2881703607173
 20
157.5412196603916
 30
0.0
 10
130.4416585762914
 20
157.1517990116139
 30
0.0
 10
130.6140137925905
 20
156.8833163609352
 30
0.0
 10
130.8580397920647
 20
156.6970388776815
 30
0.0
 10
131.0390655925835
 20
156.6731181648188
 30
0.0
 10
131.1314407290578
 20
156.6609117328687
 30
0.0
  0
SPLINE
  5
F3
330
1F
100
AcDbEntity
  8
0
  6
Continuous
 62
     7
370
    18
100
AcDbSpline
210
0.0
220
0.0
230
1.0
 70
     8
 71
     3
 72
    11
 73
     7
 74
     0
 42
0.000000001
 43
0.00000001
 40
0.0
 40
0.0
 40
0.0
 40
0.0
 40
0.0417022957272322
 40
0.5278979040604979
 40
0.9485286012681654
 40
1.0
 40
1.0
 40
1.0
 40
1.0
 10
131.3822719754339
 20
159.5132829281999
 30
0.0
 10
131.3785253694381
 20
159.4911290529548
 30
0.0
 10
131.3310981135043
 20
159.2106892329221
 30
0.0
 10
131.2476672775996
 20
158.8018209529779
 30
0.0
 10
131.1630859102616
 20
158.406833385969
 30
0.0
 10
131.1244190803155
 20
158.2661917728759
 30
0.0
 10
131.1202033908725
 20
158.2508581816716
 30
0.0
  0
SPLINE
  5
F4
330
1F
100
AcDbEntity
  8
0
  6
Continuous
 62
     7
370
    18
100
AcDbSpline
210
0.0
220
0.0
230
1.0
 70
     8
 71
     3
 72
    17
 73
    13
 74
     0
 42
0.000000001
 43
0.00000001
 40
0.0
 40
0.0
 40
0.0
 40
0.0
 40
0.0801943861426701
 40
0.203323073406972
 40
0.3191214360215038
 40
0.4067823497366836
 40
0.4922907622657274
 40
0.5963753684803356
 40
0.6869215688324324
 40
0.7881317494950177
 40
0.8999441748797876
 40
1.0
 40
1.0
 40
1.0
 40
1.0
 10
128.6307427586675
 20
168.659996347086
 30
0.0
 10
128.5374869060765
 20
168.6468746783151
 30
0.0
 10
128.3010480794451
 20
168.6136062894533
 30
0.0
 10
128.0840127256731
 20
168.3955781866225
 30
0.0
 10
127.9306751712591
 20
168.1349585440808
 30
0.0
 10
127.8214815741773
 20
167.8610811490551
 30
0.0
 10
127.7333849301052
 20
167.5870591188318
 30
0.0
 10
127.6444177391303
 20
167.2562233834464
 30
0.0
 10
127.5528846379899
 20
166.8580639859065
 30
0.0
 10
127.4597448393619
 20
166.4004563981107
 30
0.0
 10
127.3644187544684
 20
165.8840244786179
 30
0.0
 10
127.3001654901241
 20
165.4963595343113
 30
0.0
 10
127.2698215694786
 20
165.3132828544392
 30
0.0
  0
SPLINE
  5
F5
330
1F
100
AcDbEntity
  8
0
  6
Continuous
 62
     7
370
    18
100
AcDbSpline
210
0.0
220
0.0
230
1.0
 70
     8
 71
     3
 72
    11
 73
     7
 74
     0
 42
0.000000001
 43
0.00000001
 40
0.0
 40
0.0
 40
0.0
 40
0.0
 40
0.2368166360760305
 40
0.5561549158810657
 40
0.8413747280605864
 40
0.9999999999999999
 40
0.9999999999999999
 40
0.9999999999999999
 40
0.9999999999999999
 10
126.3820066602588
 20
159.5132829281999
 30
0.0
 10
126.3610439761434
 20
159.3958988569088
 30
0.0
 10
126.3118139050891
 20
159.1202268037268
 30
0.0
 10
126.237892422119
 20
158.7567968383716
 30
0.0
 10
126.1712288059794
 20
158.4537675584756
 30
0.0
 10
126.1331502003169
 20
158.305556590871
 30
0.0
 10
126.1195413322807
 20
158.2525876476927
 30
0.0
  0
SPLINE
  5
F6
330
1F
100
AcDbEntity
  8
0
  6
Continuous
 62
     7
370
    18
100
AcDbSpline
210
0.0
220
0.0
230
1.0
 70
     8
 71
     3
 72
    14
 73
    10
 74
     0
 42
0.000000001
 43
0.00000001
 40
0.0
 40
0.0
 40
0.0
 40
0.0
 40
0.1300795463238862
 40
0.2808901039306589
 40
0.445269662404857
 40
0.5797811845780878
 40
0.7102963118392082
 40
0.8500856926061752
 40
1.0
 40
1.0
 40
1.0
 40
1.0
 10
123.6325878204465
 20
168.6591111249788
 30
0.0
 10
123.5353171620842
 20
168.6451540674933
 30
0.0
 10
123.3252736455673
 20
168.615015591165
 30
0.0
 10
123.1159938077997
 20
168.4275654445632
 30
0.0
 10
122.9622583984675
 20
168.198048995207
 30
0.0
 10
122.8389440090797
 20
167.9135160522379
 30
0.0
 10
122.7484855959042
 20
167.6371589799256
 30
0.0
 10
122.659431366374
 20
167.3182240461704
 30
0.0
 10
122.5989117467909
 20
167.0513719078261
 30
0.0
 10
122.5675943793416
 20
166.9132826976044
 30
0.0
  0
SPLINE
  5
F7
330
1F
100
AcDbEntity
  8
0
  6
Continuous
 62
     7
370
    18
100
AcDbSpline
210
0.0
220
0.0
230
1.0
 70
     8
 71
     3
 72
    13
 73
     9
 74
     0
 42
0.000000001
 43
0.00000001
 40
0.0
 40
0.0
 40
0.0
 40
0.0
 40
0.158253815268199
 40
0.3462526004098663
 40
0.5547052918044155
 40
0.7263112815791007
 40
0.8939325982913552
 40
1.0
 40
1.0
 40
1.0
 40
1.0
 10
121.109077103591
 20
156.6605196460648
 30
0.0
 10
121.2061100789165
 20
156.6746548570698
 30
0.0
 10
121.4184140917771
 20
156.7055820960722
 30
0.0
 10
121.6265515946269
 20
156.8958116664264
 30
0.0
 10
121.7819680768339
 20
157.1305007251464
 30
0.0
 10
121.9075284340434
 20
157.4267829169986
 30
0.0
 10
121.9877581228772
 20
157.6680186228502
 30
0.0
 10
122.0345175978913
 20
157.8447794051658
 30
0.0
 10
122.0526391194821
 20
157.9132826193733
 30
0.0
  0
LINE
  5
F8
330
1F
100
AcDbEntity
  8
0
  6
Continuous
 62
     7
370
    18
100
AcDbLine
 10
123.565622002
 20
166.845239339
 30
0.0
 11
123.6200615318
 21
167.0674165837
 31
0.0
  0
SPLINE
  5
F9
330
1F
100
AcDbEntity
  8
0
  6
Continuous
 62
     7
370
    18
100
AcDbSpline
210
0.0
220
0.0
230
1.0
 70
     8
 71
     3
 72
    18
 73
    14
 74
     0
 42
0.000000001
 43
0.00000001
 40
0.0
 40
0.0
 40
0.0
 40
0.0
 40
0.099550688926114
 40
0.2264208957997287
 40
0.3252472646254911
 40
0.4152471001738637
 40
0.488525632958375
 40
0.5689882599893207
 40
0.6432495432914034
 40
0.7285489524443435
 40
0.8248093073181414
 40
0.9319672223985038
 40
1.0
 40
1.0
 40
1.0
 40
1.0
 10
126.1082946808696
 20
156.6618956751688
 30
0.0
 10
126.2073551370389
 20
156.6768483672569
 30
0.0
 10
126.4326610336242
 20
156.7108571920448
 30
0.0
 10
126.620580003681
 20
156.8941869850603
 30
0.0
 10
126.7654400912412
 20
157.1087678383345
 30
0.0
 10
126.8690527629603
 20
157.3317347393789
 30
0.0
 10
126.9553056779084
 20
157.5687540241682
 30
0.0
 10
127.0245265448897
 20
157.7993747990797
 30
0.0
 10
127.0917874824097
 20
158.0539046352588
 30
0.0
 10
127.1638608420728
 20
158.3581906324505
 30
0.0
 10
127.24418409239
 20
158.737881630605
 30
0.0
 10
127.3194670900852
 20
159.1255269723566
 30
0.0
 10
127.3677912687694
 20
159.4048225288938
 30
0.0
 10
127.3865572662712
 20
159.5132829281999
 30
0.0
  0
SPLINE
  5
FA
330
1F
100
AcDbEntity
  8
0
  6
Continuous
 62
     7
370
    18
100
AcDbSpline
210
0.0
220
0.0
230
1.0
 70
     8
 71
     3
 72
    11
 73
     7
 74
     0
 42
0.000000001
 43
0.00000001
 40
0.0
 40
0.0
 40
0.0
 40
0.0
 40
0.2695051377315469
 40
0.5434500310895113
 40
0.7915855794820776
 40
1.0
 40
1.0
 40
1.0
 40
1.0
 10
128.2724089475036
 20
165.3132828544392
 30
0.0
 10
128.3040788095195
 20
165.5001821790266
 30
0.0
 10
128.3679402543958
 20
165.8770597577347
 30
0.0
 10
128.4602004788161
 20
166.3612862627361
 30
0.0
 10
128.5446989430715
 20
166.7652831877748
 30
0.0
 10
128.5963471717042
 20
166.974463467657
 30
0.0
 10
128.6199245156408
 20
167.0699539720578
 30
0.0
  0
SPLINE
  5
FB
330
1F
100
AcDbEntity
  8
0
  6
Continuous
 62
     7
370
    18
100
AcDbSpline
210
0.0
220
0.0
230
1.0
 70
     8
 71
     3
 72
    17
 73
    13
 74
     0
 42
0.000000001
 43
0.00000001
 40
0.0
 40
0.0
 40
0.0
 40
0.0
 40
0.0607727257803173
 40
0.1133871318686683
 40
0.1580022444598174
 40
0.2021114478090601
 40
0.294476745069702
 40
0.4271342062834962
 40
0.5926015520316062
 40
0.7341452667364994
 40
0.8907231569244476
 40
1.0
 40
1.0
 40
1.0
 40
1.0
 10
131.1083495171428
 20
156.6609606273039
 30
0.0
 10
131.1758890872262
 20
156.6664989816575
 30
0.0
 10
131.3019015054792
 20
156.6768322044539
 30
0.0
 10
131.4512395450608
 20
156.7516599483238
 30
0.0
 10
131.5613436732233
 20
156.8369233359513
 30
0.0
 10
131.6603316819358
 20
156.9441277997957
 30
0.0
 10
131.7645956038952
 20
157.1018378405481
 30
0.0
 10
131.8981647220069
 20
157.393759149395
 30
0.0
 10
132.0323841622744
 20
157.814487759366
 30
0.0
 10
132.1667772220223
 20
158.3630583531479
 30
0.0
 10
132.2815365518558
 20
158.9162732377673
 30
0.0
 10
132.355091154715
 20
159.3393723902157
 30
0.0
 10
132.3853250147462
 20
159.5132829281999
 30
0.0
  0
LWPOLYLINE
  5
FC
330
1F
100
AcDbEntity
  8
0
  6
Continuous
 62
     7
370
    18
100
AcDbPolyline
 90
       26
 70
   128
 43
0.0
 10
131.330402896
 20
157.6035163492
 10
131.3007030191
 20
157.6776486948
 10
131.1967469306
 20
157.9712737478
 10
131.1296712162
 20
158.2116960674
 10
131.0533493312
 20
158.5274125576
 10
130.968125865
 20
158.9272149033
 10
130.8743174674
 20
159.4184347089
 10
130.7740177514
 20
159.9955017339
 10
130.680559531
 20
160.573648511
 10
130.5709261002
 20
161.2893751483
 10
130.4786804618
 20
161.9129899084
 10
130.4039772154
 20
162.4262481821
 10
130.3236729951
 20
162.980787911
 10
130.2194784881
 20
163.6956951009
 10
130.0910882206
 20
164.5528533157
 10
129.9786850365
 20
165.2654564134
 10
129.8631935866
 20
165.944660421
 10
129.7556817086
 20
166.5170873642
 10
129.6557675602
 20
166.9895570851
 10
129.5336264671
 20
167.4803421959
 10
129.4231101425
 20
167.8363542199
 10
129.3164960595
 20
168.1002905719
 10
129.0640722515
 20
168.4693443715
 10
128.8637652548
 20
168.6060280665
 10
128.6076776238
 20
168.6599982097
 10
128.6076776238
 20
168.6599982097
  0
SPLINE
  5
FD
330
1F
100
AcDbEntity
  8
0
  6
Continuous
 62
     7
370
    18
100
AcDbSpline
210
0.0
220
0.0
230
1.0
 70
     8
 71
     3
 72
    36
 73
    32
 74
     0
 42
0.000000001
 43
0.00000001
 40
0.0
 40
0.0
 40
0.0
 40
0.0
 40
0.0019136728478927
 40
0.0330048194471367
 40
0.0601305324811652
 40
0.0830809345447908
 40
0.1070310179798135
 40
0.1353781310155403
 40
0.1681395647851936
 40
0.2053357836804425
 40
0.2470087383807673
 40
0.2923149357224125
 40
0.3342564505786847
 40
0.3824872799585681
 40
0.421915135917323
 40
0.452482831479996
 40
0.4828637249217326
 40
0.5205864312899134
 40
0.5656822457288541
 40
0.6044080793979018
 40
0.6470185822865848
 40
0.687855559232132
 40
0.7249192266995093
 40
0.7582004745403634
 40
0.7876971922411126
 40
0.8133913498409135
 40
0.8406320794559466
 40
0.8785893420620449
 40
0.9255149686787641
 40
0.9667797305358297
 40
1.0
 40
1.0
 40
1.0
 40
1.0
 10
126.3237617464424
 20
157.6052257917388
 30
0.0
 10
126.3248315654661
 20
157.6047290948645
 30
0.0
 10
126.3432825686022
 20
157.5961626407428
 30
0.0
 10
126.3122310007334
 20
157.6385828609582
 30
0.0
 10
126.2842095784767
 20
157.7175383568072
 30
0.0
 10
126.2340608520008
 20
157.8520712547272
 30
0.0
 10
126.1788441412956
 20
158.0295151722881
 30
0.0
 10
126.1149230911263
 20
158.2642001377314
 30
0.0
 10
126.0393964242935
 20
158.5814599340569
 30
0.0
 10
125.9525100237847
 20
158.9957193383079
 30
0.0
 10
125.8550495972382
 20
159.5164217060625
 30
0.0
 10
125.7533353739265
 20
160.1136530044596
 30
0.0
 10
125.6462918652441
 20
160.7875981434524
 30
0.0
 10
125.5435589731154
 20
161.4686606447264
 30
0.0
 10
125.4497878921202
 20
162.1094827945088
 30
0.0
 10
125.3701572829435
 20
162.659624974314
 30
0.0
 10
125.2918801091568
 20
163.2010474514949
 30
0.0
 10
125.2019890811082
 20
163.8177753744179
 30
0.0
 10
125.1052706393275
 20
164.4651428041934
 30
0.0
 10
125.0046022799658
 20
165.1105039204903
 30
0.0
 10
124.9072479879179
 20
165.7003373516121
 30
0.0
 10
124.8109578237536
 20
166.2399289461776
 30
0.0
 10
124.7216193105111
 20
166.6952931991316
 30
0.0
 10
124.6409396524952
 20
167.0642837122782
 30
0.0
 10
124.5684301661785
 20
167.3590430946242
 30
0.0
 10
124.5011013290212
 20
167.6021811044855
 30
0.0
 10
124.4204029026565
 20
167.8572226223913
 30
0.0
 10
124.2993275884245
 20
168.1576279010733
 30
0.0
 10
124.1372015751167
 20
168.414320621321
 30
0.0
 10
123.9265267614677
 20
168.6123519037096
 30
0.0
 10
123.7072520093337
 20
168.6446898303463
 30
0.0
 10
123.6094556303382
 20
168.6591125219627
 30
0.0
  0
SPLINE
  5
FE
330
1F
100
AcDbEntity
  8
0
  6
Continuous
 62
     7
370
    18
100
AcDbSpline
210
0.0
220
0.0
230
1.0
 70
     8
 71
     3
 72
    25
 73
    21
 74
     0
 42
0.000000001
 43
0.00000001
 40
0.0
 40
0.0
 40
0.0
 40
0.0
 40
0.0038058833114456
 40
0.040651643566619
 40
0.0833276252118789
 40
0.1164449961520697
 40
0.1420545649594098
 40
0.2260226900829014
 40
0.2733955243111647
 40
0.3243143001580051
 40
0.3803764999268188
 40
0.4443746400136607
 40
0.5164542220274363
 40
0.5966451259988592
 40
0.6849554353042969
 40
0.7815437724317742
 40
0.8330277080310946
 40
0.8865821311036267
 40
0.9422240232772474
 40
1.0
 40
1.0
 40
1.0
 40
1.0
 10
121.313220217979
 20
157.6180808372362
 30
0.0
 10
121.3142423861484
 20
157.6178665634271
 30
0.0
 10
121.3251604339932
 20
157.6155778483509
 30
0.0
 10
121.3042778576585
 20
157.6548218299438
 30
0.0
 10
121.2777820293386
 20
157.7323842421992
 30
0.0
 10
121.2344068549464
 20
157.8518667998709
 30
0.0
 10
121.1572476219965
 20
158.0970518073228
 30
0.0
 10
121.0705040253907
 20
158.4390937379364
 30
0.0
 10
120.9675006774233
 20
158.923741922445
 30
0.0
 10
120.8795050229068
 20
159.3829957883765
 30
0.0
 10
120.7814906915316
 20
159.9427374621105
 30
0.0
 10
120.6711575672877
 20
160.6254086505263
 30
0.0
 10
120.5468329656984
 20
161.4446275930062
 30
0.0
 10
120.4083306617843
 20
162.3944558104763
 30
0.0
 10
120.2553481779899
 20
163.4555482451369
 30
0.0
 10
120.1187650956065
 20
164.3789637453268
 30
0.0
 10
120.0024483497041
 20
165.1239348730971
 30
0.0
 10
119.9096171614719
 20
165.6862523687574
 30
0.0
 10
119.8130759884154
 20
166.2324127105465
 30
0.0
 10
119.7475058991599
 20
166.5578833968715
 30
0.0
 10
119.7141039671064
 20
166.7236807882352
 30
0.0
  0
SPLINE
  5
FF
330
1F
100
AcDbEntity
  8
0
  6
Continuous
 62
     7
370
    18
100
AcDbSpline
210
0.0
220
0.0
230
1.0
 70
     8
 71
     3
 72
    11
 73
     7
 74
     0
 42
0.000000001
 43
0.00000001
 40
0.0
 40
0.0
 40
0.0
 40
0.0
 40
0.2547235730929802
 40
0.4937327979226471
 40
0.7112595695633265
 40
1.0
 40
1.0
 40
1.0
 40
1.0
 10
133.2721154691339
 20
165.3132828544392
 30
0.0
 10
133.3023068620104
 20
165.4915333673911
 30
0.0
 10
133.3608270872768
 20
165.8370378035225
 30
0.0
 10
133.4442262162582
 20
166.2797622287623
 30
0.0
 10
133.5309639204613
 20
166.7082318549105
 30
0.0
 10
133.5880327828515
 20
166.9362735141992
 30
0.0
 10
133.6205809862972
 20
167.0663329898877
 30
0.0
  0
SPLINE
  5
100
330
1F
100
AcDbEntity
  8
0
  6
Continuous
 62
     7
370
    18
100
AcDbSpline
210
0.0
220
0.0
230
1.0
 70
     8
 71
     3
 72
    13
 73
     9
 74
     0
 42
0.000000001
 43
0.00000001
 40
0.0
 40
0.0
 40
0.0
 40
0.0
 40
0.1178621444944548
 40
0.2847634038487993
 40
0.4442681923617979
 40
0.6477552510763493
 40
0.8418615295781772
 40
1.0
 40
1.0
 40
1.0
 40
1.0
 10
136.1083317102552
 20
156.6620279229744
 30
0.0
 10
136.2183399596747
 20
156.6800510563177
 30
0.0
 10
136.4841277890963
 20
156.7235962405742
 30
0.0
 10
136.7354062063134
 20
157.0336874108057
 30
0.0
 10
136.9098267759842
 20
157.4214657621617
 30
0.0
 10
137.0867922639632
 20
158.0079189058183
 30
0.0
 10
137.2452955208301
 20
158.7206715179305
 30
0.0
 10
137.3425388131027
 20
159.26769813758
 30
0.0
 10
137.3861956895948
 20
159.5132829281999
 30
0.0
  0
SPLINE
  5
101
330
1F
100
AcDbEntity
  8
0
  6
Continuous
 62
     7
370
    18
100
AcDbSpline
210
0.0
220
0.0
230
1.0
 70
     8
 71
     3
 72
    10
 73
     6
 74
     0
 42
0.000000001
 43
0.00000001
 40
0.0
 40
0.0
 40
0.0
 40
0.0
 40
0.4192993942140827
 40
0.8441031945642737
 40
1.0
 40
1.0
 40
1.0
 40
1.0
 10
138.2730010451436
 20
165.3132828544392
 30
0.0
 10
138.3222108991162
 20
165.5995597267965
 30
0.0
 10
138.4212766156791
 20
166.1758716075701
 30
0.0
 10
138.5393718663398
 20
166.7588258619892
 30
0.0
 10
138.6033207458768
 20
166.9930723899943
 30
0.0
 10
138.6204886736036
 20
167.0559589877291
 30
0.0
  0
SPLINE
  5
102
330
1F
100
AcDbEntity
  8
0
  6
Continuous
 62
     7
370
    18
100
AcDbSpline
210
0.0
220
0.0
230
1.0
 70
     8
 71
     3
 72
    15
 73
    11
 74
     0
 42
0.000000001
 43
0.00000001
 40
0.0
 40
0.0
 40
0.0
 40
0.0
 40
0.1345814338204367
 40
0.2492941904361407
 40
0.3453320119954385
 40
0.4288285080163807
 40
0.5981556486932493
 40
0.7738275380844942
 40
0.9563656300335047
 40
1.0
 40
1.0
 40
1.0
 40
1.0
 10
141.1094817818761
 20
156.660544326113
 30
0.0
 10
141.2285862066541
 20
156.6811912857668
 30
0.0
 10
141.4492112981655
 20
156.7194370299661
 30
0.0
 10
141.6719524070244
 20
156.9531094089062
 30
0.0
 10
141.8045912510213
 20
157.18384650341
 30
0.0
 10
141.914426978596
 20
157.44735712603
 30
0.0
 10
142.0478928238971
 20
157.8625644279024
 30
0.0
 10
142.1992655255832
 20
158.5096275841226
 30
0.0
 10
142.3115182746153
 20
159.0705233864824
 30
0.0
 10
142.3737772616522
 20
159.4416778709272
 30
0.0
 10
142.385788589871
 20
159.5132829281999
 30
0.0
  0
SPLINE
  5
103
330
1F
100
AcDbEntity
  8
0
  6
Continuous
 62
     7
370
    18
100
AcDbSpline
210
0.0
220
0.0
230
1.0
 70
     8
 71
     3
 72
    10
 73
     6
 74
     0
 42
0.000000001
 43
0.00000001
 40
0.0
 40
0.0
 40
0.0
 40
0.0
 40
0.2510833462353533
 40
0.7197929945551753
 40
0.9999999999999999
 40
0.9999999999999999
 40
0.9999999999999999
 40
0.9999999999999999
 10
143.2746614815355
 20
165.3132828544392
 30
0.0
 10
143.304600357869
 20
165.4946931727946
 30
0.0
 10
143.3904276091498
 20
166.0147510669167
 30
0.0
 10
143.5081791028223
 20
166.6207828126211
 30
0.0
 10
143.5910797111126
 20
166.9399672072674
 30
0.0
 10
143.6220969559312
 20
167.059389980094
 30
0.0
  0
SPLINE
  5
104
330
1F
100
AcDbEntity
  8
0
  6
Continuous
 62
     7
370
    18
100
AcDbSpline
210
0.0
220
0.0
230
1.0
 70
     8
 71
     3
 72
     9
 73
     5
 74
     0
 42
0.000000001
 43
0.00000001
 40
0.0
 40
0.0
 40
0.0
 40
0.0
 40
0.4524352544334731
 40
0.9999999999999999
 40
0.9999999999999999
 40
0.9999999999999999
 40
0.9999999999999999
 10
146.0228267611623
 20
156.7075458481474
 30
0.0
 10
146.0518148785818
 20
156.6951927983273
 30
0.0
 10
146.1158861841121
 20
156.6678893340215
 30
0.0
 10
146.1796059660979
 20
156.6698815033109
 30
0.0
 10
146.2144966723085
 20
156.670972344981
 30
0.0
  0
SPLINE
  5
105
330
1F
100
AcDbEntity
  8
0
  6
Continuous
 62
     7
370
    18
100
AcDbSpline
210
0.0
220
0.0
230
1.0
 70
     8
 71
     3
 72
    33
 73
    29
 74
     0
 42
0.000000001
 43
0.00000001
 40
0.0
 40
0.0
 40
0.0
 40
0.0
 40
0.0504199259473413
 40
0.0913666516008299
 40
0.1228720058307205
 40
0.1491429628135776
 40
0.1782471300360072
 40
0.2103711726062177
 40
0.2454666267038806
 40
0.2817715289523945
 40
0.3249180934406836
 40
0.3616312338273419
 40
0.3918480234489605
 40
0.4162847112407783
 40
0.4437618145777922
 40
0.476853608860522
 40
0.505377398065111
 40
0.5370786501450479
 40
0.5719645089018787
 40
0.6094748137205704
 40
0.6814729365441202
 40
0.7480965397732178
 40
0.8094104311810885
 40
0.8663801813123875
 40
0.8963620301549864
 40
0.9284877724254896
 40
0.9630356818919211
 40
1.0
 40
1.0
 40
1.0
 40
1.0
 10
146.2122801245809
 20
157.6525909952386
 30
0.0
 10
146.2033777166111
 20
157.6572101981488
 30
0.0
 10
146.1872455388639
 20
157.6655807202202
 30
0.0
 10
146.1738282682649
 20
157.7928408751162
 30
0.0
 10
146.1719094832191
 20
157.9259217803404
 30
0.0
 10
146.1619357692412
 20
158.05788579916
 30
0.0
 10
146.1120569519603
 20
158.2667830366486
 30
0.0
 10
146.0433837439533
 20
158.5649334258673
 30
0.0
 10
145.9597572941001
 20
158.9607410839152
 30
0.0
 10
145.8641304554046
 20
159.4667801782419
 30
0.0
 10
145.7675057695918
 20
160.0288392610279
 30
0.0
 10
145.6755876031027
 20
160.602008119035
 30
0.0
 10
145.5991659027955
 20
161.0997064913512
 30
0.0
 10
145.5303483629159
 20
161.5599947163147
 30
0.0
 10
145.4591439684934
 20
162.0452082024326
 30
0.0
 10
145.3845151300912
 20
162.5602937341407
 30
0.0
 10
145.3063404285985
 20
163.1011292001784
 30
0.0
 10
145.2266049553439
 20
163.6493344172977
 30
0.0
 10
145.1392200124509
 20
164.2395194833576
 30
0.0
 10
145.0180394047553
 20
165.0316502613656
 30
0.0
 10
144.8691065606962
 20
165.9363212281453
 30
0.0
 10
144.698379464566
 20
166.8267165581281
 30
0.0
 10
144.5326170760712
 20
167.5064246762072
 30
0.0
 10
144.4013796549537
 20
167.9191509724926
 30
0.0
 10
144.2558846542182
 20
168.2294707219875
 30
0.0
 10
144.1019053133823
 20
168.4458757673289
 30
0.0
 10
143.8885055613391
 20
168.6215562982867
 30
0.0
 10
143.704365955038
 20
168.6462728582793
 30
0.0
 10
143.6091850997568
 20
168.6590487263663
 30
0.0
  0
LWPOLYLINE
  5
106
330
1F
100
AcDbEntity
  8
0
  6
Continuous
 62
     7
370
    18
100
AcDbPolyline
 90
       26
 70
   128
 43
0.0
 10
141.3057226242
 20
157.6322658114
 10
141.312521279
 20
157.6314080633
 10
141.290884793
 20
157.6967221811
 10
141.239863217
 20
157.8326799102
 10
141.1170143189
 20
158.2585457839
 10
140.9731920363
 20
158.9021360162
 10
140.89502427
 20
159.306281352
 10
140.8143009545
 20
159.7583157602
 10
140.6699683072
 20
160.6412685835
 10
140.5890773536
 20
161.1686012368
 10
140.5206661226
 20
161.6273012371
 10
140.4542255701
 20
162.0805130845
 10
140.3698067667
 20
162.6623155792
 10
140.2668024899
 20
163.3723244197
 10
140.1450376512
 20
164.196992748
 10
140.04126969
 20
164.8739516861
 10
139.9315747918
 20
165.5501682438
 10
139.8262012304
 20
166.1489658184
 10
139.7250297965
 20
166.6679606899
 10
139.5956392886
 20
167.2414700627
 10
139.4710357787
 20
167.6896085158
 10
139.3445398213
 20
168.0354244202
 10
139.0707458855
 20
168.4611342974
 10
138.8651508392
 20
168.6046627476
 10
138.6081169845
 20
168.6595288232
 10
138.6081169845
 20
168.6595288232
  0
SPLINE
  5
107
330
1F
100
AcDbEntity
  8
0
  6
Continuous
 62
     7
370
    18
100
AcDbSpline
210
0.0
220
0.0
230
1.0
 70
     8
 71
     3
 72
    28
 73
    24
 74
     0
 42
0.000000001
 43
0.00000001
 40
0.0
 40
0.0
 40
0.0
 40
0.0
 40
0.0152060434169596
 40
0.0445494756757111
 40
0.072424153289193
 40
0.1283644114400926
 40
0.1858320728527886
 40
0.2494723134902087
 40
0.3196807031897285
 40
0.3885642887337385
 40
0.4495087342601096
 40
0.502718478479295
 40
0.5557983703953164
 40
0.6122903286534057
 40
0.6722933371265604
 40
0.7150776517229386
 40
0.7619685987036201
 40
0.8133158845289171
 40
0.8549676142793982
 40
0.8994279075835979
 40
0.9471361646993554
 40
0.9728556677315239
 40
1.0
 40
1.0
 40
1.0
 40
1.0
 10
136.3098345251441
 20
157.6272501736446
 30
0.0
 10
136.3156266385434
 20
157.6248735911538
 30
0.0
 10
136.3325959189745
 20
157.6179108658109
 30
0.0
 10
136.2804462439848
 20
157.7155591019312
 30
0.0
 10
136.2140995464986
 20
157.9102998179735
 30
0.0
 10
136.1102832678141
 20
158.267651222207
 30
0.0
 10
135.9744338838066
 20
158.875256900838
 30
0.0
 10
135.8255992845063
 20
159.6730791298465
 30
0.0
 10
135.6668050289689
 20
160.6476288209481
 30
0.0
 10
135.5097220750387
 20
161.6948299219891
 30
0.0
 10
135.3659798362457
 20
162.6884504192341
 30
0.0
 10
135.2347554539346
 20
163.5956306254802
 30
0.0
 10
135.1068698423827
 20
164.4579794624406
 30
0.0
 10
134.973273883605
 20
165.311171352967
 30
0.0
 10
134.8475885994548
 20
166.0451437618904
 30
0.0
 10
134.7287295624674
 20
166.6651206738412
 30
0.0
 10
134.6113327851732
 20
167.196566723174
 30
0.0
 10
134.4879812817324
 20
167.648327981165
 30
0.0
 10
134.3538483033668
 20
168.0192145797927
 30
0.0
 10
134.2235726104373
 20
168.2916532844142
 30
0.0
 10
134.0600695059327
 20
168.4985568497621
 30
0.0
 10
133.8352095636833
 20
168.6370031635025
 30
0.0
 10
133.6854130964895
 20
168.6519148597593
 30
0.0
 10
133.608496144569
 20
168.659571663992
 30
0.0
  0
SPLINE
  5
108
330
1F
100
AcDbEntity
  8
0
  6
Continuous
 62
     7
370
    18
100
AcDbSpline
210
0.0
220
0.0
230
1.0
 70
     8
 71
     3
 72
    34
 73
    30
 74
     0
 42
0.000000001
 43
0.00000001
 40
0.0
 40
0.0
 40
0.0
 40
0.0
 40
0.0094977788184759
 40
0.0290137975519369
 40
0.0540230869487675
 40
0.0843778991232858
 40
0.1186273872976735
 40
0.1565262796592652
 40
0.1980946123761503
 40
0.2433523596710725
 40
0.2922400194184798
 40
0.3397275208054781
 40
0.3821146291254165
 40
0.4193743850897304
 40
0.4609790329818064
 40
0.4932942627057084
 40
0.524499040668205
 40
0.5535306927282277
 40
0.5874313036721169
 40
0.6262312958526642
 40
0.669571776839378
 40
0.712086585568383
 40
0.7520638387102979
 40
0.8243929939623847
 40
0.856810704688573
 40
0.89275332740145
 40
0.9400750388543699
 40
0.9684763581505683
 40
1.0
 40
1.0
 40
1.0
 40
1.0
 10
133.3919859977127
 20
167.7416787609024
 30
0.0
 10
133.392048817654
 20
167.7411647270362
 30
0.0
 10
133.3922407198972
 20
167.7395944573117
 30
0.0
 10
133.4164773187848
 20
167.6992380800159
 30
0.0
 10
133.4556543149383
 20
167.6120332637308
 30
0.0
 10
133.5129537212196
 20
167.4561187705513
 30
0.0
 10
133.5841695015477
 20
167.2189795041551
 30
0.0
 10
133.6682242802418
 20
166.886978235254
 30
0.0
 10
133.7637174075626
 20
166.4467847859915
 30
0.0
 10
133.8698052293467
 20
165.8910810341103
 30
0.0
 10
133.9819525125826
 20
165.238724287635
 30
0.0
 10
134.0922429139357
 20
164.5441882768044
 30
0.0
 10
134.1933764545159
 20
163.8732305530054
 30
0.0
 10
134.2898605145636
 20
163.214921927798
 30
0.0
 10
134.3784412839517
 20
162.6022230793463
 30
0.0
 10
134.4622259041632
 20
162.0233639884947
 30
0.0
 10
134.53603361392
 20
161.5186628108975
 30
0.0
 10
134.6111783815873
 20
161.0143413303042
 30
0.0
 10
134.6924524742454
 20
160.4837325633213
 30
0.0
 10
134.7853186657755
 20
159.9035612497357
 30
0.0
 10
134.8851806084786
 20
159.3197670660773
 30
0.0
 10
134.9869083990692
 20
158.7793222042888
 30
0.0
 10
135.1132323926974
 20
158.1833328923473
 30
0.0
 10
135.2372030333111
 20
157.7111982035792
 30
0.0
 10
135.3587042106311
 20
157.3592012710831
 30
0.0
 10
135.4843780142936
 20
157.0741155630575
 30
0.0
 10
135.6742097090814
 20
156.8306312235291
 30
0.0
 10
135.906672306302
 20
156.6855483020304
 30
0.0
 10
136.0539969918591
 20
156.6701305467517
 30
0.0
 10
136.1314974279762
 20
156.6620200067325
 30
0.0
  0
SPLINE
  5
109
330
1F
100
AcDbEntity
  8
0
  6
Continuous
 62
     7
370
    18
100
AcDbSpline
210
0.0
220
0.0
230
1.0
 70
     8
 71
     3
 72
    28
 73
    24
 74
     0
 42
0.000000001
 43
0.00000001
 40
0.0
 40
0.0
 40
0.0
 40
0.0
 40
0.0119946354956128
 40
0.0478413967100182
 40
0.082803216453263
 40
0.1516750188018926
 40
0.2188668855482843
 40
0.2830855755362001
 40
0.3428239601898559
 40
0.3979469767692966
 40
0.4503850077696788
 40
0.5095880437982251
 40
0.5768014900475474
 40
0.6483817962900659
 40
0.715468081024941
 40
0.7776501791052085
 40
0.8378033460998108
 40
0.8680700020112563
 40
0.8997349927451356
 40
0.9194024837493279
 40
0.9425772306437306
 40
0.9694504940067523
 40
1.0
 40
1.0
 40
1.0
 40
1.0
 10
138.4393762351633
 20
167.6879312037988
 30
0.0
 10
138.4342901582928
 20
167.6891504482159
 30
0.0
 10
138.4140040044246
 20
167.6940134851849
 30
0.0
 10
138.4715019125532
 20
167.5903308540035
 30
0.0
 10
138.5498965386464
 20
167.3451242057155
 30
0.0
 10
138.6726316540436
 20
166.8846788680451
 30
0.0
 10
138.8252950498917
 20
166.1421730583344
 30
0.0
 10
138.9759991204461
 20
165.2812627981444
 30
0.0
 10
139.116590214624
 20
164.3872313963434
 30
0.0
 10
139.2484563032864
 20
163.5003440940123
 30
0.0
 10
139.380057195298
 20
162.5917046084242
 30
0.0
 10
139.5211974828541
 20
161.6159416830105
 30
0.0
 10
139.6775680778542
 20
160.568256373771
 30
0.0
 10
139.8405223657754
 20
159.5611155518563
 30
0.0
 10
140.0007066387843
 20
158.6972873581359
 30
0.0
 10
140.1528239404512
 20
158.0148751971126
 30
0.0
 10
140.2812454191024
 20
157.5677271661234
 30
0.0
 10
140.3970507881999
 20
157.2690922768948
 30
0.0
 10
140.4777984284572
 20
157.1015594049988
 30
0.0
 10
140.5885771801081
 20
156.9351246239097
 30
0.0
 10
140.7184381696752
 20
156.8014950768138
 30
0.0
 10
140.9011740917562
 20
156.6848334939669
 30
0.0
 10
141.0522130964123
 20
156.6689909067981
 30
0.0
 10
141.1325674058557
 20
156.6605624869032
 30
0.0
  0
LWPOLYLINE
  5
10A
330
1F
100
AcDbEntity
  8
0
  6
Continuous
 62
     7
370
    18
100
AcDbPolyline
 90
       23
 70
   128
 43
0.0
 10
143.4308740796
 20
167.6924974784
 10
143.4261466862
 20
167.6934059836
 10
143.4448513688
 20
167.6347666546
 10
143.492501557
 20
167.5100993491
 10
143.605556667
 20
167.1304848171
 10
143.7361988725
 20
166.5688973046
 10
143.8802558483
 20
165.8218932464
 10
144.0274122657
 20
164.9493517946
 10
144.1654417218
 20
164.0569983176
 10
144.2938375773
 20
163.1862240504
 10
144.4173048736
 20
162.3339069022
 10
144.5598978104
 20
161.3588209623
 10
144.7251032592
 20
160.2809444196
 10
144.8155793847
 20
159.7291830588
 10
144.9053290786
 20
159.218070203
 10
145.0233015718
 20
158.6141517512
 10
145.1420861782
 20
158.0979564353
 10
145.270217538
 20
157.6512699142
 10
145.3953910174
 20
157.3208287485
 10
145.5581824781
 20
157.016797097
 10
145.7679833771
 20
156.7823329135
 10
146.0281576516
 20
156.6705029584
 10
146.0281576516
 20
156.6705029584
  0
SPLINE
  5
10B
330
1F
100
AcDbEntity
  8
0
  6
Continuous
 62
     7
370
    18
100
AcDbSpline
210
0.0
220
0.0
230
1.0
 70
     8
 71
     3
 72
    15
 73
    11
 74
     0
 42
0.000000001
 43
0.00000001
 40
0.0
 40
0.0
 40
0.0
 40
0.0
 40
0.1192373327692882
 40
0.2224611275315802
 40
0.3105201093611766
 40
0.387348033244613
 40
0.5430333760899848
 40
0.7063033404173471
 40
0.8774142411079886
 40
1.0
 40
1.0
 40
1.0
 40
1.0
 10
143.6322930754781
 20
168.6590561769469
 30
0.0
 10
143.5169170915981
 20
168.639976764036
 30
0.0
 10
143.3016600838479
 20
168.6043802976424
 30
0.0
 10
143.0791166975834
 20
168.3819243567805
 30
0.0
 10
142.9417911947275
 20
168.1513928080731
 30
0.0
 10
142.8275028340493
 20
167.8812625835517
 30
0.0
 10
142.6924707173046
 20
167.457546117879
 30
0.0
 10
142.5373078761681
 20
166.7987856828534
 30
0.0
 10
142.3969264391997
 20
166.0796691725837
 30
0.0
 10
142.3078520611177
 20
165.5389662949228
 30
0.0
 10
142.2706733943582
 20
165.3132828544392
 30
0.0
  0
SPLINE
  5
10C
330
1F
100
AcDbEntity
  8
0
  6
Continuous
 62
     7
370
    18
100
AcDbSpline
210
0.0
220
0.0
230
1.0
 70
     8
 71
     3
 72
    11
 73
     7
 74
     0
 42
0.000000001
 43
0.00000001
 40
0.0
 40
0.0
 40
0.0
 40
0.0
 40
0.1999658692121852
 40
0.5532353894946346
 40
0.8872379149738668
 40
0.9999999999999999
 40
0.9999999999999999
 40
0.9999999999999999
 40
0.9999999999999999
 10
141.3817967774034
 20
159.5132829281999
 30
0.0
 10
141.3637532554339
 20
159.4112354484166
 30
0.0
 10
141.31383316185
 20
159.1289058816396
 30
0.0
 10
141.2356299562019
 20
158.742628401357
 30
0.0
 10
141.1659210099236
 20
158.4217740284639
 30
0.0
 10
141.1292888342109
 20
158.2830680709218
 30
0.0
 10
141.1200429798723
 20
158.2480590916736
 30
0.0
  0
SPLINE
  5
10D
330
1F
100
AcDbEntity
  8
0
  6
Continuous
 62
     7
370
    18
100
AcDbSpline
210
0.0
220
0.0
230
1.0
 70
     8
 71
     3
 72
    16
 73
    12
 74
     0
 42
0.000000001
 43
0.00000001
 40
0.0
 40
0.0
 40
0.0
 40
0.0
 40
0.0788170261701442
 40
0.1483971090523133
 40
0.2599692847900118
 40
0.3404839039714333
 40
0.4147782492304019
 40
0.5636511640728149
 40
0.7161272629084509
 40
0.8852770057259371
 40
1.0
 40
1.0
 40
1.0
 40
1.0
 10
138.6312547625661
 20
168.6594999521537
 30
0.0
 10
138.5534433808665
 20
168.6516082473637
 30
0.0
 10
138.4069397044824
 20
168.6367497043148
 30
0.0
 10
138.1826069014881
 20
168.5001607901432
 30
0.0
 10
138.0068153730169
 20
168.2800514646765
 30
0.0
 10
137.9011819997402
 20
168.0603359363823
 30
0.0
 10
137.7930643176584
 20
167.7846843288993
 30
0.0
 10
137.6694896263828
 20
167.3696136433488
 30
0.0
 10
137.5250220218531
 20
166.7392468021708
 30
0.0
 10
137.3919799172345
 20
166.0520803795685
 30
0.0
 10
137.3062343544999
 20
165.5259220213332
 30
0.0
 10
137.2715815456272
 20
165.3132828544392
 30
0.0
  0
SPLINE
  5
10E
330
1F
100
AcDbEntity
  8
0
  6
Continuous
 62
     7
370
    18
100
AcDbSpline
210
0.0
220
0.0
230
1.0
 70
     8
 71
     3
 72
    10
 73
     6
 74
     0
 42
0.000000001
 43
0.00000001
 40
0.0
 40
0.0
 40
0.0
 40
0.0
 40
0.1578000704222796
 40
0.7309927013083812
 40
1.0
 40
1.0
 40
1.0
 40
1.0
 10
136.380816206491
 20
159.5132829281999
 30
0.0
 10
136.3662763348913
 20
159.4289210666242
 30
0.0
 10
136.2989218654737
 20
159.0381233634573
 30
0.0
 10
136.2059114859419
 20
158.5868797077286
 30
0.0
 10
136.1400746166942
 20
158.3380250608181
 30
0.0
 10
136.1190456451536
 20
158.2585383332832
 30
0.0
  0
SPLINE
  5
10F
330
1F
100
AcDbEntity
  8
0
  6
Continuous
 62
     7
370
    18
100
AcDbSpline
210
0.0
220
0.0
230
1.0
 70
     8
 71
     3
 72
    19
 73
    15
 74
     0
 42
0.000000001
 43
0.00000001
 40
0.0
 40
0.0
 40
0.0
 40
0.0
 40
0.0764133318084087
 40
0.1356745662954595
 40
0.1685623428214897
 40
0.2171781082812274
 40
0.2860055306499611
 40
0.3747930353208587
 40
0.4832477643474434
 40
0.6111031538675629
 40
0.7195524085256475
 40
0.8385055763547093
 40
0.9677740712997892
 40
1.0
 40
1.0
 40
1.0
 40
1.0
 10
133.6315705926776
 20
168.6596163674755
 30
0.0
 10
133.5412027513838
 20
168.6487505969593
 30
0.0
 10
133.3807514612171
 20
168.6294580380908
 30
0.0
 10
133.2251031439181
 20
168.5217614603485
 30
0.0
 10
133.135244975931
 20
168.436566914086
 30
0.0
 10
133.0665535059926
 20
168.3515496440921
 30
0.0
 10
132.980928393151
 20
168.2148230082016
 30
0.0
 10
132.8811220949734
 20
168.001466151773
 30
0.0
 10
132.7659496772057
 20
167.6777638292125
 30
0.0
 10
132.6494977186603
 20
167.2565331691307
 30
0.0
 10
132.5331012715864
 20
166.7513257311678
 30
0.0
 10
132.4189340204165
 20
166.1765076742684
 30
0.0
 10
132.3303531445007
 20
165.6877341382554
 30
0.0
 10
132.28045085546
 20
165.3755738849265
 30
0.0
 10
132.2704929412961
 20
165.3132828544392
 30
0.0
  0
LINE
  5
110
330
1F
100
AcDbEntity
  8
0
  6
Continuous
 62
     7
370
    18
100
AcDbLine
 10
168.6778928639
 20
168.4132829435
 30
0.0
 11
167.5601753892
 21
168.4132829435
 31
0.0
  0
LINE
  5
111
330
1F
100
AcDbEntity
  8
0
  6
Continuous
 62
     7
370
    18
100
AcDbLine
 10
161.5601744057
 20
168.4132829435
 30
0.0
 11
151.177894652
 21
168.4132829435
 31
0.0
  0
LINE
  5
112
330
1F
100
AcDbEntity
  8
0
  6
Continuous
 62
     7
370
    18
100
AcDbLine
 10
151.177894652
 20
156.4132828392
 30
0.0
 11
161.5601744057
 21
156.4132828392
 31
0.0
  0
LINE
  5
113
330
1F
100
AcDbEntity
  8
0
  6
Continuous
 62
     7
370
    18
100
AcDbLine
 10
167.5601753892
 20
156.4132828392
 30
0.0
 11
168.6778928639
 21
156.4132828392
 31
0.0
  0
LWPOLYLINE
  5
114
330
1F
100
AcDbEntity
  8
0
  6
Continuous
 62
     7
370
    18
100
AcDbPolyline
 90
        3
 70
   128
 43
0.0
 10
168.6778928639
 20
156.4132828392
 10
169.2379753591
 20
156.9733620747
 10
169.6780364515
 20
157.4134240984
  0
LINE
  5
115
330
1F
100
AcDbEntity
  8
0
  6
Continuous
 62
     7
370
    18
100
AcDbLine
 10
151.177894652
 20
167.9132828615
 30
0.0
 11
149.6778953375
 21
167.9132828615
 31
0.0
  0
LINE
  5
116
330
1F
100
AcDbEntity
  8
0
  6
Continuous
 62
     7
370
    18
100
AcDbLine
 10
149.6778953375
 20
156.9132829211
 30
0.0
 11
151.177894652
 21
156.9132829211
 31
0.0
  0
LWPOLYLINE
  5
117
330
1F
100
AcDbEntity
  8
0
  6
Continuous
 62
     7
370
    18
100
AcDbPolyline
 90
        3
 70
   128
 43
0.0
 10
169.6778948905
 20
167.4132827796
 10
169.1178943516
 20
167.9732828527
 10
168.6778928639
 20
168.4132829435
  0
LINE
  5
118
330
1F
100
AcDbEntity
  8
0
  6
Continuous
 62
     7
370
    18
100
AcDbLine
 10
146.6778929831
 20
166.9132826976
 30
0.0
 11
144.6704830529
 21
166.9132826976
 31
0.0
  0
LINE
  5
119
330
1F
100
AcDbEntity
  8
0
  6
Continuous
 62
     7
370
    18
100
AcDbLine
 10
144.1778953673
 20
157.9132826194
 30
0.0
 11
145.1950598063
 21
157.9132826194
 31
0.0
  0
LINE
  5
11A
330
1F
100
AcDbEntity
  8
0
  6
Continuous
 62
     7
370
    18
100
AcDbLine
 10
146.1710150839
 20
157.9132826194
 30
0.0
 11
146.6778929831
 21
157.9132826194
 31
0.0
  0
LINE
  5
11B
330
1F
100
AcDbEntity
  8
0
  6
Continuous
 62
     7
370
    18
100
AcDbLine
 10
143.7519307734
 20
166.487320432
 30
0.0
 11
143.677894354
 21
166.4132826156
 31
0.0
  0
LWPOLYLINE
  5
11C
330
1F
100
AcDbEntity
  8
0
  6
Continuous
 62
     7
370
    18
100
AcDbPolyline
 90
        3
 70
   128
 43
0.0
 10
143.677894354
 20
158.4132829342
 10
143.9578946234
 20
158.1332828976
 10
144.1778953673
 20
157.9132826194
  0
LINE
  5
11D
330
1F
100
AcDbEntity
  8
0
  6
Continuous
 62
     7
370
    18
100
AcDbLine
 10
169.7778965832
 20
157.9132826194
 30
0.0
 11
170.3778918387
 21
157.9132826194
 31
0.0
  0
LINE
  5
11E
330
1F
100
AcDbEntity
  8
0
  6
Continuous
 62
     7
370
    18
100
AcDbLine
 10
170.3778918387
 20
166.1419203631
 30
0.0
 11
169.7778965832
 21
166.1419203631
 31
0.0
  0
SPLINE
  5
11F
330
1F
100
AcDbEntity
  8
0
  6
Continuous
 62
     7
370
    18
100
AcDbSpline
210
0.0
220
0.0
230
1.0
 70
    24
 71
     3
 72
     8
 73
     4
 74
     0
 42
0.000000001
 43
0.00000001
 40
0.0
 40
0.0
 40
0.0
 40
0.0
 40
1.0
 40
1.0
 40
1.0
 40
1.0
 10
161.560174988176
 20
164.8775271402998
 30
0.0
 10
161.560174988176
 20
166.2522552549947
 30
0.0
 10
161.560174988176
 20
167.509859058429
 30
0.0
 10
161.560174988176
 20
168.5423766161967
 30
0.0
  0
SPLINE
  5
120
330
1F
100
AcDbEntity
  8
0
  6
Continuous
 62
     7
370
    18
100
AcDbSpline
210
0.0
220
0.0
230
1.0
 70
     8
 71
     3
 72
    12
 73
     8
 74
     0
 42
0.000000001
 43
0.00000001
 40
0.0
 40
0.0
 40
0.0
 40
0.0
 40
0.168758790016816
 40
0.3347821315282839
 40
0.4984190143124481
 40
0.7514131734724134
 40
0.9999999999999999
 40
0.9999999999999999
 40
0.9999999999999999
 40
0.9999999999999999
 10
162.117291772317
 20
167.3207601237281
 30
0.0
 10
162.0788203603726
 20
167.1850551518696
 30
0.0
 10
162.0025011280979
 20
166.9158448800179
 30
0.0
 10
161.8977138754204
 20
166.5126173025268
 30
0.0
 10
161.7837936292186
 20
166.0391381587785
 30
0.0
 10
161.6661405920335
 20
165.495563900942
 30
0.0
 10
161.5952893355995
 20
165.0823290452919
 30
0.0
 10
161.560174988176
 20
164.8775271402998
 30
0.0
  0
SPLINE
  5
121
330
1F
100
AcDbEntity
  8
0
  6
Continuous
 62
     7
370
    18
100
AcDbSpline
210
0.0
220
0.0
230
1.0
 70
     8
 71
     3
 72
    12
 73
     8
 74
     0
 42
0.000000001
 43
0.00000001
 40
0.0
 40
0.0
 40
0.0
 40
0.0
 40
0.1644443311829419
 40
0.3305519270949986
 40
0.4988651060836768
 40
0.7465204752797899
 40
1.0
 40
1.0
 40
1.0
 40
1.0
 10
161.560174988176
 20
168.5423766161967
 30
0.0
 10
161.5829265082779
 20
168.474594209418
 30
0.0
 10
161.6286596676999
 20
168.3383438137814
 30
0.0
 10
161.7096203111537
 20
168.1338035992498
 30
0.0
 10
161.8138000065376
 20
167.8962108773126
 30
0.0
 10
161.9466976339351
 20
167.6243696367424
 30
0.0
 10
162.0599881745469
 20
167.4227443863645
 30
0.0
 10
162.117291772317
 20
167.3207601237281
 30
0.0
  0
SPLINE
  5
122
330
1F
100
AcDbEntity
  8
0
  6
Continuous
 62
     7
370
    18
100
AcDbSpline
210
0.0
220
0.0
230
1.0
 70
    24
 71
     3
 72
     8
 73
     4
 74
     0
 42
0.000000001
 43
0.00000001
 40
0.0
 40
0.0
 40
0.0
 40
0.0
 40
1.0
 40
1.0
 40
1.0
 40
1.0
 10
161.5601749881844
 20
156.2841890571476
 30
0.0
 10
161.5601749881844
 20
157.3167066146884
 30
0.0
 10
161.5601749881844
 20
158.5743104179574
 30
0.0
 10
161.5601749881844
 20
159.9490385325627
 30
0.0
  0
SPLINE
  5
123
330
1F
100
AcDbEntity
  8
0
  6
Continuous
 62
     7
370
    18
100
AcDbSpline
210
0.0
220
0.0
230
1.0
 70
     8
 71
     3
 72
    12
 73
     8
 74
     0
 42
0.000000001
 43
0.00000001
 40
0.0
 40
0.0
 40
0.0
 40
0.0
 40
0.1689572582006951
 40
0.3351727945466873
 40
0.4989969118046796
 40
0.7516965879704232
 40
1.0
 40
1.0
 40
1.0
 40
1.0
 10
162.1172917723171
 20
157.5058055491384
 30
0.0
 10
162.0787758697527
 20
157.4378746133541
 30
0.0
 10
162.0023690741261
 20
157.303115078159
 30
0.0
 10
161.8974736156168
 20
157.101268263395
 30
0.0
 10
161.7835634273457
 20
156.8644768858492
 30
0.0
 10
161.6660116805414
 20
156.5928816799803
 30
0.0
 10
161.5952469004424
 20
156.3864828868351
 30
0.0
 10
161.5601749881845
 20
156.2841890571476
 30
0.0
  0
SPLINE
  5
124
330
1F
100
AcDbEntity
  8
0
  6
Continuous
 62
     7
370
    18
100
AcDbSpline
210
0.0
220
0.0
230
1.0
 70
     8
 71
     3
 72
    12
 73
     8
 74
     0
 42
0.000000001
 43
0.00000001
 40
0.0
 40
0.0
 40
0.0
 40
0.0
 40
0.1650881909416596
 40
0.3318533786677282
 40
0.5008439397044389
 40
0.7475316019264285
 40
1.0
 40
1.0
 40
1.0
 40
1.0
 10
161.5601749881844
 20
159.9490385325627
 30
0.0
 10
161.583019246417
 20
159.8129542759003
 30
0.0
 10
161.6289398191388
 20
159.5394033931912
 30
0.0
 10
161.7102778886139
 20
159.1287118055145
 30
0.0
 10
161.8146215063845
 20
158.6531981055113
 30
0.0
 10
161.9473566809685
 20
158.1106355167001
 30
0.0
 10
162.0602110855306
 20
157.7089661186448
 30
0.0
 10
162.1172917723171
 20
157.5058055491384
 30
0.0
  0
SPLINE
  5
125
330
1F
100
AcDbEntity
  8
0
  6
Continuous
 62
     7
370
    18
100
AcDbSpline
210
0.0
220
0.0
230
1.0
 70
     8
 71
     3
 72
    12
 73
     8
 74
     0
 42
0.000000001
 43
0.00000001
 40
0.0
 40
0.0
 40
0.0
 40
0.0
 40
0.1644443311991851
 40
0.3305519271213053
 40
0.4988651061134535
 40
0.7465204753022565
 40
1.0
 40
1.0
 40
1.0
 40
1.0
 10
164.5601749881844
 20
156.2841890586199
 30
0.0
 10
164.537423468083
 20
156.3519714654261
 30
0.0
 10
164.491690308663
 20
156.4882218611151
 30
0.0
 10
164.4107296652108
 20
156.6927620757352
 30
0.0
 10
164.3065499698294
 20
156.9303547977727
 30
0.0
 10
164.1736523424364
 20
157.2021960384552
 30
0.0
 10
164.0603618018217
 20
157.4038212889189
 30
0.0
 10
164.0030582040518
 20
157.5058055515956
 30
0.0
  0
SPLINE
  5
126
330
1F
100
AcDbEntity
  8
0
  6
Continuous
 62
     7
370
    18
100
AcDbSpline
210
0.0
220
0.0
230
1.0
 70
     8
 71
     3
 72
    12
 73
     8
 74
     0
 42
0.000000001
 43
0.00000001
 40
0.0
 40
0.0
 40
0.0
 40
0.0
 40
0.1687587900002083
 40
0.3347821315018052
 40
0.4984190142826856
 40
0.751413173450262
 40
1.0
 40
1.0
 40
1.0
 40
1.0
 10
164.0030582040518
 20
157.5058055515956
 30
0.0
 10
164.041529615996
 20
157.6415105234113
 30
0.0
 10
164.1178488482716
 20
157.9107207951831
 30
0.0
 10
164.2226361009471
 20
158.3139483725651
 30
0.0
 10
164.3365563471482
 20
158.7874275162111
 30
0.0
 10
164.4542093843321
 20
159.3310017739598
 30
0.0
 10
164.525060640762
 20
159.7442366295529
 30
0.0
 10
164.5601749881844
 20
159.949038534523
 30
0.0
  0
SPLINE
  5
127
330
1F
100
AcDbEntity
  8
0
  6
Continuous
 62
   144
370
    18
100
AcDbSpline
210
0.0
220
0.0
230
1.0
 70
    24
 71
     3
 72
     8
 73
     4
 74
     0
 42
0.000000001
 43
0.00000001
 40
0.0
 40
0.0
 40
0.0
 40
0.0
 40
1.0
 40
1.0
 40
1.0
 40
1.0
 10
164.5601749881844
 20
159.949038534523
 30
0.0
 10
164.5601749881844
 20
158.5743104198258
 30
0.0
 10
164.5601749881844
 20
157.3167066163894
 30
0.0
 10
164.5601749881844
 20
156.2841890586199
 30
0.0
  0
SPLINE
  5
128
330
1F
100
AcDbEntity
  8
0
  6
Continuous
 62
     7
370
    18
100
AcDbSpline
210
0.0
220
0.0
230
1.0
 70
     8
 71
     3
 72
    12
 73
     8
 74
     0
 42
0.000000001
 43
0.00000001
 40
0.0
 40
0.0
 40
0.0
 40
0.0
 40
0.1650881909576348
 40
0.3318533786935721
 40
0.5008439397336301
 40
0.7475316019483939
 40
1.0
 40
1.0
 40
1.0
 40
1.0
 10
164.5601749881844
 20
164.8775271422641
 30
0.0
 10
164.5373307299521
 20
165.0136113989132
 30
0.0
 10
164.4914101572315
 20
165.2871622815902
 30
0.0
 10
164.4100720877566
 20
165.6978538692097
 30
0.0
 10
164.3057284699871
 20
166.1733675691222
 30
0.0
 10
164.1729932954055
 20
166.7159301578012
 30
0.0
 10
164.0601388908389
 20
167.1175995557465
 30
0.0
 10
164.0030582040518
 20
167.3207601251914
 30
0.0
  0
SPLINE
  5
129
330
1F
100
AcDbEntity
  8
0
  6
Continuous
 62
     7
370
    18
100
AcDbSpline
210
0.0
220
0.0
230
1.0
 70
     8
 71
     3
 72
    12
 73
     8
 74
     0
 42
0.000000001
 43
0.00000001
 40
0.0
 40
0.0
 40
0.0
 40
0.0
 40
0.1689572581843987
 40
0.3351727945207142
 40
0.4989969117755006
 40
0.751696587948724
 40
1.0
 40
1.0
 40
1.0
 40
1.0
 10
164.0030582040518
 20
167.3207601251914
 30
0.0
 10
164.0415741066164
 20
167.3886910610015
 30
0.0
 10
164.1179809022451
 20
167.5234505962503
 30
0.0
 10
164.222876360754
 20
167.7252974110951
 30
0.0
 10
164.3367865490261
 20
167.9620887887417
 30
0.0
 10
164.4543382958311
 20
168.2336839947304
 30
0.0
 10
164.525103075927
 20
168.4400827879513
 30
0.0
 10
164.5601749881845
 20
168.5423766176792
 30
0.0
  0
SPLINE
  5
12A
330
1F
100
AcDbEntity
  8
0
  6
Continuous
 62
   144
370
    18
100
AcDbSpline
210
0.0
220
0.0
230
1.0
 70
    24
 71
     3
 72
     8
 73
     4
 74
     0
 42
0.000000001
 43
0.00000001
 40
0.0
 40
0.0
 40
0.0
 40
0.0
 40
0.9999999999999999
 40
0.9999999999999999
 40
0.9999999999999999
 40
0.9999999999999999
 10
164.5601749881844
 20
168.5423766176792
 30
0.0
 10
164.5601749881844
 20
167.5098590601384
 30
0.0
 10
164.5601749881844
 20
166.2522552568694
 30
0.0
 10
164.5601749881844
 20
164.8775271422641
 30
0.0
  0
LINE
  5
12B
330
1F
100
AcDbEntity
  8
0
  6
Continuous
 62
     7
370
    18
100
AcDbLine
 10
164.003059596
 20
167.3207600727
 30
0.0
 11
162.1172915699
 21
167.3207600727
 31
0.0
  0
LINE
  5
12C
330
1F
100
AcDbEntity
  8
0
  6
Continuous
 62
     7
370
    18
100
AcDbLine
 10
161.5601744057
 20
159.9490385163
 30
0.0
 11
161.5601744057
 21
164.8775270335
 31
0.0
  0
LINE
  5
12D
330
1F
100
AcDbEntity
  8
0
  6
Continuous
 62
     7
370
    18
100
AcDbLine
 10
162.1172915699
 20
157.5058057099
 30
0.0
 11
164.003059596
 21
157.5058057099
 31
0.0
  0
LINE
  5
12E
330
1F
100
AcDbEntity
  8
0
  6
Continuous
 62
   144
370
    18
100
AcDbLine
 10
164.5601767601
 20
159.9490385163
 30
0.0
 11
164.5601767601
 21
164.8775270335
 31
0.0
  0
LINE
  5
12F
330
1F
100
AcDbEntity
  8
0
  6
Continuous
 62
     7
370
    18
100
AcDbLine
 10
161.5601744057
 20
168.5423768252
 30
0.0
 11
161.5601744057
 21
171.0066205017
 31
0.0
  0
SPLINE
  5
130
330
1F
100
AcDbEntity
  8
0
  6
Continuous
 62
     7
370
    18
100
AcDbSpline
210
0.0
220
0.0
230
1.0
 70
    24
 71
     3
 72
     8
 73
     4
 74
     0
 42
0.000000001
 43
0.00000001
 40
0.0
 40
0.0
 40
0.0
 40
0.0
 40
1.0
 40
1.0
 40
1.0
 40
1.0
 10
161.5601749881844
 20
171.0066209235247
 30
0.0
 10
161.5601749881844
 20
171.1771032198253
 30
0.0
 10
161.5601749881844
 20
171.2632828374742
 30
0.0
 10
161.5601749881844
 20
171.2632828374134
 30
0.0
  0
SPLINE
  5
131
330
1F
100
AcDbEntity
  8
0
  6
Continuous
 62
     7
370
    18
100
AcDbSpline
210
0.0
220
0.0
230
1.0
 70
    24
 71
     3
 72
     8
 73
     4
 74
     0
 42
0.000000001
 43
0.00000001
 40
0.0
 40
0.0
 40
0.0
 40
0.0
 40
1.0
 40
1.0
 40
1.0
 40
1.0
 10
161.5601749881844
 20
153.5632828374134
 30
0.0
 10
161.5601749881844
 20
153.5632828375415
 30
0.0
 10
161.5601749881844
 20
153.6494624557396
 30
0.0
 10
161.5601749881844
 20
153.8199447529301
 30
0.0
  0
LINE
  5
132
330
1F
100
AcDbEntity
  8
0
  6
Continuous
 62
     7
370
    18
100
AcDbLine
 10
161.5601744057
 20
153.8199443496
 30
0.0
 11
161.5601744057
 21
156.2841889575
 31
0.0
  0
SPLINE
  5
133
330
1F
100
AcDbEntity
  8
0
  6
Continuous
 62
     7
370
    18
100
AcDbSpline
210
0.0
220
0.0
230
1.0
 70
     8
 71
     3
 72
    12
 73
     8
 74
     0
 42
0.000000001
 43
0.00000001
 40
0.0
 40
0.0
 40
0.0
 40
0.0
 40
0.1644443311991854
 40
0.3305519271213058
 40
0.4988651061134503
 40
0.7465204753022563
 40
1.0
 40
1.0
 40
1.0
 40
1.0
 10
164.5601749881844
 20
171.0066209218967
 30
0.0
 10
164.5374234680831
 20
171.0743925817243
 30
0.0
 10
164.491690308663
 20
171.2106213747563
 30
0.0
 10
164.4107296652108
 20
171.4151607683068
 30
0.0
 10
164.3065499698294
 20
171.6528031518285
 30
0.0
 10
164.1736523424364
 20
171.9246059447825
 30
0.0
 10
164.0603618018217
 20
172.1262457752684
 30
0.0
 10
164.0030582040518
 20
172.2282374126803
 30
0.0
  0
LINE
  5
134
330
1F
100
AcDbEntity
  8
0
  6
Continuous
 62
     7
370
    18
100
AcDbLine
 10
162.1172915699
 20
172.2282372541
 30
0.0
 11
164.003059596
 21
172.2282372541
 31
0.0
  0
SPLINE
  5
135
330
1F
100
AcDbEntity
  8
0
  6
Continuous
 62
     7
370
    18
100
AcDbSpline
210
0.0
220
0.0
230
1.0
 70
     8
 71
     3
 72
    12
 73
     8
 74
     0
 42
0.000000001
 43
0.00000001
 40
0.0
 40
0.0
 40
0.0
 40
0.0
 40
0.1689572569418507
 40
0.335172792740277
 40
0.4989969101701269
 40
0.7516965888233987
 40
1.0
 40
1.0
 40
1.0
 40
1.0
 10
162.1172917723171
 20
172.2282374136743
 30
0.0
 10
162.0787758697182
 20
172.160303552048
 30
0.0
 10
162.0023690738657
 20
172.0255382123697
 30
0.0
 10
161.8974736154412
 20
171.8236863648133
 30
0.0
 10
161.7835634266804
 20
171.5869230354471
 30
0.0
 10
161.6660116815956
 20
171.3152566024262
 30
0.0
 10
161.5952469006346
 20
171.1088958828092
 30
0.0
 10
161.5601749881844
 20
171.0066209235247
 30
0.0
  0
LINE
  5
136
330
1F
100
AcDbEntity
  8
0
  6
Continuous
 62
   144
370
    18
100
AcDbLine
 10
164.5601767601
 20
168.5423768252
 30
0.0
 11
164.5601767601
 21
171.0066205017
 31
0.0
  0
SPLINE
  5
137
330
1F
100
AcDbEntity
  8
0
  6
Continuous
 62
     7
370
    18
100
AcDbSpline
210
0.0
220
0.0
230
1.0
 70
     8
 71
     3
 72
    12
 73
     8
 74
     0
 42
0.000000001
 43
0.00000001
 40
0.0
 40
0.0
 40
0.0
 40
0.0
 40
0.1644443311832603
 40
0.3305519270955153
 40
0.4988651060842576
 40
0.7465204752802318
 40
1.0
 40
1.0
 40
1.0
 40
1.0
 10
161.5601749881844
 20
153.8199447529301
 30
0.0
 10
161.5829265082861
 20
153.7521730930623
 30
0.0
 10
161.6286596677074
 20
153.615944299947
 30
0.0
 10
161.7096203111598
 20
153.4114049062528
 30
0.0
 10
161.8138000065422
 20
153.1737625225424
 30
0.0
 10
161.9466976339376
 20
152.9019597293459
 30
0.0
 10
162.0599881745478
 20
152.7003198986656
 30
0.0
 10
162.1172917723171
 20
152.5983282611525
 30
0.0
  0
LINE
  5
138
330
1F
100
AcDbEntity
  8
0
  6
Continuous
 62
     7
370
    18
100
AcDbLine
 10
162.1172915699
 20
152.5983285285
 30
0.0
 11
164.003059596
 21
152.5983285285
 31
0.0
  0
SPLINE
  5
139
330
1F
100
AcDbEntity
  8
0
  6
Continuous
 62
     7
370
    18
100
AcDbSpline
210
0.0
220
0.0
230
1.0
 70
     8
 71
     3
 72
    12
 73
     8
 74
     0
 42
0.000000001
 43
0.00000001
 40
0.0
 40
0.0
 40
0.0
 40
0.0
 40
0.1689572569255547
 40
0.3351727927143046
 40
0.498996910140948
 40
0.7516965888017
 40
1.0
 40
1.0
 40
1.0
 40
1.0
 10
164.0030582040518
 20
152.5983282621465
 30
0.0
 10
164.0415741066509
 20
152.6662621237045
 30
0.0
 10
164.1179809025055
 20
152.80102746325
 30
0.0
 10
164.2228763609296
 20
153.0028793106175
 30
0.0
 10
164.3367865496915
 20
153.2396426397815
 30
0.0
 10
164.454338294777
 20
153.5113090725953
 30
0.0
 10
164.5251030757348
 20
153.7176697920802
 30
0.0
 10
164.5601749881844
 20
153.8199447513022
 30
0.0
  0
LINE
  5
13A
330
1F
100
AcDbEntity
  8
0
  6
Continuous
 62
   144
370
    18
100
AcDbLine
 10
164.5601767601
 20
153.8199443496
 30
0.0
 11
164.5601767601
 21
156.2841889575
 31
0.0
  0
SPLINE
  5
13B
330
1F
100
AcDbEntity
  8
0
  6
Continuous
 62
   144
370
    18
100
AcDbSpline
210
0.0
220
0.0
230
1.0
 70
    24
 71
     3
 72
     8
 73
     4
 74
     0
 42
0.000000001
 43
0.00000001
 40
0.0
 40
0.0
 40
0.0
 40
0.0
 40
1.0
 40
1.0
 40
1.0
 40
1.0
 10
164.5601749881844
 20
153.8199447513022
 30
0.0
 10
164.5601749881844
 20
153.6494624550015
 30
0.0
 10
164.5601749881844
 20
153.5632828373526
 30
0.0
 10
164.5601749881844
 20
153.5632828374134
 30
0.0
  0
SPLINE
  5
13C
330
1F
100
AcDbEntity
  8
0
  6
Continuous
 62
   144
370
    18
100
AcDbSpline
210
0.0
220
0.0
230
1.0
 70
    24
 71
     3
 72
     8
 73
     4
 74
     0
 42
0.000000001
 43
0.00000001
 40
0.0
 40
0.0
 40
0.0
 40
0.0
 40
1.0
 40
1.0
 40
1.0
 40
1.0
 10
164.5601749881844
 20
171.2632828374134
 30
0.0
 10
164.5601749881844
 20
171.2632828372854
 30
0.0
 10
164.5601749881844
 20
171.1771032190873
 30
0.0
 10
164.5601749881844
 20
171.0066209218967
 30
0.0
  0
SPLINE
  5
13D
330
1F
100
AcDbEntity
  8
0
  6
Continuous
 62
     7
370
    18
100
AcDbSpline
210
0.0
220
0.0
230
1.0
 70
    24
 71
     3
 72
    14
 73
    10
 74
     0
 42
0.000000001
 43
0.00000001
 40
0.0
 40
0.0
 40
0.0
 40
0.0
 40
0.25
 40
0.25
 40
0.5
 40
0.5
 40
0.75
 40
0.75
 40
1.0
 40
1.0
 40
1.0
 40
1.0
 10
112.6778938775703
 20
155.9497311805707
 30
0.0
 10
112.6778938775703
 20
156.1330608699104
 30
0.0
 10
112.6778938775703
 20
156.4325760777031
 30
0.0
 10
112.6778938775703
 20
157.2618753896776
 30
0.0
 10
112.6778938775703
 20
157.7914198915814
 30
0.0
 10
112.6778938775703
 20
158.9999211275716
 30
0.0
 10
112.6778938775703
 20
159.6767915845199
 30
0.0
 10
112.6778938775703
 20
161.054528473021
 30
0.0
 10
112.6778938775703
 20
161.7535858792099
 30
0.0
 10
112.6778938775703
 20
162.4132828374134
 30
0.0
  0
SPLINE
  5
13E
330
1F
100
AcDbEntity
  8
0
  6
Continuous
 62
     7
370
    18
100
AcDbSpline
210
0.0
220
0.0
230
1.0
 70
    24
 71
     3
 72
    10
 73
     6
 74
     0
 42
0.000000001
 43
0.00000001
 40
0.0
 40
0.0
 40
0.0
 40
0.0
 40
0.5
 40
0.5
 40
1.0
 40
1.0
 40
1.0
 40
1.0
 10
112.377893877377
 20
162.4132828374134
 30
0.0
 10
112.4486045555921
 20
162.4132828374134
 30
0.0
 10
112.5314472680615
 20
162.4132828374134
 30
0.0
 10
112.6486045555723
 20
162.4132828374134
 30
0.0
 10
112.6778938774731
 20
162.4132828374134
 30
0.0
 10
112.6778938775703
 20
162.4132828374134
 30
0.0
  0
SPLINE
  5
13F
330
1F
100
AcDbEntity
  8
0
  6
Continuous
 62
     7
370
    18
100
AcDbSpline
210
0.0
220
0.0
230
1.0
 70
    24
 71
     3
 72
    10
 73
     6
 74
     0
 42
0.000000001
 43
0.00000001
 40
0.0
 40
0.0
 40
0.0
 40
0.0
 40
0.4999999999999999
 40
0.4999999999999999
 40
1.0
 40
1.0
 40
1.0
 40
1.0
 10
112.3778938771844
 20
162.4132828345419
 30
0.0
 10
112.3778938771844
 20
160.6969929799219
 30
0.0
 10
112.3778938771844
 20
159.0403381913238
 30
0.0
 10
112.3778938771844
 20
156.4766472089621
 30
0.0
 10
112.3778938771844
 20
155.6586903044097
 30
0.0
 10
112.3778938771844
 20
155.4602361436904
 30
0.0
  0
SPLINE
  5
140
330
1F
100
AcDbEntity
  8
0
  6
Continuous
 62
     7
370
    18
100
AcDbSpline
210
0.0
220
0.0
230
1.0
 70
     8
 71
     3
 72
    14
 73
    10
 74
     0
 42
0.000000001
 43
0.00000001
 40
0.0
 40
0.0
 40
0.0
 40
0.0
 40
0.25
 40
0.25
 40
0.5
 40
0.5
 40
0.75
 40
0.75
 40
1.0
 40
1.0
 40
1.0
 40
1.0
 10
112.3778938771844
 20
155.4602361434134
 30
0.0
 10
112.3990827411844
 20
155.4731257794134
 30
0.0
 10
112.4242390051844
 20
155.4902729374134
 30
0.0
 10
112.4812066371844
 20
155.5382313054134
 30
0.0
 10
112.5131176651844
 20
155.5691834399134
 30
0.0
 10
112.5768061331844
 20
155.6487668539134
 30
0.0
 10
112.6089087348511
 20
155.6977261204134
 30
0.0
 10
112.6599459641844
 20
155.8153533684134
 30
0.0
 10
112.6778938771844
 20
155.8826999574134
 30
0.0
 10
112.6778938771844
 20
155.9497311814134
 30
0.0
  0
SPLINE
  5
141
330
1F
100
AcDbEntity
  8
0
  6
Continuous
 62
     7
370
    18
100
AcDbSpline
210
0.0
220
0.0
230
1.0
 70
    27
 71
     3
 72
    12
 73
     8
 74
     0
 42
0.000000001
 43
0.00000001
 40
0.0
 40
0.0
 40
0.0
 40
0.0
 40
0.3333333333333333
 40
0.3333333333333333
 40
0.6666666666666665
 40
0.6666666666666665
 40
0.9999999999999999
 40
0.9999999999999999
 40
0.9999999999999999
 40
0.9999999999999999
 10
118.3778938771844
 20
162.4132828374134
 30
0.0
 10
118.3778938771844
 20
164.9137768513883
 30
0.0
 10
118.3778938771844
 20
167.2252136576917
 30
0.0
 10
118.3778938771844
 20
169.7257076710744
 30
0.0
 10
118.3778938771844
 20
169.725707670527
 30
0.0
 10
118.3778938771844
 20
167.2252136553677
 30
0.0
 10
118.3778938771844
 20
164.9137768485168
 30
0.0
 10
118.3778938771844
 20
162.413282834542
 30
0.0
  0
SPLINE
  5
142
330
1F
100
AcDbEntity
  8
0
  6
Continuous
 62
     7
370
    18
100
AcDbSpline
210
0.0
220
0.0
230
1.0
 70
    27
 71
     3
 72
    14
 73
    10
 74
     0
 42
0.000000001
 43
0.00000001
 40
0.0
 40
0.0
 40
0.0
 40
0.0
 40
0.25
 40
0.25
 40
0.5000000000000001
 40
0.5000000000000001
 40
0.75
 40
0.75
 40
1.0
 40
1.0
 40
1.0
 40
1.0
 10
118.3778938771844
 20
162.4132828345419
 30
0.0
 10
118.3778938771844
 20
160.5568199469012
 30
0.0
 10
118.3778938771844
 20
158.776252864334
 30
0.0
 10
118.3778938771844
 20
156.15081787128
 30
0.0
 10
118.3778938771844
 20
155.4132828371993
 30
0.0
 10
118.3778938771844
 20
155.4132828376275
 30
0.0
 10
118.3778938771844
 20
156.1508178721188
 30
0.0
 10
118.3778938771844
 20
158.7762528657783
 30
0.0
 10
118.3778938771844
 20
160.5568199485156
 30
0.0
 10
118.3778938771844
 20
162.4132828361563
 30
0.0
  0
SPLINE
  5
143
330
1F
100
AcDbEntity
  8
0
  6
Continuous
 62
     7
370
    18
100
AcDbSpline
210
0.0
220
0.0
230
1.0
 70
    24
 71
     3
 72
    10
 73
     6
 74
     0
 42
0.000000001
 43
0.00000001
 40
0.0
 40
0.0
 40
0.0
 40
0.0
 40
0.5000000000000002
 40
0.5000000000000002
 40
1.0
 40
1.0
 40
1.0
 40
1.0
 10
116.9778938771844
 20
155.4602361436904
 30
0.0
 10
116.9778938771844
 20
155.6586903044097
 30
0.0
 10
116.9778938771844
 20
156.4766472089621
 30
0.0
 10
116.9778938771844
 20
159.0403381913238
 30
0.0
 10
116.9778938771844
 20
160.6969929799219
 30
0.0
 10
116.9778938771844
 20
162.413282834542
 30
0.0
  0
SPLINE
  5
144
330
1F
100
AcDbEntity
  8
0
  6
Continuous
 62
     7
370
    18
100
AcDbSpline
210
0.0
220
0.0
230
1.0
 70
    27
 71
     3
 72
    12
 73
     8
 74
     0
 42
0.000000001
 43
0.00000001
 40
0.0
 40
0.0
 40
0.0
 40
0.0
 40
0.3333333333333332
 40
0.3333333333333332
 40
0.6666666666666665
 40
0.6666666666666665
 40
0.9999999999999999
 40
0.9999999999999999
 40
0.9999999999999999
 40
0.9999999999999999
 10
116.9778938771844
 20
162.4132828345419
 30
0.0
 10
116.9778938771844
 20
164.9137768485168
 30
0.0
 10
116.9778938771844
 20
167.2252136553677
 30
0.0
 10
116.9778938771844
 20
169.725707670527
 30
0.0
 10
116.9778938771844
 20
169.7257076710744
 30
0.0
 10
116.9778938771845
 20
167.2252136576917
 30
0.0
 10
116.9778938771845
 20
164.9137768513883
 30
0.0
 10
116.9778938771845
 20
162.4132828374134
 30
0.0
  0
SPLINE
  5
145
330
1F
100
AcDbEntity
  8
0
  6
Continuous
 62
     7
370
    18
100
AcDbSpline
210
0.0
220
0.0
230
1.0
 70
     8
 71
     3
 72
    14
 73
    10
 74
     0
 42
0.000000001
 43
0.00000001
 40
0.0
 40
0.0
 40
0.0
 40
0.0
 40
0.25
 40
0.25
 40
0.5
 40
0.5
 40
0.75
 40
0.75
 40
1.0
 40
1.0
 40
1.0
 40
1.0
 10
116.6778938771844
 20
155.9497311814134
 30
0.0
 10
116.6778938771844
 20
155.8826030094134
 30
0.0
 10
116.6958662441844
 20
155.8152685234134
 30
0.0
 10
116.7469393028511
 20
155.6976157180801
 30
0.0
 10
116.7790704796844
 20
155.6486276009134
 30
0.0
 10
116.8428774056844
 20
155.5689527309134
 30
0.0
 10
116.8746828701844
 20
155.5381300227467
 30
0.0
 10
116.9317656621844
 20
155.4901060374134
 30
0.0
 10
116.9568275031844
 20
155.4730512664134
 30
0.0
 10
116.9778938771844
 20
155.4602361434134
 30
0.0
  0
SPLINE
  5
146
330
1F
100
AcDbEntity
  8
0
  6
Continuous
 62
     7
370
    18
100
AcDbSpline
210
0.0
220
0.0
230
1.0
 70
    24
 71
     3
 72
    10
 73
     6
 74
     0
 42
0.000000001
 43
0.00000001
 40
0.0
 40
0.0
 40
0.0
 40
0.0
 40
0.5
 40
0.5
 40
1.0
 40
1.0
 40
1.0
 40
1.0
 10
116.9778938769919
 20
162.4132828374134
 30
0.0
 10
116.9071831987768
 20
162.4132828374134
 30
0.0
 10
116.8243404863073
 20
162.4132828374134
 30
0.0
 10
116.7071831987965
 20
162.4132828374134
 30
0.0
 10
116.6778938768958
 20
162.4132828374134
 30
0.0
 10
116.6778938767986
 20
162.4132828374134
 30
0.0
  0
SPLINE
  5
147
330
1F
100
AcDbEntity
  8
0
  6
Continuous
 62
     7
370
    18
100
AcDbSpline
210
0.0
220
0.0
230
1.0
 70
    24
 71
     3
 72
    14
 73
    10
 74
     0
 42
0.000000001
 43
0.00000001
 40
0.0
 40
0.0
 40
0.0
 40
0.0
 40
0.25
 40
0.25
 40
0.4999999999999999
 40
0.4999999999999999
 40
0.75
 40
0.75
 40
1.0
 40
1.0
 40
1.0
 40
1.0
 10
116.6778938767986
 20
162.4132828374134
 30
0.0
 10
116.6778938767986
 20
161.7535858792099
 30
0.0
 10
116.6778938767986
 20
161.054528473021
 30
0.0
 10
116.6778938767986
 20
159.6767915845199
 30
0.0
 10
116.6778938767986
 20
158.9999211275716
 30
0.0
 10
116.6778938767986
 20
157.7914198915814
 30
0.0
 10
116.6778938767986
 20
157.2618753896776
 30
0.0
 10
116.6778938767986
 20
156.4325760777031
 30
0.0
 10
116.6778938767986
 20
156.1330608699104
 30
0.0
 10
116.6778938767986
 20
155.9497311805707
 30
0.0
  0
SPLINE
  5
148
330
1F
100
AcDbEntity
  8
0
  6
Continuous
 62
     7
370
    18
100
AcDbSpline
210
0.0
220
0.0
230
1.0
 70
    24
 71
     3
 72
    20
 73
    16
 74
     0
 42
0.000000001
 43
0.00000001
 40
0.0
 40
0.0
 40
0.0
 40
0.0
 40
0.1250000000000001
 40
0.1250000000000001
 40
0.2500000000000002
 40
0.2500000000000002
 40
0.3750000000000002
 40
0.3750000000000002
 40
0.5000000000000003
 40
0.5000000000000003
 40
0.6250000000000003
 40
0.6250000000000003
 40
0.7500000000000002
 40
0.7500000000000002
 40
1.0
 40
1.0
 40
1.0
 40
1.0
 10
116.6778938767986
 20
169.1132828375358
 30
0.0
 10
116.6778938767986
 20
169.1132828375347
 30
0.0
 10
116.6778938767986
 20
169.0424504903924
 30
0.0
 10
116.6778938767986
 20
168.7718074923583
 30
0.0
 10
116.6778938767986
 20
168.572337047441
 30
0.0
 10
116.6778938767986
 20
168.0777580393575
 30
0.0
 10
116.6778938767986
 20
167.783089555465
 30
0.0
 10
116.6778938767986
 20
167.1393665304955
 30
0.0
 10
116.6778938767986
 20
166.7906161708221
 30
0.0
 10
116.6778938767986
 20
166.075949504143
 30
0.0
 10
116.6778938767986
 20
165.7101350867651
 30
0.0
 10
116.6778938767986
 20
164.988340700522
 30
0.0
 10
116.6778938767986
 20
164.6323228374515
 30
0.0
 10
116.6778938767986
 20
163.6032028374339
 30
0.0
 10
116.6778938767986
 20
162.9716161707564
 30
0.0
 10
116.6778938767986
 20
162.4132828374134
 30
0.0
  0
SPLINE
  5
149
330
1F
100
AcDbEntity
  8
0
  6
Continuous
 62
     7
370
    18
100
AcDbSpline
210
0.0
220
0.0
230
1.0
 70
    24
 71
     3
 72
    20
 73
    16
 74
     0
 42
0.000000001
 43
0.00000001
 40
0.0
 40
0.0
 40
0.0
 40
0.0
 40
0.2499999999999998
 40
0.2499999999999998
 40
0.3749999999999999
 40
0.3749999999999999
 40
0.4999999999999999
 40
0.4999999999999999
 40
0.6249999999999999
 40
0.6249999999999999
 40
0.75
 40
0.75
 40
0.875
 40
0.875
 40
1.0
 40
1.0
 40
1.0
 40
1.0
 10
112.6778938775703
 20
162.4132828374134
 30
0.0
 10
112.6778938775703
 20
162.9716161707575
 30
0.0
 10
112.6778938775703
 20
163.6032028374364
 30
0.0
 10
112.6778938775703
 20
164.6323228374564
 30
0.0
 10
112.6778938775703
 20
164.9883407005277
 30
0.0
 10
112.6778938775703
 20
165.7101350867724
 30
0.0
 10
112.6778938775703
 20
166.075949504151
 30
0.0
 10
112.6778938775703
 20
166.7906161708313
 30
0.0
 10
112.6778938775703
 20
167.1393665305051
 30
0.0
 10
112.6778938775703
 20
167.7830895554747
 30
0.0
 10
112.6778938775703
 20
168.0777580393671
 30
0.0
 10
112.6778938775703
 20
168.5723370474493
 30
0.0
 10
112.6778938775703
 20
168.7718074923655
 30
0.0
 10
112.6778938775703
 20
169.0424504903965
 30
0.0
 10
112.6778938775703
 20
169.1132828375369
 30
0.0
 10
112.6778938775703
 20
169.1132828375358
 30
0.0
  0
SPLINE
  5
14A
330
1F
100
AcDbEntity
  8
0
  6
Continuous
 62
     7
370
    18
100
AcDbSpline
210
0.0
220
0.0
230
1.0
 70
    24
 71
     3
 72
    10
 73
     6
 74
     0
 42
0.000000001
 43
0.00000001
 40
0.0
 40
0.0
 40
0.0
 40
0.0
 40
0.5
 40
0.5
 40
1.0
 40
1.0
 40
1.0
 40
1.0
 10
118.6778938775703
 20
162.4132828374134
 30
0.0
 10
118.6778938774731
 20
162.4132828374134
 30
0.0
 10
118.6486045555724
 20
162.4132828374134
 30
0.0
 10
118.5314472680615
 20
162.4132828374134
 30
0.0
 10
118.448604555592
 20
162.4132828374134
 30
0.0
 10
118.377893877377
 20
162.4132828374134
 30
0.0
  0
SPLINE
  5
14B
330
1F
100
AcDbEntity
  8
0
  6
Continuous
 62
     7
370
    18
100
AcDbSpline
210
0.0
220
0.0
230
1.0
 70
    24
 71
     3
 72
    10
 73
     6
 74
     0
 42
0.000000001
 43
0.00000001
 40
0.0
 40
0.0
 40
0.0
 40
0.0
 40
0.5
 40
0.5
 40
1.0
 40
1.0
 40
1.0
 40
1.0
 10
118.377893877377
 20
162.4132828374134
 30
0.0
 10
118.448604555592
 20
162.4132828374134
 30
0.0
 10
118.5314472680615
 20
162.4132828374134
 30
0.0
 10
118.6486045555724
 20
162.4132828374134
 30
0.0
 10
118.6778938774731
 20
162.4132828374134
 30
0.0
 10
118.6778938775703
 20
162.4132828374134
 30
0.0
  0
SPLINE
  5
14C
330
1F
100
AcDbEntity
  8
0
  6
Continuous
 62
     7
370
    18
100
AcDbSpline
210
0.0
220
0.0
230
1.0
 70
    24
 71
     3
 72
    25
 73
    21
 74
     0
 42
0.000000001
 43
0.00000001
 40
0.0
 40
0.0
 40
0.0
 40
0.0
 40
0.0250529546961805
 40
0.0500478753371753
 40
0.0750234212544377
 40
0.1000183416859154
 40
0.1250712959704197
 40
0.1875858261821788
 40
0.2501003567404746
 40
0.3126148877363533
 40
0.3751294184057042
 40
0.5000071476030016
 40
0.6248848768002987
 40
0.68739940746965
 40
0.7499139384655285
 40
0.8124284690238244
 40
0.8749429992355832
 40
0.9166585443972171
 40
0.9582844542572012
 40
1.0
 40
1.0
 40
1.0
 40
1.0
 10
118.6778938771844
 20
169.1132828340902
 30
0.0
 10
118.6778938771844
 20
169.1122947934451
 30
0.0
 10
118.6778938771844
 20
169.110321000907
 30
0.0
 10
118.6778938771844
 20
169.0942884747037
 30
0.0
 10
118.6778938771844
 20
169.068676478602
 30
0.0
 10
118.6778938771844
 20
169.0325500638625
 30
0.0
 10
118.6778938771844
 20
168.9631271512832
 30
0.0
 10
118.6778938771844
 20
168.8352322533418
 30
0.0
 10
118.6778938771844
 20
168.6131669972968
 30
0.0
 10
118.6778938771844
 20
168.3317540157755
 30
0.0
 10
118.6778938771844
 20
167.8805709492123
 30
0.0
 10
118.6778938771844
 20
167.1815488998546
 30
0.0
 10
118.6778938771844
 20
166.32923657119
 30
0.0
 10
118.6778938771844
 20
165.5768123135861
 30
0.0
 10
118.6778938771844
 20
164.9813451277605
 30
0.0
 10
118.6778938771844
 20
164.3613781846483
 30
0.0
 10
118.6778938771844
 20
163.7932810413742
 30
0.0
 10
118.6778938771844
 20
163.2884500492531
 30
0.0
 10
118.6778938771844
 20
162.8517995354257
 30
0.0
 10
118.6778938771844
 20
162.5595598405247
 30
0.0
 10
118.6778938771844
 20
162.4132828374134
 30
0.0
  0
SPLINE
  5
14D
330
1F
100
AcDbEntity
  8
0
  6
Continuous
 62
     7
370
    18
100
AcDbSpline
210
0.0
220
0.0
230
1.0
 70
    24
 71
     3
 72
    25
 73
    21
 74
     0
 42
0.000000001
 43
0.00000001
 40
0.0
 40
0.0
 40
0.0
 40
0.0
 40
0.0250529547012751
 40
0.0500478753409906
 40
0.0750234212569811
 40
0.1000183416871891
 40
0.1250712959704197
 40
0.1875858261821789
 40
0.2501003567404748
 40
0.3126148877363534
 40
0.3751294184057044
 40
0.5000071476030015
 40
0.6248848768002988
 40
0.6873994074696499
 40
0.7499139384655286
 40
0.8124284690238244
 40
0.8749429992355834
 40
0.916658544395097
 40
0.9582844542529622
 40
1.0
 40
1.0
 40
1.0
 40
1.0
 10
118.6778938771844
 20
162.4132828374134
 30
0.0
 10
118.6778938771844
 20
162.3254437992875
 30
0.0
 10
118.6778938771844
 20
162.1499691982825
 30
0.0
 10
118.6778938771844
 20
161.8873297936754
 30
0.0
 10
118.6778938771844
 20
161.625707160614
 30
0.0
 10
118.6778938771844
 20
161.3650951222821
 30
0.0
 10
118.6778938771844
 20
160.9765462852463
 30
0.0
 10
118.6778938771844
 20
160.4651763952241
 30
0.0
 10
118.6778938771844
 20
159.8452235119868
 30
0.0
 10
118.6778938771844
 20
159.2497525965134
 30
0.0
 10
118.6778938771844
 20
158.4973294831716
 30
0.0
 10
118.6778938771844
 20
157.6450171769827
 30
0.0
 10
118.6778938771844
 20
156.9459931395614
 30
0.0
 10
118.6778938771844
 20
156.4948144372421
 30
0.0
 10
118.6778938771844
 20
156.2133880617413
 30
0.0
 10
118.6778938771844
 20
155.9913731064485
 30
0.0
 10
118.6778938771844
 20
155.8491119225509
 30
0.0
 10
118.6778938771844
 20
155.7661190457878
 30
0.0
 10
118.6778938771844
 20
155.7215050719273
 30
0.0
 10
118.6778938771844
 20
155.7160255489231
 30
0.0
 10
118.6778938771844
 20
155.7132828407366
 30
0.0
  0
SPLINE
  5
14E
330
1F
100
AcDbEntity
  8
0
  6
Continuous
 62
     7
370
    18
100
AcDbSpline
210
0.0
220
0.0
230
1.0
 70
    24
 71
     3
 72
    10
 73
     6
 74
     0
 42
0.000000001
 43
0.00000001
 40
0.0
 40
0.0
 40
0.0
 40
0.0
 40
0.5
 40
0.5
 40
1.0
 40
1.0
 40
1.0
 40
1.0
 10
110.6778938767986
 20
162.4132828374134
 30
0.0
 10
110.6778938768958
 20
162.4132828374134
 30
0.0
 10
110.7071831987965
 20
162.4132828374134
 30
0.0
 10
110.8243404863074
 20
162.4132828374134
 30
0.0
 10
110.9071831987768
 20
162.4132828374134
 30
0.0
 10
110.9778938769919
 20
162.4132828374134
 30
0.0
  0
SPLINE
  5
14F
330
1F
100
AcDbEntity
  8
0
  6
Continuous
 62
     7
370
    18
100
AcDbSpline
210
0.0
220
0.0
230
1.0
 70
    24
 71
     3
 72
    25
 73
    21
 74
     0
 42
0.000000001
 43
0.00000001
 40
0.0
 40
0.0
 40
0.0
 40
0.0
 40
0.0250529547012752
 40
0.0500478753409906
 40
0.0750234212569812
 40
0.1000183416871889
 40
0.1250712959704198
 40
0.1875858261821786
 40
0.2501003567404746
 40
0.3126148877363531
 40
0.3751294184057042
 40
0.5000071476030015
 40
0.6248848768002988
 40
0.6873994074696498
 40
0.7499139384655285
 40
0.8124284690238244
 40
0.8749429992355832
 40
0.9166585443950973
 40
0.958284454252962
 40
1.0
 40
1.0
 40
1.0
 40
1.0
 10
110.6778938771844
 20
162.4132828374134
 30
0.0
 10
110.6778938771844
 20
162.5011218755394
 30
0.0
 10
110.6778938771844
 20
162.6765964765443
 30
0.0
 10
110.6778938771844
 20
162.9392358811514
 30
0.0
 10
110.6778938771844
 20
163.2008585142129
 30
0.0
 10
110.6778938771844
 20
163.4614705525447
 30
0.0
 10
110.6778938771844
 20
163.8500193895805
 30
0.0
 10
110.6778938771844
 20
164.3613892796027
 30
0.0
 10
110.6778938771844
 20
164.98134216284
 30
0.0
 10
110.6778938771844
 20
165.5768130783134
 30
0.0
 10
110.6778938771844
 20
166.3292361916552
 30
0.0
 10
110.6778938771844
 20
167.1815484978442
 30
0.0
 10
110.6778938771844
 20
167.8805725352654
 30
0.0
 10
110.6778938771844
 20
168.3317512375847
 30
0.0
 10
110.6778938771844
 20
168.6131776130855
 30
0.0
 10
110.6778938771844
 20
168.8351925683783
 30
0.0
 10
110.6778938771844
 20
168.9774537522759
 30
0.0
 10
110.6778938771844
 20
169.060446629039
 30
0.0
 10
110.6778938771844
 20
169.1050606028995
 30
0.0
 10
110.6778938771844
 20
169.1105401259038
 30
0.0
 10
110.6778938771844
 20
169.1132828340902
 30
0.0
  0
SPLINE
  5
150
330
1F
100
AcDbEntity
  8
0
  6
Continuous
 62
     7
370
    18
100
AcDbSpline
210
0.0
220
0.0
230
1.0
 70
    24
 71
     3
 72
    25
 73
    21
 74
     0
 42
0.000000001
 43
0.00000001
 40
0.0
 40
0.0
 40
0.0
 40
0.0
 40
0.0250529546961802
 40
0.0500478753371751
 40
0.0750234212544376
 40
0.1000183416859151
 40
0.1250712959704197
 40
0.1875858261821788
 40
0.2501003567404746
 40
0.3126148877363533
 40
0.3751294184057042
 40
0.5000071476030015
 40
0.6248848768002988
 40
0.6873994074696499
 40
0.7499139384655285
 40
0.8124284690238244
 40
0.8749429992355832
 40
0.9166585443972167
 40
0.958284454257201
 40
1.0
 40
1.0
 40
1.0
 40
1.0
 10
110.6778938771844
 20
155.7132828407366
 30
0.0
 10
110.6778938771844
 20
155.7142708813817
 30
0.0
 10
110.6778938771844
 20
155.7162446739198
 30
0.0
 10
110.6778938771844
 20
155.7322772001231
 30
0.0
 10
110.6778938771844
 20
155.7578891962248
 30
0.0
 10
110.6778938771844
 20
155.7940156109644
 30
0.0
 10
110.6778938771844
 20
155.8634385235436
 30
0.0
 10
110.6778938771844
 20
155.991333421485
 30
0.0
 10
110.6778938771844
 20
156.21339867753
 30
0.0
 10
110.6778938771844
 20
156.4948116590514
 30
0.0
 10
110.6778938771844
 20
156.9459947256146
 30
0.0
 10
110.6778938771844
 20
157.6450167749722
 30
0.0
 10
110.6778938771844
 20
158.4973291036368
 30
0.0
 10
110.6778938771844
 20
159.2497533612407
 30
0.0
 10
110.6778938771844
 20
159.8452205470663
 30
0.0
 10
110.6778938771844
 20
160.4651874901786
 30
0.0
 10
110.6778938771844
 20
161.0332846334526
 30
0.0
 10
110.6778938771844
 20
161.5381156255737
 30
0.0
 10
110.6778938771844
 20
161.9747661394011
 30
0.0
 10
110.6778938771844
 20
162.2670058343022
 30
0.0
 10
110.6778938771844
 20
162.4132828374134
 30
0.0
  0
SPLINE
  5
151
330
1F
100
AcDbEntity
  8
0
  6
Continuous
 62
     7
370
    18
100
AcDbSpline
210
0.0
220
0.0
230
1.0
 70
    24
 71
     3
 72
    10
 73
     6
 74
     0
 42
0.000000001
 43
0.00000001
 40
0.0
 40
0.0
 40
0.0
 40
0.0
 40
0.5
 40
0.5
 40
1.0
 40
1.0
 40
1.0
 40
1.0
 10
103.377893877377
 20
162.4132828374134
 30
0.0
 10
103.448604555592
 20
162.4132828374134
 30
0.0
 10
103.5314472680615
 20
162.4132828374134
 30
0.0
 10
103.6486045555723
 20
162.4132828374134
 30
0.0
 10
103.6778938774731
 20
162.4132828374134
 30
0.0
 10
103.6778938775703
 20
162.4132828374134
 30
0.0
  0
SPLINE
  5
152
330
1F
100
AcDbEntity
  8
0
  6
Continuous
 62
     7
370
    18
100
AcDbSpline
210
0.0
220
0.0
230
1.0
 70
    24
 71
     3
 72
    20
 73
    16
 74
     0
 42
0.000000001
 43
0.00000001
 40
0.0
 40
0.0
 40
0.0
 40
0.0
 40
0.2499999999999998
 40
0.2499999999999998
 40
0.3749999999999999
 40
0.3749999999999999
 40
0.4999999999999999
 40
0.4999999999999999
 40
0.6249999999999999
 40
0.6249999999999999
 40
0.75
 40
0.75
 40
0.875
 40
0.875
 40
1.0
 40
1.0
 40
1.0
 40
1.0
 10
103.6778938775703
 20
162.4132828374134
 30
0.0
 10
103.6778938775703
 20
162.8466161707574
 30
0.0
 10
103.6778938775703
 20
163.3368028374361
 30
0.0
 10
103.6778938775703
 20
164.1355228374559
 30
0.0
 10
103.6778938775703
 20
164.4118352087963
 30
0.0
 10
103.6778938775703
 20
164.9720338369294
 30
0.0
 10
103.6778938775703
 20
165.2559495041501
 30
0.0
 10
103.6778938775703
 20
165.8106161708303
 30
0.0
 10
103.6778938775703
 20
166.0812880917725
 30
0.0
 10
103.6778938775703
 20
166.5808940216023
 30
0.0
 10
103.6778938775703
 20
166.8095919494006
 30
0.0
 10
103.6778938775703
 20
167.1934443138844
 30
0.0
 10
103.6778938775703
 20
167.3482571965067
 30
0.0
 10
103.6778938775703
 20
167.5583084785618
 30
0.0
 10
103.6778938775703
 20
167.6132828375366
 30
0.0
 10
103.6778938775703
 20
167.6132828375358
 30
0.0
  0
SPLINE
  5
153
330
1F
100
AcDbEntity
  8
0
  6
Continuous
 62
     7
370
    18
100
AcDbSpline
210
0.0
220
0.0
230
1.0
 70
    24
 71
     3
 72
    20
 73
    16
 74
     0
 42
0.000000001
 43
0.00000001
 40
0.0
 40
0.0
 40
0.0
 40
0.0
 40
0.1249999999999999
 40
0.1249999999999999
 40
0.2499999999999998
 40
0.2499999999999998
 40
0.3749999999999997
 40
0.3749999999999997
 40
0.4999999999999997
 40
0.4999999999999997
 40
0.6249999999999998
 40
0.6249999999999998
 40
0.7499999999999998
 40
0.7499999999999998
 40
1.0
 40
1.0
 40
1.0
 40
1.0
 10
103.6778938775703
 20
157.2132828372866
 30
0.0
 10
103.6778938775703
 20
157.2132828372875
 30
0.0
 10
103.6778938775703
 20
157.2682571962639
 30
0.0
 10
103.6778938775703
 20
157.4783084783215
 30
0.0
 10
103.6778938775703
 20
157.6331213609448
 30
0.0
 10
103.6778938775703
 20
158.0169737254299
 30
0.0
 10
103.6778938775703
 20
158.2456716532285
 30
0.0
 10
103.6778938775703
 20
158.7452775830586
 30
0.0
 10
103.6778938775703
 20
159.0159495040008
 30
0.0
 10
103.6778938775703
 20
159.5706161706806
 30
0.0
 10
103.6778938775703
 20
159.8545318379009
 30
0.0
 10
103.6778938775703
 20
160.4147304660333
 30
0.0
 10
103.6778938775703
 20
160.6910428373733
 30
0.0
 10
103.6778938775703
 20
161.4897628373919
 30
0.0
 10
103.6778938775703
 20
161.9799495040699
 30
0.0
 10
103.6778938775703
 20
162.4132828374134
 30
0.0
  0
SPLINE
  5
154
330
1F
100
AcDbEntity
  8
0
  6
Continuous
 62
     7
370
    18
100
AcDbSpline
210
0.0
220
0.0
230
1.0
 70
    24
 71
     3
 72
    10
 73
     6
 74
     0
 42
0.000000001
 43
0.00000001
 40
0.0
 40
0.0
 40
0.0
 40
0.0
 40
0.5
 40
0.5
 40
1.0
 40
1.0
 40
1.0
 40
1.0
 10
101.6778938767986
 20
162.4132828374134
 30
0.0
 10
101.6778938768958
 20
162.4132828374134
 30
0.0
 10
101.7071831987965
 20
162.4132828374134
 30
0.0
 10
101.8243404863074
 20
162.4132828374134
 30
0.0
 10
101.9071831987768
 20
162.4132828374134
 30
0.0
 10
101.9778938769919
 20
162.4132828374134
 30
0.0
  0
SPLINE
  5
155
330
1F
100
AcDbEntity
  8
0
  6
Continuous
 62
     7
370
    18
100
AcDbSpline
210
0.0
220
0.0
230
1.0
 70
    24
 71
     3
 72
    25
 73
    21
 74
     0
 42
0.000000001
 43
0.00000001
 40
0.0
 40
0.0
 40
0.0
 40
0.0
 40
0.0250529547012752
 40
0.0500478753409905
 40
0.0750234212569812
 40
0.1000183416871889
 40
0.1250712959704199
 40
0.1875858261821787
 40
0.2501003567404746
 40
0.3126148877363531
 40
0.3751294184057042
 40
0.5000071476030016
 40
0.6248848768002988
 40
0.6873994074696498
 40
0.7499139384655285
 40
0.8124284690238244
 40
0.8749429992355832
 40
0.9166585443950974
 40
0.958284454252962
 40
1.0
 40
1.0
 40
1.0
 40
1.0
 10
101.6778938771844
 20
162.4132828374134
 30
0.0
 10
101.6778938771844
 20
162.4814564192425
 30
0.0
 10
101.6778938771844
 20
162.6176456618135
 30
0.0
 10
101.6778938771844
 20
162.8214851997175
 30
0.0
 10
101.6778938771844
 20
163.0245356014966
 30
0.0
 10
101.6778938771844
 20
163.2268016610974
 30
0.0
 10
101.6778938771844
 20
163.5283619525281
 30
0.0
 10
101.6778938771844
 20
163.9252460462768
 30
0.0
 10
101.6778938771844
 20
164.4064035078938
 30
0.0
 10
101.6778938771844
 20
164.868560039306
 30
0.0
 10
101.6778938771844
 20
165.452530216825
 30
0.0
 10
101.6778938771844
 20
166.1140263350612
 30
0.0
 10
101.6778938771844
 20
166.6565524536568
 30
0.0
 10
101.6778938771844
 20
167.0067209987404
 30
0.0
 10
101.6778938771844
 20
167.2251414692783
 30
0.0
 10
101.6778938771844
 20
167.3974515838339
 30
0.0
 10
101.6778938771844
 20
167.5078632489485
 30
0.0
 10
101.6778938771844
 20
167.5722756309139
 30
0.0
 10
101.6778938771844
 20
167.6069014016713
 30
0.0
 10
101.6778938771844
 20
167.611154165794
 30
0.0
 10
101.6778938771844
 20
167.6132828348342
 30
0.0
  0
SPLINE
  5
156
330
1F
100
AcDbEntity
  8
0
  6
Continuous
 62
     7
370
    18
100
AcDbSpline
210
0.0
220
0.0
230
1.0
 70
    24
 71
     3
 72
    25
 73
    21
 74
     0
 42
0.000000001
 43
0.00000001
 40
0.0
 40
0.0
 40
0.0
 40
0.0
 40
0.0250529546961802
 40
0.0500478753371752
 40
0.0750234212544375
 40
0.1000183416859151
 40
0.1250712959704198
 40
0.1875858261821788
 40
0.2501003567404745
 40
0.3126148877363533
 40
0.3751294184057042
 40
0.5000071476030012
 40
0.6248848768002987
 40
0.6873994074696497
 40
0.7499139384655281
 40
0.8124284690238242
 40
0.874942999235583
 40
0.9166585443972166
 40
0.958284454257201
 40
1.0
 40
1.0
 40
1.0
 40
1.0
 10
101.6778938771844
 20
157.2132828399926
 30
0.0
 10
101.6778938771844
 20
157.2140496775082
 30
0.0
 10
101.6778938771844
 20
157.2155815761945
 30
0.0
 10
101.6778938771844
 20
157.2280247308597
 30
0.0
 10
101.6778938771844
 20
157.2479026979835
 30
0.0
 10
101.6778938771844
 20
157.2759411094231
 30
0.0
 10
101.6778938771844
 20
157.3298215788876
 30
0.0
 10
101.6778938771844
 20
157.4290832907227
 30
0.0
 10
101.6778938771844
 20
157.6014324446681
 30
0.0
 10
101.6778938771844
 20
157.8198425198787
 30
0.0
 10
101.6778938771844
 20
158.1700144521367
 30
0.0
 10
101.6778938771844
 20
158.7125390277576
 30
0.0
 10
101.6778938771844
 20
159.3740351634376
 30
0.0
 10
101.6778938771844
 20
159.9580062290406
 30
0.0
 10
101.6778938771844
 20
160.4201598658007
 30
0.0
 10
101.6778938771844
 20
160.9013282395595
 30
0.0
 10
101.6778938771844
 20
161.3422394552349
 30
0.0
 10
101.6778938771844
 20
161.7340485834482
 30
0.0
 10
101.6778938771844
 20
162.0729415195532
 30
0.0
 10
101.6778938771844
 20
162.2997544170883
 30
0.0
 10
101.6778938771844
 20
162.4132828374134
 30
0.0
  0
SPLINE
  5
157
330
1F
100
AcDbEntity
  8
0
  6
Continuous
 62
     7
370
    18
100
AcDbSpline
210
0.0
220
0.0
230
1.0
 70
    24
 71
     3
 72
    23
 73
    19
 74
     0
 42
0.000000001
 43
0.00000001
 40
0.0
 40
0.0
 40
0.0
 40
0.0
 40
0.0313055084069047
 40
0.0625354171774648
 40
0.0937653257842644
 40
0.1250708337010743
 40
0.1875873933451744
 40
0.2501039533358224
 40
0.3126205137640674
 40
0.375137073865774
 40
0.5000188570150316
 40
0.6249006401642889
 40
0.6874172002659956
 40
0.7499337606942406
 40
0.8124503206848885
 40
0.8749668803289885
 40
0.9374834398340949
 40
1.0
 40
1.0
 40
1.0
 40
1.0
 10
123.6778938771844
 20
162.4132828374134
 30
0.0
 10
123.6778938771844
 20
162.344476825983
 30
0.0
 10
123.6778938771844
 20
162.2070309626803
 30
0.0
 10
123.6778938771844
 20
162.0014410264297
 30
0.0
 10
123.6778938771844
 20
161.7968420360891
 30
0.0
 10
123.6778938771844
 20
161.5259870661409
 30
0.0
 10
123.6778938771844
 20
161.192084364053
 30
0.0
 10
123.6778938771844
 20
160.8034539262019
 30
0.0
 10
123.6778938771844
 20
160.4301744576879
 30
0.0
 10
123.6778938771844
 20
159.9585062772062
 30
0.0
 10
123.6778938771844
 20
159.4242186142391
 30
0.0
 10
123.6778938771844
 20
158.9860329443639
 30
0.0
 10
123.6778938771844
 20
158.7031871838524
 30
0.0
 10
123.6778938771844
 20
158.5268235606832
 30
0.0
 10
123.6778938771844
 20
158.3874513617682
 30
0.0
 10
123.6778938771844
 20
158.2878906270095
 30
0.0
 10
123.6778938771844
 20
158.2248940740595
 30
0.0
 10
123.6778938771844
 20
158.2171532510312
 30
0.0
 10
123.6778938771844
 20
158.2132828394966
 30
0.0
  0
SPLINE
  5
158
330
1F
100
AcDbEntity
  8
0
  6
Continuous
 62
     7
370
    18
100
AcDbSpline
210
0.0
220
0.0
230
1.0
 70
    24
 71
     3
 72
    10
 73
     6
 74
     0
 42
0.000000001
 43
0.00000001
 40
0.0
 40
0.0
 40
0.0
 40
0.0
 40
0.5
 40
0.5
 40
1.0
 40
1.0
 40
1.0
 40
1.0
 10
123.377893877377
 20
162.4132828374134
 30
0.0
 10
123.448604555592
 20
162.4132828374134
 30
0.0
 10
123.5314472680615
 20
162.4132828374134
 30
0.0
 10
123.6486045555723
 20
162.4132828374134
 30
0.0
 10
123.6778938774731
 20
162.4132828374134
 30
0.0
 10
123.6778938775703
 20
162.4132828374134
 30
0.0
  0
SPLINE
  5
159
330
1F
100
AcDbEntity
  8
0
  6
Continuous
 62
     7
370
    18
100
AcDbSpline
210
0.0
220
0.0
230
1.0
 70
    27
 71
     3
 72
    14
 73
    10
 74
     0
 42
0.000000001
 43
0.00000001
 40
0.0
 40
0.0
 40
0.0
 40
0.0
 40
0.25
 40
0.25
 40
0.5000000000000001
 40
0.5000000000000001
 40
0.75
 40
0.75
 40
1.0
 40
1.0
 40
1.0
 40
1.0
 10
123.3778938771844
 20
162.4132828355675
 30
0.0
 10
123.3778938771844
 20
161.2198424077984
 30
0.0
 10
123.3778938771844
 20
160.0751921404338
 30
0.0
 10
123.3778938771844
 20
158.3874125020419
 30
0.0
 10
123.3778938771844
 20
157.9132828372758
 30
0.0
 10
123.3778938771844
 20
157.913282837551
 30
0.0
 10
123.3778938771844
 20
158.3874125025812
 30
0.0
 10
123.3778938771844
 20
160.0751921413622
 30
0.0
 10
123.3778938771844
 20
161.2198424088363
 30
0.0
 10
123.3778938771844
 20
162.4132828366053
 30
0.0
  0
SPLINE
  5
15A
330
1F
100
AcDbEntity
  8
0
  6
Continuous
 62
     7
370
    18
100
AcDbSpline
210
0.0
220
0.0
230
1.0
 70
    24
 71
     3
 72
    10
 73
     6
 74
     0
 42
0.000000001
 43
0.00000001
 40
0.0
 40
0.0
 40
0.0
 40
0.0
 40
0.5
 40
0.5
 40
1.0
 40
1.0
 40
1.0
 40
1.0
 10
123.6778938775703
 20
162.4132828374134
 30
0.0
 10
123.6778938774731
 20
162.4132828374134
 30
0.0
 10
123.6486045555723
 20
162.4132828374134
 30
0.0
 10
123.5314472680615
 20
162.4132828374134
 30
0.0
 10
123.448604555592
 20
162.4132828374134
 30
0.0
 10
123.377893877377
 20
162.4132828374134
 30
0.0
  0
SPLINE
  5
15B
330
1F
100
AcDbEntity
  8
0
  6
Continuous
 62
     7
370
    18
100
AcDbSpline
210
0.0
220
0.0
230
1.0
 70
    27
 71
     3
 72
    12
 73
     8
 74
     0
 42
0.000000001
 43
0.00000001
 40
0.0
 40
0.0
 40
0.0
 40
0.0
 40
0.3333333333333333
 40
0.3333333333333333
 40
0.6666666666666665
 40
0.6666666666666665
 40
0.9999999999999999
 40
0.9999999999999999
 40
0.9999999999999999
 40
0.9999999999999999
 10
123.3778938771844
 20
162.4132828374134
 30
0.0
 10
123.3778938771844
 20
164.0207432749687
 30
0.0
 10
123.3778938771844
 20
165.5066669361638
 30
0.0
 10
123.3778938771844
 20
167.1141273733383
 30
0.0
 10
123.3778938771844
 20
167.1141273729864
 30
0.0
 10
123.3778938771844
 20
165.5066669346697
 30
0.0
 10
123.3778938771844
 20
164.0207432731228
 30
0.0
 10
123.3778938771844
 20
162.4132828355675
 30
0.0
  0
SPLINE
  5
15C
330
1F
100
AcDbEntity
  8
0
  6
Continuous
 62
     7
370
    18
100
AcDbSpline
210
0.0
220
0.0
230
1.0
 70
    24
 71
     3
 72
    23
 73
    19
 74
     0
 42
0.000000001
 43
0.00000001
 40
0.0
 40
0.0
 40
0.0
 40
0.0
 40
0.0313055084021313
 40
0.0625354171742862
 40
0.0937653257826732
 40
0.1250708337010742
 40
0.1875873933451742
 40
0.2501039533358222
 40
0.3126205137640673
 40
0.375137073865774
 40
0.5000188570150313
 40
0.6249006401642889
 40
0.6874172002659957
 40
0.7499337606942406
 40
0.8124503206848886
 40
0.8749668803289884
 40
0.9374834398372706
 40
1.0
 40
1.0
 40
1.0
 40
1.0
 10
123.6778938771844
 20
166.6132828353302
 30
0.0
 10
123.6778938771844
 20
166.6123153915695
 30
0.0
 10
123.6778938771844
 20
166.6103828403268
 30
0.0
 10
123.6778938771844
 20
166.5946721637818
 30
0.0
 10
123.6778938771844
 20
166.5695652143704
 30
0.0
 10
123.6778938771844
 20
166.5224708425806
 30
0.0
 10
123.6778938771844
 20
166.4389906491919
 30
0.0
 10
123.6778938771844
 20
166.2997751983624
 30
0.0
 10
123.6778938771844
 20
166.1233698179674
 30
0.0
 10
123.6778938771844
 20
165.8405377569159
 30
0.0
 10
123.6778938771844
 20
165.4023451307918
 30
0.0
 10
123.6778938771844
 20
164.8680601628941
 30
0.0
 10
123.6778938771844
 20
164.3963902247903
 30
0.0
 10
123.6778938771844
 20
164.0231153913529
 30
0.0
 10
123.6778938771844
 20
163.6344677322105
 30
0.0
 10
123.6778938771844
 20
163.2339697820138
 30
0.0
 10
123.6778938771844
 20
162.8256262793753
 30
0.0
 10
123.6778938771844
 20
162.5507306518803
 30
0.0
 10
123.6778938771844
 20
162.4132828374134
 30
0.0
  0
LINE
  5
15D
330
1F
100
AcDbEntity
  8
0
  6
Continuous
 62
     7
370
    18
100
AcDbLine
 10
116.6778936537
 20
163.7399328067
 30
0.0
 11
112.6778939293
 21
163.7399328067
 31
0.0
  0
LINE
  5
15E
330
1F
100
AcDbEntity
  8
0
  6
Continuous
 62
     7
370
    18
100
AcDbLine
 10
112.6778939293
 20
161.0866329759
 30
0.0
 11
116.6778936537
 21
161.0866329759
 31
0.0
  0
SPLINE
  5
15F
330
1F
100
AcDbEntity
  8
0
  6
Continuous
 62
     7
370
    18
100
AcDbSpline
210
0.0
220
0.0
230
1.0
 70
     8
 71
     3
 72
    14
 73
    10
 74
     0
 42
0.000000001
 43
0.00000001
 40
0.0
 40
0.0
 40
0.0
 40
0.0
 40
0.0836762611521473
 40
0.1667049001914257
 40
0.2508158839822997
 40
0.4999698398158449
 40
0.7492796192960632
 40
0.8740091570941635
 40
0.9999999999999999
 40
0.9999999999999999
 40
0.9999999999999999
 40
0.9999999999999999
 10
112.9778938771844
 20
158.1581639517503
 30
0.0
 10
112.9643000605733
 20
158.1583403882949
 30
0.0
 10
112.9372176382689
 20
158.158691895833
 30
0.0
 10
112.8972951295643
 20
158.161641287955
 30
0.0
 10
112.8338707595144
 20
158.1694064360326
 30
0.0
 10
112.7553261144589
 20
158.1887836163808
 30
0.0
 10
112.7029022806054
 20
158.2204334854229
 30
0.0
 10
112.6809032082375
 20
158.2497511229666
 30
0.0
 10
112.6789003461511
 20
158.2655814743248
 30
0.0
 10
112.6778938771844
 20
158.2735364690705
 30
0.0
  0
SPLINE
  5
160
330
1F
100
AcDbEntity
  8
0
  6
Continuous
 62
     7
370
    18
100
AcDbSpline
210
0.0
220
0.0
230
1.0
 70
     8
 71
     3
 72
    11
 73
     7
 74
     0
 42
0.000000001
 43
0.00000001
 40
0.0
 40
0.0
 40
0.0
 40
0.0
 40
0.2516029273659005
 40
0.5007650754588964
 40
0.7508242773942502
 40
1.0
 40
1.0
 40
1.0
 40
1.0
 10
113.1860571411844
 20
158.1879926887723
 30
0.0
 10
113.171687961954
 20
158.183467980323
 30
0.0
 10
113.1430889977173
 20
158.1744624572486
 30
0.0
 10
113.0914257861368
 20
158.1653007665576
 30
0.0
 10
113.0359669296069
 20
158.1592410411134
 30
0.0
 10
112.9972287100819
 20
158.1585225577127
 30
0.0
 10
112.9778938771844
 20
158.1581639517503
 30
0.0
  0
SPLINE
  5
161
330
1F
100
AcDbEntity
  8
0
  6
Continuous
 62
     7
370
    18
100
AcDbSpline
210
0.0
220
0.0
230
1.0
 70
     8
 71
     3
 72
    17
 73
    13
 74
     0
 42
0.000000001
 43
0.00000001
 40
0.0
 40
0.0
 40
0.0
 40
0.0
 40
0.0809202995338428
 40
0.1495661054480844
 40
0.2059365193618307
 40
0.2500312875690209
 40
0.3825802211884461
 40
0.5005759037234209
 40
0.6288999479137494
 40
0.750130864301123
 40
0.8762035009060173
 40
0.9999999999999999
 40
0.9999999999999999
 40
0.9999999999999999
 40
0.9999999999999999
 10
113.1860571419184
 20
158.187992690874
 30
0.0
 10
113.2181321910746
 20
158.1991115065571
 30
0.0
 10
113.2774169467165
 20
158.2196625669028
 30
0.0
 10
113.3644509443662
 20
158.2476728648835
 30
0.0
 10
113.4383507111302
 20
158.2704231190801
 30
0.0
 10
113.5431284143781
 20
158.301127867115
 30
0.0
 10
113.68198922555
 20
158.3377792188668
 30
0.0
 10
113.8705131225939
 20
158.3799490221618
 30
0.0
 10
114.0618610758065
 20
158.4139931024517
 30
0.0
 10
114.2642793740106
 20
158.4401394174572
 30
0.0
 10
114.469122487908
 20
158.4568986887125
 30
0.0
 10
114.60872731629
 20
158.4590524664561
 30
0.0
 10
114.6778938780664
 20
158.4601195456044
 30
0.0
  0
SPLINE
  5
162
330
1F
100
AcDbEntity
  8
0
  6
Continuous
 62
     7
370
    18
100
AcDbSpline
210
0.0
220
0.0
230
1.0
 70
     8
 71
     3
 72
    16
 73
    12
 74
     0
 42
0.000000001
 43
0.00000001
 40
0.0
 40
0.0
 40
0.0
 40
0.0
 40
0.0825131279004401
 40
0.1659968509629866
 40
0.2505485903695801
 40
0.3716103937905407
 40
0.4997548425967557
 40
0.6178132014559199
 40
0.7504583669370584
 40
0.8507320746232608
 40
1.0
 40
1.0
 40
1.0
 40
1.0
 10
114.6778938780664
 20
158.4601195456044
 30
0.0
 10
114.723982623341
 20
158.4596460818148
 30
0.0
 10
114.8167022520243
 20
158.4586935849199
 30
0.0
 10
114.9558993381816
 20
158.451085707039
 30
0.0
 10
115.1147690726686
 20
158.437285535335
 30
0.0
 10
115.2946260337193
 20
158.4138368889176
 30
0.0
 10
115.4857793183239
 20
158.3798540491012
 30
0.0
 10
115.6743308585333
 20
158.3376603621471
 30
0.0
 10
115.8394928897544
 20
158.2939814985654
 30
0.0
 10
116.0094250241188
 20
158.2427532054035
 30
0.0
 10
116.1097308402294
 20
158.2084886599986
 30
0.0
 10
116.1697306121724
 20
158.187992690874
 30
0.0
  0
SPLINE
  5
163
330
1F
100
AcDbEntity
  8
0
  6
Continuous
 62
     7
370
    18
100
AcDbSpline
210
0.0
220
0.0
230
1.0
 70
     8
 71
     3
 72
    12
 73
     8
 74
     0
 42
0.000000001
 43
0.00000001
 40
0.0
 40
0.0
 40
0.0
 40
0.0
 40
0.1667610443292105
 40
0.3323554049059704
 40
0.4999001905056918
 40
0.7487321180604068
 40
0.9999999999999999
 40
0.9999999999999999
 40
0.9999999999999999
 40
0.9999999999999999
 10
116.3778938771844
 20
158.1581639517503
 30
0.0
 10
116.3649692474612
 20
158.1583247197789
 30
0.0
 10
116.3392104105445
 20
158.1586451310803
 30
0.0
 10
116.3011585944535
 20
158.1613039993537
 30
0.0
 10
116.2586516852785
 20
158.1662769751711
 30
0.0
 10
116.2126495344875
 20
158.174485423908
 30
0.0
 10
116.1840833017201
 20
158.1834756701782
 30
0.0
 10
116.1697306131844
 20
158.1879926887723
 30
0.0
  0
SPLINE
  5
164
330
1F
100
AcDbEntity
  8
0
  6
Continuous
 62
     7
370
    18
100
AcDbSpline
210
0.0
220
0.0
230
1.0
 70
     8
 71
     3
 72
    13
 73
     9
 74
     0
 42
0.000000001
 43
0.00000001
 40
0.0
 40
0.0
 40
0.0
 40
0.0
 40
0.1260238509681709
 40
0.2507860845933101
 40
0.500494016442946
 40
0.7497201447862532
 40
0.8751047801654462
 40
1.0
 40
1.0
 40
1.0
 40
1.0
 10
116.6778938771844
 20
158.2735364690705
 30
0.0
 10
116.6768872331487
 20
158.2655811967628
 30
0.0
 10
116.6748840225314
 20
158.2497502919096
 30
0.0
 10
116.6528745939047
 20
158.2204204444046
 30
0.0
 10
116.6003712237704
 20
158.1887033791957
 30
0.0
 10
116.5162767247145
 20
158.1681466285848
 30
0.0
 10
116.4389144686034
 20
158.1593708137918
 30
0.0
 10
116.3982075405554
 20
158.158565714314
 30
0.0
 10
116.3778938771844
 20
158.1581639517503
 30
0.0
  0
SPLINE
  5
165
330
1F
100
AcDbEntity
  8
0
  6
Continuous
 62
     7
370
    18
100
AcDbSpline
210
0.0
220
0.0
230
1.0
 70
    24
 71
     3
 72
     9
 73
     5
 74
     0
 42
0.000000001
 43
0.00000001
 40
0.0
 40
0.0
 40
0.0
 40
0.0
 40
0.1340046825520052
 40
1.0
 40
1.0
 40
1.0
 40
1.0
 10
169.6778948904634
 20
164.992791240619
 30
0.0
 10
169.6778948904634
 20
165.0058113257394
 30
0.0
 10
169.6778948904634
 20
165.1029727448221
 30
0.0
 10
169.6778948904634
 20
165.10849793752
 30
0.0
 10
169.6778948904634
 20
165.1132827285244
 30
0.0
  0
SPLINE
  5
166
330
1F
100
AcDbEntity
  8
0
  6
Continuous
 62
     7
370
    18
100
AcDbSpline
210
0.0
220
0.0
230
1.0
 70
    24
 71
     3
 72
    10
 73
     6
 74
     0
 42
0.000000001
 43
0.00000001
 40
0.0
 40
0.0
 40
0.0
 40
0.0
 40
0.5
 40
0.5
 40
1.0
 40
1.0
 40
1.0
 40
1.0
 10
170.6778938769918
 20
162.4132828374134
 30
0.0
 10
170.6071831987768
 20
162.4132828374134
 30
0.0
 10
170.5243404863074
 20
162.4132828374134
 30
0.0
 10
170.4071831987965
 20
162.4132828374134
 30
0.0
 10
170.3778938768958
 20
162.4132828374134
 30
0.0
 10
170.3778938767986
 20
162.4132828374134
 30
0.0
  0
SPLINE
  5
167
330
1F
100
AcDbEntity
  8
0
  6
Continuous
 62
     7
370
    18
100
AcDbSpline
210
0.0
220
0.0
230
1.0
 70
    24
 71
     3
 72
    13
 73
     9
 74
     0
 42
0.000000001
 43
0.00000001
 40
0.0
 40
0.0
 40
0.0
 40
0.0
 40
0.3773371166629049
 40
0.7462462533894331
 40
0.8727429966130871
 40
0.942998951678659
 40
0.9722730668418967
 40
0.9999999999999999
 40
0.9999999999999999
 40
0.9999999999999999
 40
0.9999999999999999
 10
170.454372048533
 20
159.5132829281999
 30
0.0
 10
170.4573013257359
 20
159.5132829281999
 30
0.0
 10
170.4630944535287
 20
159.5132829281999
 30
0.0
 10
170.5059779262097
 20
159.5132829281999
 30
0.0
 10
170.5761439269955
 20
159.5132829281999
 30
0.0
 10
170.6212995139633
 20
159.5132829281999
 30
0.0
 10
170.6540355936256
 20
159.5132829281999
 30
0.0
 10
170.6700883830836
 20
159.5132829281999
 30
0.0
 10
170.6778969170213
 20
159.5132829281999
 30
0.0
  0
SPLINE
  5
168
330
1F
100
AcDbEntity
  8
0
  6
Continuous
 62
     7
370
    18
100
AcDbSpline
210
0.0
220
0.0
230
1.0
 70
    24
 71
     3
 72
    10
 73
     6
 74
     0
 42
0.000000001
 43
0.00000001
 40
0.0
 40
0.0
 40
0.0
 40
0.0
 40
0.5000000000000002
 40
0.5000000000000002
 40
1.0
 40
1.0
 40
1.0
 40
1.0
 10
170.6778938771844
 20
159.5132828377041
 30
0.0
 10
170.6778938771844
 20
159.6827429189348
 30
0.0
 10
170.6778938771844
 20
160.0590713828923
 30
0.0
 10
170.6778938771844
 20
161.1080800557717
 30
0.0
 10
170.6778938771844
 20
161.7514281342241
 30
0.0
 10
170.6778938771844
 20
162.4132828361828
 30
0.0
  0
SPLINE
  5
169
330
1F
100
AcDbEntity
  8
0
  6
Continuous
 62
     7
370
    18
100
AcDbSpline
210
0.0
220
0.0
230
1.0
 70
    24
 71
     3
 72
    10
 73
     6
 74
     0
 42
0.000000001
 43
0.00000001
 40
0.0
 40
0.0
 40
0.0
 40
0.0
 40
0.5
 40
0.5
 40
1.0
 40
1.0
 40
1.0
 40
1.0
 10
170.3778938767986
 20
162.4132828374134
 30
0.0
 10
170.3778938768958
 20
162.4132828374134
 30
0.0
 10
170.4071831987965
 20
162.4132828374134
 30
0.0
 10
170.5243404863074
 20
162.4132828374134
 30
0.0
 10
170.6071831987768
 20
162.4132828374134
 30
0.0
 10
170.6778938769918
 20
162.4132828374134
 30
0.0
  0
SPLINE
  5
16A
330
1F
100
AcDbEntity
  8
0
  6
Continuous
 62
     7
370
    18
100
AcDbSpline
210
0.0
220
0.0
230
1.0
 70
    24
 71
     3
 72
    16
 73
    12
 74
     0
 42
0.000000001
 43
0.00000001
 40
0.0
 40
0.0
 40
0.0
 40
0.0
 40
0.0274786225120259
 40
0.0564793713669658
 40
0.1259306911938733
 40
0.2509795896998265
 40
0.3654402237144126
 40
0.5001905045906431
 40
0.7489872846582303
 40
0.9980065672580789
 40
1.0
 40
1.0
 40
1.0
 40
1.0
 10
170.6778969170213
 20
165.3132828544392
 30
0.0
 10
170.6701506594
 20
165.3132828544392
 30
0.0
 10
170.6542290548614
 20
165.3132828544392
 30
0.0
 10
170.6217507157182
 20
165.3132828544392
 30
0.0
 10
170.5768945299467
 20
165.3132828544392
 30
0.0
 10
170.5378757172458
 20
165.3132828544392
 30
0.0
 10
170.5061481728061
 20
165.3132828544392
 30
0.0
 10
170.4775425272169
 20
165.3132828544392
 30
0.0
 10
170.4604087260796
 20
165.3132828544392
 30
0.0
 10
170.4508827497818
 20
165.3132828544392
 30
0.0
 10
170.4543445563854
 20
165.3132828544392
 30
0.0
 10
170.454372048533
 20
165.3132828544392
 30
0.0
  0
SPLINE
  5
16B
330
1F
100
AcDbEntity
  8
0
  6
Continuous
 62
     7
370
    18
100
AcDbSpline
210
0.0
220
0.0
230
1.0
 70
    24
 71
     3
 72
    10
 73
     6
 74
     0
 42
0.000000001
 43
0.00000001
 40
0.0
 40
0.0
 40
0.0
 40
0.0
 40
0.4999999999999999
 40
0.4999999999999999
 40
1.0
 40
1.0
 40
1.0
 40
1.0
 10
170.6778938771844
 20
162.4132828361828
 30
0.0
 10
170.6778938771844
 20
163.075137538655
 30
0.0
 10
170.6778938771844
 20
163.7184856177571
 30
0.0
 10
170.6778938771844
 20
164.767494291709
 30
0.0
 10
170.6778938771844
 20
165.1438227560133
 30
0.0
 10
170.6778938771844
 20
165.3132828372607
 30
0.0
  0
LINE
  5
16C
330
1F
100
AcDbEntity
  8
0
  6
Continuous
 62
     7
370
    18
100
AcDbLine
 10
123.6778948011
 20
165.3132828544
 30
0.0
 11
123.9674336763
 21
165.3132828544
 31
0.0
  0
LINE
  5
16D
330
1F
100
AcDbEntity
  8
0
  6
Continuous
 62
     7
370
    18
100
AcDbLine
 10
124.9699987026
 20
165.3132828544
 30
0.0
 11
128.9672966601
 21
165.3132828544
 31
0.0
  0
LINE
  5
16E
330
1F
100
AcDbEntity
  8
0
  6
Continuous
 62
     7
370
    18
100
AcDbLine
 10
129.9705527277
 20
165.3132828544
 30
0.0
 11
133.9674613924
 21
165.3132828544
 31
0.0
  0
LINE
  5
16F
330
1F
100
AcDbEntity
  8
0
  6
Continuous
 62
     7
370
    18
100
AcDbLine
 10
134.970607564
 20
165.3132828544
 30
0.0
 11
138.9673914315
 21
165.3132828544
 31
0.0
  0
LINE
  5
170
330
1F
100
AcDbEntity
  8
0
  6
Continuous
 62
     7
370
    18
100
AcDbLine
 10
139.9700011613
 20
165.3132828544
 30
0.0
 11
143.677894354
 21
165.3132828544
 31
0.0
  0
LINE
  5
171
330
1F
100
AcDbEntity
  8
0
  6
Continuous
 62
     7
370
    18
100
AcDbLine
 10
143.677894354
 20
159.5132829282
 30
0.0
 11
140.8580582143
 21
159.5132829282
 31
0.0
  0
LINE
  5
172
330
1F
100
AcDbEntity
  8
0
  6
Continuous
 62
     7
370
    18
100
AcDbLine
 10
139.8531984092
 20
159.5132829282
 30
0.0
 11
135.8589998932
 21
159.5132829282
 31
0.0
  0
LINE
  5
173
330
1F
100
AcDbEntity
  8
0
  6
Continuous
 62
     7
370
    18
100
AcDbLine
 10
134.8535812946
 20
159.5132829282
 30
0.0
 11
130.8578330578
 21
159.5132829282
 31
0.0
  0
LINE
  5
174
330
1F
100
AcDbEntity
  8
0
  6
Continuous
 62
     7
370
    18
100
AcDbLine
 10
129.8532619627
 20
159.5132829282
 30
0.0
 11
125.8572510929
 21
159.5132829282
 31
0.0
  0
LINE
  5
175
330
1F
100
AcDbEntity
  8
0
  6
Continuous
 62
     7
370
    18
100
AcDbLine
 10
124.8537770958
 20
159.5132829282
 30
0.0
 11
123.6778948011
 21
159.5132829282
 31
0.0
  0
LINE
  5
176
330
1F
100
AcDbEntity
  8
0
  6
Continuous
 62
     7
370
    18
100
AcDbLine
 10
170.677896917
 20
165.3132828544
 30
0.0
 11
171.1778904797
 21
165.3132828544
 31
0.0
  0
LINE
  5
177
330
1F
100
AcDbEntity
  8
0
  6
Continuous
 62
     7
370
    18
100
AcDbLine
 10
171.1778904797
 20
159.5132829282
 30
0.0
 11
170.677896917
 21
159.5132829282
 31
0.0
  0
SPLINE
  5
178
330
1F
100
AcDbEntity
  8
0
  6
Continuous
 62
     7
370
    18
100
AcDbSpline
210
0.0
220
0.0
230
1.0
 70
    24
 71
     3
 72
    10
 73
     6
 74
     0
 42
0.000000001
 43
0.00000001
 40
0.0
 40
0.0
 40
0.0
 40
0.0
 40
0.4999999999999998
 40
0.4999999999999998
 40
1.0
 40
1.0
 40
1.0
 40
1.0
 10
171.1778938771844
 20
162.4132828361828
 30
0.0
 10
171.1778938771844
 20
161.7514281342241
 30
0.0
 10
171.1778938771844
 20
161.1080800557717
 30
0.0
 10
171.1778938771844
 20
160.0590713828923
 30
0.0
 10
171.1778938771844
 20
159.6827429189348
 30
0.0
 10
171.1778938771844
 20
159.5132828377041
 30
0.0
  0
SPLINE
  5
179
330
1F
100
AcDbEntity
  8
0
  6
Continuous
 62
     7
370
    18
100
AcDbSpline
210
0.0
220
0.0
230
1.0
 70
    24
 71
     3
 72
    10
 73
     6
 74
     0
 42
0.000000001
 43
0.00000001
 40
0.0
 40
0.0
 40
0.0
 40
0.0
 40
0.5000000000000001
 40
0.5000000000000001
 40
1.0
 40
1.0
 40
1.0
 40
1.0
 10
171.1778938771844
 20
165.3132828372607
 30
0.0
 10
171.1778938771844
 20
165.1438227560133
 30
0.0
 10
171.1778938771844
 20
164.767494291709
 30
0.0
 10
171.1778938771844
 20
163.7184856177571
 30
0.0
 10
171.1778938771844
 20
163.075137538655
 30
0.0
 10
171.1778938771844
 20
162.4132828361828
 30
0.0
  0
SPLINE
  5
17A
330
1F
100
AcDbEntity
  8
0
  6
Continuous
 62
     7
370
    18
100
AcDbSpline
210
0.0
220
0.0
230
1.0
 70
    24
 71
     3
 72
     9
 73
     5
 74
     0
 42
0.000000001
 43
0.00000001
 40
0.0
 40
0.0
 40
0.0
 40
0.0
 40
0.0002739772296562
 40
1.0
 40
1.0
 40
1.0
 40
1.0
 10
171.2778698207498
 20
159.5132829281999
 30
0.0
 10
171.2778772736025
 20
159.5132829281999
 30
0.0
 10
171.3050797264241
 20
159.5132829282003
 30
0.0
 10
171.241476390139
 20
159.5132829282001
 30
0.0
 10
171.1778904797197
 20
159.5132829281999
 30
0.0
  0
SPLINE
  5
17B
330
1F
100
AcDbEntity
  8
0
  6
Continuous
 62
     7
370
    18
100
AcDbSpline
210
0.0
220
0.0
230
1.0
 70
    24
 71
     3
 72
     9
 73
     5
 74
     0
 42
0.000000001
 43
0.00000001
 40
0.0
 40
0.0
 40
0.0
 40
0.0
 40
0.9997260221191153
 40
1.0
 40
1.0
 40
1.0
 40
1.0
 10
171.1778904797197
 20
165.3132828544392
 30
0.0
 10
171.2414763578013
 20
165.313282854439
 30
0.0
 10
171.3050796617813
 20
165.3132828544387
 30
0.0
 10
171.2778772736025
 20
165.3132828544392
 30
0.0
 10
171.2778698207498
 20
165.3132828544392
 30
0.0
  0
SPLINE
  5
17C
330
1F
100
AcDbEntity
  8
0
  6
Continuous
 62
     7
370
    18
100
AcDbSpline
210
0.0
220
0.0
230
1.0
 70
    24
 71
     3
 72
    10
 73
     6
 74
     0
 42
0.000000001
 43
0.00000001
 40
0.0
 40
0.0
 40
0.0
 40
0.0
 40
0.4999999999999999
 40
0.4999999999999999
 40
0.9999999999999999
 40
0.9999999999999999
 40
0.9999999999999999
 40
0.9999999999999999
 10
171.6778938771844
 20
162.4132828369644
 30
0.0
 10
171.6778938771844
 20
161.7502603770928
 30
0.0
 10
171.6778938771844
 20
161.1143435618294
 30
0.0
 10
171.6778938771844
 20
160.176688206951
 30
0.0
 10
171.6778938771844
 20
159.9132828374898
 30
0.0
 10
171.6778938771844
 20
159.9132828374134
 30
0.0
  0
SPLINE
  5
17D
330
1F
100
AcDbEntity
  8
0
  6
Continuous
 62
     7
370
    18
100
AcDbSpline
210
0.0
220
0.0
230
1.0
 70
    24
 71
     3
 72
    10
 73
     6
 74
     0
 42
0.000000001
 43
0.00000001
 40
0.0
 40
0.0
 40
0.0
 40
0.0
 40
0.5000000000000002
 40
0.5000000000000002
 40
1.0
 40
1.0
 40
1.0
 40
1.0
 10
171.6778938771844
 20
164.9132828374134
 30
0.0
 10
171.6778938771844
 20
164.9132828375494
 30
0.0
 10
171.6778938771844
 20
164.649877468121
 30
0.0
 10
171.6778938771844
 20
163.712222113001
 30
0.0
 10
171.6778938771844
 20
163.0763052975026
 30
0.0
 10
171.6778938771844
 20
162.4132828374134
 30
0.0
  0
SPLINE
  5
17E
330
1F
100
AcDbEntity
  8
0
  6
Continuous
 62
     7
370
    18
100
AcDbSpline
210
0.0
220
0.0
230
1.0
 70
    24
 71
     3
 72
    10
 73
     6
 74
     0
 42
0.000000001
 43
0.00000001
 40
0.0
 40
0.0
 40
0.0
 40
0.0
 40
0.4999999999999999
 40
0.4999999999999999
 40
1.0
 40
1.0
 40
1.0
 40
1.0
 10
114.6778938781484
 20
153.1132828374134
 30
0.0
 10
115.3011349904278
 20
153.1132828374134
 30
0.0
 10
115.8988967967183
 20
153.1132828374134
 30
0.0
 10
116.7802928301007
 20
153.1132828374134
 30
0.0
 10
117.0278938772563
 20
153.1132828374135
 30
0.0
 10
117.0278938771844
 20
153.1132828374135
 30
0.0
  0
SPLINE
  5
17F
330
1F
100
AcDbEntity
  8
0
  6
Continuous
 62
     7
370
    18
100
AcDbSpline
210
0.0
220
0.0
230
1.0
 70
    24
 71
     3
 72
    10
 73
     6
 74
     0
 42
0.000000001
 43
0.00000001
 40
0.0
 40
0.0
 40
0.0
 40
0.0
 40
0.4999999999999999
 40
0.4999999999999999
 40
1.0
 40
1.0
 40
1.0
 40
1.0
 10
112.3278938771845
 20
153.1132828374134
 30
0.0
 10
112.3278938773123
 20
153.1132828374134
 30
0.0
 10
112.5754949248201
 20
153.1132828374134
 30
0.0
 10
113.4568909589945
 20
153.1132828374134
 30
0.0
 10
114.0546527656646
 20
153.1132828374135
 30
0.0
 10
114.6778938781484
 20
153.1132828374135
 30
0.0
  0
SPLINE
  5
180
330
1F
100
AcDbEntity
  8
0
  6
Continuous
 62
     7
370
    18
100
AcDbSpline
210
0.0
220
0.0
230
1.0
 70
    24
 71
     3
 72
    10
 73
     6
 74
     0
 42
0.000000001
 43
0.00000001
 40
0.0
 40
0.0
 40
0.0
 40
0.0
 40
0.4999999999999999
 40
0.4999999999999999
 40
1.0
 40
1.0
 40
1.0
 40
1.0
 10
114.6778938781484
 20
150.6132828374134
 30
0.0
 10
115.3011349904278
 20
150.6132828374134
 30
0.0
 10
115.8988967967183
 20
150.6132828374134
 30
0.0
 10
116.7802928301007
 20
150.6132828374134
 30
0.0
 10
117.0278938772563
 20
150.6132828374134
 30
0.0
 10
117.0278938771844
 20
150.6132828374134
 30
0.0
  0
SPLINE
  5
181
330
1F
100
AcDbEntity
  8
0
  6
Continuous
 62
     7
370
    18
100
AcDbSpline
210
0.0
220
0.0
230
1.0
 70
    24
 71
     3
 72
    10
 73
     6
 74
     0
 42
0.000000001
 43
0.00000001
 40
0.0
 40
0.0
 40
0.0
 40
0.0
 40
0.4999999999999999
 40
0.4999999999999999
 40
1.0
 40
1.0
 40
1.0
 40
1.0
 10
112.3278938771845
 20
150.6132828374134
 30
0.0
 10
112.3278938773123
 20
150.6132828374134
 30
0.0
 10
112.5754949248201
 20
150.6132828374134
 30
0.0
 10
113.4568909589945
 20
150.6132828374134
 30
0.0
 10
114.0546527656646
 20
150.6132828374134
 30
0.0
 10
114.6778938781484
 20
150.6132828374134
 30
0.0
  0
SPLINE
  5
182
330
1F
100
AcDbEntity
  8
0
  6
Continuous
 62
     7
370
    18
100
AcDbSpline
210
0.0
220
0.0
230
1.0
 70
    24
 71
     3
 72
    10
 73
     6
 74
     0
 42
0.000000001
 43
0.00000001
 40
0.0
 40
0.0
 40
0.0
 40
0.0
 40
0.5000000000000001
 40
0.5000000000000001
 40
1.0
 40
1.0
 40
1.0
 40
1.0
 10
116.6778938771844
 20
148.1132828374134
 30
0.0
 10
116.6778938772456
 20
148.1132828374134
 30
0.0
 10
116.467169581794
 20
148.1132828374134
 30
0.0
 10
115.7170452980643
 20
148.1132828374134
 30
0.0
 10
115.2083118459022
 20
148.1132828374135
 30
0.0
 10
114.6778938780049
 20
148.1132828374135
 30
0.0
  0
SPLINE
  5
183
330
1F
100
AcDbEntity
  8
0
  6
Continuous
 62
     7
370
    18
100
AcDbSpline
210
0.0
220
0.0
230
1.0
 70
    24
 71
     3
 72
    10
 73
     6
 74
     0
 42
0.000000001
 43
0.00000001
 40
0.0
 40
0.0
 40
0.0
 40
0.0
 40
0.5000000000000002
 40
0.5000000000000002
 40
1.0
 40
1.0
 40
1.0
 40
1.0
 10
114.6778938780049
 20
148.1132828374134
 30
0.0
 10
114.1474759099335
 20
148.1132828374134
 30
0.0
 10
113.6387424574483
 20
148.1132828374134
 30
0.0
 10
112.8886181730446
 20
148.1132828374134
 30
0.0
 10
112.6778938772932
 20
148.1132828374135
 30
0.0
 10
112.6778938771844
 20
148.1132828374135
 30
0.0
  0
SPLINE
  5
184
330
1F
100
AcDbEntity
  8
0
  6
Continuous
 62
     7
370
    18
100
AcDbSpline
210
0.0
220
0.0
230
1.0
 70
     8
 71
     3
 72
    14
 73
    10
 74
     0
 42
0.000000001
 43
0.00000001
 40
0.0
 40
0.0
 40
0.0
 40
0.0
 40
0.2500000000000002
 40
0.2500000000000002
 40
0.5000000000000001
 40
0.5000000000000001
 40
0.75
 40
0.75
 40
1.0
 40
1.0
 40
1.0
 40
1.0
 10
116.6962612241844
 20
155.1622484284134
 30
0.0
 10
116.6592920951844
 20
155.1756111214134
 30
0.0
 10
116.6153014981844
 20
155.1954098904134
 30
0.0
 10
116.5151153768511
 20
155.2593059464134
 30
0.0
 10
116.4592935301844
 20
155.3032748374134
 30
0.0
 10
116.3473058821844
 20
155.4261434654134
 30
0.0
 10
116.2909123721845
 20
155.5052433114134
 30
0.0
 10
116.2012739561845
 20
155.7054575034134
 30
0.0
 10
116.1697307481844
 20
155.8242063054134
 30
0.0
 10
116.1697306121844
 20
155.9497311814134
 30
0.0
  0
LINE
  5
185
330
1F
100
AcDbEntity
  8
0
  6
Continuous
 62
     7
370
    18
100
AcDbLine
 10
116.1697305293
 20
158.1879925109
 30
0.0
 11
116.1697305293
 21
155.9497309975
 31
0.0
  0
LINE
  5
186
330
1F
100
AcDbEntity
  8
0
  6
Continuous
 62
     7
370
    18
100
AcDbLine
 10
113.1860570537
 20
155.9497309975
 30
0.0
 11
113.1860570537
 21
158.1879925109
 31
0.0
  0
SPLINE
  5
187
330
1F
100
AcDbEntity
  8
0
  6
Continuous
 62
     7
370
    18
100
AcDbSpline
210
0.0
220
0.0
230
1.0
 70
     8
 71
     3
 72
    18
 73
    14
 74
     0
 42
0.000000001
 43
0.00000001
 40
0.0
 40
0.0
 40
0.0
 40
0.0
 40
0.088409629351658
 40
0.1712958459353659
 40
0.2489654135437478
 40
0.3779336499071832
 40
0.4985113658609225
 40
0.6265384492203773
 40
0.7488730468569614
 40
0.8122711756634342
 40
0.8742355429967269
 40
0.9380760258737811
 40
0.9999999999999999
 40
0.9999999999999999
 40
0.9999999999999999
 40
0.9999999999999999
 10
112.6595265302602
 20
155.1622484292009
 30
0.0
 10
112.6738834500975
 20
155.167784365212
 30
0.0
 10
112.7017003377666
 20
155.1785103783058
 30
0.0
 10
112.7487236751927
 20
155.2018950922557
 30
0.0
 10
112.8077670635544
 20
155.2369762032735
 30
0.0
 10
112.8804318695982
 20
155.2910297498844
 30
0.0
 10
112.9674658628
 20
155.3768754308689
 30
0.0
 10
113.0501870721298
 20
155.4860158760717
 30
0.0
 10
113.1100398692621
 20
155.5998340089184
 30
0.0
 10
113.1471672777057
 20
155.6996602976394
 30
0.0
 10
113.1687248611609
 20
155.7805141611687
 30
0.0
 10
113.1832426108833
 20
155.8641205821272
 30
0.0
 10
113.1851285447431
 20
155.9214857092442
 30
0.0
 10
113.1860571419184
 20
155.9497311828222
 30
0.0
  0
SPLINE
  5
188
330
1F
100
AcDbEntity
  8
0
  6
Continuous
 62
     7
370
    18
100
AcDbSpline
210
0.0
220
0.0
230
1.0
 70
     8
 71
     3
 72
    12
 73
     8
 74
     0
 42
0.000000001
 43
0.00000001
 40
0.0
 40
0.0
 40
0.0
 40
0.0
 40
0.4999999999999996
 40
0.4999999999999996
 40
0.7499999999999998
 40
0.7499999999999998
 40
1.0
 40
1.0
 40
1.0
 40
1.0
 10
112.6778938771844
 20
155.9497310913875
 30
0.0
 10
112.6778938814838
 20
155.9497311065496
 30
0.0
 10
112.6979796826422
 20
155.9497311203195
 30
0.0
 10
112.7791880912682
 20
155.9497311224876
 30
0.0
 10
112.8142516352121
 20
155.9497311200411
 30
0.0
 10
112.8929894835217
 20
155.9497311085015
 30
0.0
 10
112.9363564948735
 20
155.9497310994488
 30
0.0
 10
112.9778938829806
 20
155.9497310885988
 30
0.0
  0
LINE
  5
189
330
1F
100
AcDbEntity
  8
0
  6
Continuous
 62
     7
370
    18
100
AcDbLine
 10
112.9778938854
 20
155.9497309975
 30
0.0
 11
112.9778938854
 21
158.1581641115
 31
0.0
  0
SPLINE
  5
18A
330
1F
100
AcDbEntity
  8
0
  6
Continuous
 62
     7
370
    18
100
AcDbSpline
210
0.0
220
0.0
230
1.0
 70
     8
 71
     3
 72
    10
 73
     6
 74
     0
 42
0.000000001
 43
0.00000001
 40
0.0
 40
0.0
 40
0.0
 40
0.0
 40
0.5
 40
0.5
 40
1.0
 40
1.0
 40
1.0
 40
1.0
 10
116.9778938637783
 20
155.4602361515686
 30
0.0
 10
116.9127964185218
 20
155.4574922101916
 30
0.0
 10
116.8371480712314
 20
155.4265960436157
 30
0.0
 10
116.7280549771907
 20
155.3111676646156
 30
0.0
 10
116.6988545439675
 20
155.2311262426919
 30
0.0
 10
116.6962612006582
 20
155.1622484369171
 30
0.0
  0
SPLINE
  5
18B
330
1F
100
AcDbEntity
  8
0
  6
Continuous
 62
     7
370
    18
100
AcDbSpline
210
0.0
220
0.0
230
1.0
 70
    24
 71
     3
 72
    12
 73
     8
 74
     0
 42
0.000000001
 43
0.00000001
 40
0.0
 40
0.0
 40
0.0
 40
0.0
 40
0.249999999999998
 40
0.249999999999998
 40
0.499999999999996
 40
0.499999999999996
 40
1.0
 40
1.0
 40
1.0
 40
1.0
 10
116.3778938775547
 20
155.9497311814134
 30
0.0
 10
116.4194312671452
 20
155.9497311814134
 30
0.0
 10
116.4627982800016
 20
155.9497311814134
 30
0.0
 10
116.5415361300491
 20
155.9497311814134
 30
0.0
 10
116.5765996741751
 20
155.9497311814134
 30
0.0
 10
116.657808080755
 20
155.9497311814134
 30
0.0
 10
116.6778938771844
 20
155.9497311814134
 30
0.0
 10
116.6778938771844
 20
155.9497311814134
 30
0.0
  0
SPLINE
  5
18C
330
1F
100
AcDbEntity
  8
0
  6
Continuous
 62
     7
370
    18
100
AcDbSpline
210
0.0
220
0.0
230
1.0
 70
    24
 71
     3
 72
    10
 73
     6
 74
     0
 42
0.000000001
 43
0.00000001
 40
0.0
 40
0.0
 40
0.0
 40
0.0
 40
0.5
 40
0.5
 40
1.0
 40
1.0
 40
1.0
 40
1.0
 10
116.1697306121844
 20
155.9497311814134
 30
0.0
 10
116.1926602014609
 20
155.9497311814134
 30
0.0
 10
116.2217442986929
 20
155.9497311814134
 30
0.0
 10
116.2923283221694
 20
155.9497311814134
 30
0.0
 10
116.3339421381137
 20
155.9497311814134
 30
0.0
 10
116.3778938775547
 20
155.9497311814134
 30
0.0
  0
LINE
  5
18D
330
1F
100
AcDbEntity
  8
0
  6
Continuous
 62
     7
370
    18
100
AcDbLine
 10
116.3778941633
 20
158.1581641115
 30
0.0
 11
116.3778941633
 21
155.9497309975
 31
0.0
  0
SPLINE
  5
18E
330
1F
100
AcDbEntity
  8
0
  6
Continuous
 62
     7
370
    18
100
AcDbSpline
210
0.0
220
0.0
230
1.0
 70
     8
 71
     3
 72
    10
 73
     6
 74
     0
 42
0.000000001
 43
0.00000001
 40
0.0
 40
0.0
 40
0.0
 40
0.0
 40
0.5
 40
0.5
 40
1.0
 40
1.0
 40
1.0
 40
1.0
 10
112.6595264693882
 20
155.1622484064383
 30
0.0
 10
112.6569331290709
 20
155.2311262083614
 30
0.0
 10
112.6277327023891
 20
155.3111676237708
 30
0.0
 10
112.5186396251629
 20
155.4265960003303
 30
0.0
 10
112.4429912861643
 20
155.4574921724788
 30
0.0
 10
112.3778938425406
 20
155.4602361223388
 30
0.0
  0
SPLINE
  5
18F
330
1F
100
AcDbEntity
  8
0
  6
Continuous
 62
     7
370
    18
100
AcDbSpline
210
0.0
220
0.0
230
1.0
 70
     8
 71
     3
 72
    10
 73
     6
 74
     0
 42
0.000000001
 43
0.00000001
 40
0.0
 40
0.0
 40
0.0
 40
0.0
 40
0.5
 40
0.5
 40
1.0
 40
1.0
 40
1.0
 40
1.0
 10
112.9778938829806
 20
155.9497310885988
 30
0.0
 10
113.021845620852
 20
155.949731077118
 30
0.0
 10
113.0634594352994
 20
155.9497310637572
 30
0.0
 10
113.1340434566668
 20
155.9497310374932
 30
0.0
 10
113.163127553258
 20
155.9497310246254
 30
0.0
 10
113.1860571421842
 20
155.9497310130699
 30
0.0
  0
LINE
  5
190
330
1F
100
AcDbEntity
  8
0
  6
Continuous
 62
   144
370
    18
100
AcDbLine
 10
164.5601767601
 20
159.9490385163
 30
0.0
 11
164.5601767601
 21
164.8775270335
 31
0.0
  0
SPLINE
  5
191
330
1F
100
AcDbEntity
  8
0
  6
Continuous
 62
   144
370
    18
100
AcDbSpline
210
0.0
220
0.0
230
1.0
 70
    24
 71
     3
 72
    17
 73
    13
 74
     0
 42
0.000000001
 43
0.00000001
 40
0.0
 40
0.0
 40
0.0
 40
0.0
 40
0.0625338373402157
 40
0.1250106772911919
 40
0.1874875174435967
 40
0.2500213553875467
 40
0.3750177961085821
 40
0.5000142374440408
 40
0.6250106770718454
 40
0.7500071163002331
 40
0.875003558602223
 40
1.0
 40
1.0
 40
1.0
 40
1.0
 10
164.5601749881844
 20
156.2841890658698
 30
0.0
 10
164.5601749881845
 20
156.3489738271639
 30
0.0
 10
164.5601749881844
 20
156.4784843007252
 30
0.0
 10
164.5601749881844
 20
156.6796183129113
 30
0.0
 10
164.5601749881844
 20
156.8855848020932
 30
0.0
 10
164.5601749881845
 20
157.1670762467127
 30
0.0
 10
164.5601749881844
 20
157.5310539711531
 30
0.0
 10
164.5601749881845
 20
157.9856101026477
 30
0.0
 10
164.5601749881844
 20
158.4562026414031
 30
0.0
 10
164.5601749881845
 20
158.9414166250336
 30
0.0
 10
164.5601749881844
 20
159.4385973322452
 30
0.0
 10
164.5601749881844
 20
159.7788914702828
 30
0.0
 10
164.5601749881844
 20
159.9490385386862
 30
0.0
  0
LINE
  5
192
330
1F
100
AcDbEntity
  8
0
  6
Continuous
 62
   144
370
    18
100
AcDbLine
 10
164.5601767601
 20
153.8199443496
 30
0.0
 11
164.5601767601
 21
156.2841889575
 31
0.0
  0
SPLINE
  5
193
330
1F
100
AcDbEntity
  8
0
  6
Continuous
 62
   144
370
    18
100
AcDbSpline
210
0.0
220
0.0
230
1.0
 70
    24
 71
     3
 72
    13
 73
     9
 74
     0
 42
0.000000001
 43
0.00000001
 40
0.0
 40
0.0
 40
0.0
 40
0.0
 40
0.1250641151508132
 40
0.2500142378872863
 40
0.3749643600355365
 40
0.5000284734242031
 40
0.7500142354556929
 40
1.0
 40
1.0
 40
1.0
 40
1.0
 10
164.5601749881844
 20
153.563282841803
 30
0.0
 10
164.5601749881844
 20
153.564055741553
 30
0.0
 10
164.5601749881845
 20
153.5656008365767
 30
0.0
 10
164.5601749881844
 20
153.5781449684183
 30
0.0
 10
164.5601749881844
 20
153.598118282304
 30
0.0
 10
164.5601749881844
 20
153.6359255519974
 30
0.0
 10
164.5601749881844
 20
153.70121683965
 30
0.0
 10
164.5601749881844
 20
153.7803687792375
 30
0.0
 10
164.5601749881844
 20
153.8199447492302
 30
0.0
  0
SPLINE
  5
194
330
1F
100
AcDbEntity
  8
0
  6
Continuous
 62
   144
370
    18
100
AcDbSpline
210
0.0
220
0.0
230
1.0
 70
    24
 71
     3
 72
    13
 73
     9
 74
     0
 42
0.000000001
 43
0.00000001
 40
0.0
 40
0.0
 40
0.0
 40
0.0
 40
0.1250641152941322
 40
0.2500142381351563
 40
0.3749643603477605
 40
0.5000284737583536
 40
0.7500142357031315
 40
1.0
 40
1.0
 40
1.0
 40
1.0
 10
164.5601749881844
 20
171.0066209255966
 30
0.0
 10
164.5601749881844
 20
171.0271647255999
 30
0.0
 10
164.5601749881845
 20
171.0682336005058
 30
0.0
 10
164.5601749881844
 20
171.1198383169063
 30
0.0
 10
164.5601749881845
 20
171.1641166236588
 30
0.0
 10
164.5601749881844
 20
171.2120591125725
 30
0.0
 10
164.5601749881845
 20
171.2540362648635
 30
0.0
 10
164.5601749881844
 20
171.2602006436274
 30
0.0
 10
164.5601749881844
 20
171.2632828330238
 30
0.0
  0
LINE
  5
195
330
1F
100
AcDbEntity
  8
0
  6
Continuous
 62
   144
370
    18
100
AcDbLine
 10
164.5601767601
 20
168.5423768252
 30
0.0
 11
164.5601767601
 21
171.0066205017
 31
0.0
  0
SPLINE
  5
196
330
1F
100
AcDbEntity
  8
0
  6
Continuous
 62
   144
370
    18
100
AcDbSpline
210
0.0
220
0.0
230
1.0
 70
    24
 71
     3
 72
    17
 73
    13
 74
     0
 42
0.000000001
 43
0.00000001
 40
0.0
 40
0.0
 40
0.0
 40
0.0
 40
0.0625338379618606
 40
0.1250106786040567
 40
0.1874875194723831
 40
0.2500213581120177
 40
0.3750177973432062
 40
0.5000142369738135
 40
0.6250106783120739
 40
0.7500071190359111
 40
0.8750035599206745
 40
1.0
 40
1.0
 40
1.0
 40
1.0
 10
164.5601749881844
 20
164.8775271361406
 30
0.0
 10
164.5601749881844
 20
164.9628549413797
 30
0.0
 10
164.5601749881844
 20
165.1334327786658
 30
0.0
 10
164.5601749881845
 20
165.3861828825875
 30
0.0
 10
164.5601749881844
 20
165.6363844707775
 30
0.0
 10
164.5601749881845
 20
165.9660338455449
 30
0.0
 10
164.5601749881844
 20
166.3703471328906
 30
0.0
 10
164.5601749881845
 20
166.8409417438503
 30
0.0
 10
164.5601749881844
 20
167.2955829175232
 30
0.0
 10
164.5601749881845
 20
167.7319641684485
 30
0.0
 10
164.5601749881844
 20
168.1506280955638
 30
0.0
 10
164.5601749881844
 20
168.4117937714398
 30
0.0
 10
164.5601749881844
 20
168.542376608957
 30
0.0
  0
SPLINE
  5
197
330
1F
100
AcDbEntity
  8
0
  6
Continuous
 62
     7
370
    18
100
AcDbSpline
210
0.0
220
0.0
230
1.0
 70
     8
 71
     3
 72
    12
 73
     8
 74
     0
 42
0.000000001
 43
0.00000001
 40
0.0
 40
0.0
 40
0.0
 40
0.0
 40
0.1687587900168167
 40
0.3347821315282846
 40
0.4984190143124482
 40
0.751413173472414
 40
1.0
 40
1.0
 40
1.0
 40
1.0
 10
165.117291772317
 20
167.3207601237281
 30
0.0
 10
165.0788203603726
 20
167.1850551518696
 30
0.0
 10
165.0025011280979
 20
166.9158448800179
 30
0.0
 10
164.8977138754204
 20
166.5126173025268
 30
0.0
 10
164.7837936292186
 20
166.0391381587785
 30
0.0
 10
164.6661405920335
 20
165.495563900942
 30
0.0
 10
164.5952893355994
 20
165.0823290452919
 30
0.0
 10
164.560174988176
 20
164.8775271402998
 30
0.0
  0
SPLINE
  5
198
330
1F
100
AcDbEntity
  8
0
  6
Continuous
 62
     7
370
    18
100
AcDbSpline
210
0.0
220
0.0
230
1.0
 70
     8
 71
     3
 72
    12
 73
     8
 74
     0
 42
0.000000001
 43
0.00000001
 40
0.0
 40
0.0
 40
0.0
 40
0.0
 40
0.1644443311829418
 40
0.3305519270949985
 40
0.4988651060836767
 40
0.7465204752797892
 40
1.0
 40
1.0
 40
1.0
 40
1.0
 10
164.560174988176
 20
168.5423766161967
 30
0.0
 10
164.5829265082779
 20
168.474594209418
 30
0.0
 10
164.6286596676999
 20
168.3383438137814
 30
0.0
 10
164.7096203111536
 20
168.1338035992498
 30
0.0
 10
164.8138000065376
 20
167.8962108773126
 30
0.0
 10
164.9466976339351
 20
167.6243696367424
 30
0.0
 10
165.0599881745469
 20
167.4227443863645
 30
0.0
 10
165.117291772317
 20
167.3207601237281
 30
0.0
  0
SPLINE
  5
199
330
1F
100
AcDbEntity
  8
0
  6
Continuous
 62
   144
370
    18
100
AcDbSpline
210
0.0
220
0.0
230
1.0
 70
    24
 71
     3
 72
     8
 73
     4
 74
     0
 42
0.000000001
 43
0.00000001
 40
0.0
 40
0.0
 40
0.0
 40
0.0
 40
1.0
 40
1.0
 40
1.0
 40
1.0
 10
164.560174988176
 20
164.8775271402998
 30
0.0
 10
164.560174988176
 20
166.2522552549947
 30
0.0
 10
164.560174988176
 20
167.509859058429
 30
0.0
 10
164.560174988176
 20
168.5423766161967
 30
0.0
  0
SPLINE
  5
19A
330
1F
100
AcDbEntity
  8
0
  6
Continuous
 62
     7
370
    18
100
AcDbSpline
210
0.0
220
0.0
230
1.0
 70
     8
 71
     3
 72
    12
 73
     8
 74
     0
 42
0.000000001
 43
0.00000001
 40
0.0
 40
0.0
 40
0.0
 40
0.0
 40
0.1689572582006945
 40
0.3351727945466867
 40
0.4989969118046798
 40
0.751696587970423
 40
1.0
 40
1.0
 40
1.0
 40
1.0
 10
165.1172917723171
 20
157.5058055491384
 30
0.0
 10
165.0787758697527
 20
157.4378746133541
 30
0.0
 10
165.0023690741261
 20
157.303115078159
 30
0.0
 10
164.8974736156168
 20
157.101268263395
 30
0.0
 10
164.7835634273457
 20
156.8644768858492
 30
0.0
 10
164.6660116805415
 20
156.5928816799803
 30
0.0
 10
164.5952469004424
 20
156.3864828868351
 30
0.0
 10
164.5601749881845
 20
156.2841890571476
 30
0.0
  0
SPLINE
  5
19B
330
1F
100
AcDbEntity
  8
0
  6
Continuous
 62
     7
370
    18
100
AcDbSpline
210
0.0
220
0.0
230
1.0
 70
     8
 71
     3
 72
    12
 73
     8
 74
     0
 42
0.000000001
 43
0.00000001
 40
0.0
 40
0.0
 40
0.0
 40
0.0
 40
0.1650881909416598
 40
0.331853378667729
 40
0.5008439397044399
 40
0.7475316019264291
 40
1.0
 40
1.0
 40
1.0
 40
1.0
 10
164.5601749881845
 20
159.9490385325627
 30
0.0
 10
164.5830192464171
 20
159.8129542759003
 30
0.0
 10
164.6289398191388
 20
159.5394033931912
 30
0.0
 10
164.7102778886139
 20
159.1287118055145
 30
0.0
 10
164.8146215063845
 20
158.6531981055113
 30
0.0
 10
164.9473566809685
 20
158.1106355167001
 30
0.0
 10
165.0602110855306
 20
157.7089661186448
 30
0.0
 10
165.1172917723171
 20
157.5058055491384
 30
0.0
  0
SPLINE
  5
19C
330
1F
100
AcDbEntity
  8
0
  6
Continuous
 62
   144
370
    18
100
AcDbSpline
210
0.0
220
0.0
230
1.0
 70
    24
 71
     3
 72
     8
 73
     4
 74
     0
 42
0.000000001
 43
0.00000001
 40
0.0
 40
0.0
 40
0.0
 40
0.0
 40
1.0
 40
1.0
 40
1.0
 40
1.0
 10
164.5601749881844
 20
156.2841890571476
 30
0.0
 10
164.5601749881844
 20
157.3167066146884
 30
0.0
 10
164.5601749881844
 20
158.5743104179574
 30
0.0
 10
164.5601749881844
 20
159.9490385325627
 30
0.0
  0
SPLINE
  5
19D
330
1F
100
AcDbEntity
  8
0
  6
Continuous
 62
     7
370
    18
100
AcDbSpline
210
0.0
220
0.0
230
1.0
 70
     8
 71
     3
 72
    12
 73
     8
 74
     0
 42
0.000000001
 43
0.00000001
 40
0.0
 40
0.0
 40
0.0
 40
0.0
 40
0.1644443311991856
 40
0.3305519271213058
 40
0.4988651061134529
 40
0.7465204753022565
 40
1.0
 40
1.0
 40
1.0
 40
1.0
 10
167.5601749881844
 20
156.2841890586199
 30
0.0
 10
167.537423468083
 20
156.3519714654261
 30
0.0
 10
167.491690308663
 20
156.4882218611151
 30
0.0
 10
167.4107296652108
 20
156.6927620757352
 30
0.0
 10
167.3065499698295
 20
156.9303547977727
 30
0.0
 10
167.1736523424363
 20
157.2021960384552
 30
0.0
 10
167.0603618018217
 20
157.4038212889189
 30
0.0
 10
167.0030582040518
 20
157.5058055515956
 30
0.0
  0
SPLINE
  5
19E
330
1F
100
AcDbEntity
  8
0
  6
Continuous
 62
     7
370
    18
100
AcDbSpline
210
0.0
220
0.0
230
1.0
 70
    24
 71
     3
 72
    17
 73
    13
 74
     0
 42
0.000000001
 43
0.00000001
 40
0.0
 40
0.0
 40
0.0
 40
0.0
 40
0.0625338373402157
 40
0.1250106772911919
 40
0.1874875174435967
 40
0.2500213553875467
 40
0.3750177961085821
 40
0.5000142374440408
 40
0.6250106770718454
 40
0.7500071163002331
 40
0.875003558602223
 40
1.0
 40
1.0
 40
1.0
 40
1.0
 10
167.5601749881844
 20
156.2841890658698
 30
0.0
 10
167.5601749881844
 20
156.3489738271639
 30
0.0
 10
167.5601749881844
 20
156.4784843007252
 30
0.0
 10
167.5601749881844
 20
156.6796183129113
 30
0.0
 10
167.5601749881844
 20
156.8855848020932
 30
0.0
 10
167.5601749881845
 20
157.1670762467127
 30
0.0
 10
167.5601749881844
 20
157.5310539711531
 30
0.0
 10
167.5601749881845
 20
157.9856101026477
 30
0.0
 10
167.5601749881844
 20
158.4562026414031
 30
0.0
 10
167.5601749881845
 20
158.9414166250336
 30
0.0
 10
167.5601749881844
 20
159.4385973322452
 30
0.0
 10
167.5601749881844
 20
159.7788914702828
 30
0.0
 10
167.5601749881844
 20
159.9490385386862
 30
0.0
  0
SPLINE
  5
19F
330
1F
100
AcDbEntity
  8
0
  6
Continuous
 62
     7
370
    18
100
AcDbSpline
210
0.0
220
0.0
230
1.0
 70
     8
 71
     3
 72
    12
 73
     8
 74
     0
 42
0.000000001
 43
0.00000001
 40
0.0
 40
0.0
 40
0.0
 40
0.0
 40
0.1687587900002083
 40
0.3347821315018052
 40
0.4984190142826856
 40
0.7514131734502616
 40
1.0
 40
1.0
 40
1.0
 40
1.0
 10
167.0030582040518
 20
157.5058055515956
 30
0.0
 10
167.041529615996
 20
157.6415105234113
 30
0.0
 10
167.1178488482716
 20
157.9107207951831
 30
0.0
 10
167.222636100947
 20
158.3139483725651
 30
0.0
 10
167.3365563471482
 20
158.7874275162111
 30
0.0
 10
167.4542093843321
 20
159.3310017739598
 30
0.0
 10
167.525060640762
 20
159.7442366295529
 30
0.0
 10
167.5601749881844
 20
159.949038534523
 30
0.0
  0
SPLINE
  5
1A0
330
1F
100
AcDbEntity
  8
0
  6
Continuous
 62
     7
370
    18
100
AcDbSpline
210
0.0
220
0.0
230
1.0
 70
     8
 71
     3
 72
    12
 73
     8
 74
     0
 42
0.000000001
 43
0.00000001
 40
0.0
 40
0.0
 40
0.0
 40
0.0
 40
0.1650881909576348
 40
0.3318533786935726
 40
0.50084393973363
 40
0.7475316019483932
 40
1.0
 40
1.0
 40
1.0
 40
1.0
 10
167.5601749881844
 20
164.8775271422641
 30
0.0
 10
167.537330729952
 20
165.0136113989132
 30
0.0
 10
167.4914101572315
 20
165.2871622815902
 30
0.0
 10
167.4100720877566
 20
165.6978538692097
 30
0.0
 10
167.3057284699871
 20
166.1733675691222
 30
0.0
 10
167.1729932954055
 20
166.7159301578012
 30
0.0
 10
167.0601388908389
 20
167.1175995557465
 30
0.0
 10
167.0030582040518
 20
167.3207601251914
 30
0.0
  0
SPLINE
  5
1A1
330
1F
100
AcDbEntity
  8
0
  6
Continuous
 62
     7
370
    18
100
AcDbSpline
210
0.0
220
0.0
230
1.0
 70
    24
 71
     3
 72
    17
 73
    13
 74
     0
 42
0.000000001
 43
0.00000001
 40
0.0
 40
0.0
 40
0.0
 40
0.0
 40
0.0625338379618606
 40
0.1250106786040567
 40
0.1874875194723831
 40
0.2500213581120177
 40
0.3750177973432062
 40
0.5000142369738135
 40
0.6250106783120739
 40
0.7500071190359111
 40
0.8750035599206745
 40
1.0
 40
1.0
 40
1.0
 40
1.0
 10
167.5601749881844
 20
164.8775271361406
 30
0.0
 10
167.5601749881844
 20
164.9628549413797
 30
0.0
 10
167.5601749881844
 20
165.1334327786658
 30
0.0
 10
167.5601749881845
 20
165.3861828825875
 30
0.0
 10
167.5601749881844
 20
165.6363844707775
 30
0.0
 10
167.5601749881844
 20
165.9660338455449
 30
0.0
 10
167.5601749881844
 20
166.3703471328906
 30
0.0
 10
167.5601749881845
 20
166.8409417438503
 30
0.0
 10
167.5601749881844
 20
167.2955829175232
 30
0.0
 10
167.5601749881844
 20
167.7319641684485
 30
0.0
 10
167.5601749881845
 20
168.1506280955638
 30
0.0
 10
167.5601749881844
 20
168.4117937714398
 30
0.0
 10
167.5601749881844
 20
168.542376608957
 30
0.0
  0
SPLINE
  5
1A2
330
1F
100
AcDbEntity
  8
0
  6
Continuous
 62
     7
370
    18
100
AcDbSpline
210
0.0
220
0.0
230
1.0
 70
     8
 71
     3
 72
    12
 73
     8
 74
     0
 42
0.000000001
 43
0.00000001
 40
0.0
 40
0.0
 40
0.0
 40
0.0
 40
0.1689572581843987
 40
0.3351727945207149
 40
0.4989969117755013
 40
0.751696587948724
 40
1.0
 40
1.0
 40
1.0
 40
1.0
 10
167.0030582040518
 20
167.3207601251914
 30
0.0
 10
167.0415741066164
 20
167.3886910610015
 30
0.0
 10
167.1179809022451
 20
167.5234505962503
 30
0.0
 10
167.2228763607539
 20
167.7252974110951
 30
0.0
 10
167.3367865490262
 20
167.9620887887417
 30
0.0
 10
167.4543382958311
 20
168.2336839947304
 30
0.0
 10
167.5251030759271
 20
168.4400827879513
 30
0.0
 10
167.5601749881844
 20
168.5423766176792
 30
0.0
  0
LINE
  5
1A3
330
1F
100
AcDbEntity
  8
0
  6
Continuous
 62
     7
370
    18
100
AcDbLine
 10
165.117290199
 20
167.3207600727
 30
0.0
 11
167.0030582251
 21
167.3207600727
 31
0.0
  0
LINE
  5
1A4
330
1F
100
AcDbEntity
  8
0
  6
Continuous
 62
     7
370
    18
100
AcDbLine
 10
165.117290199
 20
157.5058057099
 30
0.0
 11
167.0030582251
 21
157.5058057099
 31
0.0
  0
LINE
  5
1A5
330
1F
100
AcDbEntity
  8
0
  6
Continuous
 62
     7
370
    18
100
AcDbLine
 10
167.5601753892
 20
159.9490385163
 30
0.0
 11
167.5601753892
 21
164.8775270335
 31
0.0
  0
LINE
  5
1A6
330
1F
100
AcDbEntity
  8
0
  6
Continuous
 62
   144
370
    18
100
AcDbLine
 10
164.5601767601
 20
164.8775270335
 30
0.0
 11
164.5601767601
 21
159.9490385163
 31
0.0
  0
LINE
  5
1A7
330
1F
100
AcDbEntity
  8
0
  6
Continuous
 62
     7
370
    18
100
AcDbLine
 10
167.5601753892
 20
153.8199443496
 30
0.0
 11
167.5601753892
 21
156.2841889575
 31
0.0
  0
SPLINE
  5
1A8
330
1F
100
AcDbEntity
  8
0
  6
Continuous
 62
     7
370
    18
100
AcDbSpline
210
0.0
220
0.0
230
1.0
 70
    24
 71
     3
 72
    13
 73
     9
 74
     0
 42
0.000000001
 43
0.00000001
 40
0.0
 40
0.0
 40
0.0
 40
0.0
 40
0.1250641151984619
 40
0.2500142379812878
 40
0.3749643601757215
 40
0.5000284736106128
 40
0.7500142355488977
 40
1.0
 40
1.0
 40
1.0
 40
1.0
 10
167.5601749881844
 20
153.563282841803
 30
0.0
 10
167.5601749881844
 20
153.5640557415462
 30
0.0
 10
167.5601749881844
 20
153.5656008365563
 30
0.0
 10
167.5601749881845
 20
153.5781449683926
 30
0.0
 10
167.5601749881844
 20
153.598118282284
 30
0.0
 10
167.5601749881844
 20
153.6359255519877
 30
0.0
 10
167.5601749881844
 20
153.70121683965
 30
0.0
 10
167.5601749881844
 20
153.7803687792375
 30
0.0
 10
167.5601749881844
 20
153.8199447492302
 30
0.0
  0
SPLINE
  5
1A9
330
1F
100
AcDbEntity
  8
0
  6
Continuous
 62
     7
370
    18
100
AcDbSpline
210
0.0
220
0.0
230
1.0
 70
    24
 71
     3
 72
    13
 73
     9
 74
     0
 42
0.000000001
 43
0.00000001
 40
0.0
 40
0.0
 40
0.0
 40
0.0
 40
0.1250641152941322
 40
0.2500142381351563
 40
0.3749643603477605
 40
0.5000284737583536
 40
0.7500142357031315
 40
1.0
 40
1.0
 40
1.0
 40
1.0
 10
167.5601749881844
 20
171.0066209255966
 30
0.0
 10
167.5601749881844
 20
171.0271647255999
 30
0.0
 10
167.5601749881844
 20
171.0682336005058
 30
0.0
 10
167.5601749881844
 20
171.1198383169063
 30
0.0
 10
167.5601749881844
 20
171.1641166236588
 30
0.0
 10
167.5601749881844
 20
171.2120591125725
 30
0.0
 10
167.5601749881845
 20
171.2540362648635
 30
0.0
 10
167.5601749881844
 20
171.2602006436274
 30
0.0
 10
167.5601749881844
 20
171.2632828330238
 30
0.0
  0
LINE
  5
1AA
330
1F
100
AcDbEntity
  8
0
  6
Continuous
 62
     7
370
    18
100
AcDbLine
 10
167.5601753892
 20
168.5423768252
 30
0.0
 11
167.5601753892
 21
171.0066205017
 31
0.0
  0
SPLINE
  5
1AB
330
1F
100
AcDbEntity
  8
0
  6
Continuous
 62
     7
370
    18
100
AcDbSpline
210
0.0
220
0.0
230
1.0
 70
     8
 71
     3
 72
    12
 73
     8
 74
     0
 42
0.000000001
 43
0.00000001
 40
0.0
 40
0.0
 40
0.0
 40
0.0
 40
0.1644443311991859
 40
0.3305519271213063
 40
0.4988651061134496
 40
0.7465204753022563
 40
1.0
 40
1.0
 40
1.0
 40
1.0
 10
167.5601749881844
 20
171.0066209218967
 30
0.0
 10
167.537423468083
 20
171.0743925817243
 30
0.0
 10
167.491690308663
 20
171.2106213747563
 30
0.0
 10
167.4107296652108
 20
171.4151607683068
 30
0.0
 10
167.3065499698295
 20
171.6528031518285
 30
0.0
 10
167.1736523424363
 20
171.9246059447825
 30
0.0
 10
167.0603618018217
 20
172.1262457752684
 30
0.0
 10
167.0030582040518
 20
172.2282374126803
 30
0.0
  0
LINE
  5
1AC
330
1F
100
AcDbEntity
  8
0
  6
Continuous
 62
     7
370
    18
100
AcDbLine
 10
167.0030582251
 20
172.2282372541
 30
0.0
 11
165.117290199
 21
172.2282372541
 31
0.0
  0
SPLINE
  5
1AD
330
1F
100
AcDbEntity
  8
0
  6
Continuous
 62
     7
370
    18
100
AcDbSpline
210
0.0
220
0.0
230
1.0
 70
     8
 71
     3
 72
    12
 73
     8
 74
     0
 42
0.000000001
 43
0.00000001
 40
0.0
 40
0.0
 40
0.0
 40
0.0
 40
0.1689572569418501
 40
0.3351727927402764
 40
0.4989969101701271
 40
0.7516965888233986
 40
1.0
 40
1.0
 40
1.0
 40
1.0
 10
165.1172917723171
 20
172.2282374136743
 30
0.0
 10
165.0787758697182
 20
172.160303552048
 30
0.0
 10
165.0023690738657
 20
172.0255382123696
 30
0.0
 10
164.8974736154412
 20
171.8236863648133
 30
0.0
 10
164.7835634266804
 20
171.5869230354471
 30
0.0
 10
164.6660116815956
 20
171.3152566024262
 30
0.0
 10
164.5952469006346
 20
171.1088958828092
 30
0.0
 10
164.5601749881844
 20
171.0066209235247
 30
0.0
  0
LINE
  5
1AE
330
1F
100
AcDbEntity
  8
0
  6
Continuous
 62
   144
370
    18
100
AcDbLine
 10
164.5601767601
 20
171.0066205017
 30
0.0
 11
164.5601767601
 21
168.5423768252
 31
0.0
  0
SPLINE
  5
1AF
330
1F
100
AcDbEntity
  8
0
  6
Continuous
 62
     7
370
    18
100
AcDbSpline
210
0.0
220
0.0
230
1.0
 70
     8
 71
     3
 72
    12
 73
     8
 74
     0
 42
0.000000001
 43
0.00000001
 40
0.0
 40
0.0
 40
0.0
 40
0.0
 40
0.1644443311832604
 40
0.3305519270955155
 40
0.498865106084258
 40
0.7465204752802324
 40
1.0
 40
1.0
 40
1.0
 40
1.0
 10
164.5601749881844
 20
153.8199447529301
 30
0.0
 10
164.5829265082861
 20
153.7521730930623
 30
0.0
 10
164.6286596677074
 20
153.615944299947
 30
0.0
 10
164.7096203111598
 20
153.4114049062528
 30
0.0
 10
164.8138000065422
 20
153.1737625225424
 30
0.0
 10
164.9466976339377
 20
152.9019597293459
 30
0.0
 10
165.0599881745478
 20
152.7003198986656
 30
0.0
 10
165.1172917723171
 20
152.5983282611525
 30
0.0
  0
LINE
  5
1B0
330
1F
100
AcDbEntity
  8
0
  6
Continuous
 62
     7
370
    18
100
AcDbLine
 10
165.117290199
 20
152.5983285285
 30
0.0
 11
167.0030582251
 21
152.5983285285
 31
0.0
  0
SPLINE
  5
1B1
330
1F
100
AcDbEntity
  8
0
  6
Continuous
 62
     7
370
    18
100
AcDbSpline
210
0.0
220
0.0
230
1.0
 70
     8
 71
     3
 72
    12
 73
     8
 74
     0
 42
0.000000001
 43
0.00000001
 40
0.0
 40
0.0
 40
0.0
 40
0.0
 40
0.1689572569255546
 40
0.3351727927143051
 40
0.4989969101409485
 40
0.7516965888016999
 40
0.9999999999999999
 40
0.9999999999999999
 40
0.9999999999999999
 40
0.9999999999999999
 10
167.0030582040518
 20
152.5983282621465
 30
0.0
 10
167.0415741066509
 20
152.6662621237045
 30
0.0
 10
167.1179809025055
 20
152.80102746325
 30
0.0
 10
167.2228763609296
 20
153.0028793106175
 30
0.0
 10
167.3367865496915
 20
153.2396426397815
 30
0.0
 10
167.454338294777
 20
153.5113090725953
 30
0.0
 10
167.5251030757348
 20
153.7176697920802
 30
0.0
 10
167.5601749881844
 20
153.8199447513022
 30
0.0
  0
LINE
  5
1B2
330
1F
100
AcDbEntity
  8
0
  6
Continuous
 62
   144
370
    18
100
AcDbLine
 10
164.5601767601
 20
156.2841889575
 30
0.0
 11
164.5601767601
 21
153.8199443496
 31
0.0
  0
SPLINE
  5
1B3
330
1F
100
AcDbEntity
  8
0
  6
Continuous
 62
   144
370
    18
100
AcDbSpline
210
0.0
220
0.0
230
1.0
 70
    24
 71
     3
 72
     8
 73
     4
 74
     0
 42
0.000000001
 43
0.00000001
 40
0.0
 40
0.0
 40
0.0
 40
0.0
 40
1.0
 40
1.0
 40
1.0
 40
1.0
 10
164.5601749881844
 20
171.0066209235247
 30
0.0
 10
164.5601749881844
 20
171.1771032198253
 30
0.0
 10
164.5601749881844
 20
171.2632828374742
 30
0.0
 10
164.5601749881844
 20
171.2632828374134
 30
0.0
  0
SPLINE
  5
1B4
330
1F
100
AcDbEntity
  8
0
  6
Continuous
 62
   144
370
    18
100
AcDbSpline
210
0.0
220
0.0
230
1.0
 70
    24
 71
     3
 72
     8
 73
     4
 74
     0
 42
0.000000001
 43
0.00000001
 40
0.0
 40
0.0
 40
0.0
 40
0.0
 40
1.0
 40
1.0
 40
1.0
 40
1.0
 10
164.5601749881844
 20
153.5632828374134
 30
0.0
 10
164.5601749881844
 20
153.5632828375415
 30
0.0
 10
164.5601749881844
 20
153.6494624557396
 30
0.0
 10
164.5601749881844
 20
153.8199447529301
 30
0.0
  0
SPLINE
  5
1B5
330
1F
100
AcDbEntity
  8
0
  6
Continuous
 62
   144
370
    18
100
AcDbSpline
210
0.0
220
0.0
230
1.0
 70
    24
 71
     3
 72
    17
 73
    13
 74
     0
 42
0.000000001
 43
0.00000001
 40
0.0
 40
0.0
 40
0.0
 40
0.0
 40
0.0625338379618606
 40
0.1250106786040567
 40
0.1874875194723831
 40
0.2500213581120177
 40
0.3750177973432062
 40
0.5000142369738135
 40
0.6250106783120739
 40
0.7500071190359111
 40
0.8750035599206745
 40
1.0
 40
1.0
 40
1.0
 40
1.0
 10
164.5601749881844
 20
164.8775271361406
 30
0.0
 10
164.5601749881844
 20
164.9628549413797
 30
0.0
 10
164.5601749881844
 20
165.1334327786658
 30
0.0
 10
164.5601749881845
 20
165.3861828825875
 30
0.0
 10
164.5601749881844
 20
165.6363844707775
 30
0.0
 10
164.5601749881845
 20
165.9660338455449
 30
0.0
 10
164.5601749881844
 20
166.3703471328906
 30
0.0
 10
164.5601749881845
 20
166.8409417438503
 30
0.0
 10
164.5601749881844
 20
167.2955829175232
 30
0.0
 10
164.5601749881845
 20
167.7319641684485
 30
0.0
 10
164.5601749881844
 20
168.1506280955638
 30
0.0
 10
164.5601749881844
 20
168.4117937714398
 30
0.0
 10
164.5601749881844
 20
168.542376608957
 30
0.0
  0
LINE
  5
1B6
330
1F
100
AcDbEntity
  8
0
  6
Continuous
 62
   144
370
    18
100
AcDbLine
 10
164.5601767601
 20
168.5423768252
 30
0.0
 11
164.5601767601
 21
171.0066205017
 31
0.0
  0
SPLINE
  5
1B7
330
1F
100
AcDbEntity
  8
0
  6
Continuous
 62
   144
370
    18
100
AcDbSpline
210
0.0
220
0.0
230
1.0
 70
    24
 71
     3
 72
    13
 73
     9
 74
     0
 42
0.000000001
 43
0.00000001
 40
0.0
 40
0.0
 40
0.0
 40
0.0
 40
0.1250641152941322
 40
0.2500142381351563
 40
0.3749643603477605
 40
0.5000284737583536
 40
0.7500142357026754
 40
1.0
 40
1.0
 40
1.0
 40
1.0
 10
164.5601749881844
 20
171.0066209255966
 30
0.0
 10
164.5601749881844
 20
171.0271647255999
 30
0.0
 10
164.5601749881845
 20
171.0682336005058
 30
0.0
 10
164.5601749881844
 20
171.1198383169063
 30
0.0
 10
164.5601749881845
 20
171.1641166236588
 30
0.0
 10
164.5601749881844
 20
171.2120591125725
 30
0.0
 10
164.5601749881844
 20
171.2540362648635
 30
0.0
 10
164.5601749881844
 20
171.2602006436274
 30
0.0
 10
164.5601749881844
 20
171.2632828330238
 30
0.0
  0
SPLINE
  5
1B8
330
1F
100
AcDbEntity
  8
0
  6
Continuous
 62
   144
370
    18
100
AcDbSpline
210
0.0
220
0.0
230
1.0
 70
    24
 71
     3
 72
    13
 73
     9
 74
     0
 42
0.000000001
 43
0.00000001
 40
0.0
 40
0.0
 40
0.0
 40
0.0
 40
0.1250641151514992
 40
0.2500142378877442
 40
0.3749643600357647
 40
0.5000284734242031
 40
0.7500142354556936
 40
1.0
 40
1.0
 40
1.0
 40
1.0
 10
164.5601749881844
 20
153.563282841803
 30
0.0
 10
164.5601749881845
 20
153.564055741553
 30
0.0
 10
164.5601749881844
 20
153.5656008365768
 30
0.0
 10
164.5601749881844
 20
153.5781449684184
 30
0.0
 10
164.5601749881844
 20
153.5981182823041
 30
0.0
 10
164.5601749881845
 20
153.6359255519975
 30
0.0
 10
164.5601749881844
 20
153.70121683965
 30
0.0
 10
164.5601749881844
 20
153.7803687792375
 30
0.0
 10
164.5601749881844
 20
153.8199447492302
 30
0.0
  0
LINE
  5
1B9
330
1F
100
AcDbEntity
  8
0
  6
Continuous
 62
   144
370
    18
100
AcDbLine
 10
164.5601767601
 20
153.8199443496
 30
0.0
 11
164.5601767601
 21
156.2841889575
 31
0.0
  0
SPLINE
  5
1BA
330
1F
100
AcDbEntity
  8
0
  6
Continuous
 62
   144
370
    18
100
AcDbSpline
210
0.0
220
0.0
230
1.0
 70
    24
 71
     3
 72
    17
 73
    13
 74
     0
 42
0.000000001
 43
0.00000001
 40
0.0
 40
0.0
 40
0.0
 40
0.0
 40
0.0625338373402157
 40
0.1250106772911919
 40
0.1874875174435967
 40
0.2500213553875467
 40
0.3750177961085821
 40
0.5000142374440408
 40
0.6250106770718454
 40
0.7500071163002331
 40
0.875003558602223
 40
1.0
 40
1.0
 40
1.0
 40
1.0
 10
164.5601749881844
 20
156.2841890658698
 30
0.0
 10
164.5601749881845
 20
156.3489738271639
 30
0.0
 10
164.5601749881844
 20
156.4784843007252
 30
0.0
 10
164.5601749881844
 20
156.6796183129113
 30
0.0
 10
164.5601749881844
 20
156.8855848020932
 30
0.0
 10
164.5601749881845
 20
157.1670762467127
 30
0.0
 10
164.5601749881844
 20
157.5310539711531
 30
0.0
 10
164.5601749881845
 20
157.9856101026477
 30
0.0
 10
164.5601749881844
 20
158.4562026414031
 30
0.0
 10
164.5601749881845
 20
158.9414166250336
 30
0.0
 10
164.5601749881844
 20
159.4385973322452
 30
0.0
 10
164.5601749881844
 20
159.7788914702828
 30
0.0
 10
164.5601749881844
 20
159.9490385386862
 30
0.0
  0
LINE
  5
1BB
330
1F
100
AcDbEntity
  8
0
  6
Continuous
 62
   144
370
    18
100
AcDbLine
 10
164.5601767601
 20
159.9490385163
 30
0.0
 11
164.5601767601
 21
164.8775270335
 31
0.0
  0
SPLINE
  5
1BC
330
1F
100
AcDbEntity
  8
0
  6
Continuous
 62
     7
370
    18
100
AcDbSpline
210
0.0
220
0.0
230
1.0
 70
     8
 71
     3
 72
    12
 73
     8
 74
     0
 42
0.000000001
 43
0.00000001
 40
0.0
 40
0.0
 40
0.0
 40
0.0
 40
0.227560346700685
 40
0.455107984223316
 40
0.6826364153127146
 40
0.9101519124118016
 40
1.0
 40
1.0
 40
1.0
 40
1.0
 10
119.220069937563
 20
167.0332421674891
 30
0.0
 10
119.1548307269273
 20
167.0275640326193
 30
0.0
 10
119.0243559492466
 20
167.0162080800018
 30
0.0
 10
118.8561367580093
 20
166.9326904422412
 30
0.0
 10
118.7500388161228
 20
166.812191150511
 30
0.0
 10
118.706440542271
 20
166.6965907501072
 30
0.0
 10
118.7289039012651
 20
166.6320871664812
 30
0.0
 10
118.7352634520889
 20
166.6138257026239
 30
0.0
  0
SPLINE
  5
1BD
330
1F
100
AcDbEntity
  8
0
  6
Continuous
 62
     7
370
    18
100
AcDbSpline
210
0.0
220
0.0
230
1.0
 70
     8
 71
     3
 72
    11
 73
     7
 74
     0
 42
0.000000001
 43
0.00000001
 40
0.0
 40
0.0
 40
0.0
 40
0.0
 40
0.2750316919498705
 40
0.5500467124743806
 40
0.825038548395432
 40
1.0
 40
1.0
 40
1.0
 40
1.0
 10
119.220069937563
 20
167.0332421674891
 30
0.0
 10
119.2855275677547
 20
167.0275669546218
 30
0.0
 10
119.4164388603335
 20
167.0162168728982
 30
0.0
 10
119.5812028422934
 20
166.9325301145659
 30
0.0
 10
119.685831587636
 20
166.8272009872134
 30
0.0
 10
119.7003429701518
 20
166.7496514586498
 30
0.0
 10
119.7059856282235
 20
166.7194968215688
 30
0.0
  0
LINE
  5
1BE
330
1F
100
AcDbEntity
  8
0
  6
Continuous
 62
     7
370
    18
100
AcDbLine
 10
146.1200717391
 20
156.6616740204
 30
0.0
 11
146.0231434108
 21
156.7089507483
 31
0.0
  0
SPLINE
  5
1BF
330
1F
100
AcDbEntity
  8
0
  6
Continuous
 62
     7
370
    18
100
AcDbSpline
210
0.0
220
0.0
230
1.0
 70
     8
 71
     3
 72
    15
 73
    11
 74
     0
 42
0.000000001
 43
0.00000001
 40
0.0
 40
0.0
 40
0.0
 40
0.0
 40
0.0732788834059078
 40
0.2151031354982822
 40
0.3569128401393591
 40
0.498715037968767
 40
0.6405172357981749
 40
0.7823281574953233
 40
0.9241503392834212
 40
1.0
 40
1.0
 40
1.0
 40
1.0
 10
146.2124514879346
 20
156.6803158387108
 30
0.0
 10
146.2459432831611
 20
156.6851375418805
 30
0.0
 10
146.3442552365075
 20
156.6992911891803
 30
0.0
 10
146.48276569474
 20
156.8008795430819
 30
0.0
 10
146.5931941009338
 20
156.9650921715814
 30
0.0
 10
146.6335855014934
 20
157.1615709340879
 30
0.0
 10
146.5931894389575
 20
157.358021067172
 30
0.0
 10
146.4827836877138
 20
157.5223208100986
 30
0.0
 10
146.3431899987422
 20
157.6243606259469
 30
0.0
 10
146.2436667247738
 20
157.6385654584155
 30
0.0
 10
146.2089869679571
 20
157.6435152567489
 30
0.0
  0
LINE
  5
1C0
330
1F
100
AcDbEntity
  8
0
  6
Continuous
 62
     7
370
    18
100
AcDbLine
 10
146.1200717391
 20
157.6614576518
 30
0.0
 11
146.0279676618
 21
157.6428554147
 31
0.0
  0
LINE
  5
1C1
330
1F
100
AcDbEntity
  8
0
  6
Continuous
 62
     7
370
    18
100
AcDbLine
 10
146.0298377575
 20
156.6798986062
 30
0.0
 11
146.1200717391
 21
156.6616740204
 31
0.0
  0
LINE
  5
1C2
330
1F
100
AcDbEntity
  8
0
  6
Continuous
 62
     7
370
    18
100
AcDbLine
 10
149.6778953375
 20
157.5058057099
 30
0.0
 11
146.6778929831
 21
157.5058057099
 31
0.0
  0
LINE
  5
1C3
330
1F
100
AcDbEntity
  8
0
  6
Continuous
 62
     7
370
    18
100
AcDbLine
 10
146.6778929831
 20
157.5058057099
 30
0.0
 11
146.6778929831
 21
167.3207600727
 31
0.0
  0
LINE
  5
1C4
330
1F
100
AcDbEntity
  8
0
  6
Continuous
 62
     7
370
    18
100
AcDbLine
 10
149.6778953375
 20
167.3207600727
 30
0.0
 11
146.6778929831
 21
167.3207600727
 31
0.0
  0
LINE
  5
1C5
330
1F
100
AcDbEntity
  8
0
  6
Continuous
 62
     7
370
    18
100
AcDbLine
 10
149.6778953375
 20
167.3207600727
 30
0.0
 11
149.6778953375
 21
157.5058057099
 31
0.0
  0
LINE
  5
1C6
330
1F
100
AcDbEntity
  8
0
  6
Continuous
 62
     7
370
    18
100
AcDbLine
 10
149.6778953375
 20
152.5983285285
 30
0.0
 11
146.6778929831
 21
152.5983285285
 31
0.0
  0
LINE
  5
1C7
330
1F
100
AcDbEntity
  8
0
  6
Continuous
 62
     7
370
    18
100
AcDbLine
 10
146.6778929831
 20
152.5983285285
 30
0.0
 11
146.6778929831
 21
157.5058057099
 31
0.0
  0
LINE
  5
1C8
330
1F
100
AcDbEntity
  8
0
  6
Continuous
 62
     7
370
    18
100
AcDbLine
 10
149.6778953375
 20
157.5058057099
 30
0.0
 11
149.6778953375
 21
152.5983285285
 31
0.0
  0
LINE
  5
1C9
330
1F
100
AcDbEntity
  8
0
  6
Continuous
 62
     7
370
    18
100
AcDbLine
 10
146.6778929831
 20
172.2282372541
 30
0.0
 11
149.6778953375
 21
172.2282372541
 31
0.0
  0
LINE
  5
1CA
330
1F
100
AcDbEntity
  8
0
  6
Continuous
 62
     7
370
    18
100
AcDbLine
 10
146.6778929831
 20
167.3207600727
 30
0.0
 11
146.6778929831
 21
172.2282372541
 31
0.0
  0
LINE
  5
1CB
330
1F
100
AcDbEntity
  8
0
  6
Continuous
 62
     7
370
    18
100
AcDbLine
 10
149.6778953375
 20
172.2282372541
 30
0.0
 11
149.6778953375
 21
167.3207600727
 31
0.0
  0
SPLINE
  5
1CC
330
1F
100
AcDbEntity
  8
0
  6
Continuous
 62
     7
370
    18
100
AcDbSpline
210
0.0
220
0.0
230
1.0
 70
    24
 71
     3
 72
    13
 73
     9
 74
     0
 42
0.000000001
 43
0.00000001
 40
0.0
 40
0.0
 40
0.0
 40
0.0
 40
0.1875083618281192
 40
0.3750167336693112
 40
0.5625251091029141
 40
0.7500334942630547
 40
0.9375418806926815
 40
0.9999999999999999
 40
0.9999999999999999
 40
0.9999999999999999
 40
0.9999999999999999
 10
168.6778928639055
 20
165.4132829173966
 30
0.0
 10
168.6778928639055
 20
165.7422620475111
 30
0.0
 10
168.6778928639055
 20
166.4002203253079
 30
0.0
 10
168.6778928639055
 20
167.2019822043627
 30
0.0
 10
168.6778928639054
 20
167.832268646458
 30
0.0
 10
168.6778928639055
 20
168.2360585362322
 30
0.0
 10
168.6778928639054
 20
168.4230672846273
 30
0.0
 10
168.6778928639055
 20
168.3947044601462
 30
0.0
 10
168.6778928639055
 20
168.3876175559624
 30
0.0
  0
SPLINE
  5
1CD
330
1F
100
AcDbEntity
  8
0
  6
Continuous
 62
     7
370
    18
100
AcDbSpline
210
0.0
220
0.0
230
1.0
 70
    24
 71
     3
 72
    18
 73
    14
 74
     0
 42
0.000000001
 43
0.00000001
 40
0.0
 40
0.0
 40
0.0
 40
0.0
 40
0.0625209355505416
 40
0.1562688440535187
 40
0.2500167585580086
 40
0.3437646534036104
 40
0.437512553255413
 40
0.5312604549033005
 40
0.6250083744878633
 40
0.7187562710101499
 40
0.8125041769925331
 40
0.9062520854955102
 40
1.0
 40
1.0
 40
1.0
 40
1.0
 10
168.6778928639055
 20
156.4389482266767
 30
0.0
 10
168.6778928639055
 20
156.4387167666021
 30
0.0
 10
168.6778928639055
 20
156.4381382404175
 30
0.0
 10
168.6778928639055
 20
156.7006832496123
 30
0.0
 10
168.6778928639055
 20
157.182132695489
 30
0.0
 10
168.6778928639055
 20
157.8735695223498
 30
0.0
 10
168.6778928639055
 20
158.737053980514
 30
0.0
 10
168.6778928639055
 20
159.742499982489
 30
0.0
 10
168.6778928639055
 20
160.8502506405776
 30
0.0
 10
168.6778928639055
 20
162.0187086441779
 30
0.0
 10
168.6778928639055
 20
163.2000993995791
 30
0.0
 10
168.6778928639055
 20
164.3595340079919
 30
0.0
 10
168.6778928639055
 20
165.062033273433
 30
0.0
 10
168.6778928639055
 20
165.4132829173966
 30
0.0
  0
SPLINE
  5
1CE
330
1F
100
AcDbEntity
  8
0
  6
Continuous
 62
     7
370
    18
100
AcDbSpline
210
0.0
220
0.0
230
1.0
 70
    24
 71
     3
 72
    18
 73
    14
 74
     0
 42
0.000000001
 43
0.00000001
 40
0.0
 40
0.0
 40
0.0
 40
0.0
 40
0.0625209355505416
 40
0.1562688440535187
 40
0.2500167585580086
 40
0.3437646534036104
 40
0.437512553255413
 40
0.5312604549033005
 40
0.6250083744878633
 40
0.7187562710101499
 40
0.8125041769925331
 40
0.9062520854955102
 40
1.0
 40
1.0
 40
1.0
 40
1.0
 10
151.1778946520448
 20
156.4389482266767
 30
0.0
 10
151.1778946520448
 20
156.4387167666021
 30
0.0
 10
151.1778946520448
 20
156.4381382404175
 30
0.0
 10
151.1778946520448
 20
156.7006832496123
 30
0.0
 10
151.1778946520448
 20
157.182132695489
 30
0.0
 10
151.1778946520448
 20
157.8735695223498
 30
0.0
 10
151.1778946520448
 20
158.737053980514
 30
0.0
 10
151.1778946520448
 20
159.742499982489
 30
0.0
 10
151.1778946520448
 20
160.8502506405776
 30
0.0
 10
151.1778946520448
 20
162.0187086441779
 30
0.0
 10
151.1778946520448
 20
163.2000993995791
 30
0.0
 10
151.1778946520448
 20
164.3595340079919
 30
0.0
 10
151.1778946520448
 20
165.062033273433
 30
0.0
 10
151.1778946520448
 20
165.4132829173966
 30
0.0
  0
SPLINE
  5
1CF
330
1F
100
AcDbEntity
  8
0
  6
Continuous
 62
     7
370
    18
100
AcDbSpline
210
0.0
220
0.0
230
1.0
 70
    24
 71
     3
 72
    13
 73
     9
 74
     0
 42
0.000000001
 43
0.00000001
 40
0.0
 40
0.0
 40
0.0
 40
0.0
 40
0.1875083618281192
 40
0.3750167336693112
 40
0.5625251091029141
 40
0.7500334942630547
 40
0.9375418806926815
 40
0.9999999999999999
 40
0.9999999999999999
 40
0.9999999999999999
 40
0.9999999999999999
 10
151.1778946520448
 20
165.4132829173966
 30
0.0
 10
151.1778946520448
 20
165.7422620475111
 30
0.0
 10
151.1778946520448
 20
166.4002203253079
 30
0.0
 10
151.1778946520448
 20
167.2019822043627
 30
0.0
 10
151.1778946520448
 20
167.832268646458
 30
0.0
 10
151.1778946520448
 20
168.2360585362322
 30
0.0
 10
151.1778946520448
 20
168.4230672846273
 30
0.0
 10
151.1778946520448
 20
168.3947044601462
 30
0.0
 10
151.1778946520448
 20
168.3876175559624
 30
0.0
  0
SPLINE
  5
1D0
330
1F
100
AcDbEntity
  8
0
  6
Continuous
 62
     7
370
    18
100
AcDbSpline
210
0.0
220
0.0
230
1.0
 70
    24
 71
     3
 72
    18
 73
    14
 74
     0
 42
0.000000001
 43
0.00000001
 40
0.0
 40
0.0
 40
0.0
 40
0.0
 40
0.0625431941306564
 40
0.1562888696377368
 40
0.2500345461472798
 40
0.3437802383108865
 40
0.4375259266002434
 40
0.5312715881508999
 40
0.6250172782579201
 40
0.7187629600030505
 40
0.8125086432633037
 40
0.906254313348709
 40
1.0
 40
1.0
 40
1.0
 40
1.0
 10
169.6778948904634
 20
157.4346624441011
 30
0.0
 10
169.6778948904634
 20
157.4344680284423
 30
0.0
 10
169.6778948904634
 20
157.4339822041414
 30
0.0
 10
169.6778948904634
 20
157.6527809409014
 30
0.0
 10
169.6778948904634
 20
158.0539915720899
 30
0.0
 10
169.6778948904634
 20
158.6301880965444
 30
0.0
 10
169.6778948904634
 20
159.3497589613623
 30
0.0
 10
169.6778948904634
 20
160.187630292744
 30
0.0
 10
169.6778948904634
 20
161.1107560490142
 30
0.0
 10
169.6778948904634
 20
162.0844709486987
 30
0.0
 10
169.6778948904634
 20
163.0689632474911
 30
0.0
 10
169.6778948904634
 20
164.0351587306442
 30
0.0
 10
169.6778948904634
 20
164.6205747832666
 30
0.0
 10
169.6778948904634
 20
164.9132828354402
 30
0.0
  0
LINE
  5
1D1
330
1F
100
AcDbEntity
  8
0
  6
Continuous
 62
     7
370
    18
100
AcDbLine
 10
169.6778948905
 20
164.9132828354
 30
0.0
 11
168.6778928639
 21
165.4132829174
 31
0.0
  0
SPLINE
  5
1D2
330
1F
100
AcDbEntity
  8
0
  6
Continuous
 62
     7
370
    18
100
AcDbSpline
210
0.0
220
0.0
230
1.0
 70
    24
 71
     3
 72
    13
 73
     9
 74
     0
 42
0.000000001
 43
0.00000001
 40
0.0
 40
0.0
 40
0.0
 40
0.0
 40
0.1875173511863895
 40
0.375034761279111
 40
0.562552125263775
 40
0.7500694563184824
 40
0.937586811884654
 40
1.0
 40
1.0
 40
1.0
 40
1.0
 10
169.6778948904634
 20
164.9132828354402
 30
0.0
 10
169.6778948904634
 20
165.1874321280918
 30
0.0
 10
169.6778948904634
 20
165.7357307995158
 30
0.0
 10
169.6778948904634
 20
166.4038654723776
 30
0.0
 10
169.6778948904634
 20
166.9291056071898
 30
0.0
 10
169.6778948904634
 20
167.2655922313208
 30
0.0
 10
169.6778948904634
 20
167.4214288636859
 30
0.0
 10
169.6778948904634
 20
167.3978031917051
 30
0.0
 10
169.6778948904634
 20
167.391903338538
 30
0.0
  0
SPLINE
  5
1D3
330
1F
100
AcDbEntity
  8
0
  6
Continuous
 62
     7
370
    18
100
AcDbSpline
210
0.0
220
0.0
230
1.0
 70
    24
 71
     3
 72
    18
 73
    14
 74
     0
 42
0.000000001
 43
0.00000001
 40
0.0
 40
0.0
 40
0.0
 40
0.0
 40
0.014311819396241
 40
0.1162770458690994
 40
0.218242276189632
 40
0.3202075005463041
 40
0.4221727488193269
 40
0.52413797170536
 40
0.6261032018696212
 40
0.7280684482917382
 40
0.830033655012237
 40
0.9319988880373659
 40
0.9999999999999999
 40
0.9999999999999999
 40
0.9999999999999999
 40
0.9999999999999999
 10
144.1778953673006
 20
163.9725427269502
 30
0.0
 10
144.1778953673006
 20
163.9351094664318
 30
0.0
 10
144.1778953673006
 20
163.6309811910663
 30
0.0
 10
144.1778953673006
 20
163.0003716717759
 30
0.0
 10
144.1778953673006
 20
162.1181623186262
 30
0.0
 10
144.1778953673006
 20
161.2407916628511
 30
0.0
 10
144.1778953673006
 20
160.4102537848493
 30
0.0
 10
144.1778953673006
 20
159.6560956857387
 30
0.0
 10
144.1778953673006
 20
159.0085020490799
 30
0.0
 10
144.1778953673006
 20
158.4899188233969
 30
0.0
 10
144.1778953673006
 20
158.1288338020242
 30
0.0
 10
144.1778953673006
 20
157.9319245669236
 30
0.0
 10
144.1778953673006
 20
157.9323585108775
 30
0.0
 10
144.1778953673006
 20
157.9325321256681
 30
0.0
  0
SPLINE
  5
1D4
330
1F
100
AcDbEntity
  8
0
  6
Continuous
 62
     7
370
    18
100
AcDbSpline
210
0.0
220
0.0
230
1.0
 70
    24
 71
     3
 72
    18
 73
    14
 74
     0
 42
0.000000001
 43
0.00000001
 40
0.0
 40
0.0
 40
0.0
 40
0.0
 40
0.0625543725122586
 40
0.1562989325133608
 40
0.250043509762769
 40
0.3437880573274359
 40
0.4375326288465206
 40
0.5312771837180679
 40
0.6250217472784684
 40
0.7187663111977236
 40
0.8125108758828231
 40
0.9062554354276258
 40
1.0
 40
1.0
 40
1.0
 40
1.0
 10
143.6778943540216
 20
158.4303834136142
 30
0.0
 10
143.6778943540216
 20
158.4302271400487
 30
0.0
 10
143.6778943540216
 20
158.4298366734758
 30
0.0
 10
143.6778943540216
 20
158.6048805146936
 30
0.0
 10
143.6778943540216
 20
158.9258500381738
 30
0.0
 10
143.6778943540216
 20
159.3868069651904
 30
0.0
 10
143.6778943540216
 20
159.9624636529131
 30
0.0
 10
143.6778943540216
 20
160.6327608878175
 30
0.0
 10
143.6778943540216
 20
161.3712614679009
 30
0.0
 10
143.6778943540216
 20
162.150233310306
 30
0.0
 10
143.6778943540216
 20
162.937827213159
 30
0.0
 10
143.6778943540216
 20
163.7107834944662
 30
0.0
 10
143.6778943540216
 20
164.1791163296251
 30
0.0
 10
143.6778943540216
 20
164.4132827534838
 30
0.0
  0
SPLINE
  5
1D5
330
1F
100
AcDbEntity
  8
0
  6
Continuous
 62
     7
370
    18
100
AcDbSpline
210
0.0
220
0.0
230
1.0
 70
    24
 71
     3
 72
    13
 73
     9
 74
     0
 42
0.000000001
 43
0.00000001
 40
0.0
 40
0.0
 40
0.0
 40
0.0
 40
0.1875259337909147
 40
0.3750518321763839
 40
0.5625777647270589
 40
0.7501037048690973
 40
0.9376296273457987
 40
1.0
 40
1.0
 40
1.0
 40
1.0
 10
143.6778943540216
 20
164.4132827534838
 30
0.0
 10
143.6778943540216
 20
164.6326023213174
 30
0.0
 10
143.6778943540216
 20
165.0712414155764
 30
0.0
 10
143.6778943540216
 20
165.6057484732624
 30
0.0
 10
143.6778943540216
 20
166.025941539006
 30
0.0
 10
143.6778943540216
 20
166.2951280422502
 30
0.0
 10
143.6778943540216
 20
166.4197946562768
 30
0.0
 10
143.6778943540216
 20
166.4009009755648
 30
0.0
 10
143.6778943540216
 20
166.3961853958233
 30
0.0
  0
SPLINE
  5
1D6
330
1F
100
AcDbEntity
  8
0
  6
Continuous
 62
     7
370
    18
100
AcDbSpline
210
0.0
220
0.0
230
1.0
 70
    24
 71
     3
 72
    29
 73
    25
 74
     0
 42
0.000000001
 43
0.00000001
 40
0.0
 40
0.0
 40
0.0
 40
0.0
 40
0.0156493635546731
 40
0.0312741728673364
 40
0.0468989821701059
 40
0.062548345695144
 40
0.0938163891066743
 40
0.1250844327857895
 40
0.1875713825998668
 40
0.2500583318238206
 40
0.3125452810210901
 40
0.3750322306489444
 40
0.4375191800051321
 40
0.5000061293876603
 40
0.5624930786838205
 40
0.6249800282418598
 40
0.6874669779108337
 40
0.7499539273787559
 40
0.8124408768484503
 40
0.8749278262289281
 40
0.9061958696438625
 40
0.9374639128777115
 40
0.9687319565179386
 40
1.0
 40
1.0
 40
1.0
 40
1.0
 10
170.3778938771844
 20
157.9132828390767
 30
0.0
 10
170.3778938771844
 20
157.9139583948014
 30
0.0
 10
170.3778938771844
 20
157.9153084462872
 30
0.0
 10
170.3778938771844
 20
157.9262639203861
 30
0.0
 10
170.3778938771845
 20
157.9437655372616
 30
0.0
 10
170.3778938771844
 20
157.9766181786289
 30
0.0
 10
170.3778938771844
 20
158.0349894998844
 30
0.0
 10
170.3778938771844
 20
158.1649952445451
 30
0.0
 10
170.3778938771844
 20
158.3946945470531
 30
0.0
 10
170.3778938771844
 20
158.7707928134873
 30
0.0
 10
170.3778938771844
 20
159.2380190157824
 30
0.0
 10
170.3778938771844
 20
159.7846758813693
 30
0.0
 10
170.3778938771845
 20
160.3970906571298
 30
0.0
 10
170.3778938771844
 20
161.0599425159832
 30
0.0
 10
170.3778938771845
 20
161.7566494767467
 30
0.0
 10
170.3778938771844
 20
162.4697835205588
 30
0.0
 10
170.3778938771844
 20
163.1815014665453
 30
0.0
 10
170.3778938771845
 20
163.874011602797
 30
0.0
 10
170.3778938771844
 20
164.5299427609301
 30
0.0
 10
170.3778938771845
 20
165.0326216666753
 30
0.0
 10
170.3778938771844
 20
165.4005584135753
 30
0.0
 10
170.3778938771844
 20
165.6574795221251
 30
0.0
 10
170.3778938771845
 20
165.8958002855184
 30
0.0
 10
170.3778938771845
 20
166.0359621780132
 30
0.0
 10
170.3778938771844
 20
166.1060431240833
 30
0.0
  0
SPLINE
  5
1D7
330
1F
100
AcDbEntity
  8
0
  6
Continuous
 62
     7
370
    18
100
AcDbSpline
210
0.0
220
0.0
230
1.0
 70
    24
 71
     3
 72
    14
 73
    10
 74
     0
 42
0.000000001
 43
0.00000001
 40
0.0
 40
0.0
 40
0.0
 40
0.0
 40
0.25
 40
0.25
 40
0.5
 40
0.5
 40
0.75
 40
0.75
 40
1.0
 40
1.0
 40
1.0
 40
1.0
 10
169.7778938771845
 20
157.9132828374134
 30
0.0
 10
169.7778938771845
 20
157.9132828375855
 30
0.0
 10
169.7778938771845
 20
158.2190281000648
 30
0.0
 10
169.7778938771845
 20
159.3529335062869
 30
0.0
 10
169.7778938771845
 20
160.1515811740739
 30
0.0
 10
169.7778938771845
 20
161.9795889013584
 30
0.0
 10
169.7778938771845
 20
162.961370887939
 30
0.0
 10
169.7778938771845
 20
164.7744593255639
 30
0.0
 10
169.7778938771845
 20
165.5585760122529
 30
0.0
 10
169.7778938771845
 20
166.1060431217032
 30
0.0
  0
LINE
  5
1D8
330
1F
100
AcDbEntity
  8
0
  6
Continuous
 62
     7
370
    18
100
AcDbLine
 10
170.3778918387
 20
166.1060430236
 30
0.0
 11
169.7778965832
 21
166.1060430236
 31
0.0
  0
SPLINE
  5
1D9
330
1F
100
AcDbEntity
  8
0
  6
Continuous
 62
     8
370
    18
100
AcDbSpline
210
0.0
220
0.0
230
1.0
 70
     8
 71
     3
 72
    10
 73
     6
 74
     0
 42
0.000000001
 43
0.00000001
 40
0.0
 40
0.0
 40
0.0
 40
0.0
 40
0.0001366501682005
 40
0.4999060414794194
 40
1.0
 40
1.0
 40
1.0
 40
1.0
 10
117.1278835760117
 20
155.4132859348817
 30
0.0
 10
117.1278869916723
 20
155.4132848480767
 30
0.0
 10
117.1403824711574
 20
155.4093089993808
 30
0.0
 10
117.1002303475738
 20
155.4223988928926
 30
0.0
 10
117.018681656654
 20
155.447621057945
 30
0.0
 10
116.9778940753699
 20
155.4602362341745
 30
0.0
  0
SPLINE
  5
1DA
330
1F
100
AcDbEntity
  8
0
  6
Continuous
 62
     8
370
    18
100
AcDbSpline
210
0.0
220
0.0
230
1.0
 70
     8
 71
     3
 72
     9
 73
     5
 74
     0
 42
0.000000001
 43
0.00000001
 40
0.0
 40
0.0
 40
0.0
 40
0.0
 40
0.4976554472407884
 40
1.0
 40
1.0
 40
1.0
 40
1.0
 10
112.2279040069938
 20
155.4132859348817
 30
0.0
 10
112.2343430435087
 20
155.4154254981543
 30
0.0
 10
112.2472817876752
 20
155.4197247845068
 30
0.0
 10
112.3342206895282
 20
155.4466902696169
 30
0.0
 10
112.3778939732969
 20
155.4602362341745
 30
0.0
  0
SPLINE
  5
1DB
330
1F
100
AcDbEntity
  8
0
  6
Continuous
 62
     8
370
    18
100
AcDbSpline
210
0.0
220
0.0
230
1.0
 70
    24
 71
     3
 72
    10
 73
     6
 74
     0
 42
0.000000001
 43
0.00000001
 40
0.0
 40
0.0
 40
0.0
 40
0.0
 40
0.4999999999999999
 40
0.4999999999999999
 40
1.0
 40
1.0
 40
1.0
 40
1.0
 10
112.3778938771844
 20
169.4132828374134
 30
0.0
 10
112.3778938771844
 20
169.4132828370326
 30
0.0
 10
112.3778938771844
 20
168.6757478019029
 30
0.0
 10
112.3778938771844
 20
166.0503128064899
 30
0.0
 10
112.3778938771844
 20
164.2697457227918
 30
0.0
 10
112.3778938771844
 20
162.413282834542
 30
0.0
  0
SPLINE
  5
1DC
330
1F
100
AcDbEntity
  8
0
  6
Continuous
 62
     8
370
    18
100
AcDbSpline
210
0.0
220
0.0
230
1.0
 70
    24
 71
     3
 72
    10
 73
     6
 74
     0
 42
0.000000001
 43
0.00000001
 40
0.0
 40
0.0
 40
0.0
 40
0.0
 40
0.5000000000000001
 40
0.5000000000000001
 40
1.0
 40
1.0
 40
1.0
 40
1.0
 10
110.9778938771844
 20
155.4132828374134
 30
0.0
 10
110.9778938771844
 20
155.4132828371994
 30
0.0
 10
110.9778938771844
 20
156.1508178712801
 30
0.0
 10
110.9778938771844
 20
158.7762528643341
 30
0.0
 10
110.9778938771844
 20
160.5568199469013
 30
0.0
 10
110.9778938771844
 20
162.4132828345419
 30
0.0
  0
SPLINE
  5
1DD
330
1F
100
AcDbEntity
  8
0
  6
Continuous
 62
     8
370
    18
100
AcDbSpline
210
0.0
220
0.0
230
1.0
 70
    24
 71
     3
 72
    10
 73
     6
 74
     0
 42
0.000000001
 43
0.00000001
 40
0.0
 40
0.0
 40
0.0
 40
0.0
 40
0.5000000000000002
 40
0.5000000000000002
 40
1.0
 40
1.0
 40
1.0
 40
1.0
 10
110.9778938771844
 20
162.4132828345419
 30
0.0
 10
110.9778938771844
 20
164.2697457227918
 30
0.0
 10
110.9778938771844
 20
166.05031280649
 30
0.0
 10
110.9778938771844
 20
168.675747801903
 30
0.0
 10
110.9778938771844
 20
169.4132828370327
 30
0.0
 10
110.9778938771844
 20
169.4132828374134
 30
0.0
  0
SPLINE
  5
1DE
330
1F
100
AcDbEntity
  8
0
  6
Continuous
 62
     8
370
    18
100
AcDbSpline
210
0.0
220
0.0
230
1.0
 70
    24
 71
     3
 72
    10
 73
     6
 74
     0
 42
0.000000001
 43
0.00000001
 40
0.0
 40
0.0
 40
0.0
 40
0.0
 40
0.4999999999999999
 40
0.4999999999999999
 40
1.0
 40
1.0
 40
1.0
 40
1.0
 10
103.3778938771844
 20
167.9132828374134
 30
0.0
 10
103.3778938771844
 20
167.9132828371142
 30
0.0
 10
103.3778938771844
 20
167.333791023798
 30
0.0
 10
103.3778938771844
 20
165.2709492416878
 30
0.0
 10
103.3778938771844
 20
163.8719322473536
 30
0.0
 10
103.3778938771844
 20
162.4132828351573
 30
0.0
  0
SPLINE
  5
1DF
330
1F
100
AcDbEntity
  8
0
  6
Continuous
 62
     8
370
    18
100
AcDbSpline
210
0.0
220
0.0
230
1.0
 70
    24
 71
     3
 72
    10
 73
     6
 74
     0
 42
0.000000001
 43
0.00000001
 40
0.0
 40
0.0
 40
0.0
 40
0.0
 40
0.4999999999999999
 40
0.4999999999999999
 40
1.0
 40
1.0
 40
1.0
 40
1.0
 10
103.3778938771844
 20
162.4132828351573
 30
0.0
 10
103.3778938771844
 20
160.9546334234395
 30
0.0
 10
103.3778938771844
 20
159.5556164299938
 30
0.0
 10
103.3778938771844
 20
157.4927746497371
 30
0.0
 10
103.3778938771844
 20
156.9132828372452
 30
0.0
 10
103.3778938771844
 20
156.9132828374134
 30
0.0
  0
SPLINE
  5
1E0
330
1F
100
AcDbEntity
  8
0
  6
Continuous
 62
     8
370
    18
100
AcDbSpline
210
0.0
220
0.0
230
1.0
 70
    24
 71
     3
 72
    10
 73
     6
 74
     0
 42
0.000000001
 43
0.00000001
 40
0.0
 40
0.0
 40
0.0
 40
0.0
 40
0.4999999999999999
 40
0.4999999999999999
 40
1.0
 40
1.0
 40
1.0
 40
1.0
 10
101.9778938771844
 20
162.4132828351573
 30
0.0
 10
101.9778938771844
 20
163.8719322473536
 30
0.0
 10
101.9778938771844
 20
165.2709492416879
 30
0.0
 10
101.9778938771845
 20
167.3337910237981
 30
0.0
 10
101.9778938771845
 20
167.9132828371143
 30
0.0
 10
101.9778938771845
 20
167.9132828374134
 30
0.0
  0
SPLINE
  5
1E1
330
1F
100
AcDbEntity
  8
0
  6
Continuous
 62
     8
370
    18
100
AcDbSpline
210
0.0
220
0.0
230
1.0
 70
    24
 71
     3
 72
    10
 73
     6
 74
     0
 42
0.000000001
 43
0.00000001
 40
0.0
 40
0.0
 40
0.0
 40
0.0
 40
0.5000000000000001
 40
0.5000000000000001
 40
1.0
 40
1.0
 40
1.0
 40
1.0
 10
101.9778938771844
 20
156.9132828374134
 30
0.0
 10
101.9778938771844
 20
156.9132828372452
 30
0.0
 10
101.9778938771844
 20
157.4927746497372
 30
0.0
 10
101.9778938771845
 20
159.5556164299939
 30
0.0
 10
101.9778938771845
 20
160.9546334234396
 30
0.0
 10
101.9778938771845
 20
162.4132828351573
 30
0.0
  0
SPLINE
  5
1E2
330
1F
100
AcDbEntity
  8
0
  6
Continuous
 62
     8
370
    18
100
AcDbSpline
210
0.0
220
0.0
230
1.0
 70
     8
 71
     3
 72
    14
 73
    10
 74
     0
 42
0.000000001
 43
0.00000001
 40
0.0
 40
0.0
 40
0.0
 40
0.0
 40
0.1728443973733846
 40
0.3431175153825931
 40
0.5108856967873512
 40
0.6762183011966608
 40
0.8391877993517364
 40
0.9998698608148293
 40
1.0
 40
1.0
 40
1.0
 40
1.0
 10
116.6962612239756
 20
155.1622484292009
 30
0.0
 10
116.7104980949069
 20
155.1570834077211
 30
0.0
 10
116.7387600452794
 20
155.1468302009989
 30
0.0
 10
116.7715871133432
 20
155.1347036205164
 30
0.0
 10
116.7971525686319
 20
155.1251265343642
 30
0.0
 10
116.815014621216
 20
155.1183141496675
 30
0.0
 10
116.8255705778268
 20
155.1142102611445
 30
0.0
 10
116.8278932401214
 20
155.1132830610098
 30
0.0
 10
116.8278938766692
 20
155.1132828387455
 30
0.0
 10
116.8278938771843
 20
155.1132828385656
 30
0.0
  0
SPLINE
  5
1E3
330
1F
100
AcDbEntity
  8
0
  6
Continuous
 62
     8
370
    18
100
AcDbSpline
210
0.0
220
0.0
230
1.0
 70
     8
 71
     3
 72
    12
 73
     8
 74
     0
 42
0.000000001
 43
0.00000001
 40
0.0
 40
0.0
 40
0.0
 40
0.0
 40
0.1931171764649859
 40
0.3895498845217031
 40
0.58942726341707
 40
0.7928718889558494
 40
0.9999999999999999
 40
0.9999999999999999
 40
0.9999999999999999
 40
0.9999999999999999
 10
112.5278938771846
 20
155.1132828385656
 30
0.0
 10
112.5288580019528
 20
155.1136674810686
 30
0.0
 10
112.5308028040619
 20
155.1144433698082
 30
0.0
 10
112.5466230498917
 20
155.1205721360648
 30
0.0
 10
112.5726081037812
 20
155.1303880233494
 30
0.0
 10
112.6091523334261
 20
155.1439590406736
 30
0.0
 10
112.6426350005243
 20
155.1561156118147
 30
0.0
 10
112.6595265302602
 20
155.1622484292009
 30
0.0
  0
SPLINE
  5
1E4
330
1F
100
AcDbEntity
  8
0
  6
Continuous
 62
     8
370
    18
100
AcDbSpline
210
0.0
220
0.0
230
1.0
 70
     8
 71
     3
 72
    13
 73
     9
 74
     0
 42
0.000000001
 43
0.00000001
 40
0.0
 40
0.0
 40
0.0
 40
0.0
 40
0.186280323319556
 40
0.3750157335958552
 40
0.5637639011192707
 40
0.7525978914720741
 40
0.94143174344199
 40
0.9999999999999999
 40
0.9999999999999999
 40
0.9999999999999999
 40
0.9999999999999999
 10
131.8280308993221
 20
159.5132829281999
 30
0.0
 10
131.7934803488864
 20
159.3494534776722
 30
0.0
 10
131.7239238880275
 20
159.0196353815932
 30
0.0
 10
131.6192860265373
 20
158.601458122328
 30
0.0
 10
131.5141828977479
 20
158.2481011304037
 30
0.0
 10
131.409132074265
 20
157.9784699520187
 30
0.0
 10
131.3282304105257
 20
157.8144803900458
 30
0.0
 10
131.2823174335686
 20
157.7706517799446
 30
0.0
 10
131.2714483143449
 20
157.7602760992511
 30
0.0
  0
SPLINE
  5
1E5
330
1F
100
AcDbEntity
  8
0
  6
Continuous
 62
     8
370
    18
100
AcDbSpline
210
0.0
220
0.0
230
1.0
 70
     8
 71
     3
 72
    15
 73
    11
 74
     0
 42
0.000000001
 43
0.00000001
 40
0.0
 40
0.0
 40
0.0
 40
0.0
 40
0.0070662348486614
 40
0.1673434960062945
 40
0.3276324640083527
 40
0.4878522562689751
 40
0.6480459100416577
 40
0.8083129617226811
 40
0.968606718465732
 40
1.0
 40
1.0
 40
1.0
 40
1.0
 10
128.4715797306657
 20
167.571224378006
 30
0.0
 10
128.4700349650643
 20
167.5700173866375
 30
0.0
 10
128.43345162446
 20
167.541433259507
 30
0.0
 10
128.361866320206
 20
167.4056957752487
 30
0.0
 10
128.2568132247431
 20
167.1622491760353
 30
0.0
 10
128.1517226026638
 20
166.8308526849949
 30
0.0
 10
128.0466038702344
 20
166.4288949861506
 30
0.0
 10
127.9415423236013
 20
165.9565793267643
 30
0.0
 10
127.8646570367632
 20
165.5802766201503
 30
0.0
 10
127.8227523973749
 20
165.3508559153974
 30
0.0
 10
127.8158895225883
 20
165.3132828544392
 30
0.0
  0
SPLINE
  5
1E6
330
1F
100
AcDbEntity
  8
0
  6
Continuous
 62
     8
370
    18
100
AcDbSpline
210
0.0
220
0.0
230
1.0
 70
     8
 71
     3
 72
    13
 73
     9
 74
     0
 42
0.000000001
 43
0.00000001
 40
0.0
 40
0.0
 40
0.0
 40
0.0
 40
0.0741320886871185
 40
0.2630168756828525
 40
0.4519761996125896
 40
0.6409083701059946
 40
0.8297530808435781
 40
1.0
 40
1.0
 40
1.0
 40
1.0
 10
126.8269460202814
 20
159.5132829281999
 30
0.0
 10
126.8131957218487
 20
159.4446056090605
 30
0.0
 10
126.7644103632067
 20
159.2009419779634
 30
0.0
 10
126.6805924685587
 20
158.8424820062801
 30
0.0
 10
126.57554715818
 20
158.4453106941833
 30
0.0
 10
126.4704918267465
 20
158.1260096402468
 30
0.0
 10
126.368825163988
 20
157.8852548170634
 30
0.0
 10
126.3022355922806
 20
157.7963410528109
 30
0.0
 10
126.2706651838184
 20
157.7541866465969
 30
0.0
  0
SPLINE
  5
1E7
330
1F
100
AcDbEntity
  8
0
  6
Continuous
 62
     8
370
    18
100
AcDbSpline
210
0.0
220
0.0
230
1.0
 70
     8
 71
     3
 72
    11
 73
     7
 74
     0
 42
0.000000001
 43
0.00000001
 40
0.0
 40
0.0
 40
0.0
 40
0.0
 40
0.1677239757332147
 40
0.53026120351483
 40
0.8928108511910504
 40
1.0
 40
1.0
 40
1.0
 40
1.0
 10
123.4717856647134
 20
167.5622026562257
 30
0.0
 10
123.4555898787338
 20
167.5458267567702
 30
0.0
 10
123.4043867223105
 20
167.4940541696015
 30
0.0
 10
123.3181166655789
 20
167.3120129240137
 30
0.0
 10
123.2376939812643
 20
167.1086589713959
 30
0.0
 10
123.1923361661643
 20
166.9495822331981
 30
0.0
 10
123.1819860191703
 20
166.9132826976044
 30
0.0
  0
SPLINE
  5
1E8
330
1F
100
AcDbEntity
  8
0
  6
Continuous
 62
     8
370
    18
100
AcDbSpline
210
0.0
220
0.0
230
1.0
 70
     8
 71
     3
 72
     9
 73
     5
 74
     0
 42
0.000000001
 43
0.00000001
 40
0.0
 40
0.0
 40
0.0
 40
0.0
 40
0.4676059013390081
 40
0.9999999999999999
 40
0.9999999999999999
 40
0.9999999999999999
 40
0.9999999999999999
 10
121.3684867622018
 20
157.9132826193733
 30
0.0
 10
121.3528695285717
 20
157.879628275586
 30
0.0
 10
121.3194712468446
 20
157.8076566779416
 30
0.0
 10
121.2860628738183
 20
157.7754382814228
 30
0.0
 10
121.2682764531732
 20
157.7582853972478
 30
0.0
  0
SPLINE
  5
1E9
330
1F
100
AcDbEntity
  8
0
  6
Continuous
 62
     8
370
    18
100
AcDbSpline
210
0.0
220
0.0
230
1.0
 70
     8
 71
     3
 72
    26
 73
    22
 74
     0
 42
0.000000001
 43
0.00000001
 40
0.0
 40
0.0
 40
0.0
 40
0.0
 40
0.055320866230772
 40
0.1106214007622743
 40
0.1659435944562268
 40
0.2212889400351227
 40
0.2766246885365984
 40
0.3319348637322615
 40
0.3872550563174333
 40
0.4425983092284571
 40
0.4979361473390687
 40
0.5532480074499251
 40
0.6085636159697374
 40
0.6639045928306426
 40
0.7192455148653502
 40
0.7745610024254544
 40
0.8298727841996536
 40
0.8852106706285446
 40
0.9405539865944594
 40
0.9958738998644879
 40
0.9999999999999999
 40
0.9999999999999999
 40
0.9999999999999999
 40
0.9999999999999999
 10
119.220069937563
 20
167.0332417018278
 30
0.0
 10
119.2550919097191
 20
166.8454129295119
 30
0.0
 10
119.3251229826457
 20
166.469824416303
 30
0.0
 10
119.4302513398339
 20
165.8190882682448
 30
0.0
 10
119.5353290664967
 20
165.1178613151688
 30
0.0
 10
119.6403722155747
 20
164.3729675631058
 30
0.0
 10
119.7454320290991
 20
163.5990213164487
 30
0.0
 10
119.8505505978467
 20
162.8084252054744
 30
0.0
 10
119.9556423840549
 20
162.0152803159845
 30
0.0
 10
120.0606889484562
 20
161.2333686493766
 30
0.0
 10
120.1657443779172
 20
160.475933516498
 30
0.0
 10
120.2708557422966
 20
159.7563523671387
 30
0.0
 10
120.3759572590572
 20
159.0885766420961
 30
0.0
 10
120.4810083471744
 20
158.4826946311597
 30
0.0
 10
120.5860574304035
 20
157.9485523224755
 30
0.0
 10
120.691159607866
 20
157.4956447404926
 30
0.0
 10
120.7962708963128
 20
157.1356584594801
 30
0.0
 10
120.9013263393388
 20
156.8686984363571
 30
0.0
 10
121.0063722565777
 20
156.7126392822422
 30
0.0
 10
121.0790559894778
 20
156.6459154239724
 30
0.0
 10
121.1167021432963
 20
156.6629098369146
 30
0.0
 10
121.1193151326538
 20
156.6640894054933
 30
0.0
  0
SPLINE
  5
1EA
330
1F
100
AcDbEntity
  8
0
  6
Continuous
 62
     8
370
    18
100
AcDbSpline
210
0.0
220
0.0
230
1.0
 70
     8
 71
     3
 72
    32
 73
    28
 74
     0
 42
0.000000001
 43
0.00000001
 40
0.0
 40
0.0
 40
0.0
 40
0.0
 40
0.0052825762611142
 40
0.0473339041343819
 40
0.0893782987382268
 40
0.1314421155392001
 40
0.1735130131300978
 40
0.215567754404557
 40
0.2576106768530236
 40
0.2996714003275303
 40
0.3417428876140636
 40
0.3838011106850427
 40
0.4258436330298163
 40
0.4679009731173386
 40
0.5099723925519367
 40
0.5520339094370728
 40
0.5940771116685404
 40
0.6361309930863814
 40
0.678201617308656
 40
0.7202661733677619
 40
0.7623110705377869
 40
0.8043615541800363
 40
0.8464307489994358
 40
0.8884978835569769
 40
0.9305453171606409
 40
0.9725927383280668
 40
1.0
 40
1.0
 40
1.0
 40
1.0
 10
123.6201565267206
 20
168.6535450756116
 30
0.0
 10
123.624554767882
 20
168.6554165906908
 30
0.0
 10
123.6639646912231
 20
168.6721860817432
 30
0.0
 10
123.7384191459032
 20
168.6053588427013
 30
0.0
 10
123.8435372382203
 20
168.4434423564732
 30
0.0
 10
123.9485942735155
 20
168.170334247271
 30
0.0
 10
124.0536430742088
 20
167.8054280356624
 30
0.0
 10
124.1587243117322
 20
167.3511784766688
 30
0.0
 10
124.2638455409101
 20
166.8138838697516
 30
0.0
 10
124.3689142461524
 20
166.2036664997167
 30
0.0
 10
124.4739573788564
 20
165.5326641341208
 30
0.0
 10
124.5790326119499
 20
164.8122410052362
 30
0.0
 10
124.6841552968052
 20
164.0537555208046
 30
0.0
 10
124.7892290293004
 20
163.2707475823481
 30
0.0
 10
124.8942769281943
 20
162.4773240680178
 30
0.0
 10
124.9993397838688
 20
161.6869951470366
 30
0.0
 10
125.1044599741193
 20
160.9136163163696
 30
0.0
 10
125.2095478575735
 20
160.1713180256217
 30
0.0
 10
125.3145921861428
 20
159.4719778358198
 30
0.0
 10
125.4196521655126
 20
158.8273245693622
 30
0.0
 10
125.5247662794078
 20
158.2494175730154
 30
0.0
 10
125.6298610496429
 20
157.7500424447908
 30
0.0
 10
125.7349124852439
 20
157.3358453230795
 30
0.0
 10
125.8399627119623
 20
157.0118943906505
 30
0.0
 10
125.9450710278829
 20
156.7899991257082
 30
0.0
 10
126.0379661383186
 20
156.6727871927297
 30
0.0
 10
126.0957903454309
 20
156.6733273266744
 30
0.0
 10
126.1186081470609
 20
156.6735404669805
 30
0.0
  0
SPLINE
  5
1EB
330
1F
100
AcDbEntity
  8
0
  6
Continuous
 62
     8
370
    18
100
AcDbSpline
210
0.0
220
0.0
230
1.0
 70
     8
 71
     3
 72
    32
 73
    28
 74
     0
 42
0.000000001
 43
0.00000001
 40
0.0
 40
0.0
 40
0.0
 40
0.0
 40
0.0236808800568718
 40
0.0657069831884188
 40
0.1077341271642353
 40
0.1497422433179623
 40
0.1917461359629455
 40
0.2337698004554788
 40
0.2757985347821406
 40
0.3178099576968795
 40
0.3598119469154663
 40
0.4018326741371809
 40
0.4438623655022755
 40
0.4858772664694427
 40
0.5278782939913378
 40
0.5698957848257133
 40
0.6119257318066309
 40
0.6539440462077383
 40
0.6959452046095694
 40
0.7379592246047689
 40
0.7799887483252341
 40
0.8220102273999544
 40
0.8640126263574928
 40
0.9060232591333249
 40
0.9480516802106901
 40
0.9900759802312349
 40
1.0
 40
1.0
 40
1.0
 40
1.0
 10
128.6178644301057
 20
168.6471268660887
 30
0.0
 10
128.6376121007724
 20
168.6491818695239
 30
0.0
 10
128.6924056667798
 20
168.6548838567748
 30
0.0
 10
128.7821789881704
 20
168.5485380163203
 30
0.0
 10
128.8872326170814
 20
168.3415626689654
 30
0.0
 10
128.992329646402
 20
168.0313782207528
 30
0.0
 10
129.0974419592464
 20
167.6267637966529
 30
0.0
 10
129.2025002047977
 20
167.1354043015466
 30
0.0
 10
129.307546027876
 20
166.5673656181884
 30
0.0
 10
129.4126326219451
 20
165.9318922079109
 30
0.0
 10
129.5177556002234
 20
165.238228772912
 30
0.0
 10
129.6228155115102
 20
164.4995334149172
 30
0.0
 10
129.7278639136312
 20
163.7293102014166
 30
0.0
 10
129.8329400021963
 20
162.9406236702712
 30
0.0
 10
129.9380624592605
 20
162.1468877692775
 30
0.0
 10
130.0431354306869
 20
161.3623081350156
 30
0.0
 10
130.1481784617543
 20
160.6000900384179
 30
0.0
 10
130.2532492876375
 20
159.8732005331198
 30
0.0
 10
130.3583712134215
 20
159.1952435024119
 30
0.0
 10
130.4634498835005
 20
158.5787240888922
 30
0.0
 10
130.5684984650104
 20
158.0325348269955
 30
0.0
 10
130.6735566650619
 20
157.5655827210304
 30
0.0
 10
130.7786784057973
 20
157.1882716716564
 30
0.0
 10
130.8837669991289
 20
156.9060124211896
 30
0.0
 10
130.9888155292821
 20
156.7316701718271
 30
0.0
 10
131.0671302774269
 20
156.6534571335941
 30
0.0
 10
131.1104489983231
 20
156.6676508183239
 30
0.0
 10
131.118724450624
 20
156.6703623286946
 30
0.0
  0
SPLINE
  5
1EC
330
1F
100
AcDbEntity
  8
0
  6
Continuous
 62
     8
370
    18
100
AcDbSpline
210
0.0
220
0.0
230
1.0
 70
     8
 71
     3
 72
    31
 73
    27
 74
     0
 42
0.000000001
 43
0.00000001
 40
0.0
 40
0.0
 40
0.0
 40
0.0
 40
0.0033957964105363
 40
0.0471519022877635
 40
0.0909251390669423
 40
0.1347167223927759
 40
0.1785006958804204
 40
0.2222644077631097
 40
0.2660360835810501
 40
0.3098259997090946
 40
0.3536116450534666
 40
0.3973767006942999
 40
0.4411447457222411
 40
0.4849328589993536
 40
0.5287209009573506
 40
0.572488853533246
 40
0.6162538561521733
 40
0.6600395070819455
 40
0.7038294979414476
 40
0.7476009373961884
 40
0.7913637801888789
 40
0.8351465153781084
 40
0.878937618130068
 40
0.9227126128947407
 40
0.9664741507492021
 40
1.0
 40
1.0
 40
1.0
 40
1.0
 10
146.0231434108377
 20
156.7089507482512
 30
0.0
 10
146.0204264967254
 20
156.7101884426904
 30
0.0
 10
145.9827011288706
 20
156.7273742925472
 30
0.0
 10
145.9098819062439
 20
156.8583695756535
 30
0.0
 10
145.8048164878861
 20
157.1082155428143
 30
0.0
 10
145.6997678367611
 20
157.4647960237071
 30
0.0
 10
145.5947067702508
 20
157.9075368714556
 30
0.0
 10
145.4895931685809
 20
158.4342805354524
 30
0.0
 10
145.3844992132276
 20
159.0359627214917
 30
0.0
 10
145.2794509465227
 20
159.7001233226565
 30
0.0
 10
145.1743932859371
 20
160.4150783379794
 30
0.0
 10
145.0692871673925
 20
161.1692003219219
 30
0.0
 10
144.9641833971333
 20
161.9498925839454
 30
0.0
 10
144.859130615677
 20
162.7427526326507
 30
0.0
 10
144.7540850768507
 20
163.5341998332815
 30
0.0
 10
144.6489812974024
 20
164.3106507187078
 30
0.0
 10
144.5438675243627
 20
165.0576902687962
 30
0.0
 10
144.4388179761976
 20
165.7629244271818
 30
0.0
 10
144.3337674975991
 20
166.4149110845343
 30
0.0
 10
144.2286766533352
 20
167.0022217282985
 30
0.0
 10
144.1235547154467
 20
167.5123933052737
 30
0.0
 10
144.0184994075514
 20
167.9374046275167
 30
0.0
 10
143.913450708057
 20
168.2727237292059
 30
0.0
 10
143.8083693861396
 20
168.5081750682141
 30
0.0
 10
143.7114557367759
 20
168.6412720400415
 30
0.0
 10
143.6496255574529
 20
168.6472392398552
 30
0.0
 10
143.6228047610879
 20
168.649827701555
 30
0.0
  0
SPLINE
  5
1ED
330
1F
100
AcDbEntity
  8
0
  6
Continuous
 62
     8
370
    18
100
AcDbSpline
210
0.0
220
0.0
230
1.0
 70
     8
 71
     3
 72
    32
 73
    28
 74
     0
 42
0.000000001
 43
0.00000001
 40
0.0
 40
0.0
 40
0.0
 40
0.0
 40
0.0188726001052435
 40
0.0608816503982933
 40
0.1029015016673311
 40
0.144908083731845
 40
0.1868989632123628
 40
0.2289047012766166
 40
0.2709244501508734
 40
0.3129343359557215
 40
0.3549259007768766
 40
0.3969281586963487
 40
0.4389471450801194
 40
0.4809600185995013
 40
0.5229533087777882
 40
0.5649521901099729
 40
0.6069697039072155
 40
0.6489851926203091
 40
0.6909810087460313
 40
0.7329767902222935
 40
0.7749922710419997
 40
0.8170098009371933
 40
0.8590086911343982
 40
0.9010019545734814
 40
0.9430148578650389
 40
0.9850338390591031
 40
0.9999999999999999
 40
0.9999999999999999
 40
0.9999999999999999
 40
0.9999999999999999
 10
141.1235484780431
 20
156.6736540883346
 30
0.0
 10
141.1078042372449
 20
156.6702486723148
 30
0.0
 10
141.0570144489423
 20
156.6592630451929
 30
0.0
 10
140.9712315236726
 20
156.7532111378913
 30
0.0
 10
140.8661822530224
 20
156.9470791760062
 30
0.0
 10
140.7611076640373
 20
157.245203706968
 30
0.0
 10
140.6559885298933
 20
157.6372896708937
 30
0.0
 10
140.550910750521
 20
158.1185032081997
 30
0.0
 10
140.4458648235897
 20
158.6776228250752
 30
0.0
 10
140.3407978100374
 20
159.3051825233825
 30
0.0
 10
140.2356813185087
 20
159.991684202874
 30
0.0
 10
140.1305937118863
 20
160.7255079073991
 30
0.0
 10
140.0255446983672
 20
161.4925594944495
 30
0.0
 10
139.9204922772147
 20
162.2796785298702
 30
0.0
 10
139.815374444286
 20
163.0735673423638
 30
0.0
 10
139.7102760200898
 20
163.8600587632802
 30
0.0
 10
139.6052320985807
 20
164.6257128848295
 30
0.0
 10
139.5001773851279
 20
165.3576528767857
 30
0.0
 10
139.395068441872
 20
166.042929917254
 30
0.0
 10
139.2899669820151
 20
166.6678756636051
 30
0.0
 10
139.184911693164
 20
167.2231842436177
 30
0.0
 10
139.0798625485559
 20
167.7003325120848
 30
0.0
 10
138.9747634512262
 20
168.0899914188534
 30
0.0
 10
138.8696536460102
 20
168.3848113022858
 30
0.0
 10
138.7645916992371
 20
168.5727652040712
 30
0.0
 10
138.6820835754062
 20
168.6612832545689
 30
0.0
 10
138.6345634389324
 20
168.650436934577
 30
0.0
 10
138.6220830978513
 20
168.6475883364244
 30
0.0
  0
SPLINE
  5
1EE
330
1F
100
AcDbEntity
  8
0
  6
Continuous
 62
     8
370
    18
100
AcDbSpline
210
0.0
220
0.0
230
1.0
 70
     8
 71
     3
 72
    31
 73
    27
 74
     0
 42
0.000000001
 43
0.00000001
 40
0.0
 40
0.0
 40
0.0
 40
0.0
 40
0.0354924784532345
 40
0.0774236218052845
 40
0.1193453378706479
 40
0.1612857638290786
 40
0.2032351380596367
 40
0.2451697404326303
 40
0.287090496148006
 40
0.3290276906051045
 40
0.3709773103046539
 40
0.41291532551125
 40
0.4548362054784985
 40
0.4967699467901837
 40
0.5387191397867592
 40
0.5806603228560374
 40
0.6225824455424311
 40
0.6645127971254489
 40
0.7064608891745575
 40
0.7484048799435158
 40
0.7903290615561104
 40
0.8322560679263418
 40
0.874202334495857
 40
0.9161486483976973
 40
0.9580757514479505
 40
1.0
 40
1.0
 40
1.0
 40
1.0
 10
136.1214763970733
 20
156.668638450609
 30
0.0
 10
136.0918434148819
 20
156.67267583129
 30
0.0
 10
136.0272017525879
 20
156.6814830109674
 30
0.0
 10
135.9275081624543
 20
156.8198142706937
 30
0.0
 10
135.8223851263294
 20
157.0589269792091
 30
0.0
 10
135.717325233625
 20
157.3989072133806
 30
0.0
 10
135.6122768457348
 20
157.8284239913859
 30
0.0
 10
135.5072007428972
 20
158.3412838197849
 30
0.0
 10
135.4020782738943
 20
158.9305655389507
 30
0.0
 10
135.2970053291243
 20
159.585483613156
 30
0.0
 10
135.1919622688227
 20
160.2931659032307
 30
0.0
 10
135.0868914841018
 20
161.0415573010657
 30
0.0
 10
134.9817694862838
 20
161.8185379065267
 30
0.0
 10
134.876690904564
 20
162.6103467310172
 30
0.0
 10
134.7716422497047
 20
163.4029280443494
 30
0.0
 10
134.6665840797496
 20
164.1828020075327
 30
0.0
 10
134.5614624449305
 20
164.9361800681519
 30
0.0
 10
134.4563732873644
 20
165.6490227928994
 30
0.0
 10
134.3513270087969
 20
166.3102348468853
 30
0.0
 10
134.2462697337559
 20
166.9088217697787
 30
0.0
 10
134.1411607197058
 20
167.4336742381505
 30
0.0
 10
134.0360566968359
 20
167.873247299716
 30
0.0
 10
133.931007279116
 20
168.2230884255098
 30
0.0
 10
133.8259592539815
 20
168.475479521289
 30
0.0
 10
133.7208513480459
 20
168.6347640514807
 30
0.0
 10
133.6507986538736
 20
168.6513048206032
 30
0.0
 10
133.615773499167
 20
168.659574923621
 30
0.0
  0
SPLINE
  5
1EF
330
1F
100
AcDbEntity
  8
0
  6
Continuous
 62
     8
370
    18
100
AcDbSpline
210
0.0
220
0.0
230
1.0
 70
     8
 71
     3
 72
    14
 73
    10
 74
     0
 42
0.000000001
 43
0.00000001
 40
0.0
 40
0.0
 40
0.0
 40
0.0
 40
0.0975343129012006
 40
0.2577802007461219
 40
0.4180925711839243
 40
0.5783774213801293
 40
0.7385887186225857
 40
0.8988287754231368
 40
1.0
 40
1.0
 40
1.0
 40
1.0
 10
132.8162461073757
 20
165.3132828544392
 30
0.0
 10
132.8375738389664
 20
165.4272789403367
 30
0.0
 10
132.8939423801225
 20
165.7285671027569
 30
0.0
 10
132.9853300536139
 20
166.1600305423466
 30
0.0
 10
133.0903729477196
 20
166.6033278199248
 30
0.0
 10
133.1954311383602
 20
166.9778846115579
 30
0.0
 10
133.3005512557509
 20
167.2740414814511
 30
0.0
 10
133.3927161758688
 20
167.4731068490449
 30
0.0
 10
133.4498288716736
 20
167.5378378300135
 30
0.0
 10
133.4719325901628
 20
167.5628899722858
 30
0.0
  0
SPLINE
  5
1F0
330
1F
100
AcDbEntity
  8
0
  6
Continuous
 62
     8
370
    18
100
AcDbSpline
210
0.0
220
0.0
230
1.0
 70
     8
 71
     3
 72
    13
 73
     9
 74
     0
 42
0.000000001
 43
0.00000001
 40
0.0
 40
0.0
 40
0.0
 40
0.0
 40
0.1405505784985695
 40
0.329017299854632
 40
0.5175685160291829
 40
0.7061151984344283
 40
0.8945750304522996
 40
0.9999999999999999
 40
0.9999999999999999
 40
0.9999999999999999
 40
0.9999999999999999
 10
136.2694337518573
 20
157.7566858507259
 30
0.0
 10
136.2955571873174
 20
157.7884547889195
 30
0.0
 10
136.3567099928755
 20
157.8628232502616
 30
0.0
 10
136.4529120822173
 20
158.0806700650833
 30
0.0
 10
136.5579599180045
 20
158.3863355445611
 30
0.0
 10
136.6630091776234
 20
158.7708603642967
 30
0.0
 10
136.7526862462861
 20
159.1474149522162
 30
0.0
 10
136.807307037361
 20
159.4166871947195
 30
0.0
 10
136.8269010932804
 20
159.5132829281999
 30
0.0
  0
SPLINE
  5
1F1
330
1F
100
AcDbEntity
  8
0
  6
Continuous
 62
     8
370
    18
100
AcDbSpline
210
0.0
220
0.0
230
1.0
 70
     8
 71
     3
 72
    15
 73
    11
 74
     0
 42
0.000000001
 43
0.00000001
 40
0.0
 40
0.0
 40
0.0
 40
0.0
 40
0.0052961383164469
 40
0.1649534482081858
 40
0.3245607720780868
 40
0.4841090658225631
 40
0.6437132112223376
 40
0.8033701387094296
 40
0.9629900089841246
 40
1.0
 40
1.0
 40
1.0
 40
1.0
 10
137.8154124619127
 20
165.3132828544392
 30
0.0
 10
137.816574761293
 20
165.3196959948929
 30
0.0
 10
137.8527757211583
 20
165.5194395756826
 30
0.0
 10
137.923953940415
 20
165.8717075566803
 30
0.0
 10
138.0290315837718
 20
166.3552291499804
 30
0.0
 10
138.1341551240648
 20
166.7680790048441
 30
0.0
 10
138.2392327560163
 20
167.1115837484702
 30
0.0
 10
138.3442750169478
 20
167.3709876753987
 30
0.0
 10
138.422448878291
 20
167.5238955363843
 30
0.0
 10
138.4656168858544
 20
167.5611253894637
 30
0.0
 10
138.4737420381666
 20
167.5681328527196
 30
0.0
  0
SPLINE
  5
1F2
330
1F
100
AcDbEntity
  8
0
  6
Continuous
 62
     8
370
    18
100
AcDbSpline
210
0.0
220
0.0
230
1.0
 70
     8
 71
     3
 72
    14
 73
    10
 74
     0
 42
0.000000001
 43
0.00000001
 40
0.0
 40
0.0
 40
0.0
 40
0.0
 40
0.0310089358429107
 40
0.2192761345519513
 40
0.4075120497764199
 40
0.5956617072300072
 40
0.783842034478032
 40
0.9721037380063218
 40
1.0
 40
1.0
 40
1.0
 40
1.0
 10
141.2691626252294
 20
157.7546066730781
 30
0.0
 10
141.2749345762008
 20
157.7595242448592
 30
0.0
 10
141.315750265725
 20
157.794298289896
 30
0.0
 10
141.3915384842206
 20
157.9411353701015
 30
0.0
 10
141.4966054415663
 20
158.1962241939809
 30
0.0
 10
141.6017227082064
 20
158.5359375671414
 30
0.0
 10
141.706813817069
 20
158.9519206409734
 30
0.0
 10
141.7820273860475
 20
159.2826217442886
 30
0.0
 10
141.8222477202118
 20
159.4869175384926
 30
0.0
 10
141.8274383546472
 20
159.5132829281999
 30
0.0
  0
SPLINE
  5
1F3
330
1F
100
AcDbEntity
  8
0
  6
Continuous
 62
     8
370
    18
100
AcDbSpline
210
0.0
220
0.0
230
1.0
 70
     8
 71
     3
 72
    14
 73
    10
 74
     0
 42
0.000000001
 43
0.00000001
 40
0.0
 40
0.0
 40
0.0
 40
0.0
 40
0.0709001733154911
 40
0.231238544975516
 40
0.391647823232562
 40
0.5520912189982956
 40
0.7124785683253922
 40
0.872813357997146
 40
1.0
 40
1.0
 40
1.0
 40
1.0
 10
142.8161937297941
 20
165.3132828544392
 30
0.0
 10
142.8316776255375
 20
165.3970245758871
 30
0.0
 10
142.8821778338559
 20
165.6701454007855
 30
0.0
 10
142.9677581735551
 20
166.0805013656633
 30
0.0
 10
143.0728129655105
 20
166.5344403081799
 30
0.0
 10
143.1778627554989
 20
166.9198746839707
 30
0.0
 10
143.2829393131862
 20
167.2302238255576
 30
0.0
 10
143.3808126892921
 20
167.4527312694243
 30
0.0
 10
143.4435904545829
 20
167.5308510849468
 30
0.0
 10
143.4713605345846
 20
167.5654078028662
 30
0.0
  0
DIMENSION
  5
1F4
330
1F
100
AcDbEntity
  8
0
  6
Continuous
 62
     7
370
    18
100
AcDbDimension
  2
_D
 10
92.3821351002
 20
156.9132828374
 30
0.0
 11
92.3821351002
 21
162.4132828374
 31
0.0
 70
   160
  1
%%c<>
 71
     2
 42
-1.0
  3
SLDDIMSTYLE1
100
AcDbAlignedDimension
 13
101.9778938772
 23
167.9132828374
 33
0.0
 14
101.9778938772
 24
156.9132828374
 34
0.0
 50
90.0
100
AcDbRotatedDimension
  0
DIMENSION
  5
202
330
1F
100
AcDbEntity
  8
0
  6
Continuous
 62
     7
370
    18
100
AcDbDimension
  2
_D_1
 10
82.105608649
 20
155.4132828374
 30
0.0
 11
82.105608649
 21
162.4132828374
 31
0.0
 70
   160
  1
%%c<>
 71
     2
 42
-1.0
  3
SLDDIMSTYLE1
100
AcDbAlignedDimension
 13
110.9778938772
 23
169.4132828374
 33
0.0
 14
110.9778938772
 24
155.4132828374
 34
0.0
 50
90.0
100
AcDbRotatedDimension
  0
DIMENSION
  5
20F
330
1F
100
AcDbEntity
  8
0
  6
Continuous
 62
     7
370
    18
100
AcDbDimension
  2
_D_2
 10
171.677893879
 20
201.7564436699
 30
0.0
 11
136.677893879
 21
201.7564436716
 31
0.0
 70
   160
  1
<>
 71
     2
 42
-1.0
  3
SLDDIMSTYLE2
100
AcDbAlignedDimension
 13
101.6778938772
 23
167.6132828348
 33
0.0
 14
171.6778938772
 24
164.9132828374
 34
0.0
 50
-0.0000000028
100
AcDbRotatedDimension
  0
DIMENSION
  5
21A
330
1F
100
AcDbEntity
  8
0
  6
Continuous
 62
     7
370
    18
100
AcDbDimension
  2
_D_3
 10
189.4474260718
 20
152.5983282604
 30
0.0
 11
189.4474260718
 21
162.4132828369
 31
0.0
 70
   160
  1
<>
 71
     2
 42
-1.0
  3
SLDDIMSTYLE2
100
AcDbAlignedDimension
 13
167.0030582032
 23
172.2282374134
 33
0.0
 14
167.0030582032
 24
152.5983282604
 34
0.0
 50
90.0
100
AcDbRotatedDimension
  0
DIMENSION
  5
224
330
1F
100
AcDbEntity
  8
0
  6
Continuous
 62
     7
370
    18
100
AcDbDimension
  2
_D_4
 10
178.8304616955
 20
159.5132828377
 30
0.0
 11
178.8304616955
 21
177.7093885729
 31
0.0
 70
   160
  1
%%c<>
 71
     2
 42
-1.0
  3
SLDDIMSTYLE1
100
AcDbAlignedDimension
 13
171.1778938772
 23
165.3132828373
 33
0.0
 14
171.1778938772
 24
159.5132828377
 34
0.0
 50
90.0
100
AcDbRotatedDimension
  0
DIMENSION
  5
231
330
1F
100
AcDbEntity
  8
0
  6
Continuous
 62
     7
370
    18
100
AcDbDimension
  2
_D_5
 10
171.6778938772
 20
190.7934480082
 30
0.0
 11
160.6778938772
 21
190.7934480082
 31
0.0
 70
   160
  1
<>
 71
     2
 42
-1.0
  3
SLDDIMSTYLE2
100
AcDbAlignedDimension
 13
149.6778938772
 23
172.2282374117
 33
0.0
 14
171.6778938772
 24
164.9132828374
 34
0.0
 50
0.0
100
AcDbRotatedDimension
  0
DIMENSION
  5
23B
330
1F
100
AcDbEntity
  8
0
  6
Continuous
 62
     7
370
    18
100
AcDbDimension
  2
_D_6
 10
149.6778938772
 20
181.3803010681
 30
0.0
 11
159.6778938772
 21
181.3803010681
 31
0.0
 70
   160
  1
<>
 71
     2
 42
-1.0
  3
SLDDIMSTYLE2
100
AcDbAlignedDimension
 13
169.6778938772
 23
167.4133288761
 33
0.0
 14
149.6778938772
 24
172.2282374117
 34
0.0
 50
0.0000000001
100
AcDbRotatedDimension
  0
DIMENSION
  5
245
330
1F
100
AcDbEntity
  8
0
  6
Continuous
 62
     7
370
    18
100
AcDbDimension
  2
_D_7
 10
149.6778938772
 20
181.3803010681
 30
0.0
 11
146.6778938772
 21
181.3803010681
 31
0.0
 70
   160
  1
<>
 71
     2
 42
-1.0
  3
SLDDIMSTYLE1
100
AcDbAlignedDimension
 13
143.6778938772
 23
166.4133196679
 33
0.0
 14
149.6778938772
 24
172.2282374117
 34
0.0
100
AcDbRotatedDimension
  0
DIMENSION
  5
251
330
1F
100
AcDbEntity
  8
0
  6
Continuous
 62
     7
370
    18
100
AcDbDimension
  2
_D_8
 10
146.6778938772
 20
145.2630079485
 30
0.0
 11
155.6416529002
 21
145.2630079485
 31
0.0
 70
   160
  1
<>
 71
     2
 42
-1.0
  3
SLDDIMSTYLE1
100
AcDbAlignedDimension
 13
149.6778938772
 23
152.5983282621
 33
0.0
 14
146.6778938772
 24
152.5983282621
 34
0.0
 50
0.0
100
AcDbRotatedDimension
  0
DIMENSION
  5
25D
330
1F
100
AcDbEntity
  8
0
  6
Continuous
 62
     7
370
    18
100
AcDbDimension
  2
_D_9
 10
123.6778938772
 20
139.8788602458
 30
0.0
 11
133.6778938772
 21
139.8788602458
 31
0.0
 70
   160
  1
<>st
 71
     2
 42
-1.0
  3
SLDDIMSTYLE2
100
AcDbAlignedDimension
 13
143.6778938772
 23
158.4132460059
 33
0.0
 14
123.6778938772
 24
158.2132828395
 34
0.0
 50
0.0
100
AcDbRotatedDimension
  0
DIMENSION
  5
268
330
1F
100
AcDbEntity
  8
0
  6
Continuous
 62
     7
370
    18
100
AcDbDimension
  2
_D_10
 10
110.6778938777
 20
181.3803010679
 30
0.0
 11
106.1778938777
 21
181.3803010681
 31
0.0
 70
   160
  1
<>
 71
     2
 42
-1.0
  3
SLDDIMSTYLE1
100
AcDbAlignedDimension
 13
101.6778938772
 23
167.6132828348
 33
0.0
 14
110.6778938772
 24
169.1132828341
 34
0.0
 50
-0.0000000022
100
AcDbRotatedDimension
  0
INSERT
  5
279
330
1F
100
AcDbEntity
  8
0
  6
Continuous
 62
     7
370
     0
100
AcDbBlockReference
  2
SW_NOTE_2
 10
167.6978798587
 20
139.1984689805
 30
0.0
  0
LEADER
  5
27A
330
1F
100
AcDbEntity
  8
0
  6
Continuous
 62
     7
370
     0
100
AcDbLeader
  3
SLDDIMSTYLE0
 76
     2
 10
156.5969378306
 20
156.4132828372
 30
0.0
 10
167.6978798587
 20
139.1984689805
 30
0.0
  0
LINE
  5
27B
330
1F
100
AcDbEntity
  8
0
  6
CENTERX2
 62
     7
370
    18
100
AcDbLine
 10
170.6778938772
 20
162.4132828374
 30
0.0
 11
98.8427838117
 21
162.4132828374
 31
0.0
  0
ENDSEC
  0
SECTION
  2
OBJECTS
  0
DICTIONARY
  5
C
330
0
100
AcDbDictionary
281
     1
  3
ACAD_GROUP
350
D
  3
ACAD_LAYOUT
350
1A
  3
ACAD_MLINESTYLE
350
17
  3
ACAD_PLOTSETTINGS
350
19
  3
ACAD_PLOTSTYLENAME
350
E
  3
ACAD_SCALELIST
350
47
  0
DICTIONARY
  5
D
102
{ACAD_REACTORS
330
C
102
}
330
C
100
AcDbDictionary
281
     1
  0
DICTIONARY
  5
1A
102
{ACAD_REACTORS
330
C
102
}
330
C
100
AcDbDictionary
281
     1
  3
Layout1
350
1E
  3
Layout2
350
26
  3
Model
350
22
  0
DICTIONARY
  5
17
102
{ACAD_REACTORS
330
C
102
}
330
C
100
AcDbDictionary
281
     1
  3
Standard
350
18
  0
DICTIONARY
  5
19
102
{ACAD_REACTORS
330
C
102
}
330
C
100
AcDbDictionary
281
     1
  0
ACDBDICTIONARYWDFLT
  5
E
102
{ACAD_REACTORS
330
C
102
}
330
C
100
AcDbDictionary
281
     1
  3
Normal
350
F
100
AcDbDictionaryWithDefault
340
F
  0
DICTIONARY
  5
47
102
{ACAD_REACTORS
330
C
102
}
330
C
100
AcDbDictionary
281
     1
  3
A0
350
48
  3
A1
350
49
  3
A2
350
4A
  3
A3
350
4B
  3
A4
350
4C
  3
A5
350
4D
  3
A6
350
4E
  3
A7
350
4F
  3
A8
350
50
  3
A9
350
51
  3
B0
350
52
  3
B1
350
53
  3
B2
350
54
  3
B3
350
55
  3
B4
350
56
  3
B5
350
57
  3
B6
350
58
  3
B7
350
59
  3
B8
350
5A
  3
B9
350
5B
  3
C0
350
5C
  3
C1
350
5D
  3
C2
350
5E
  3
C3
350
5F
  3
C4
350
60
  3
C5
350
61
  3
C6
350
62
  3
C7
350
63
  3
C8
350
64
  3
C9
350
65
  3
D0
350
66
  3
D1
350
67
  3
D2
350
68
  0
LAYOUT
  5
1E
102
{ACAD_REACTORS
330
1A
102
}
330
1A
100
AcDbPlotSettings
  1

  2
none_device
  4

  6

 40
0.0
 41
0.0
 42
0.0
 43
0.0
 44
0.0
 45
0.0
 46
0.0
 47
0.0
 48
0.0
 49
0.0
140
0.0
141
0.0
142
1.0
143
1.0
 70
   688
 72
     1
 73
     0
 74
     5
  7

 75
    16
147
1.0
148
0.0
149
0.0
100
AcDbLayout
  1
Layout1
 70
     1
 71
     1
 10
0.0
 20
0.0
 11
420.0
 21
297.0
 12
0.0
 22
0.0
 32
0.0
 14
1.0000000000E+20
 24
1.0000000000E+20
 34
1.0000000000E+20
 15
-1.0000000000E+20
 25
-1.0000000000E+20
 35
-1.0000000000E+20
146
0.0
 13
0.0
 23
0.0
 33
0.0
 16
1.0
 26
0.0
 36
0.0
 17
0.0
 27
1.0
 37
0.0
 76
     0
330
1B
  0
LAYOUT
  5
26
102
{ACAD_REACTORS
330
1A
102
}
330
1A
100
AcDbPlotSettings
  1

  2
none_device
  4

  6

 40
0.0
 41
0.0
 42
0.0
 43
0.0
 44
0.0
 45
0.0
 46
0.0
 47
0.0
 48
0.0
 49
0.0
140
0.0
141
0.0
142
1.0
143
1.0
 70
   688
 72
     1
 73
     0
 74
     5
  7

 75
    16
147
1.0
148
0.0
149
0.0
100
AcDbLayout
  1
Layout2
 70
     1
 71
     2
 10
0.0
 20
0.0
 11
0.0
 21
0.0
 12
0.0
 22
0.0
 32
0.0
 14
0.0
 24
0.0
 34
0.0
 15
0.0
 25
0.0
 35
0.0
146
0.0
 13
0.0
 23
0.0
 33
0.0
 16
1.0
 26
0.0
 36
0.0
 17
0.0
 27
1.0
 37
0.0
 76
     0
330
23
  0
LAYOUT
  5
22
102
{ACAD_REACTORS
330
1A
102
}
330
1A
100
AcDbPlotSettings
  1

  2
none_device
  4
Letter_(8.50_x_11.00_Inches)
  6

 40
6.35
 41
6.35
 42
6.35000508
 43
6.35000508
 44
215.9
 45
279.4
 46
0.0
 47
0.0
 48
0.0
 49
0.0
140
0.0
141
0.0
142
1.0
143
1.0
 70
  1712
 72
     1
 73
     0
 74
     0
  7

 75
     0
147
1.0
148
0.0
149
0.0
100
AcDbLayout
  1
Model
 70
     1
 71
     0
 10
0.0
 20
0.0
 11
210.0
 21
297.0
 12
0.0
 22
0.0
 32
0.0
 14
0.0
 24
0.0
 34
0.0
 15
210.0
 25
297.0
 35
0.0
146
0.0
 13
0.0
 23
0.0
 33
0.0
 16
1.0
 26
0.0
 36
0.0
 17
0.0
 27
1.0
 37
0.0
 76
     0
330
1F
331
29
  0
MLINESTYLE
  5
18
102
{ACAD_REACTORS
330
17
102
}
330
17
100
AcDbMlineStyle
  2
Standard
 70
     0
  3

 62
   256
 51
90.0
 52
90.0
 71
     2
 49
0.5
 62
   256
  6
BYLAYER
 49
-0.5
 62
   256
  6
BYLAYER
  0
ACDBPLACEHOLDER
  5
F
102
{ACAD_REACTORS
330
E
102
}
330
E
  0
SCALE
  5
48
102
{ACAD_REACTORS
330
47
102
}
330
47
100
AcDbScale
 70
     0
300
1:1
140
1.0
141
1.0
290
     1
  0
SCALE
  5
49
102
{ACAD_REACTORS
330
47
102
}
330
47
100
AcDbScale
 70
     0
300
1:2
140
1.0
141
2.0
290
     0
  0
SCALE
  5
4A
102
{ACAD_REACTORS
330
47
102
}
330
47
100
AcDbScale
 70
     0
300
1:4
140
1.0
141
4.0
290
     0
  0
SCALE
  5
4B
102
{ACAD_REACTORS
330
47
102
}
330
47
100
AcDbScale
 70
     0
300
1:5
140
1.0
141
5.0
290
     0
  0
SCALE
  5
4C
102
{ACAD_REACTORS
330
47
102
}
330
47
100
AcDbScale
 70
     0
300
1:8
140
1.0
141
8.0
290
     0
  0
SCALE
  5
4D
102
{ACAD_REACTORS
330
47
102
}
330
47
100
AcDbScale
 70
     0
300
1:10
140
1.0
141
10.0
290
     0
  0
SCALE
  5
4E
102
{ACAD_REACTORS
330
47
102
}
330
47
100
AcDbScale
 70
     0
300
1:16
140
1.0
141
16.0
290
     0
  0
SCALE
  5
4F
102
{ACAD_REACTORS
330
47
102
}
330
47
100
AcDbScale
 70
     0
300
1:20
140
1.0
141
20.0
290
     0
  0
SCALE
  5
50
102
{ACAD_REACTORS
330
47
102
}
330
47
100
AcDbScale
 70
     0
300
1:30
140
1.0
141
30.0
290
     0
  0
SCALE
  5
51
102
{ACAD_REACTORS
330
47
102
}
330
47
100
AcDbScale
 70
     0
300
1:40
140
1.0
141
40.0
290
     0
  0
SCALE
  5
52
102
{ACAD_REACTORS
330
47
102
}
330
47
100
AcDbScale
 70
     0
300
1:50
140
1.0
141
50.0
290
     0
  0
SCALE
  5
53
102
{ACAD_REACTORS
330
47
102
}
330
47
100
AcDbScale
 70
     0
300
1:100
140
1.0
141
100.0
290
     0
  0
SCALE
  5
54
102
{ACAD_REACTORS
330
47
102
}
330
47
100
AcDbScale
 70
     0
300
2:1
140
2.0
141
1.0
290
     0
  0
SCALE
  5
55
102
{ACAD_REACTORS
330
47
102
}
330
47
100
AcDbScale
 70
     0
300
4:1
140
4.0
141
1.0
290
     0
  0
SCALE
  5
56
102
{ACAD_REACTORS
330
47
102
}
330
47
100
AcDbScale
 70
     0
300
8:1
140
8.0
141
1.0
290
     0
  0
SCALE
  5
57
102
{ACAD_REACTORS
330
47
102
}
330
47
100
AcDbScale
 70
     0
300
10:1
140
10.0
141
1.0
290
     0
  0
SCALE
  5
58
102
{ACAD_REACTORS
330
47
102
}
330
47
100
AcDbScale
 70
     0
300
100:1
140
100.0
141
1.0
290
     0
  0
SCALE
  5
59
102
{ACAD_REACTORS
330
47
102
}
330
47
100
AcDbScale
 70
     0
300
1/128" = 1'-0"
140
0.0078125
141
12.0
290
     0
  0
SCALE
  5
5A
102
{ACAD_REACTORS
330
47
102
}
330
47
100
AcDbScale
 70
     0
300
1/64" = 1'-0"
140
0.015625
141
12.0
290
     0
  0
SCALE
  5
5B
102
{ACAD_REACTORS
330
47
102
}
330
47
100
AcDbScale
 70
     0
300
1/32" = 1'-0"
140
0.03125
141
12.0
290
     0
  0
SCALE
  5
5C
102
{ACAD_REACTORS
330
47
102
}
330
47
100
AcDbScale
 70
     0
300
1/16" = 1'-0"
140
0.0625
141
12.0
290
     0
  0
SCALE
  5
5D
102
{ACAD_REACTORS
330
47
102
}
330
47
100
AcDbScale
 70
     0
300
3/32" = 1'-0"
140
0.09375
141
12.0
290
     0
  0
SCALE
  5
5E
102
{ACAD_REACTORS
330
47
102
}
330
47
100
AcDbScale
 70
     0
300
1/8" = 1'-0"
140
0.125
141
12.0
290
     0
  0
SCALE
  5
5F
102
{ACAD_REACTORS
330
47
102
}
330
47
100
AcDbScale
 70
     0
300
3/16" = 1'-0"
140
0.1875
141
12.0
290
     0
  0
SCALE
  5
60
102
{ACAD_REACTORS
330
47
102
}
330
47
100
AcDbScale
 70
     0
300
1/4" = 1'-0"
140
0.25
141
12.0
290
     0
  0
SCALE
  5
61
102
{ACAD_REACTORS
330
47
102
}
330
47
100
AcDbScale
 70
     0
300
3/8" = 1'-0"
140
0.375
141
12.0
290
     0
  0
SCALE
  5
62
102
{ACAD_REACTORS
330
47
102
}
330
47
100
AcDbScale
 70
     0
300
1/2" = 1'-0"
140
0.5
141
12.0
290
     0
  0
SCALE
  5
63
102
{ACAD_REACTORS
330
47
102
}
330
47
100
AcDbScale
 70
     0
300
3/4" = 1'-0"
140
0.75
141
12.0
290
     0
  0
SCALE
  5
64
102
{ACAD_REACTORS
330
47
102
}
330
47
100
AcDbScale
 70
     0
300
1" = 1'-0"
140
1.0
141
12.0
290
     0
  0
SCALE
  5
65
102
{ACAD_REACTORS
330
47
102
}
330
47
100
AcDbScale
 70
     0
300
1-1/2" = 1'-0"
140
1.5
141
12.0
290
     0
  0
SCALE
  5
66
102
{ACAD_REACTORS
330
47
102
}
330
47
100
AcDbScale
 70
     0
300
3" = 1'-0"
140
3.0
141
12.0
290
     0
  0
SCALE
  5
67
102
{ACAD_REACTORS
330
47
102
}
330
47
100
AcDbScale
 70
     0
300
6" = 1'-0"
140
6.0
141
12.0
290
     0
  0
SCALE
  5
68
102
{ACAD_REACTORS
330
47
102
}
330
47
100
AcDbScale
 70
     0
300
1'-0" = 1'-0"
140
12.0
141
12.0
290
     0
  0
ENDSEC
  0
EOF
