  0
SECTION
  2
HEADER
  9
$ACADVER
  1
AC1015
  9
$ACADMAINTVER
 70
     6
  9
$DWGCODEPAGE
  3
DOS932
  9
$INSBASE
 10
0.0
 20
0.0
 30
0.0
  9
$EXTMIN
 10
0.0
 20
0.0
 30
0.0
  9
$EXTMAX
 10
210.0
 20
297.0
 30
0.0
  9
$LIMMIN
 10
0.0
 20
0.0
  9
$LIMMAX
 10
210.0
 20
297.0
  9
$ORTHOMODE
 70
     0
  9
$REGENMODE
 70
     1
  9
$FILLMODE
 70
     1
  9
$QTEXTMODE
 70
     0
  9
$MIRRTEXT
 70
     1
  9
$LTSCALE
 40
1.0
  9
$ATTMODE
 70
     1
  9
$TEXTSIZE
 40
3.5
  9
$TRACEWID
 40
1.0
  9
$TEXTSTYLE
  7
Standard
  9
$CLAYER
  8
0
  9
$CELTYPE
  6
ByLayer
  9
$CECOLOR
 62
   256
  9
$CELTSCALE
 40
1.0
  9
$DISPSILH
 70
     0
  9
$DIMSCALE
 40
1.0
  9
$DIMASZ
 40
3.0
  9
$DIMEXO
 40
1.0
  9
$DIMDLI
 40
3.75
  9
$DIMRND
 40
0.0
  9
$DIMDLE
 40
0.0
  9
$DIMEXE
 40
1.0
  9
$DIMTP
 40
0.0
  9
$DIMTM
 40
0.0
  9
$DIMTXT
 40
3.5
  9
$DIMCEN
 40
2.5
  9
$DIMTSZ
 40
0.0
  9
$DIMTOL
 70
     0
  9
$DIMLIM
 70
     0
  9
$DIMTIH
 70
     1
  9
$DIMTOH
 70
     1
  9
$DIMSE1
 70
     0
  9
$DIMSE2
 70
     0
  9
$DIMTAD
 70
     1
  9
$DIMZIN
 70
     0
  9
$DIMBLK
  1

  9
$DIMASO
 70
     1
  9
$DIMSHO
 70
     1
  9
$DIMPOST
  1

  9
$DIMAPOST
  1

  9
$DIMALT
 70
     0
  9
$DIMALTD
 70
     3
  9
$DIMALTF
 40
0.0393700787
  9
$DIMLFAC
 40
1.0
  9
$DIMTOFL
 70
     1
  9
$DIMTVP
 40
0.0
  9
$DIMTIX
 70
     0
  9
$DIMSOXD
 70
     0
  9
$DIMSAH
 70
     0
  9
$DIMBLK1
  1

  9
$DIMBLK2
  1

  9
$DIMSTYLE
  2
ISO-25
  9
$DIMCLRD
 70
     0
  9
$DIMCLRE
 70
     0
  9
$DIMCLRT
 70
     0
  9
$DIMTFAC
 40
1.0
  9
$DIMGAP
 40
1.524
  9
$DIMJUST
 70
     0
  9
$DIMSD1
 70
     0
  9
$DIMSD2
 70
     0
  9
$DIMTOLJ
 70
     0
  9
$DIMTZIN
 70
     0
  9
$DIMALTZ
 70
     0
  9
$DIMALTTZ
 70
     0
  9
$DIMUPT
 70
     0
  9
$DIMDEC
 70
     1
  9
$DIMTDEC
 70
     3
  9
$DIMALTU
 70
     2
  9
$DIMALTTD
 70
     3
  9
$DIMTXSTY
  7
Standard
  9
$DIMAUNIT
 70
     0
  9
$DIMADEC
 70
     2
  9
$DIMALTRND
 40
0.0
  9
$DIMAZIN
 70
     0
  9
$DIMDSEP
 70
    44
  9
$DIMATFIT
 70
     3
  9
$DIMFRAC
 70
     0
  9
$DIMLDRBLK
  1

  9
$DIMLUNIT
 70
     2
  9
$DIMLWD
 70
    -2
  9
$DIMLWE
 70
    -2
  9
$DIMTMOVE
 70
     0
  9
$LUNITS
 70
     2
  9
$LUPREC
 70
     1
  9
$SKETCHINC
 40
1.0
  9
$FILLETRAD
 40
10.0
  9
$AUNITS
 70
     0
  9
$AUPREC
 70
     2
  9
$MENU
  1
.
  9
$ELEVATION
 40
0.0
  9
$PELEVATION
 40
0.0
  9
$THICKNESS
 40
0.0
  9
$LIMCHECK
 70
     0
  9
$CHAMFERA
 40
0.0
  9
$CHAMFERB
 40
0.0
  9
$CHAMFERC
 40
0.0
  9
$CHAMFERD
 40
0.0
  9
$SKPOLY
 70
     0
  9
$TDCREATE
 40
2459019.464904618
  9
$TDUCREATE
 40
2459019.089904618
  9
$TDUPDATE
 40
2459019.464906053
  9
$TDUUPDATE
 40
2459019.089906053
  9
$TDINDWG
 40
0.0000000116
  9
$TDUSRTIMER
 40
0.0000000116
  9
$USRTIMER
 70
     1
  9
$ANGBASE
 50
0.0
  9
$ANGDIR
 70
     0
  9
$PDMODE
 70
     0
  9
$PDSIZE
 40
-1.0
  9
$PLINEWID
 40
0.0
  9
$SPLFRAME
 70
     0
  9
$SPLINETYPE
 70
     6
  9
$SPLINESEGS
 70
     8
  9
$HANDSEED
  5
1D8
  9
$SURFTAB1
 70
     6
  9
$SURFTAB2
 70
     6
  9
$SURFTYPE
 70
     6
  9
$SURFU
 70
     6
  9
$SURFV
 70
     6
  9
$UCSBASE
  2

  9
$UCSNAME
  2

  9
$UCSORG
 10
0.0
 20
0.0
 30
0.0
  9
$UCSXDIR
 10
1.0
 20
0.0
 30
0.0
  9
$UCSYDIR
 10
0.0
 20
1.0
 30
0.0
  9
$UCSORTHOREF
  2

  9
$UCSORTHOVIEW
 70
     0
  9
$UCSORGTOP
 10
0.0
 20
0.0
 30
0.0
  9
$UCSORGBOTTOM
 10
0.0
 20
0.0
 30
0.0
  9
$UCSORGLEFT
 10
0.0
 20
0.0
 30
0.0
  9
$UCSORGRIGHT
 10
0.0
 20
0.0
 30
0.0
  9
$UCSORGFRONT
 10
0.0
 20
0.0
 30
0.0
  9
$UCSORGBACK
 10
0.0
 20
0.0
 30
0.0
  9
$PUCSBASE
  2

  9
$PUCSNAME
  2

  9
$PUCSORG
 10
0.0
 20
0.0
 30
0.0
  9
$PUCSXDIR
 10
1.0
 20
0.0
 30
0.0
  9
$PUCSYDIR
 10
0.0
 20
1.0
 30
0.0
  9
$PUCSORTHOREF
  2

  9
$PUCSORTHOVIEW
 70
     0
  9
$PUCSORGTOP
 10
0.0
 20
0.0
 30
0.0
  9
$PUCSORGBOTTOM
 10
0.0
 20
0.0
 30
0.0
  9
$PUCSORGLEFT
 10
0.0
 20
0.0
 30
0.0
  9
$PUCSORGRIGHT
 10
0.0
 20
0.0
 30
0.0
  9
$PUCSORGFRONT
 10
0.0
 20
0.0
 30
0.0
  9
$PUCSORGBACK
 10
0.0
 20
0.0
 30
0.0
  9
$USERI1
 70
     0
  9
$USERI2
 70
     0
  9
$USERI3
 70
     0
  9
$USERI4
 70
     0
  9
$USERI5
 70
     0
  9
$USERR1
 40
0.0
  9
$USERR2
 40
0.0
  9
$USERR3
 40
0.0
  9
$USERR4
 40
0.0
  9
$USERR5
 40
0.0
  9
$WORLDVIEW
 70
     1
  9
$SHADEDGE
 70
     3
  9
$SHADEDIF
 70
    70
  9
$TILEMODE
 70
     1
  9
$MAXACTVP
 70
    64
  9
$PINSBASE
 10
0.0
 20
0.0
 30
0.0
  9
$PLIMCHECK
 70
     0
  9
$PEXTMIN
 10
1.0000000000E+20
 20
1.0000000000E+20
 30
1.0000000000E+20
  9
$PEXTMAX
 10
-1.0000000000E+20
 20
-1.0000000000E+20
 30
-1.0000000000E+20
  9
$PLIMMIN
 10
0.0
 20
0.0
  9
$PLIMMAX
 10
420.0
 20
297.0
  9
$UNITMODE
 70
     0
  9
$VISRETAIN
 70
     1
  9
$PLINEGEN
 70
     0
  9
$PSLTSCALE
 70
     1
  9
$TREEDEPTH
 70
  3020
  9
$CMLSTYLE
  2
Standard
  9
$CMLJUST
 70
     0
  9
$CMLSCALE
 40
20.0
  9
$PROXYGRAPHICS
 70
     1
  9
$MEASUREMENT
 70
     1
  9
$CELWEIGHT
370
    -1
  9
$ENDCAPS
280
     0
  9
$JOINSTYLE
280
     0
  9
$LWDISPLAY
290
     1
  9
$INSUNITS
 70
     4
  9
$HYPERLINKBASE
  1

  9
$STYLESHEET
  1

  9
$XEDIT
290
     1
  9
$CEPSNTYPE
380
     0
  9
$PSTYLEMODE
290
     1
  9
$FINGERPRINTGUID
  2
{2CE842D0-E681-4BF0-A90C-9A3F1425F173}
  9
$VERSIONGUID
  2
{FAEB1C32-E019-11D5-929B-00C0DF256EC4}
  9
$EXTNAMES
290
     1
  9
$PSVPSCALE
 40
0.0
  9
$OLESTARTUP
290
     0
  0
ENDSEC
  0
SECTION
  2
CLASSES
  0
CLASS
  1
ACDBDICTIONARYWDFLT
  2
AcDbDictionaryWithDefault
  3
ObjectDBX Classes
 90
        0
280
     0
281
     0
  0
CLASS
  1
VISUALSTYLE
  2
AcDbVisualStyle
  3
ObjectDBX Classes
 90
     4095
280
     0
281
     0
  0
CLASS
  1
MATERIAL
  2
AcDbMaterial
  3
ObjectDBX Classes
 90
     1153
280
     0
281
     0
  0
CLASS
  1
SCALE
  2
AcDbScale
  3
ObjectDBX Classes
 90
     1153
280
     0
281
     0
  0
CLASS
  1
TABLESTYLE
  2
AcDbTableStyle
  3
ObjectDBX Classes
 90
     4095
280
     0
281
     0
  0
CLASS
  1
MLEADERSTYLE
  2
AcDbMLeaderStyle
  3
ACDB_MLEADERSTYLE_CLASS
 90
     4095
280
     0
281
     0
  0
CLASS
  1
SUN
  2
AcDbSun
  3
SCENEOE
 90
     1153
280
     0
281
     0
  0
CLASS
  1
ACDBPLACEHOLDER
  2
AcDbPlaceHolder
  3
ObjectDBX Classes
 90
        0
280
     0
281
     0
  0
CLASS
  1
LAYOUT
  2
AcDbLayout
  3
ObjectDBX Classes
 90
        0
280
     0
281
     0
  0
ENDSEC
  0
SECTION
  2
TABLES
  0
TABLE
  2
VPORT
  5
8
330
0
100
AcDbSymbolTable
 70
     1
  0
VPORT
  5
29
330
8
100
AcDbSymbolTableRecord
100
AcDbViewportTableRecord
  2
*Active
 70
     0
 10
0.0
 20
0.0
 11
1.0
 21
1.0
 12
105.0
 22
148.5
 13
0.0
 23
0.0
 14
10.0
 24
10.0
 15
10.0
 25
10.0
 16
0.0
 26
0.0
 36
1.0
 17
0.0
 27
0.0
 37
0.0
 40
297.0
 41
0.7070707071
 42
50.0
 43
0.0
 44
0.0
 50
0.0
 51
0.0
 71
     0
 72
  2000
 73
     1
 74
     3
 75
     0
 76
     0
 77
     0
 78
     0
281
     0
 65
     1
110
0.0
120
0.0
130
0.0
111
1.0
121
0.0
131
0.0
112
0.0
122
1.0
132
0.0
 79
     0
146
0.0
  0
ENDTAB
  0
TABLE
  2
LTYPE
  5
5
330
0
100
AcDbSymbolTable
 70
     6
  0
LTYPE
  5
14
330
5
100
AcDbSymbolTableRecord
100
AcDbLinetypeTableRecord
  2
ByBlock
 70
     0
  3

 72
    65
 73
     0
 40
0.0
  0
LTYPE
  5
15
330
5
100
AcDbSymbolTableRecord
100
AcDbLinetypeTableRecord
  2
ByLayer
 70
     0
  3

 72
    65
 73
     0
 40
0.0
  0
LTYPE
  5
16
330
5
100
AcDbSymbolTableRecord
100
AcDbLinetypeTableRecord
  2
Continuous
 70
     0
  3
Solid line
 72
    65
 73
     0
 40
0.0
  0
LTYPE
  5
6E
330
5
100
AcDbSymbolTableRecord
100
AcDbLinetypeTableRecord
  2
HIDDEN
 70
     0
  3
Hidden __ __ __ __ __ __ __ __ __ __ __ __ __ __
 72
    65
 73
     2
 40
1.905
 49
1.27
 74
     0
 49
-0.635
 74
     0
  0
LTYPE
  5
6F
330
5
100
AcDbSymbolTableRecord
100
AcDbLinetypeTableRecord
  2
PHANTOM
 70
     0
  3
Phantom ______  __  __  ______  __  __  ______
 72
    65
 73
     6
 40
12.7
 49
6.35
 74
     0
 49
-1.27
 74
     0
 49
1.27
 74
     0
 49
-1.27
 74
     0
 49
1.27
 74
     0
 49
-1.27
 74
     0
  0
LTYPE
  5
70
330
5
100
AcDbSymbolTableRecord
100
AcDbLinetypeTableRecord
  2
CENTER
 70
     0
  3
Center ____ _ ____ _ ____ _ ____ _ ____ _ ____
 72
    65
 73
     4
 40
10.16
 49
6.35
 74
     0
 49
-1.27
 74
     0
 49
1.27
 74
     0
 49
-1.27
 74
     0
  0
LTYPE
  5
71
330
5
100
AcDbSymbolTableRecord
100
AcDbLinetypeTableRecord
  2
CENTERX2
 70
     0
  3
Center (2x) ________  __  ________  __  _____
 72
    65
 73
     4
 40
20.32
 49
12.7
 74
     0
 49
-2.54
 74
     0
 49
2.54
 74
     0
 49
-2.54
 74
     0
  0
LTYPE
  5
72
330
5
100
AcDbSymbolTableRecord
100
AcDbLinetypeTableRecord
  2
DOT2
 70
     0
  3
Dot (.5x) ........................................
 72
    65
 73
     2
 40
0.635
 49
0.0
 74
     0
 49
-0.635
 74
     0
  0
ENDTAB
  0
TABLE
  2
LAYER
  5
2
330
0
100
AcDbSymbolTable
 70
     1
  0
LAYER
  5
10
330
2
100
AcDbSymbolTableRecord
100
AcDbLayerTableRecord
  2
0
 70
     0
 62
     7
  6
Continuous
370
    -3
390
F
  0
ENDTAB
  0
TABLE
  2
STYLE
  5
3
330
0
100
AcDbSymbolTable
 70
     2
  0
STYLE
  5
11
330
3
100
AcDbSymbolTableRecord
100
AcDbTextStyleTableRecord
  2
Standard
 70
     0
 40
0.0
 41
1.0
 50
0.0
 71
     0
 42
3.5
  3
txt
  4
bigfont
  0
STYLE
  5
7B
330
3
100
AcDbSymbolTableRecord
100
AcDbTextStyleTableRecord
  2
SLDTEXTSTYLE0
 70
     0
 40
0.0
 41
0.7
 50
0.0
 71
     0
 42
3.5
  3
TXT
  4
bigfont
  0
ENDTAB
  0
TABLE
  2
VIEW
  5
6
330
0
100
AcDbSymbolTable
 70
     0
  0
ENDTAB
  0
TABLE
  2
UCS
  5
7
330
0
100
AcDbSymbolTable
 70
     0
  0
ENDTAB
  0
TABLE
  2
APPID
  5
9
330
0
100
AcDbSymbolTable
 70
     1
  0
APPID
  5
12
330
9
100
AcDbSymbolTableRecord
100
AcDbRegAppTableRecord
  2
ACAD
 70
     0
  0
ENDTAB
  0
TABLE
  2
DIMSTYLE
  5
A
330
0
100
AcDbSymbolTable
 70
     5
100
AcDbDimStyleTable
  0
DIMSTYLE
105
27
330
A
100
AcDbSymbolTableRecord
100
AcDbDimStyleTableRecord
  2
ISO-25
 70
     0
 41
2.5
 42
0.625
 43
3.75
 44
1.25
 73
     0
 74
     0
 77
     1
 78
     8
140
2.5
141
2.5
143
0.0393700787
147
0.625
171
     3
172
     1
178
     0
271
     2
272
     2
274
     3
278
    44
283
     0
284
     8
340
11
  0
DIMSTYLE
105
132
102
{ACAD_REACTORS
330
131
330
14A
330
188
102
}
330
A
100
AcDbSymbolTableRecord
100
AcDbDimStyleTableRecord
  2
SLDDIMSTYLE0
 70
     0
 41
3.0
 44
0.0
 45
0.000000001
 73
     0
 74
     0
 77
     3
 78
    12
 79
     3
140
3.5
147
0.875
173
     1
178
     0
271
     1
272
     3
276
     2
284
    12
340
7B
  0
DIMSTYLE
105
13D
102
{ACAD_REACTORS
330
13C
330
155
330
162
330
16E
330
17B
102
}
330
A
100
AcDbSymbolTableRecord
100
AcDbDimStyleTableRecord
  2
SLDDIMSTYLE1
 70
     0
 41
3.0
 44
0.0
 45
0.000000001
 73
     0
 74
     0
 77
     3
 78
    12
 79
     3
140
3.5
147
0.875
172
     1
173
     1
178
     0
271
     1
272
     3
276
     2
284
    12
289
     0
340
7B
  0
DIMSTYLE
105
1BB
102
{ACAD_REACTORS
330
1BA
102
}
330
A
100
AcDbSymbolTableRecord
100
AcDbDimStyleTableRecord
  2
SLDDIMSTYLE2
 70
     0
 41
3.0
 44
0.0
 45
0.000000001
 78
    12
 79
     3
140
3.5
141
0.0
147
0.875
173
     1
178
     0
271
     1
272
     3
276
     2
284
    12
340
7B
  0
DIMSTYLE
105
1CA
330
A
100
AcDbSymbolTableRecord
100
AcDbDimStyleTableRecord
  2
SLDDIMSTYLE3
 70
     0
 41
3.0
 44
0.0
 45
0.000000001
146
3.0
147
0.0
173
     1
178
     0
271
     0
272
     0
276
     2
340
11
  0
ENDTAB
  0
TABLE
  2
BLOCK_RECORD
  5
1
330
0
100
AcDbSymbolTable
 70
    12
  0
BLOCK_RECORD
  5
1F
330
1
100
AcDbSymbolTableRecord
100
AcDbBlockTableRecord
  2
*Model_Space
340
22
  0
BLOCK_RECORD
  5
1B
330
1
100
AcDbSymbolTableRecord
100
AcDbBlockTableRecord
  2
*Paper_Space
340
1E
  0
BLOCK_RECORD
  5
23
330
1
100
AcDbSymbolTableRecord
100
AcDbBlockTableRecord
  2
*Paper_Space0
340
26
  0
BLOCK_RECORD
  5
133
330
1
100
AcDbSymbolTableRecord
100
AcDbBlockTableRecord
  2
_D
340
0
  0
BLOCK_RECORD
  5
13E
330
1
100
AcDbSymbolTableRecord
100
AcDbBlockTableRecord
  2
_D_1
340
0
  0
BLOCK_RECORD
  5
14B
330
1
100
AcDbSymbolTableRecord
100
AcDbBlockTableRecord
  2
_D_2
340
0
  0
BLOCK_RECORD
  5
156
330
1
100
AcDbSymbolTableRecord
100
AcDbBlockTableRecord
  2
_D_3
340
0
  0
BLOCK_RECORD
  5
163
330
1
100
AcDbSymbolTableRecord
100
AcDbBlockTableRecord
  2
_D_4
340
0
  0
BLOCK_RECORD
  5
16F
330
1
100
AcDbSymbolTableRecord
100
AcDbBlockTableRecord
  2
_D_5
340
0
  0
BLOCK_RECORD
  5
17C
330
1
100
AcDbSymbolTableRecord
100
AcDbBlockTableRecord
  2
_D_6
340
0
  0
BLOCK_RECORD
  5
189
330
1
100
AcDbSymbolTableRecord
100
AcDbBlockTableRecord
  2
_D_7
340
0
  0
BLOCK_RECORD
  5
1BC
330
1
100
AcDbSymbolTableRecord
100
AcDbBlockTableRecord
  2
_D_8
340
0
  0
BLOCK_RECORD
  5
1C4
330
1
100
AcDbSymbolTableRecord
100
AcDbBlockTableRecord
  2
SW_NOTE_0
340
0
102
{BLKREFS
331
1C9
102
}
  0
BLOCK_RECORD
  5
1CC
330
1
100
AcDbSymbolTableRecord
100
AcDbBlockTableRecord
  2
SW_CENTERMARKSYMBOL_0
340
0
102
{BLKREFS
331
1D7
102
}
  0
ENDTAB
  0
ENDSEC
  0
SECTION
  2
BLOCKS
  0
BLOCK
  5
20
330
1F
100
AcDbEntity
  8
0
100
AcDbBlockBegin
  2
*Model_Space
 70
     0
 10
0.0
 20
0.0
 30
0.0
  3
*Model_Space
  1

  0
ENDBLK
  5
21
330
1F
100
AcDbEntity
  8
0
100
AcDbBlockEnd
  0
BLOCK
  5
1C
330
1B
100
AcDbEntity
 67
     1
  8
0
100
AcDbBlockBegin
  2
*Paper_Space
 70
     0
 10
0.0
 20
0.0
 30
0.0
  3
*Paper_Space
  1

  0
ENDBLK
  5
1D
330
1B
100
AcDbEntity
 67
     1
  8
0
100
AcDbBlockEnd
  0
BLOCK
  5
24
330
23
100
AcDbEntity
  8
0
100
AcDbBlockBegin
  2
*Paper_Space0
 70
     0
 10
0.0
 20
0.0
 30
0.0
  3
*Paper_Space0
  1

  0
ENDBLK
  5
25
330
23
100
AcDbEntity
  8
0
100
AcDbBlockEnd
  0
BLOCK
  5
134
330
133
100
AcDbEntity
  8
0
100
AcDbBlockBegin
  2
_D
 70
     0
 10
0.0
 20
0.0
 30
0.0
  3
_D
  1

  0
SOLID
  5
136
330
133
100
AcDbEntity
  8
0
  6
Continuous
 62
     7
370
    18
100
AcDbTrace
 10
143.7194331036
 20
124.5427483927
 30
0.0
 11
146.7194331036
 21
123.7927483927
 31
0.0
 12
146.7194331036
 22
125.2927483927
 32
0.0
 13
146.7194331036
 23
125.2927483927
 33
0.0
  0
SOLID
  5
137
330
133
100
AcDbEntity
  8
0
  6
Continuous
 62
     7
370
    18
100
AcDbTrace
 10
161.7194331036
 20
124.5427483927
 30
0.0
 11
158.7194331036
 21
125.2927483927
 31
0.0
 12
158.7194331036
 22
123.7927483927
 32
0.0
 13
158.7194331036
 23
123.7927483927
 33
0.0
  0
LINE
  5
138
330
133
100
AcDbEntity
  8
0
  6
Continuous
 62
     7
370
    18
100
AcDbLine
 10
143.7194331036
 20
137.0882347255
 30
0.0
 11
143.7194331036
 21
123.5427483927
 31
0.0
  0
LINE
  5
139
330
133
100
AcDbEntity
  8
0
  6
Continuous
 62
     7
370
    18
100
AcDbLine
 10
161.7194331036
 20
139.7882347255
 30
0.0
 11
161.7194331036
 21
123.5427483927
 31
0.0
  0
LINE
  5
13A
330
133
100
AcDbEntity
  8
0
  6
Continuous
 62
     7
370
    18
100
AcDbLine
 10
143.7194331036
 20
124.5427483927
 30
0.0
 11
161.7194331036
 21
124.5427483927
 31
0.0
  0
MTEXT
  5
13B
330
133
100
AcDbEntity
  8
0
  6
Continuous
 62
     7
370
    18
100
AcDbMText
 10
150.6826276061
 20
129.0544852491
 30
0.0
 40
3.5
 41
0.0
 71
     1
 72
     1
  1
18
  7
SLDTEXTSTYLE0
 73
     1
 44
1.0
  0
ENDBLK
  5
135
330
133
100
AcDbEntity
  8
0
100
AcDbBlockEnd
  0
BLOCK
  5
13F
330
13E
100
AcDbEntity
  8
0
100
AcDbBlockBegin
  2
_D_1
 70
     0
 10
0.0
 20
0.0
 30
0.0
  3
_D_1
  1

  0
SOLID
  5
141
330
13E
100
AcDbEntity
  8
0
  6
Continuous
 62
     7
370
    18
100
AcDbTrace
 10
168.9931327112
 20
148.1882347255
 30
0.0
 11
169.7431327112
 21
151.1882347255
 31
0.0
 12
168.2431327112
 22
151.1882347255
 32
0.0
 13
168.2431327112
 23
151.1882347255
 33
0.0
  0
SOLID
  5
142
330
13E
100
AcDbEntity
  8
0
  6
Continuous
 62
     7
370
    18
100
AcDbTrace
 10
168.9931327112
 20
143.3882347255
 30
0.0
 11
168.2431327112
 21
140.3882347255
 31
0.0
 12
169.7431327112
 22
140.3882347255
 32
0.0
 13
169.7431327112
 23
140.3882347255
 33
0.0
  0
LINE
  5
143
330
13E
100
AcDbEntity
  8
0
  6
Continuous
 62
     7
370
    18
100
AcDbLine
 10
164.2194331036
 20
148.1882347255
 30
0.0
 11
169.9931327112
 21
148.1882347255
 31
0.0
  0
LINE
  5
144
330
13E
100
AcDbEntity
  8
0
  6
Continuous
 62
     7
370
    18
100
AcDbLine
 10
164.2194331036
 20
143.3882347255
 30
0.0
 11
169.9931327112
 21
143.3882347255
 31
0.0
  0
LINE
  5
145
330
13E
100
AcDbEntity
  8
0
  6
Continuous
 62
     7
370
    18
100
AcDbLine
 10
168.9931327112
 20
148.1882347255
 30
0.0
 11
168.9931327112
 21
158.5499898049
 31
0.0
  0
LINE
  5
146
330
13E
100
AcDbEntity
  8
0
  6
Continuous
 62
     7
370
    18
100
AcDbLine
 10
168.9931327112
 20
148.1882347255
 30
0.0
 11
168.9931327112
 21
143.3882347255
 31
0.0
  0
LINE
  5
147
330
13E
100
AcDbEntity
  8
0
  6
Continuous
 62
     7
370
    18
100
AcDbLine
 10
168.9931327112
 20
143.3882347255
 30
0.0
 11
168.9931327112
 21
138.3882347255
 31
0.0
  0
MTEXT
  5
148
330
13E
100
AcDbEntity
  8
0
  6
Continuous
 62
     7
370
    18
100
AcDbMText
 10
164.4813958549
 20
152.6432537924
 30
0.0
 40
3.5
 41
0.0
 71
     1
 72
     1
  1
%%c
  7
SLDTEXTSTYLE0
 11
-7.044195017643634E-15
 21
1.0
 31
0.0
 73
     1
 44
1.0
  0
MTEXT
  5
149
330
13E
100
AcDbEntity
  8
0
  6
Continuous
 62
     7
370
    18
100
AcDbMText
 10
164.4813958549
 20
156.5131843074
 30
0.0
 40
3.5
 41
0.0
 71
     1
 72
     1
  1
5
  7
SLDTEXTSTYLE0
 11
-7.044195017643634E-15
 21
1.0
 31
0.0
 73
     1
 44
1.0
  0
ENDBLK
  5
140
330
13E
100
AcDbEntity
  8
0
100
AcDbBlockEnd
  0
BLOCK
  5
14C
330
14B
100
AcDbEntity
  8
0
100
AcDbBlockBegin
  2
_D_2
 70
     0
 10
0.0
 20
0.0
 30
0.0
  3
_D_2
  1

  0
SOLID
  5
14E
330
14B
100
AcDbEntity
  8
0
  6
Continuous
 62
     7
370
    18
100
AcDbTrace
 10
177.8073374181
 20
151.7882347255
 30
0.0
 11
177.0573374181
 21
148.7882347255
 31
0.0
 12
178.5573374181
 22
148.7882347255
 32
0.0
 13
178.5573374181
 23
148.7882347255
 33
0.0
  0
SOLID
  5
14F
330
14B
100
AcDbEntity
  8
0
  6
Continuous
 62
     7
370
    18
100
AcDbTrace
 10
177.8073374181
 20
139.7882347255
 30
0.0
 11
178.5573374181
 21
142.7882347255
 31
0.0
 12
177.0573374181
 22
142.7882347255
 32
0.0
 13
177.0573374181
 23
142.7882347255
 33
0.0
  0
LINE
  5
150
330
14B
100
AcDbEntity
  8
0
  6
Continuous
 62
     7
370
    18
100
AcDbLine
 10
161.7194331036
 20
151.7882347255
 30
0.0
 11
178.8073374181
 21
151.7882347255
 31
0.0
  0
LINE
  5
151
330
14B
100
AcDbEntity
  8
0
  6
Continuous
 62
     7
370
    18
100
AcDbLine
 10
161.7194331036
 20
139.7882347255
 30
0.0
 11
178.8073374181
 21
139.7882347255
 31
0.0
  0
LINE
  5
152
330
14B
100
AcDbEntity
  8
0
  6
Continuous
 62
     7
370
    18
100
AcDbLine
 10
177.8073374181
 20
151.7882347255
 30
0.0
 11
177.8073374181
 21
139.7882347255
 31
0.0
  0
MTEXT
  5
153
330
14B
100
AcDbEntity
  8
0
  6
Continuous
 62
     7
370
    18
100
AcDbMText
 10
173.2956000961
 20
141.816463854
 30
0.0
 40
3.5
 41
0.0
 71
     1
 72
     1
  1
%%c
  7
SLDTEXTSTYLE0
 11
-7.044195017643634E-15
 21
1.0
 31
0.0
 73
     1
 44
1.0
  0
MTEXT
  5
154
330
14B
100
AcDbEntity
  8
0
  6
Continuous
 62
     7
370
    18
100
AcDbMText
 10
173.2956000961
 20
145.6863943691
 30
0.0
 40
3.5
 41
0.0
 71
     1
 72
     1
  1
12
  7
SLDTEXTSTYLE0
 11
-7.044195017643634E-15
 21
1.0
 31
0.0
 73
     1
 44
1.0
  0
ENDBLK
  5
14D
330
14B
100
AcDbEntity
  8
0
100
AcDbBlockEnd
  0
BLOCK
  5
157
330
156
100
AcDbEntity
  8
0
100
AcDbBlockBegin
  2
_D_3
 70
     0
 10
0.0
 20
0.0
 30
0.0
  3
_D_3
  1

  0
SOLID
  5
159
330
156
100
AcDbEntity
  8
0
  6
Continuous
 62
     7
370
    18
100
AcDbTrace
 10
139.7194331036
 20
158.3992301844
 30
0.0
 11
142.7194331036
 21
157.6492301844
 31
0.0
 12
142.7194331036
 22
159.1492301844
 32
0.0
 13
142.7194331036
 23
159.1492301844
 33
0.0
  0
SOLID
  5
15A
330
156
100
AcDbEntity
  8
0
  6
Continuous
 62
     7
370
    18
100
AcDbTrace
 10
134.7194331036
 20
158.3992301844
 30
0.0
 11
131.7194331036
 21
159.1492301844
 31
0.0
 12
131.7194331036
 22
157.6492301844
 32
0.0
 13
131.7194331036
 23
157.6492301844
 33
0.0
  0
LINE
  5
15B
330
156
100
AcDbEntity
  8
0
  6
Continuous
 62
     7
370
    18
100
AcDbLine
 10
139.7194331036
 20
150.2382347255
 30
0.0
 11
139.7194331036
 21
159.3992301844
 31
0.0
  0
LINE
  5
15C
330
156
100
AcDbEntity
  8
0
  6
Continuous
 62
     7
370
    18
100
AcDbLine
 10
134.7194331036
 20
150.2382347255
 30
0.0
 11
134.7194331036
 21
159.3992301844
 31
0.0
  0
LINE
  5
15D
330
156
100
AcDbEntity
  8
0
  6
Continuous
 62
     7
370
    18
100
AcDbLine
 10
139.7194331036
 20
158.3992301844
 30
0.0
 11
150.0661449056
 21
158.3992301844
 31
0.0
  0
LINE
  5
15E
330
156
100
AcDbEntity
  8
0
  6
Continuous
 62
     7
370
    18
100
AcDbLine
 10
139.7194331036
 20
158.3992301844
 30
0.0
 11
134.7194331036
 21
158.3992301844
 31
0.0
  0
LINE
  5
15F
330
156
100
AcDbEntity
  8
0
  6
Continuous
 62
     7
370
    18
100
AcDbLine
 10
134.7194331036
 20
158.3992301844
 30
0.0
 11
129.7194331036
 21
158.3992301844
 31
0.0
  0
MTEXT
  5
160
330
156
100
AcDbEntity
  8
0
  6
Continuous
 62
     7
370
    18
100
AcDbMText
 10
143.9557281803
 20
162.9109670408
 30
0.0
 40
3.5
 41
0.0
 71
     1
 72
     1
  1
5
  7
SLDTEXTSTYLE0
 73
     1
 44
1.0
  0
MTEXT
  5
161
330
156
100
AcDbEntity
  8
0
  6
Continuous
 62
     7
370
    18
100
AcDbMText
 10
145.9925336778
 20
162.9109670408
 30
0.0
 40
3.5
 41
0.0
 71
     1
 72
     1
  1
st
  7
SLDTEXTSTYLE0
 73
     1
 44
1.0
  0
ENDBLK
  5
158
330
156
100
AcDbEntity
  8
0
100
AcDbBlockEnd
  0
BLOCK
  5
164
330
163
100
AcDbEntity
  8
0
100
AcDbBlockBegin
  2
_D_4
 70
     0
 10
0.0
 20
0.0
 30
0.0
  3
_D_4
  1

  0
SOLID
  5
166
330
163
100
AcDbEntity
  8
0
  6
Continuous
 62
     7
370
    18
100
AcDbTrace
 10
125.7194331036
 20
158.3992301844
 30
0.0
 11
128.7194331036
 21
157.6492301844
 31
0.0
 12
128.7194331036
 22
159.1492301844
 32
0.0
 13
128.7194331036
 23
159.1492301844
 33
0.0
  0
SOLID
  5
167
330
163
100
AcDbEntity
  8
0
  6
Continuous
 62
     7
370
    18
100
AcDbTrace
 10
120.2194331036
 20
158.3992301844
 30
0.0
 11
117.2194331036
 21
159.1492301844
 31
0.0
 12
117.2194331036
 22
157.6492301844
 32
0.0
 13
117.2194331036
 23
157.6492301844
 33
0.0
  0
LINE
  5
168
330
163
100
AcDbEntity
  8
0
  6
Continuous
 62
     7
370
    18
100
AcDbLine
 10
125.7194331036
 20
151.4882347255
 30
0.0
 11
125.7194331036
 21
159.3992301844
 31
0.0
  0
LINE
  5
169
330
163
100
AcDbEntity
  8
0
  6
Continuous
 62
     7
370
    18
100
AcDbLine
 10
120.2194331036
 20
149.9882347255
 30
0.0
 11
120.2194331036
 21
159.3992301844
 31
0.0
  0
LINE
  5
16A
330
163
100
AcDbEntity
  8
0
  6
Continuous
 62
     7
370
    18
100
AcDbLine
 10
125.7194331036
 20
158.3992301844
 30
0.0
 11
130.7194331036
 21
158.3992301844
 31
0.0
  0
LINE
  5
16B
330
163
100
AcDbEntity
  8
0
  6
Continuous
 62
     7
370
    18
100
AcDbLine
 10
125.7194331036
 20
158.3992301844
 30
0.0
 11
120.2194331036
 21
158.3992301844
 31
0.0
  0
LINE
  5
16C
330
163
100
AcDbEntity
  8
0
  6
Continuous
 62
     7
370
    18
100
AcDbLine
 10
120.2194331036
 20
158.3992301844
 30
0.0
 11
109.3390645248
 21
158.3992301844
 31
0.0
  0
MTEXT
  5
16D
330
163
100
AcDbEntity
  8
0
  6
Continuous
 62
     7
370
    18
100
AcDbMText
 10
109.3390645248
 20
162.9109670408
 30
0.0
 40
3.5
 41
0.0
 71
     1
 72
     1
  1
5.5
  7
SLDTEXTSTYLE0
 73
     1
 44
1.0
  0
ENDBLK
  5
165
330
163
100
AcDbEntity
  8
0
100
AcDbBlockEnd
  0
BLOCK
  5
170
330
16F
100
AcDbEntity
  8
0
100
AcDbBlockBegin
  2
_D_5
 70
     0
 10
0.0
 20
0.0
 30
0.0
  3
_D_5
  1

  0
SOLID
  5
172
330
16F
100
AcDbEntity
  8
0
  6
Continuous
 62
     7
370
    18
100
AcDbTrace
 10
111.3740903252
 20
149.2882347255
 30
0.0
 11
112.1240903252
 21
152.2882347255
 31
0.0
 12
110.6240903252
 22
152.2882347255
 32
0.0
 13
110.6240903252
 23
152.2882347255
 33
0.0
  0
SOLID
  5
173
330
16F
100
AcDbEntity
  8
0
  6
Continuous
 62
     7
370
    18
100
AcDbTrace
 10
111.3740903252
 20
142.2882347255
 30
0.0
 11
110.6240903252
 21
139.2882347255
 31
0.0
 12
112.1240903252
 22
139.2882347255
 32
0.0
 13
112.1240903252
 23
139.2882347255
 33
0.0
  0
LINE
  5
174
330
16F
100
AcDbEntity
  8
0
  6
Continuous
 62
     7
370
    18
100
AcDbLine
 10
119.5194331036
 20
149.2882347255
 30
0.0
 11
110.3740903252
 21
149.2882347255
 31
0.0
  0
LINE
  5
175
330
16F
100
AcDbEntity
  8
0
  6
Continuous
 62
     7
370
    18
100
AcDbLine
 10
119.5194331036
 20
142.2882347255
 30
0.0
 11
110.3740903252
 21
142.2882347255
 31
0.0
  0
LINE
  5
176
330
16F
100
AcDbEntity
  8
0
  6
Continuous
 62
     7
370
    18
100
AcDbLine
 10
111.3740903252
 20
149.2882347255
 30
0.0
 11
111.3740903252
 21
154.2882347255
 31
0.0
  0
LINE
  5
177
330
16F
100
AcDbEntity
  8
0
  6
Continuous
 62
     7
370
    18
100
AcDbLine
 10
111.3740903252
 20
149.2882347255
 30
0.0
 11
111.3740903252
 21
142.2882347255
 31
0.0
  0
LINE
  5
178
330
16F
100
AcDbEntity
  8
0
  6
Continuous
 62
     7
370
    18
100
AcDbLine
 10
111.3740903252
 20
142.2882347255
 30
0.0
 11
111.3740903252
 21
137.2882347255
 31
0.0
  0
MTEXT
  5
179
330
16F
100
AcDbEntity
  8
0
  6
Continuous
 62
     7
370
    18
100
AcDbMText
 10
106.8623530031
 20
142.8348667192
 30
0.0
 40
3.5
 41
0.0
 71
     1
 72
     1
  1
%%c
  7
SLDTEXTSTYLE0
 11
-7.044195017643634E-15
 21
1.0
 31
0.0
 73
     1
 44
1.0
  0
MTEXT
  5
17A
330
16F
100
AcDbEntity
  8
0
  6
Continuous
 62
     7
370
    18
100
AcDbMText
 10
106.8623530031
 20
146.7047972343
 30
0.0
 40
3.5
 41
0.0
 71
     1
 72
     1
  1
7
  7
SLDTEXTSTYLE0
 11
-7.044195017643634E-15
 21
1.0
 31
0.0
 73
     1
 44
1.0
  0
ENDBLK
  5
171
330
16F
100
AcDbEntity
  8
0
100
AcDbBlockEnd
  0
BLOCK
  5
17D
330
17C
100
AcDbEntity
  8
0
100
AcDbBlockBegin
  2
_D_6
 70
     0
 10
0.0
 20
0.0
 30
0.0
  3
_D_6
  1

  0
SOLID
  5
17F
330
17C
100
AcDbEntity
  8
0
  6
Continuous
 62
     7
370
    18
100
AcDbTrace
 10
100.6994114033
 20
150.7882347255
 30
0.0
 11
101.4494114033
 21
153.7882347255
 31
0.0
 12
99.9494114033
 22
153.7882347255
 32
0.0
 13
99.9494114033
 23
153.7882347255
 33
0.0
  0
SOLID
  5
180
330
17C
100
AcDbEntity
  8
0
  6
Continuous
 62
     7
370
    18
100
AcDbTrace
 10
100.6994114033
 20
140.7882347255
 30
0.0
 11
99.9494114033
 21
137.7882347255
 31
0.0
 12
101.4494114033
 22
137.7882347255
 32
0.0
 13
101.4494114033
 23
137.7882347255
 33
0.0
  0
LINE
  5
181
330
17C
100
AcDbEntity
  8
0
  6
Continuous
 62
     7
370
    18
100
AcDbLine
 10
125.0194331036
 20
150.7882347255
 30
0.0
 11
99.6994114033
 21
150.7882347255
 31
0.0
  0
LINE
  5
182
330
17C
100
AcDbEntity
  8
0
  6
Continuous
 62
     7
370
    18
100
AcDbLine
 10
125.0194331036
 20
140.7882347255
 30
0.0
 11
99.6994114033
 21
140.7882347255
 31
0.0
  0
LINE
  5
183
330
17C
100
AcDbEntity
  8
0
  6
Continuous
 62
     7
370
    18
100
AcDbLine
 10
100.6994114033
 20
150.7882347255
 30
0.0
 11
100.6994114033
 21
155.7882347255
 31
0.0
  0
LINE
  5
184
330
17C
100
AcDbEntity
  8
0
  6
Continuous
 62
     7
370
    18
100
AcDbLine
 10
100.6994114033
 20
150.7882347255
 30
0.0
 11
100.6994114033
 21
140.7882347255
 31
0.0
  0
LINE
  5
185
330
17C
100
AcDbEntity
  8
0
  6
Continuous
 62
     7
370
    18
100
AcDbLine
 10
100.6994114033
 20
140.7882347255
 30
0.0
 11
100.6994114033
 21
135.7882347255
 31
0.0
  0
MTEXT
  5
186
330
17C
100
AcDbEntity
  8
0
  6
Continuous
 62
     7
370
    18
100
AcDbMText
 10
96.1876740812
 20
141.816463854
 30
0.0
 40
3.5
 41
0.0
 71
     1
 72
     1
  1
%%c
  7
SLDTEXTSTYLE0
 11
-7.044195017643634E-15
 21
1.0
 31
0.0
 73
     1
 44
1.0
  0
MTEXT
  5
187
330
17C
100
AcDbEntity
  8
0
  6
Continuous
 62
     7
370
    18
100
AcDbMText
 10
96.1876740812
 20
145.6863943691
 30
0.0
 40
3.5
 41
0.0
 71
     1
 72
     1
  1
10
  7
SLDTEXTSTYLE0
 11
-7.044195017643634E-15
 21
1.0
 31
0.0
 73
     1
 44
1.0
  0
ENDBLK
  5
17E
330
17C
100
AcDbEntity
  8
0
100
AcDbBlockEnd
  0
BLOCK
  5
18A
330
189
100
AcDbEntity
  8
0
100
AcDbBlockBegin
  2
_D_7
 70
     0
 10
0.0
 20
0.0
 30
0.0
  3
_D_7
  1

  0
SOLID
  5
18C
330
189
100
AcDbEntity
  8
0
  6
Continuous
 62
     7
370
    18
100
AcDbTrace
 10
120.2194331036
 20
169.7882347255
 30
0.0
 11
123.2194331036
 21
169.0382347255
 31
0.0
 12
123.2194331036
 22
170.5382347255
 32
0.0
 13
123.2194331036
 23
170.5382347255
 33
0.0
  0
SOLID
  5
18D
330
189
100
AcDbEntity
  8
0
  6
Continuous
 62
     7
370
    18
100
AcDbTrace
 10
163.7194331036
 20
169.7882347255
 30
0.0
 11
160.7194331036
 21
170.5382347255
 31
0.0
 12
160.7194331036
 22
169.0382347255
 32
0.0
 13
160.7194331036
 23
169.0382347255
 33
0.0
  0
LINE
  5
18E
330
189
100
AcDbEntity
  8
0
  6
Continuous
 62
     7
370
    18
100
AcDbLine
 10
120.2194331036
 20
149.9882347255
 30
0.0
 11
120.2194331036
 21
170.7882347255
 31
0.0
  0
LINE
  5
18F
330
189
100
AcDbEntity
  8
0
  6
Continuous
 62
     7
370
    18
100
AcDbLine
 10
163.7194331036
 20
148.7882347255
 30
0.0
 11
163.7194331036
 21
170.7882347255
 31
0.0
  0
LINE
  5
190
330
189
100
AcDbEntity
  8
0
  6
Continuous
 62
     7
370
    18
100
AcDbLine
 10
120.2194331036
 20
169.7882347255
 30
0.0
 11
163.7194331036
 21
169.7882347255
 31
0.0
  0
MTEXT
  5
191
330
189
100
AcDbEntity
  8
0
  6
Continuous
 62
     7
370
    18
100
AcDbMText
 10
137.8958221086
 20
174.2999715818
 30
0.0
 40
3.5
 41
0.0
 71
     1
 72
     1
  1
43.5
  7
SLDTEXTSTYLE0
 73
     1
 44
1.0
  0
ENDBLK
  5
18B
330
189
100
AcDbEntity
  8
0
100
AcDbBlockEnd
  0
BLOCK
  5
1BD
330
1BC
100
AcDbEntity
  8
0
100
AcDbBlockBegin
  2
_D_8
 70
     0
 10
0.0
 20
0.0
 30
0.0
  3
_D_8
  1

  0
SOLID
  5
1BF
330
1BC
100
AcDbEntity
  8
0
  6
Continuous
 62
     7
370
    18
100
AcDbTrace
 10
62.7662271895
 20
152.1851575853
 30
0.0
 11
61.5644011641
 21
155.0343880436
 31
0.0
 12
60.3649781278
 22
154.1336192719
 32
0.0
 13
60.3649781278
 23
154.1336192719
 33
0.0
  0
LINE
  5
1C0
330
1BC
100
AcDbEntity
  8
0
  6
Continuous
 62
     7
370
    18
100
AcDbLine
 10
62.7662271895
 20
152.1851575853
 30
0.0
 11
55.4596454095
 21
161.914272068
 31
0.0
  0
LINE
  5
1C1
330
1BC
100
AcDbEntity
  8
0
  6
Continuous
 62
     7
370
    18
100
AcDbLine
 10
55.4596454095
 20
161.914272068
 30
0.0
 11
45.9286036667
 21
161.914272068
 31
0.0
  0
MTEXT
  5
1C2
330
1BC
100
AcDbEntity
  8
0
  6
Continuous
 62
     7
370
    18
100
AcDbMText
 10
45.9286036667
 20
166.42600939
 30
0.0
 40
3.5
 41
0.0
 71
     1
 72
     1
  1
%%c
  7
SLDTEXTSTYLE0
 73
     1
 44
1.0
  0
MTEXT
  5
1C3
330
1BC
100
AcDbEntity
  8
0
  6
Continuous
 62
     7
370
    18
100
AcDbMText
 10
49.7985341817
 20
166.42600939
 30
0.0
 40
3.5
 41
0.0
 71
     1
 72
     1
  1
16
  7
SLDTEXTSTYLE0
 73
     1
 44
1.0
  0
ENDBLK
  5
1BE
330
1BC
100
AcDbEntity
  8
0
100
AcDbBlockEnd
  0
BLOCK
  5
1C5
330
1C4
100
AcDbEntity
  8
0
100
AcDbBlockBegin
  2
SW_NOTE_0
 70
     0
 10
0.0
 20
0.0
 30
0.0
  3
SW_NOTE_0
  1

  0
LINE
  5
1C7
330
1C4
100
AcDbEntity
  8
0
  6
Continuous
 62
     0
370
     0
100
AcDbLine
 10
-34.7488468651
 20
0.0
 30
0.0
 11
0.0
 21
0.0
 31
0.0
  0
MTEXT
  5
1C8
330
1C4
100
AcDbEntity
  8
0
  6
Continuous
 62
     0
370
     0
100
AcDbMText
 10
-35.1695041507
 20
4.5992566941
 30
0.0
 40
3.5
 41
0.0
 71
     1
 72
     1
  1
外径φ6配管用継手
  7
SLDTEXTSTYLE0
 73
     1
 44
1.0
  0
ENDBLK
  5
1C6
330
1C4
100
AcDbEntity
  8
0
100
AcDbBlockEnd
  0
BLOCK
  5
1CD
330
1CC
100
AcDbEntity
  8
0
100
AcDbBlockBegin
  2
SW_CENTERMARKSYMBOL_0
 70
     0
 10
0.0
 20
0.0
 30
0.0
  3
SW_CENTERMARKSYMBOL_0
  1

  0
LINE
  5
1CF
330
1CC
100
AcDbEntity
  8
0
  6
Continuous
 62
     0
370
    18
100
AcDbLine
 10
0.0
 20
0.0
 30
0.0
 11
0.0
 21
2.5
 31
0.0
  0
LINE
  5
1D0
330
1CC
100
AcDbEntity
  8
0
  6
Continuous
 62
     0
370
    18
100
AcDbLine
 10
0.0
 20
0.0
 30
0.0
 11
-2.5
 21
0.0
 31
0.0
  0
LINE
  5
1D1
330
1CC
100
AcDbEntity
  8
0
  6
Continuous
 62
     0
370
    18
100
AcDbLine
 10
0.0
 20
0.0
 30
0.0
 11
0.0
 21
-2.5
 31
0.0
  0
LINE
  5
1D2
330
1CC
100
AcDbEntity
  8
0
  6
Continuous
 62
     0
370
    18
100
AcDbLine
 10
0.0
 20
0.0
 30
0.0
 11
2.5
 21
0.0
 31
0.0
  0
LINE
  5
1D3
330
1CC
100
AcDbEntity
  8
0
  6
Continuous
 62
     0
370
    18
100
AcDbLine
 10
0.0
 20
5.0
 30
0.0
 11
0.0
 21
10.2
 31
0.0
  0
LINE
  5
1D4
330
1CC
100
AcDbEntity
  8
0
  6
Continuous
 62
     0
370
    18
100
AcDbLine
 10
-5.0
 20
0.0
 30
0.0
 11
-10.2
 21
0.0
 31
0.0
  0
LINE
  5
1D5
330
1CC
100
AcDbEntity
  8
0
  6
Continuous
 62
     0
370
    18
100
AcDbLine
 10
0.0
 20
-5.0
 30
0.0
 11
0.0
 21
-10.2
 31
0.0
  0
LINE
  5
1D6
330
1CC
100
AcDbEntity
  8
0
  6
Continuous
 62
     0
370
    18
100
AcDbLine
 10
5.0
 20
0.0
 30
0.0
 11
10.2
 21
0.0
 31
0.0
  0
ENDBLK
  5
1CE
330
1CC
100
AcDbEntity
  8
0
100
AcDbBlockEnd
  0
ENDSEC
  0
SECTION
  2
ENTITIES
  0
LINE
  5
73
330
1F
100
AcDbEntity
  8
0
  6
Continuous
 62
     7
370
    18
100
AcDbLine
 10
20.2604743903
 20
285.0
 30
0.0
 11
196.7604743903
 21
285.0
 31
0.0
  0
LINE
  5
74
330
1F
100
AcDbEntity
  8
0
  6
Continuous
 62
     7
370
    18
100
AcDbLine
 10
20.2604743903
 20
285.0
 30
0.0
 11
20.2604743903
 21
10.0
 31
0.0
  0
LINE
  5
75
330
1F
100
AcDbEntity
  8
0
  6
Continuous
 62
     7
370
    18
100
AcDbLine
 10
20.2604743903
 20
10.0
 30
0.0
 11
196.7604743903
 21
10.0
 31
0.0
  0
LINE
  5
76
330
1F
100
AcDbEntity
  8
0
  6
Continuous
 62
     7
370
    18
100
AcDbLine
 10
196.7604743903
 20
285.0
 30
0.0
 11
196.7604743903
 21
10.0
 31
0.0
  0
LINE
  5
77
330
1F
100
AcDbEntity
  8
0
  6
Continuous
 62
     7
370
    18
100
AcDbLine
 10
127.0104743903
 20
50.75
 30
0.0
 11
196.7604743903
 21
50.75
 31
0.0
  0
LINE
  5
78
330
1F
100
AcDbEntity
  8
0
  6
Continuous
 62
     7
370
    18
100
AcDbLine
 10
127.0104743903
 20
50.75
 30
0.0
 11
127.0104743903
 21
10.0
 31
0.0
  0
LINE
  5
79
330
1F
100
AcDbEntity
  8
0
  6
Continuous
 62
     7
370
    18
100
AcDbLine
 10
127.0104743903
 20
22.75
 30
0.0
 11
196.7604743903
 21
22.75
 31
0.0
  0
LINE
  5
7A
330
1F
100
AcDbEntity
  8
0
  6
Continuous
 62
     7
370
    18
100
AcDbLine
 10
127.0104743903
 20
36.75
 30
0.0
 11
196.7604743903
 21
36.75
 31
0.0
  0
MTEXT
  5
7C
330
1F
100
AcDbEntity
  8
0
  6
Continuous
 62
     7
370
     0
100
AcDbMText
 10
162.0770489304
 20
30.4171582345
 30
0.0
 40
4.2333333333
 41
0.0
 71
     2
 72
     1
  1
VFILP-SS-5-P12
  7
SLDTEXTSTYLE0
 73
     1
 44
1.0
  0
MTEXT
  5
7D
330
1F
100
AcDbEntity
  8
0
  6
Continuous
 62
     7
370
     0
100
AcDbMText
 10
161.0903525561
 20
43.9409718514
 30
0.0
 40
4.2333333333
 41
0.0
 71
     2
 72
     1
  1
吸着樹脂具・ミニ用
  7
SLDTEXTSTYLE0
 73
     1
 44
1.0
  0
MTEXT
  5
7E
330
1F
100
AcDbEntity
  8
0
  6
Continuous
 62
     7
370
     0
100
AcDbMText
 10
163.1145615735
 20
16.8228189052
 30
0.0
 40
4.2333333333
 41
0.0
 71
     2
 72
     1
  1
211105
  7
SLDTEXTSTYLE0
 73
     1
 44
1.0
  0
LINE
  5
7F
330
1F
100
AcDbEntity
  8
0
  6
Continuous
 62
     7
370
    18
100
AcDbLine
 10
161.8194335149
 20
142.2882346577
 30
0.0
 11
162.4194324956
 21
142.2882346577
 31
0.0
  0
LINE
  5
80
330
1F
100
AcDbEntity
  8
0
  6
Continuous
 62
     7
370
    18
100
AcDbLine
 10
162.4194324956
 20
147.9500158365
 30
0.0
 11
161.8194335149
 21
147.9500158365
 31
0.0
  0
LINE
  5
81
330
1F
100
AcDbEntity
  8
0
  6
Continuous
 62
     7
370
    18
100
AcDbLine
 10
162.4194324956
 20
148.723440352
 30
0.0
 11
161.8194335149
 21
148.723440352
 31
0.0
  0
LINE
  5
82
330
1F
100
AcDbEntity
  8
0
  6
Continuous
 62
     7
370
    18
100
AcDbLine
 10
133.4194333301
 20
151.7882348179
 30
0.0
 11
132.0194338457
 21
151.7882348179
 31
0.0
  0
LINE
  5
83
330
1F
100
AcDbEntity
  8
0
  6
Continuous
 62
     7
370
    18
100
AcDbLine
 10
132.1675886408
 20
139.7882347135
 30
0.0
 11
133.4194333301
 21
139.7882347135
 31
0.0
  0
ARC
  5
84
330
1F
100
AcDbEntity
  8
0
  6
Continuous
 62
     7
370
    18
100
AcDbCircle
 10
132.0194331036
 20
151.4882347255
 30
0.0
 40
0.3000000000000114
100
AcDbArc
 50
90.0
 51
180.0
  0
ARC
  5
85
330
1F
100
AcDbEntity
  8
0
  6
Continuous
 62
     7
370
    18
100
AcDbCircle
 10
133.4194331036
 20
151.4882347255
 30
0.0
 40
0.3000000000000114
100
AcDbArc
 50
0.0
 51
90.0
  0
ARC
  5
86
330
1F
100
AcDbEntity
  8
0
  6
Continuous
 62
     7
370
    18
100
AcDbCircle
 10
133.4194331036
 20
140.0882347255
 30
0.0
 40
0.3000000000000114
100
AcDbArc
 50
270.0
 51
0.0
  0
ARC
  5
87
330
1F
100
AcDbEntity
  8
0
  6
Continuous
 62
     7
370
    18
100
AcDbCircle
 10
134.4194331036
 20
149.2382347255
 30
0.0
 40
0.3000000000000114
100
AcDbArc
 50
0.0
 51
90.0
  0
ARC
  5
88
330
1F
100
AcDbEntity
  8
0
  6
Continuous
 62
     7
370
    18
100
AcDbCircle
 10
134.4194331036
 20
142.3382347255
 30
0.0
 40
0.3000000000000114
100
AcDbArc
 50
270.0
 51
0.0
  0
LINE
  5
89
330
1F
100
AcDbEntity
  8
0
  6
Continuous
 62
     7
370
    18
100
AcDbLine
 10
134.419433494
 20
149.5382346819
 30
0.0
 11
133.7194328205
 21
149.5382346819
 31
0.0
  0
LINE
  5
8A
330
1F
100
AcDbEntity
  8
0
  6
Continuous
 62
     7
370
    18
100
AcDbLine
 10
133.7194328205
 20
142.0382346167
 30
0.0
 11
134.419433494
 21
142.0382346167
 31
0.0
  0
LINE
  5
8B
330
1F
100
AcDbEntity
  8
0
  6
Continuous
 62
     7
370
    18
100
AcDbLine
 10
126.0194328622
 20
140.7882348775
 30
0.0
 11
127.2702111871
 21
140.7882348775
 31
0.0
  0
ARC
  5
8C
330
1F
100
AcDbEntity
  8
0
  6
Continuous
 62
     7
370
    18
100
AcDbCircle
 10
127.4194331036
 20
150.4882347255
 30
0.0
 40
0.3000000000000114
100
AcDbArc
 50
0.0
 51
90.0
  0
ARC
  5
8D
330
1F
100
AcDbEntity
  8
0
  6
Continuous
 62
     7
370
    18
100
AcDbCircle
 10
126.0194331036
 20
141.0882347255
 30
0.0
 40
0.3000000000000114
100
AcDbArc
 50
180.0
 51
270.0
  0
ARC
  5
8E
330
1F
100
AcDbEntity
  8
0
  6
Continuous
 62
     7
370
    18
100
AcDbCircle
 10
126.0194331036
 20
150.4882347255
 30
0.0
 40
0.3000000000000114
100
AcDbArc
 50
90.0
 51
180.0
  0
LINE
  5
8F
330
1F
100
AcDbEntity
  8
0
  6
Continuous
 62
     7
370
    18
100
AcDbLine
 10
131.7194324926
 20
149.5382346819
 30
0.0
 11
127.7194327683
 21
149.5382346819
 31
0.0
  0
LINE
  5
90
330
1F
100
AcDbEntity
  8
0
  6
Continuous
 62
     7
370
    18
100
AcDbLine
 10
127.4194332779
 20
150.7882346539
 30
0.0
 11
126.0194328622
 21
150.7882346539
 31
0.0
  0
ARC
  5
91
330
1F
100
AcDbEntity
  8
0
  6
Continuous
 62
     7
370
    18
100
AcDbCircle
 10
121.9194331036
 20
148.9882347255
 30
0.0
 40
0.3000000000000114
100
AcDbArc
 50
0.0
 51
90.0
  0
ARC
  5
92
330
1F
100
AcDbEntity
  8
0
  6
Continuous
 62
     7
370
    18
100
AcDbCircle
 10
121.9194331036
 20
142.5882347255
 30
0.0
 40
0.3000000000000114
100
AcDbArc
 50
270.0
 51
0.0
  0
LINE
  5
93
330
1F
100
AcDbEntity
  8
0
  6
Continuous
 62
     7
370
    18
100
AcDbLine
 10
121.9194333077
 20
149.2882346409
 30
0.0
 11
120.519432892
 21
149.2882346409
 31
0.0
  0
LINE
  5
94
330
1F
100
AcDbEntity
  8
0
  6
Continuous
 62
     7
370
    18
100
AcDbLine
 10
120.519432892
 20
142.2882346577
 30
0.0
 11
121.9194333077
 21
142.2882346577
 31
0.0
  0
ARC
  5
95
330
1F
100
AcDbEntity
  8
0
  6
Continuous
 62
     7
370
    18
100
AcDbCircle
 10
120.5194331036
 20
142.5882347255
 30
0.0
 40
0.3000000000000114
100
AcDbArc
 50
180.0
 51
270.0
  0
ARC
  5
96
330
1F
100
AcDbEntity
  8
0
  6
Continuous
 62
     7
370
    18
100
AcDbCircle
 10
120.5194331036
 20
148.9882347255
 30
0.0
 40
0.3000000000000114
100
AcDbArc
 50
90.0
 51
180.0
  0
LINE
  5
97
330
1F
100
AcDbEntity
  8
0
  6
Continuous
 62
     7
370
    18
100
AcDbLine
 10
127.2194326864
 20
133.9882347873
 30
0.0
 11
127.7194327683
 21
131.4882343775
 31
0.0
  0
LINE
  5
98
330
1F
100
AcDbEntity
  8
0
  6
Continuous
 62
     7
370
    18
100
AcDbLine
 10
131.7194324926
 20
131.4882343775
 30
0.0
 11
132.2194335059
 21
133.9882347873
 31
0.0
  0
LINE
  5
99
330
1F
100
AcDbEntity
  8
0
  6
Continuous
 62
     7
370
    18
100
AcDbLine
 10
127.2194326864
 20
136.4882342658
 30
0.0
 11
127.7194327683
 21
133.9882347873
 31
0.0
  0
LINE
  5
9A
330
1F
100
AcDbEntity
  8
0
  6
Continuous
 62
     7
370
    18
100
AcDbLine
 10
131.7194324926
 20
133.9882347873
 30
0.0
 11
132.2194335059
 21
136.4882342658
 31
0.0
  0
ARC
  5
9B
330
1F
100
AcDbEntity
  8
0
  6
Continuous
 62
     7
370
    18
100
AcDbCircle
 10
162.7194331036
 20
143.5882347255
 30
0.0
 40
0.2999999999999829
100
AcDbArc
 50
180.0
 51
221.8395138076
  0
ARC
  5
9C
330
1F
100
AcDbEntity
  8
0
  6
Continuous
 62
     7
370
    18
100
AcDbCircle
 10
162.7194331036
 20
147.9882347255
 30
0.0
 40
0.2999999999999934
100
AcDbArc
 50
138.1839881977
 51
180.0
  0
LINE
  5
9D
330
1F
100
AcDbEntity
  8
0
  6
Continuous
 62
     7
370
    18
100
AcDbLine
 10
163.3194328294
 20
143.3882346517
 30
0.0
 11
163.7194321499
 21
143.7882346707
 31
0.0
  0
LINE
  5
9E
330
1F
100
AcDbEntity
  8
0
  6
Continuous
 62
     7
370
    18
100
AcDbLine
 10
163.7194321499
 20
147.7882346279
 30
0.0
 11
163.3194328294
 21
148.1882346469
 31
0.0
  0
LINE
  5
9F
330
1F
100
AcDbEntity
  8
0
  6
Continuous
 62
     7
370
    18
100
AcDbLine
 10
125.7194333718
 20
148.2882347098
 30
0.0
 11
122.2194327981
 21
148.2882347098
 31
0.0
  0
LINE
  5
A0
330
1F
100
AcDbEntity
  8
0
  6
Continuous
 62
     7
370
    18
100
AcDbLine
 10
122.2194327981
 20
143.2882348216
 30
0.0
 11
125.7194333718
 21
143.2882348216
 31
0.0
  0
LINE
  5
A1
330
1F
100
AcDbEntity
  8
0
  6
Continuous
 62
     7
370
    18
100
AcDbLine
 10
127.5694330231
 20
140.4883438862
 30
0.0
 11
127.5694330231
 21
136.4882342658
 31
0.0
  0
LINE
  5
A2
330
1F
100
AcDbEntity
  8
0
  6
Continuous
 62
     7
370
    18
100
AcDbLine
 10
131.8694331692
 20
136.4882342658
 30
0.0
 11
131.8694331692
 21
139.4883316151
 31
0.0
  0
LINE
  5
A3
330
1F
100
AcDbEntity
  8
0
  6
Continuous
 62
     7
370
    18
100
AcDbLine
 10
161.8194335149
 20
147.2882347787
 30
0.0
 11
161.7194318221
 21
147.2882347787
 31
0.0
  0
LINE
  5
A4
330
1F
100
AcDbEntity
  8
0
  6
Continuous
 62
     7
370
    18
100
AcDbLine
 10
161.7194318221
 20
144.2882347527
 30
0.0
 11
161.8194335149
 21
144.2882347527
 31
0.0
  0
ARC
  5
A5
330
1F
100
AcDbEntity
  8
0
  6
Continuous
 62
     7
370
    18
100
AcDbCircle
 10
132.1694331036
 20
139.4882347255
 30
0.0
 40
0.3000000000000135
100
AcDbArc
 50
90.388984454
 51
180.0149164704
  0
ARC
  5
A6
330
1F
100
AcDbEntity
  8
0
  6
Continuous
 62
     7
370
    18
100
AcDbCircle
 10
127.2694331036
 20
140.4882347255
 30
0.0
 40
0.3000000000000094
100
AcDbArc
 50
0.0540671164
 51
89.8870616151
  0
LINE
  5
A7
330
1F
100
AcDbEntity
  8
0
  6
Continuous
 62
     7
370
    18
100
AcDbLine
 10
143.4194331066
 20
153.78823468
 30
0.0
 11
142.0194336222
 21
153.78823468
 31
0.0
  0
LINE
  5
A8
330
1F
100
AcDbEntity
  8
0
  6
Continuous
 62
     7
370
    18
100
AcDbLine
 10
142.0194336222
 20
137.7882348514
 30
0.0
 11
143.4194331066
 21
137.7882348514
 31
0.0
  0
LINE
  5
A9
330
1F
100
AcDbEntity
  8
0
  6
Continuous
 62
     7
370
    18
100
AcDbLine
 10
142.0194336222
 20
153.78823468
 30
0.0
 11
141.7194322691
 21
153.488234724
 31
0.0
  0
LINE
  5
AA
330
1F
100
AcDbEntity
  8
0
  6
Continuous
 62
     7
370
    18
100
AcDbLine
 10
141.7194322691
 20
138.0882348074
 30
0.0
 11
142.0194336222
 21
137.7882348514
 31
0.0
  0
LINE
  5
AB
330
1F
100
AcDbEntity
  8
0
  6
Continuous
 62
     7
370
    18
100
AcDbLine
 10
143.4194331066
 20
137.7882348514
 30
0.0
 11
143.719432597
 21
138.0882348074
 31
0.0
  0
LINE
  5
AC
330
1F
100
AcDbEntity
  8
0
  6
Continuous
 62
     7
370
    18
100
AcDbLine
 10
143.719432597
 20
153.488234724
 30
0.0
 11
143.4194331066
 21
153.78823468
 31
0.0
  0
LINE
  5
AD
330
1F
100
AcDbEntity
  8
0
  6
Continuous
 62
     7
370
    18
100
AcDbLine
 10
160.7194335208
 20
151.7882348179
 30
0.0
 11
143.719432597
 21
151.7882348179
 31
0.0
  0
LINE
  5
AE
330
1F
100
AcDbEntity
  8
0
  6
Continuous
 62
     7
370
    18
100
AcDbLine
 10
143.719432597
 20
139.7882347135
 30
0.0
 11
160.7194335208
 21
139.7882347135
 31
0.0
  0
LINE
  5
AF
330
1F
100
AcDbEntity
  8
0
  6
Continuous
 62
     7
370
    18
100
AcDbLine
 10
160.7194335208
 20
139.7882347135
 30
0.0
 11
161.7194318221
 21
140.7882348775
 31
0.0
  0
LINE
  5
B0
330
1F
100
AcDbEntity
  8
0
  6
Continuous
 62
     7
370
    18
100
AcDbLine
 10
161.7194318221
 20
150.7882346539
 30
0.0
 11
160.7194335208
 21
151.7882348179
 31
0.0
  0
LINE
  5
B1
330
1F
100
AcDbEntity
  8
0
  6
Continuous
 62
     7
370
    18
100
AcDbLine
 10
141.7194322691
 20
149.5382346819
 30
0.0
 11
141.2959524439
 21
149.5382346819
 31
0.0
  0
LINE
  5
B2
330
1F
100
AcDbEntity
  8
0
  6
Continuous
 62
     7
370
    18
100
AcDbLine
 10
140.7949064867
 20
149.5382346819
 30
0.0
 11
140.0194332943
 21
149.5382346819
 31
0.0
  0
LINE
  5
B3
330
1F
100
AcDbEntity
  8
0
  6
Continuous
 62
     7
370
    18
100
AcDbLine
 10
140.0194332943
 20
142.0382346167
 30
0.0
 11
141.7194322691
 21
142.0382346167
 31
0.0
  0
LINE
  5
B4
330
1F
100
AcDbEntity
  8
0
  6
Continuous
 62
     7
370
    18
100
AcDbLine
 10
140.0194332943
 20
149.5382346819
 30
0.0
 11
139.7194338039
 21
149.2382347258
 31
0.0
  0
LINE
  5
B5
330
1F
100
AcDbEntity
  8
0
  6
Continuous
 62
     7
370
    18
100
AcDbLine
 10
139.9801482455
 20
142.0775187342
 30
0.0
 11
140.0194332943
 21
142.0382346167
 31
0.0
  0
SPLINE
  5
B6
330
1F
100
AcDbEntity
  8
0
  6
Continuous
 62
     7
370
    18
100
AcDbSpline
210
0.0
220
0.0
230
1.0
 70
     8
 71
     3
 72
    35
 73
    31
 74
     0
 42
0.000000001
 43
0.00000001
 40
0.0
 40
0.0
 40
0.0
 40
0.0
 40
0.0045152286922115
 40
0.0280695442653158
 40
0.0551165794029126
 40
0.0857504855596317
 40
0.1199685898242551
 40
0.1577944598310988
 40
0.1987612296657773
 40
0.2389144078384844
 40
0.2773654498824597
 40
0.3140676425689404
 40
0.3489976721124189
 40
0.3928143352514458
 40
0.4336866484684409
 40
0.4719316485733907
 40
0.5242960314298185
 40
0.5771955336691488
 40
0.6079724499446211
 40
0.6416982013689639
 40
0.6784226630982603
 40
0.7181846175585405
 40
0.7609831727937556
 40
0.8037641215199601
 40
0.8440089967992298
 40
0.8818163928793697
 40
0.9172976689013417
 40
0.9504035491498788
 40
0.9782411126387246
 40
1.0
 40
1.0
 40
1.0
 40
1.0
 10
134.7327620730693
 20
149.846476609877
 30
0.0
 10
134.7308853768668
 20
149.8480149481225
 30
0.0
 10
134.7192186351096
 20
149.8575782407976
 30
0.0
 10
134.7447401641401
 20
149.8059770924016
 30
0.0
 10
134.7577852154581
 20
149.7354015994414
 30
0.0
 10
134.7852437746133
 20
149.6054502705357
 30
0.0
 10
134.8150645051176
 20
149.4186341581837
 30
0.0
 10
134.85017551094
 20
149.1591568140823
 30
0.0
 10
134.8875945793251
 20
148.8333073216273
 30
0.0
 10
134.925334340916
 20
148.4610047452535
 30
0.0
 10
134.9618340864579
 20
148.0654655702765
 30
0.0
 10
134.9967919125351
 20
147.6591434636205
 30
0.0
 10
135.0335557204903
 20
147.2089608909861
 30
0.0
 10
135.0717613686236
 20
146.7198367588576
 30
0.0
 10
135.1109880311333
 20
146.2020368217319
 30
0.0
 10
135.1528772496285
 20
145.6421874504745
 30
0.0
 10
135.1985885178311
 20
145.0321383244533
 30
0.0
 10
135.2419875563151
 20
144.4687705223761
 30
0.0
 10
135.2795106877887
 20
144.0027238779307
 30
0.0
 10
135.3119483659438
 20
143.6181560741453
 30
0.0
 10
135.3472985238874
 20
143.2248687095985
 30
0.0
 10
135.385650857144
 20
142.8329426574642
 30
0.0
 10
135.4258914896545
 20
142.4656829259636
 30
0.0
 10
135.4670530286251
 20
142.1436968935996
 30
0.0
 10
135.509493050081
 20
141.8766453126085
 30
0.0
 10
135.5546696939204
 20
141.6674511945652
 30
0.0
 10
135.6069712505146
 20
141.5077887165192
 30
0.0
 10
135.6672843432775
 20
141.4044978453069
 30
0.0
 10
135.741884889245
 20
141.3196724043847
 30
0.0
 10
135.8491798782406
 20
141.3008683735627
 30
0.0
 10
135.8962521896655
 20
141.2926186947736
 30
0.0
  0
SPLINE
  5
B7
330
1F
100
AcDbEntity
  8
0
  6
Continuous
 62
     7
370
    18
100
AcDbSpline
210
0.0
220
0.0
230
1.0
 70
     8
 71
     3
 72
    35
 73
    31
 74
     0
 42
0.000000001
 43
0.00000001
 40
0.0
 40
0.0
 40
0.0
 40
0.0
 40
0.0071522182142531
 40
0.0322100911106839
 40
0.0615265087296467
 40
0.095164869610537
 40
0.1331646698246064
 40
0.1755138240996891
 40
0.2209782474436842
 40
0.2631018044911623
 40
0.3009097218477674
 40
0.334433500990594
 40
0.3636714883718562
 40
0.3959365905952004
 40
0.4234708974036144
 40
0.4560122842136387
 40
0.494295321236535
 40
0.5382543488588762
 40
0.5849636875372733
 40
0.65692115329986
 40
0.6938245079007829
 40
0.7312812860916735
 40
0.7820212715423395
 40
0.8304574856148125
 40
0.8743241087880022
 40
0.904261575057705
 40
0.9316733438917499
 40
0.9617666784224771
 40
0.9798206609217591
 40
0.9999999999999999
 40
0.9999999999999999
 40
0.9999999999999999
 40
0.9999999999999999
 10
136.743910332113
 20
149.8305831244799
 30
0.0
 10
136.7430636000114
 20
149.8299060927019
 30
0.0
 10
136.7392503329492
 20
149.826857072859
 30
0.0
 10
136.7512880357321
 20
149.7852544913573
 30
0.0
 10
136.7685849913781
 20
149.6970189263342
 30
0.0
 10
136.7960273527287
 20
149.544111455977
 30
0.0
 10
136.8293295444705
 20
149.3178635214904
 30
0.0
 10
136.8681485212277
 20
149.0076932267868
 30
0.0
 10
136.9091188001097
 20
148.6275994605562
 30
0.0
 10
136.9487446550389
 20
148.2137507581517
 30
0.0
 10
136.984751821871
 20
147.8043582518093
 30
0.0
 10
137.0167092576972
 20
147.4183120820505
 30
0.0
 10
137.0469156977321
 20
147.0387172801546
 30
0.0
 10
137.0752281523263
 20
146.6723574971573
 30
0.0
 10
137.1045957364109
 20
146.2851435182939
 30
0.0
 10
137.1358834031171
 20
145.8679939944245
 30
0.0
 10
137.1724329597122
 20
145.3794593538166
 30
0.0
 10
137.2135745661375
 20
144.8358684221875
 30
0.0
 10
137.265460302475
 20
144.1716836151545
 30
0.0
 10
137.315200632046
 20
143.5762370132582
 30
0.0
 10
137.3619465530582
 20
143.070472414663
 30
0.0
 10
137.4021206635443
 20
142.6732652363553
 30
0.0
 10
137.4460488712405
 20
142.2931606455157
 30
0.0
 10
137.493285895297
 20
141.966000367186
 30
0.0
 10
137.5351843566008
 20
141.7434282097956
 30
0.0
 10
137.5761227389145
 20
141.5911355130947
 30
0.0
 10
137.6087380636346
 20
141.4949543737982
 30
0.0
 10
137.6698702691526
 20
141.3900100270651
 30
0.0
 10
137.7762202875866
 20
141.30677235171
 30
0.0
 10
137.8552175622029
 20
141.296063217416
 30
0.0
 10
137.8969118938739
 20
141.2904109946104
 30
0.0
  0
LWPOLYLINE
  5
B8
330
1F
100
AcDbEntity
  8
0
  6
Continuous
 62
     7
370
    18
100
AcDbPolyline
 90
       32
 70
   128
 43
0.0
 10
138.7549151675
 20
149.8228224135
 10
138.7549095795
 20
149.8228242761
 10
138.7533524082
 20
149.7815154633
 10
138.7695220307
 20
149.6854716587
 10
138.7961727575
 20
149.5302870079
 10
138.8282661335
 20
149.3155123806
 10
138.8621476487
 20
149.0507909237
 10
138.8959211306
 20
148.7488999172
 10
138.9295381502
 20
148.4134892142
 10
138.9629651801
 20
148.0497982028
 10
139.0291132973
 20
147.2600293253
 10
139.0723117636
 20
146.7081420031
 10
139.1111721293
 20
146.1971264997
 10
139.1446643517
 20
145.7515348719
 10
139.1727735297
 20
145.3774621094
 10
139.1994000421
 20
145.025756259
 10
139.2337732957
 20
144.5794292866
 10
139.2649334864
 20
144.1863876442
 10
139.3007465647
 20
143.753278642
 10
139.3412628219
 20
143.2941196161
 10
139.3865418629
 20
142.829179871
 10
139.4328844742
 20
142.4161550729
 10
139.4746170388
 20
142.1043962381
 10
139.5122238443
 20
141.8753937958
 10
139.5464331851
 20
141.7109450466
 10
139.5781465814
 20
141.5947602271
 10
139.6087815062
 20
141.5125277034
 10
139.6371179269
 20
141.4585868968
 10
139.6901083187
 20
141.3874841435
 10
139.7752684549
 20
141.3196289121
 10
139.8952563302
 20
141.28870714
 10
139.8952563302
 20
141.28870714
  0
SPLINE
  5
B9
330
1F
100
AcDbEntity
  8
0
  6
Continuous
 62
     7
370
    18
100
AcDbSpline
210
0.0
220
0.0
230
1.0
 70
     8
 71
     3
 72
    20
 73
    16
 74
     0
 42
0.000000001
 43
0.00000001
 40
0.0
 40
0.0
 40
0.0
 40
0.0
 40
0.0275668521605646
 40
0.071109573647299
 40
0.1378256556953897
 40
0.214436285644259
 40
0.300921735206025
 40
0.3723230254279116
 40
0.4486084742033176
 40
0.5294374072025415
 40
0.6147473073424679
 40
0.7044427330398645
 40
0.7984687476581134
 40
0.8969341121915072
 40
1.0
 40
1.0
 40
1.0
 40
1.0
 10
140.7316417441661
 20
149.8453017464491
 30
0.0
 10
140.7310324475896
 20
149.8441605263891
 30
0.0
 10
140.7294607476537
 20
149.8412167128761
 30
0.0
 10
140.7470097215823
 20
149.7870295638837
 30
0.0
 10
140.768120705625
 20
149.6910481148973
 30
0.0
 10
140.8006251324837
 20
149.51440262036
 30
0.0
 10
140.8348926921092
 20
149.2775518127211
 30
0.0
 10
140.8702098265285
 20
148.9889717510708
 30
0.0
 10
140.9047761280315
 20
148.6683339997996
 30
0.0
 10
140.9415457801632
 20
148.2896907801722
 30
0.0
 10
140.9804525464785
 20
147.8531148798156
 30
0.0
 10
141.0214841403253
 20
147.3597554768226
 30
0.0
 10
141.0646619058898
 20
146.8125235308637
 30
0.0
 10
141.1099315630622
 20
146.2169412792891
 30
0.0
 10
141.1407488503552
 20
145.8052852698539
 30
0.0
 10
141.1565092400605
 20
145.5947586562835
 30
0.0
  0
SPLINE
  5
BA
330
1F
100
AcDbEntity
  8
0
  6
Continuous
 62
     7
370
    18
100
AcDbSpline
210
0.0
220
0.0
230
1.0
 70
     8
 71
     3
 72
    12
 73
     8
 74
     0
 42
0.000000001
 43
0.00000001
 40
0.0
 40
0.0
 40
0.0
 40
0.0
 40
0.1187967429927412
 40
0.278746466749101
 40
0.4721818470864177
 40
0.6685593348551241
 40
1.0
 40
1.0
 40
1.0
 40
1.0
 10
140.8959922389085
 20
150.2858191868874
 30
0.0
 10
140.8499253743031
 20
150.278039582984
 30
0.0
 10
140.7418333894603
 20
150.2597854032299
 30
0.0
 10
140.6649043437512
 20
150.1728391556251
 30
0.0
 10
140.6016080604051
 20
150.0605941053924
 30
0.0
 10
140.5387277604235
 20
149.8622197543625
 30
0.0
 10
140.5067355237458
 20
149.6632049768182
 30
0.0
 10
140.4866461650426
 20
149.5382346818807
 30
0.0
  0
SPLINE
  5
BB
330
1F
100
AcDbEntity
  8
0
  6
Continuous
 62
     7
370
    18
100
AcDbSpline
210
0.0
220
0.0
230
1.0
 70
     8
 71
     3
 72
    18
 73
    14
 74
     0
 42
0.000000001
 43
0.00000001
 40
0.0
 40
0.0
 40
0.0
 40
0.0
 40
0.0521069898390838
 40
0.0998846405346674
 40
0.1829020794160483
 40
0.2576668003826509
 40
0.343568938590424
 40
0.4421432777364554
 40
0.5533145004135163
 40
0.677031415807598
 40
0.8091299606358591
 40
0.9326313764115923
 40
1.0
 40
1.0
 40
1.0
 40
1.0
 10
138.8966717765624
 20
150.2878983645352
 30
0.0
 10
138.8596419222806
 20
150.283525871891
 30
0.0
 10
138.7886588604032
 20
150.2751441776623
 30
0.0
 10
138.6870134926469
 20
150.2062161970197
 30
0.0
 10
138.6183283888911
 20
150.1049610615637
 30
0.0
 10
138.5862318511665
 20
150.0166066730005
 30
0.0
 10
138.550401360448
 20
149.8947752710012
 30
0.0
 10
138.515282658699
 20
149.7287666035693
 30
0.0
 10
138.4771789278234
 20
149.502001879941
 30
0.0
 10
138.4368018082174
 20
149.2052261918488
 30
0.0
 10
138.3956906344335
 20
148.8431083850053
 30
0.0
 10
138.360796275424
 20
148.4969665513329
 30
0.0
 10
138.3402940711867
 20
148.2687758145726
 30
0.0
 10
138.3330577061469
 20
148.188234646863
 30
0.0
  0
SPLINE
  5
BC
330
1F
100
AcDbEntity
  8
0
  6
Continuous
 62
     7
370
    18
100
AcDbSpline
210
0.0
220
0.0
230
1.0
 70
     8
 71
     3
 72
     9
 73
     5
 74
     0
 42
0.000000001
 43
0.00000001
 40
0.0
 40
0.0
 40
0.0
 40
0.0
 40
0.4932624890953742
 40
0.9999999999999999
 40
0.9999999999999999
 40
0.9999999999999999
 40
0.9999999999999999
 10
137.950310205012
 20
143.3882346517059
 30
0.0
 10
137.940431539602
 20
143.2799294897098
 30
0.0
 10
137.9204043418555
 20
143.0603604683665
 30
0.0
 10
137.9004897131618
 20
142.8750578650223
 30
0.0
 10
137.890398223787
 20
142.7811580850395
 30
0.0
  0
SPLINE
  5
BD
330
1F
100
AcDbEntity
  8
0
  6
Continuous
 62
     7
370
    18
100
AcDbSpline
210
0.0
220
0.0
230
1.0
 70
     8
 71
     3
 72
    18
 73
    14
 74
     0
 42
0.000000001
 43
0.00000001
 40
0.0
 40
0.0
 40
0.0
 40
0.0
 40
0.1181341669949921
 40
0.2073493490630754
 40
0.2678638310371688
 40
0.3004055363058868
 40
0.3384652319786255
 40
0.3995788642866051
 40
0.4841943808716618
 40
0.5922611527866418
 40
0.7238415342050603
 40
0.8784068694553422
 40
1.0
 40
1.0
 40
1.0
 40
1.0
 10
136.896386464029
 20
150.2842527023169
 30
0.0
 10
136.8503160148765
 20
150.2756626958569
 30
0.0
 10
136.7694530614583
 20
150.2605854976742
 30
0.0
 10
136.6740243275847
 20
150.1603684553743
 30
0.0
 10
136.6185997223911
 20
150.0694087998192
 30
0.0
 10
136.5822999508419
 20
149.9885963593036
 30
0.0
 10
136.5569855672752
 20
149.9105617520251
 30
0.0
 10
136.5320630409297
 20
149.8076772366436
 30
0.0
 10
136.5005554631052
 20
149.6465309701183
 30
0.0
 10
136.4635851550812
 20
149.4074263119603
 30
0.0
 10
136.4201035103517
 20
149.0631321165099
 30
0.0
 10
136.3761135758965
 20
148.6545078831968
 30
0.0
 10
136.3464098136848
 20
148.3307749232988
 30
0.0
 10
136.3333311871583
 20
148.188234646863
 30
0.0
  0
SPLINE
  5
BE
330
1F
100
AcDbEntity
  8
0
  6
Continuous
 62
     7
370
    18
100
AcDbSpline
210
0.0
220
0.0
230
1.0
 70
     8
 71
     3
 72
    10
 73
     6
 74
     0
 42
0.000000001
 43
0.00000001
 40
0.0
 40
0.0
 40
0.0
 40
0.0
 40
0.3645360239832223
 40
0.9899178488394826
 40
1.0
 40
1.0
 40
1.0
 40
1.0
 10
135.9501068488652
 20
143.3882346517059
 30
0.0
 10
135.9428932734646
 20
143.3092109867129
 30
0.0
 10
135.923304408241
 20
143.0946178290807
 30
0.0
 10
135.9036724993957
 20
142.8932481039139
 30
0.0
 10
135.8915036605779
 20
142.7847610572491
 30
0.0
 10
135.8913105920846
 20
142.7830398223015
 30
0.0
  0
SPLINE
  5
BF
330
1F
100
AcDbEntity
  8
0
  6
Continuous
 62
     7
370
    18
100
AcDbSpline
210
0.0
220
0.0
230
1.0
 70
     8
 71
     3
 72
    13
 73
     9
 74
     0
 42
0.000000001
 43
0.00000001
 40
0.0
 40
0.0
 40
0.0
 40
0.0
 40
0.1566888151742729
 40
0.284945639589406
 40
0.3884251725173082
 40
0.492633586072738
 40
0.7385665243244086
 40
1.0
 40
1.0
 40
1.0
 40
1.0
 10
134.8950766966636
 20
150.2851602761658
 30
0.0
 10
134.836672878866
 20
150.2738371353623
 30
0.0
 10
134.7304629161557
 20
150.2532454958453
 30
0.0
 10
134.6420086662668
 20
150.1457063374175
 30
0.0
 10
134.6063031923021
 20
150.0733054793646
 30
0.0
 10
134.5720123204359
 20
149.9788351811669
 30
0.0
 10
134.5295683819457
 20
149.8154975108132
 30
0.0
 10
134.4989168847252
 20
149.6241970250527
 30
0.0
 10
134.4831229195887
 20
149.5256245742204
 30
0.0
  0
SPLINE
  5
C0
330
1F
100
AcDbEntity
  8
0
  6
Continuous
 62
     7
370
    18
100
AcDbSpline
210
0.0
220
0.0
230
1.0
 70
     8
 71
     3
 72
     9
 73
     5
 74
     0
 42
0.000000001
 43
0.00000001
 40
0.0
 40
0.0
 40
0.0
 40
0.0
 40
0.9848805291753416
 40
1.0
 40
1.0
 40
1.0
 40
1.0
 10
133.7948569104964
 20
142.0382346166881
 30
0.0
 10
133.7854492777054
 20
141.9781479950938
 30
0.0
 10
133.7758972229005
 20
141.917138949007
 30
0.0
 10
133.7664528055321
 20
141.8814578802302
 30
0.0
 10
133.7663100109393
 20
141.8809184013518
 30
0.0
  0
SPLINE
  5
C1
330
1F
100
AcDbEntity
  8
0
  6
Continuous
 62
     7
370
    18
100
AcDbSpline
210
0.0
220
0.0
230
1.0
 70
     8
 71
     3
 72
     9
 73
     5
 74
     0
 42
0.000000001
 43
0.00000001
 40
0.0
 40
0.0
 40
0.0
 40
0.0
 40
0.9325703375124927
 40
1.0
 40
1.0
 40
1.0
 40
1.0
 10
134.2495397672946
 20
141.766842096171
 30
0.0
 10
134.2644830173653
 20
141.8390054743335
 30
0.0
 10
134.2805067417639
 20
141.9163866382625
 30
0.0
 10
134.2965095009156
 20
142.0305374649705
 30
0.0
 10
134.2975885615641
 20
142.0382346166881
 30
0.0
  0
SPLINE
  5
C2
330
1F
100
AcDbEntity
  8
0
  6
Continuous
 62
     7
370
    18
100
AcDbSpline
210
0.0
220
0.0
230
1.0
 70
     8
 71
     3
 72
     9
 73
     5
 74
     0
 42
0.000000001
 43
0.00000001
 40
0.0
 40
0.0
 40
0.0
 40
0.0
 40
0.3158814399498001
 40
0.9999999999999999
 40
0.9999999999999999
 40
0.9999999999999999
 40
0.9999999999999999
 10
134.8318845973307
 20
148.188234646863
 30
0.0
 10
134.8381557289058
 20
148.2589970673383
 30
0.0
 10
134.8580085305648
 20
148.4830128261831
 30
0.0
 10
134.8777051916155
 20
148.6657601747448
 30
0.0
 10
134.8911800430114
 20
148.7907810276958
 30
0.0
  0
SPLINE
  5
C3
330
1F
100
AcDbEntity
  8
0
  6
Continuous
 62
     7
370
    18
100
AcDbSpline
210
0.0
220
0.0
230
1.0
 70
     8
 71
     3
 72
    17
 73
    13
 74
     0
 42
0.000000001
 43
0.00000001
 40
0.0
 40
0.0
 40
0.0
 40
0.0
 40
0.0605103632481104
 40
0.1145369319316334
 40
0.204307674250689
 40
0.2858306944393879
 40
0.3748113520727652
 40
0.5052378417476752
 40
0.6495159147529271
 40
0.8007433763864013
 40
0.9122629263144275
 40
1.0
 40
1.0
 40
1.0
 40
1.0
 10
135.8850763187701
 20
141.292614503822
 30
0.0
 10
135.9268736874725
 20
141.29810557267
 30
0.0
 10
136.005989761431
 20
141.3084993324346
 30
0.0
 10
136.1125047162584
 20
141.3911884435631
 30
0.0
 10
136.1736725277054
 20
141.4954700722756
 30
0.0
 10
136.2062539361343
 20
141.5909110093122
 30
0.0
 10
136.2471642427242
 20
141.7430881792637
 30
0.0
 10
136.2890870808441
 20
141.9685317478057
 30
0.0
 10
136.3362711640071
 20
142.2996540488322
 30
0.0
 10
136.3801437116222
 20
142.6807242597407
 30
0.0
 10
136.4179359274383
 20
143.0509595826607
 30
0.0
 10
136.4393466126342
 20
143.2851260194829
 30
0.0
 10
136.4487742082173
 20
143.3882346517059
 30
0.0
  0
SPLINE
  5
C4
330
1F
100
AcDbEntity
  8
0
  6
Continuous
 62
     7
370
    18
100
AcDbSpline
210
0.0
220
0.0
230
1.0
 70
     8
 71
     3
 72
    10
 73
     6
 74
     0
 42
0.000000001
 43
0.00000001
 40
0.0
 40
0.0
 40
0.0
 40
0.0
 40
0.0051453613868012
 40
0.6726701662688804
 40
1.0
 40
1.0
 40
1.0
 40
1.0
 10
136.8313931868369
 20
148.188234646863
 30
0.0
 10
136.8314956329255
 20
148.1893978078361
 30
0.0
 10
136.8448887500059
 20
148.3414617011807
 30
0.0
 10
136.8647529796303
 20
148.5485025403329
 30
0.0
 10
136.8843953470077
 20
148.7287133800438
 30
0.0
 10
136.8908581332261
 20
148.7880068505766
 30
0.0
  0
SPLINE
  5
C5
330
1F
100
AcDbEntity
  8
0
  6
Continuous
 62
     7
370
    18
100
AcDbSpline
210
0.0
220
0.0
230
1.0
 70
     8
 71
     3
 72
    17
 73
    13
 74
     0
 42
0.000000001
 43
0.00000001
 40
0.0
 40
0.0
 40
0.0
 40
0.0
 40
0.0632210938138228
 40
0.1449107593396278
 40
0.2427931537632249
 40
0.348341561503506
 40
0.4613609536326873
 40
0.582037387052775
 40
0.7105502168960846
 40
0.8390653285526721
 40
0.958323375706389
 40
1.0
 40
1.0
 40
1.0
 40
1.0
 10
137.8858589575583
 20
141.2904575607392
 30
0.0
 10
137.9328111982348
 20
141.298568849898
 30
0.0
 10
138.0404316843522
 20
141.3171609526333
 30
0.0
 10
138.1140417825506
 20
141.4009531104861
 30
0.0
 10
138.1741598926371
 20
141.5042178160024
 30
0.0
 10
138.2262210347372
 20
141.6651762590625
 30
0.0
 10
138.2713502894883
 20
141.8738672443299
 30
0.0
 10
138.3138908051298
 20
142.139601876203
 30
0.0
 10
138.3552810247674
 20
142.4599503740342
 30
0.0
 10
138.3958076906704
 20
142.8293410010565
 30
0.0
 10
138.4270716987861
 20
143.1432437246216
 30
0.0
 10
138.4443724571981
 20
143.337840645853
 30
0.0
 10
138.4488527671391
 20
143.3882346517059
 30
0.0
  0
SPLINE
  5
C6
330
1F
100
AcDbEntity
  8
0
  6
Continuous
 62
     7
370
    18
100
AcDbSpline
210
0.0
220
0.0
230
1.0
 70
     8
 71
     3
 72
     9
 73
     5
 74
     0
 42
0.000000001
 43
0.00000001
 40
0.0
 40
0.0
 40
0.0
 40
0.0
 40
0.4186439197988501
 40
1.0
 40
1.0
 40
1.0
 40
1.0
 10
138.8316393838221
 20
148.188234646863
 30
0.0
 10
138.8399115844182
 20
148.2795167262505
 30
0.0
 10
138.8596710989002
 20
148.4975590172536
 30
0.0
 10
138.8793741627573
 20
148.6852808741601
 30
0.0
 10
138.8908286587292
 20
148.7944141170593
 30
0.0
  0
SPLINE
  5
C7
330
1F
100
AcDbEntity
  8
0
  6
Continuous
 62
     7
370
    18
100
AcDbSpline
210
0.0
220
0.0
230
1.0
 70
     8
 71
     3
 72
    21
 73
    17
 74
     0
 42
0.000000001
 43
0.00000001
 40
0.0
 40
0.0
 40
0.0
 40
0.0
 40
0.023590884891966
 40
0.0432868698287792
 40
0.0596502209851549
 40
0.0736483791457606
 40
0.0868419931195953
 40
0.101087790663526
 40
0.1179040863775376
 40
0.1382487239493702
 40
0.24451429795614
 40
0.378626207782325
 40
0.5402896001459887
 40
0.7292308210855811
 40
0.9438730178083761
 40
1.0
 40
1.0
 40
1.0
 40
1.0
 10
139.8852259860331
 20
141.2887038803312
 30
0.0
 10
139.902193461378
 20
141.2895165009477
 30
0.0
 10
139.9333270496235
 20
141.2910075769716
 30
0.0
 10
139.978199872513
 20
141.3059489843455
 30
0.0
 10
140.015458390971
 20
141.3251865409248
 30
0.0
 10
140.0458337549596
 20
141.3466054668555
 30
0.0
 10
140.0691748245802
 20
141.3669794194253
 30
0.0
 10
140.0857144363129
 20
141.3833676445017
 30
0.0
 10
140.0973838371661
 20
141.39522356058
 30
0.0
 10
140.1151488072636
 20
141.4103470259623
 30
0.0
 10
140.1316433553952
 20
141.4228426631594
 30
0.0
 10
140.1650405788408
 20
141.4786362341682
 30
0.0
 10
140.2002190981682
 20
141.5722616036073
 30
0.0
 10
140.2409201693833
 20
141.731039424943
 30
0.0
 10
140.2730315369574
 20
141.8879844153889
 30
0.0
 10
140.2913225888844
 20
142.012437157507
 30
0.0
 10
140.2951140896375
 20
142.0382346166881
 30
0.0
  0
SPLINE
  5
C8
330
1F
100
AcDbEntity
  8
0
  6
Continuous
 62
     7
370
    18
100
AcDbSpline
210
0.0
220
0.0
230
1.0
 70
     8
 71
     3
 72
    22
 73
    18
 74
     0
 42
0.000000001
 43
0.00000001
 40
0.0
 40
0.0
 40
0.0
 40
0.0
 40
0.0538004296677142
 40
0.1260145741885099
 40
0.200357392307855
 40
0.276951575050316
 40
0.3557527670050079
 40
0.433756374868658
 40
0.5095968302639993
 40
0.5832719065720807
 40
0.6548459613209583
 40
0.7244561890164815
 40
0.7921226134662892
 40
0.8543806151838007
 40
0.9095804155520566
 40
0.9580539800554149
 40
0.9999999999999999
 40
0.9999999999999999
 40
0.9999999999999999
 40
0.9999999999999999
 10
141.6544594810302
 20
145.5951217556723
 30
0.0
 10
141.6450133724707
 20
145.7211654679595
 30
0.0
 10
141.6228881337838
 20
146.016392566165
 30
0.0
 10
141.5876453991368
 20
146.4851025303305
 30
0.0
 10
141.5483525520291
 20
146.996889722336
 30
0.0
 10
141.5079103064114
 20
147.5044592859239
 30
0.0
 10
141.4669089275301
 20
147.9918729026312
 30
0.0
 10
141.4259049132615
 20
148.4438856797391
 30
0.0
 10
141.3853756231781
 20
148.8480594004253
 30
0.0
 10
141.3451500909013
 20
149.1995145293495
 30
0.0
 10
141.304852684965
 20
149.4959241976881
 30
0.0
 10
141.2634142663814
 20
149.7381919056239
 30
0.0
 10
141.2225592493325
 20
149.9219696018177
 30
0.0
 10
141.1763887897638
 20
150.0661538930844
 30
0.0
 10
141.111209289874
 20
150.1773657599593
 30
0.0
 10
141.023892545678
 20
150.2635661802259
 30
0.0
 10
140.9288533094836
 20
150.2788007167115
 30
0.0
 10
140.8847642139489
 20
150.2858680813225
 30
0.0
  0
LWPOLYLINE
  5
C9
330
1F
100
AcDbEntity
  8
0
  6
Continuous
 62
     7
370
    18
100
AcDbPolyline
 90
       30
 70
   128
 43
0.0
 10
140.0240582422
 20
141.7539842567
 10
140.0255744354
 20
141.7534818082
 10
140.0264182136
 20
141.7931491649
 10
140.0108278737
 20
141.8893207936
 10
139.9835531608
 20
142.0539821173
 10
139.9485112176
 20
142.2962230771
 10
139.9084475831
 20
142.6211002889
 10
139.8689334289
 20
142.991742692
 10
139.8320735441
 20
143.3786278265
 10
139.79791822
 20
143.7668624474
 10
139.766517748
 20
144.1444995488
 10
139.7379075185
 20
144.502412635
 10
139.7041563884
 20
144.9375426071
 10
139.6720946775
 20
145.3596708505
 10
139.6375649617
 20
145.8190063459
 10
139.5811175005
 20
146.5672843531
 10
139.5184469418
 20
147.3703046702
 10
139.4844834701
 20
147.782739359
 10
139.4487262712
 20
148.1928337506
 10
139.4111325041
 20
148.5912551778
 10
139.3716537402
 20
148.9668801567
 10
139.3191029326
 20
149.3906831509
 10
139.2710280613
 20
149.6962533473
 10
139.2263655559
 20
149.9076114176
 10
139.1941846357
 20
150.0185235544
 10
139.1609773979
 20
150.1010680711
 10
139.0795835302
 20
150.2111145435
 10
138.998811786
 20
150.2643847978
 10
138.886334096
 20
150.2878965019
 10
138.886334096
 20
150.2878965019
  0
LWPOLYLINE
  5
CA
330
1F
100
AcDbEntity
  8
0
  6
Continuous
 62
     7
370
    18
100
AcDbPolyline
 90
       33
 70
   128
 43
0.0
 10
138.0917818294
 20
141.6814318998
 10
138.0920537756
 20
141.6786039388
 10
138.0772718237
 20
141.6851963057
 10
138.0572465257
 20
141.720315083
 10
138.0317264245
 20
141.8005671492
 10
138.0004414366
 20
141.9454916521
 10
137.9642353401
 20
142.1691820631
 10
137.9272674219
 20
142.4519371847
 10
137.8903348939
 20
142.7817250277
 10
137.8538084225
 20
143.1470158185
 10
137.8179953442
 20
143.5373454495
 10
137.7831322149
 20
143.9433877729
 10
137.7385311768
 20
144.4936309616
 10
137.6985867516
 20
145.0087132888
 10
137.6642377124
 20
145.4625229724
 10
137.6354933725
 20
145.8458399791
 10
137.6086843208
 20
146.2033417682
 10
137.5730984853
 20
146.6732373136
 10
137.5401650564
 20
147.0985808317
 10
137.5018336819
 20
147.5756213675
 10
137.4580484823
 20
148.087776606
 10
137.4087442652
 20
148.6117617367
 10
137.3582293288
 20
149.0804863768
 10
137.3144068764
 20
149.4225835102
 10
137.2770217256
 20
149.6618710133
 10
137.2455076323
 20
149.8232456996
 10
137.2191810057
 20
149.9283454521
 10
137.1969074951
 20
149.9944302394
 10
137.1712421075
 20
150.0521191536
 10
137.1161636905
 20
150.1438921458
 10
137.022454013
 20
150.2387403651
 10
136.8864399389
 20
150.2842499083
 10
136.8864399389
 20
150.2842499083
  0
SPLINE
  5
CB
330
1F
100
AcDbEntity
  8
0
  6
Continuous
 62
     7
370
    18
100
AcDbSpline
210
0.0
220
0.0
230
1.0
 70
     8
 71
     3
 72
    37
 73
    33
 74
     0
 42
0.000000001
 43
0.00000001
 40
0.0
 40
0.0
 40
0.0
 40
0.0
 40
0.0008910288558035
 40
0.0222872703140804
 40
0.0473997049143678
 40
0.0766044322295478
 40
0.1099468649264515
 40
0.1474596732362332
 40
0.1891356823920577
 40
0.2319056971868927
 40
0.2724422543693301
 40
0.310734479760537
 40
0.3468169598017172
 40
0.391504149809516
 40
0.4322843829719135
 40
0.471043108745462
 40
0.5089373730780198
 40
0.5459554847682583
 40
0.5828503585004641
 40
0.6138408343786242
 40
0.6483758490920165
 40
0.6864691174847986
 40
0.7281103676786447
 40
0.7726576114343608
 40
0.8142587191184618
 40
0.8515273263920093
 40
0.8845040246246774
 40
0.9131784684021249
 40
0.9380814256129422
 40
0.9660251881539547
 40
0.982241453557623
 40
1.0
 40
1.0
 40
1.0
 40
1.0
 10
136.0525337056214
 20
141.7248562118622
 30
0.0
 10
136.0529558587173
 20
141.7245099384507
 30
0.0
 10
136.0635151577791
 20
141.7158486149995
 30
0.0
 10
136.0390673360449
 20
141.7586762635074
 30
0.0
 10
136.0290236361961
 20
141.8175219798468
 30
0.0
 10
136.0027472078504
 20
141.9351135161
 30
0.0
 10
135.974271376811
 20
142.1089913168282
 30
0.0
 10
135.9396358419757
 20
142.3555763631735
 30
0.0
 10
135.9015827700109
 20
142.676310516041
 30
0.0
 10
135.8621550900494
 20
143.0556790147389
 30
0.0
 10
135.8237021337603
 20
143.466633071035
 30
0.0
 10
135.7872103873092
 20
143.8882507859742
 30
0.0
 10
135.7493455849189
 20
144.3522383217993
 30
0.0
 10
135.7106715967101
 20
144.8485509511087
 30
0.0
 10
135.6711679007785
 20
145.3705035792494
 30
0.0
 10
135.6338277671387
 20
145.8697660708662
 30
0.0
 10
135.5976472456838
 20
146.3523625474764
 30
0.0
 10
135.5620168048698
 20
146.8204748944902
 30
0.0
 10
135.5285584156166
 20
147.2475358204353
 30
0.0
 10
135.4958930815112
 20
147.6490108842516
 30
0.0
 10
135.4628223758073
 20
148.0370738592978
 30
0.0
 10
135.4263026960635
 20
148.4386189499203
 30
0.0
 10
135.3864362789146
 20
148.8387101163247
 30
0.0
 10
135.3453012282331
 20
149.2021595245882
 30
0.0
 10
135.304882009922
 20
149.5029013524385
 30
0.0
 10
135.2667826077015
 20
149.72972435885
 30
0.0
 10
135.2317522614531
 20
149.894344366693
 30
0.0
 10
135.1961163204562
 20
150.0144239610959
 30
0.0
 10
135.1640093068725
 20
150.1019650088051
 30
0.0
 10
135.0951963244956
 20
150.2029989873885
 30
0.0
 10
134.9935581128431
 20
150.2720128394509
 30
0.0
 10
134.9225656001979
 20
150.2806483695315
 30
0.0
 10
134.8854579971129
 20
150.285162138811
 30
0.0
  0
LINE
  5
CC
330
1F
100
AcDbEntity
  8
0
  6
Continuous
 62
     7
370
    18
100
AcDbLine
 10
162.4194324956
 20
147.86891161
 30
0.0
 11
161.8194335149
 21
147.86891161
 31
0.0
  0
LINE
  5
CD
330
1F
100
AcDbEntity
  8
0
  6
Continuous
 62
     7
370
    18
100
AcDbLine
 10
161.8194335149
 20
142.2882346577
 30
0.0
 11
161.8194335149
 21
147.86891161
 31
0.0
  0
LINE
  5
CE
330
1F
100
AcDbEntity
  8
0
  6
Continuous
 62
     7
370
    18
100
AcDbLine
 10
162.4194324956
 20
142.2882346577
 30
0.0
 11
162.4194324956
 21
147.86891161
 31
0.0
  0
LINE
  5
CF
330
1F
100
AcDbEntity
  8
0
  6
Continuous
 62
     7
370
    18
100
AcDbLine
 10
161.8194335149
 20
147.86891161
 30
0.0
 11
161.8194335149
 21
147.9500158365
 31
0.0
  0
LINE
  5
D0
330
1F
100
AcDbEntity
  8
0
  6
Continuous
 62
     7
370
    18
100
AcDbLine
 10
162.4194324956
 20
147.9500158365
 30
0.0
 11
162.4194324956
 21
147.86891161
 31
0.0
  0
LINE
  5
D1
330
1F
100
AcDbEntity
  8
0
  6
Continuous
 62
     7
370
    18
100
AcDbLine
 10
162.4194324956
 20
148.5760375998
 30
0.0
 11
161.8194335149
 21
148.5760375998
 31
0.0
  0
LINE
  5
D2
330
1F
100
AcDbEntity
  8
0
  6
Continuous
 62
     7
370
    18
100
AcDbLine
 10
161.8194335149
 20
147.9500158365
 30
0.0
 11
161.8194335149
 21
148.5760375998
 31
0.0
  0
LINE
  5
D3
330
1F
100
AcDbEntity
  8
0
  6
Continuous
 62
     7
370
    18
100
AcDbLine
 10
162.4194324956
 20
147.9882347538
 30
0.0
 11
162.4194324956
 21
148.5760375998
 31
0.0
  0
LINE
  5
D4
330
1F
100
AcDbEntity
  8
0
  6
Continuous
 62
     7
370
    18
100
AcDbLine
 10
161.8194335149
 20
148.5760375998
 30
0.0
 11
161.8194335149
 21
148.723440352
 31
0.0
  0
LINE
  5
D5
330
1F
100
AcDbEntity
  8
0
  6
Continuous
 62
     7
370
    18
100
AcDbLine
 10
162.4194324956
 20
148.723440352
 30
0.0
 11
162.4194324956
 21
148.5760375998
 31
0.0
  0
SPLINE
  5
D6
330
1F
100
AcDbEntity
  8
0
  6
Continuous
 62
     7
370
    18
100
AcDbSpline
210
0.0
220
0.0
230
1.0
 70
     8
 71
     3
 72
    14
 73
    10
 74
     0
 42
0.000000001
 43
0.00000001
 40
0.0
 40
0.0
 40
0.0
 40
0.0
 40
0.1249999999999993
 40
0.1249999999999993
 40
0.2499999999999987
 40
0.2499999999999987
 40
0.4999999999999987
 40
0.4999999999999987
 40
1.0
 40
1.0
 40
1.0
 40
1.0
 10
131.7194331035907
 20
140.3681332503987
 30
0.0
 10
131.7194331035907
 20
140.3193765375574
 30
0.0
 10
131.7274653340446
 20
140.2766251952585
 30
0.0
 10
131.7487355452583
 20
140.1987534836736
 30
0.0
 10
131.762284550827
 20
140.1642263850584
 30
0.0
 10
131.8057173320004
 20
140.0715312359844
 30
0.0
 10
131.8383191351796
 20
140.0238563930513
 30
0.0
 10
131.9296927991132
 20
139.9089631920418
 30
0.0
 10
131.9823346239628
 20
139.8683660969702
 30
0.0
 10
132.0194331035908
 20
139.8423334904446
 30
0.0
  0
LINE
  5
D7
330
1F
100
AcDbEntity
  8
0
  6
Continuous
 62
     7
370
    18
100
AcDbLine
 10
131.7194324926
 20
140.3681334248
 30
0.0
 11
131.7194324926
 21
151.4882348618
 31
0.0
  0
LINE
  5
D8
330
1F
100
AcDbEntity
  8
0
  6
Continuous
 62
     7
370
    18
100
AcDbLine
 10
133.7194328205
 20
151.4882348618
 30
0.0
 11
133.7194328205
 21
140.0882346696
 31
0.0
  0
LINE
  5
D9
330
1F
100
AcDbEntity
  8
0
  6
Continuous
 62
     7
370
    18
100
AcDbLine
 10
134.7194329844
 20
149.2382347258
 30
0.0
 11
134.7194329844
 21
142.3382348056
 31
0.0
  0
SPLINE
  5
DA
330
1F
100
AcDbEntity
  8
0
  6
Continuous
 62
     7
370
    18
100
AcDbSpline
210
0.0
220
0.0
230
1.0
 70
     8
 71
     3
 72
    14
 73
    10
 74
     0
 42
0.000000001
 43
0.00000001
 40
0.0
 40
0.0
 40
0.0
 40
0.0
 40
0.25
 40
0.25
 40
0.5
 40
0.5
 40
0.75
 40
0.75
 40
1.0
 40
1.0
 40
1.0
 40
1.0
 10
131.2112698382846
 20
142.3727440077215
 30
0.0
 10
131.2535130376474
 20
142.3542927918323
 30
0.0
 10
131.3085146563563
 20
142.3421569223275
 30
0.0
 10
131.4285579815418
 20
142.3333612969392
 30
0.0
 10
131.4919516776736
 20
142.3369818519264
 30
0.0
 10
131.6006545575208
 20
142.3589885091406
 30
0.0
 10
131.6456086656473
 20
142.3773506704389
 30
0.0
 10
131.7046047798825
 20
142.4229445640762
 30
0.0
 10
131.7194331035907
 20
142.4502666309417
 30
0.0
 10
131.7194331035907
 20
142.4791563039087
 30
0.0
  0
SPLINE
  5
DB
330
1F
100
AcDbEntity
  8
0
  6
Continuous
 62
     7
370
    18
100
AcDbSpline
210
0.0
220
0.0
230
1.0
 70
     8
 71
     3
 72
    22
 73
    18
 74
     0
 42
0.000000001
 43
0.00000001
 40
0.0
 40
0.0
 40
0.0
 40
0.0
 40
0.125
 40
0.125
 40
0.2500000000000001
 40
0.2500000000000001
 40
0.3750000000000001
 40
0.3750000000000001
 40
0.5000000000000001
 40
0.5000000000000001
 40
0.6250000000000001
 40
0.6250000000000001
 40
0.7500000000000002
 40
0.7500000000000002
 40
0.8750000000000001
 40
0.8750000000000001
 40
1.0
 40
1.0
 40
1.0
 40
1.0
 10
131.2112698382846
 20
142.3727440077215
 30
0.0
 10
131.1146746250726
 20
142.414935393784
 30
0.0
 10
131.0080641181368
 20
142.4581429813209
 30
0.0
 10
130.7828611746383
 20
142.5386469985282
 30
0.0
 10
130.6637504775323
 20
142.5762587110801
 30
0.0
 10
130.4107346845353
 20
142.641339034459
 30
0.0
 10
130.2760090001529
 20
142.6687025633913
 30
0.0
 10
130.0029683975107
 20
142.7056876545387
 30
0.0
 10
129.8618205704653
 20
142.7157418839675
 30
0.0
 10
129.5785402791251
 20
142.715810786892
 30
0.0
 10
129.4392516831842
 20
142.7060198933819
 30
0.0
 10
129.1650713101882
 20
142.6691220887112
 30
0.0
 10
129.0305169211639
 20
142.6418698252931
 30
0.0
 10
128.7771399947205
 20
142.5768607388902
 30
0.0
 10
128.6556664900043
 20
142.538556382387
 30
0.0
 10
128.4291064852862
 20
142.4575061704497
 30
0.0
 10
128.3244049239445
 20
142.415028578399
 30
0.0
 10
128.2275963688968
 20
142.3727440077215
 30
0.0
  0
SPLINE
  5
DC
330
1F
100
AcDbEntity
  8
0
  6
Continuous
 62
     7
370
    18
100
AcDbSpline
210
0.0
220
0.0
230
1.0
 70
     8
 71
     3
 72
    14
 73
    10
 74
     0
 42
0.000000001
 43
0.00000001
 40
0.0
 40
0.0
 40
0.0
 40
0.0
 40
0.25
 40
0.25
 40
0.5
 40
0.5
 40
0.75
 40
0.75
 40
1.0
 40
1.0
 40
1.0
 40
1.0
 10
127.7194331035907
 20
142.4791563039087
 30
0.0
 10
127.7194331035907
 20
142.4502463118383
 30
0.0
 10
127.7342523155253
 20
142.4230413622244
 30
0.0
 10
127.7927597493937
 20
142.3776463954499
 30
0.0
 10
127.8371105966272
 20
142.3592983580697
 30
0.0
 10
127.9464547195788
 20
142.3369892275806
 30
0.0
 10
128.0091368885771
 20
142.333350007431
 30
0.0
 10
128.1298780923073
 20
142.3420487057392
 30
0.0
 10
128.1852686700028
 20
142.3542558836645
 30
0.0
 10
128.2275963688968
 20
142.3727440077215
 30
0.0
  0
LINE
  5
DD
330
1F
100
AcDbEntity
  8
0
  6
Continuous
 62
     7
370
    18
100
AcDbLine
 10
127.7194327683
 20
144.7382346867
 30
0.0
 11
131.7194324926
 21
144.7382346867
 31
0.0
  0
SPLINE
  5
DE
330
1F
100
AcDbEntity
  8
0
  6
Continuous
 62
     7
370
    18
100
AcDbSpline
210
0.0
220
0.0
230
1.0
 70
     8
 71
     3
 72
    12
 73
     8
 74
     0
 42
0.000000001
 43
0.00000001
 40
0.0
 40
0.0
 40
0.0
 40
0.0
 40
0.2500000000000011
 40
0.2500000000000011
 40
0.5000000000000021
 40
0.5000000000000021
 40
1.0
 40
1.0
 40
1.0
 40
1.0
 10
127.4194331035958
 20
142.3183644108837
 30
0.0
 10
127.4688471709133
 20
142.3183644108849
 30
0.0
 10
127.518052442661
 20
142.3372943899263
 30
0.0
 10
127.5974198137871
 20
142.3971502482835
 30
0.0
 10
127.629092044762
 20
142.4376491091018
 30
0.0
 10
127.7001948562933
 20
142.5677408678022
 30
0.0
 10
127.7194331035907
 20
142.66766587017
 30
0.0
 10
127.7194331035907
 20
142.7666457395159
 30
0.0
  0
LINE
  5
DF
330
1F
100
AcDbEntity
  8
0
  6
Continuous
 62
     7
370
    18
100
AcDbLine
 10
126.0194328622
 20
142.3183643399
 30
0.0
 11
127.4194332779
 21
142.3183643399
 31
0.0
  0
SPLINE
  5
E0
330
1F
100
AcDbEntity
  8
0
  6
Continuous
 62
     7
370
    18
100
AcDbSpline
210
0.0
220
0.0
230
1.0
 70
     8
 71
     3
 72
    12
 73
     8
 74
     0
 42
0.000000001
 43
0.00000001
 40
0.0
 40
0.0
 40
0.0
 40
0.0
 40
0.5
 40
0.5
 40
0.75
 40
0.75
 40
1.0
 40
1.0
 40
1.0
 40
1.0
 10
125.7194331035907
 20
142.7666457395159
 30
0.0
 10
125.7194331035907
 20
142.668269165338
 30
0.0
 10
125.7385847316835
 20
142.5676959974476
 30
0.0
 10
125.8101322742338
 20
142.4370962460514
 30
0.0
 10
125.8415139727381
 20
142.3971340687558
 30
0.0
 10
125.9204954342273
 20
142.3374997865513
 30
0.0
 10
125.9696779472423
 20
142.318364410884
 30
0.0
 10
126.0194331035907
 20
142.318364410884
 30
0.0
  0
LINE
  5
E1
330
1F
100
AcDbEntity
  8
0
  6
Continuous
 62
     7
370
    18
100
AcDbLine
 10
125.7194333718
 20
142.766645751
 30
0.0
 11
125.7194333718
 21
148.8098237804
 31
0.0
  0
SPLINE
  5
E2
330
1F
100
AcDbEntity
  8
0
  6
Continuous
 62
     7
370
    18
100
AcDbSpline
210
0.0
220
0.0
230
1.0
 70
     8
 71
     3
 72
    12
 73
     8
 74
     0
 42
0.000000001
 43
0.00000001
 40
0.0
 40
0.0
 40
0.0
 40
0.0
 40
0.2500000000000011
 40
0.2500000000000011
 40
0.5000000000000021
 40
0.5000000000000021
 40
1.0
 40
1.0
 40
1.0
 40
1.0
 10
126.0194331035907
 20
149.2581050400437
 30
0.0
 10
125.9699858188816
 20
149.2581050400437
 30
0.0
 10
125.920682049592
 20
149.239113489818
 30
0.0
 10
125.8413063640777
 20
149.1791757051468
 30
0.0
 10
125.8101421183717
 20
149.1394524968266
 30
0.0
 10
125.7381869871863
 20
149.0079242979454
 30
0.0
 10
125.7194331035907
 20
148.9080358732166
 30
0.0
 10
125.7194331035907
 20
148.8098237114112
 30
0.0
  0
LINE
  5
E3
330
1F
100
AcDbEntity
  8
0
  6
Continuous
 62
     7
370
    18
100
AcDbLine
 10
127.4194332779
 20
149.2581049586
 30
0.0
 11
126.0194328622
 21
149.2581049586
 31
0.0
  0
SPLINE
  5
E4
330
1F
100
AcDbEntity
  8
0
  6
Continuous
 62
     7
370
    18
100
AcDbSpline
210
0.0
220
0.0
230
1.0
 70
     8
 71
     3
 72
    12
 73
     8
 74
     0
 42
0.000000001
 43
0.00000001
 40
0.0
 40
0.0
 40
0.0
 40
0.0
 40
0.4999999999999989
 40
0.4999999999999989
 40
0.7499999999999994
 40
0.7499999999999994
 40
1.0
 40
1.0
 40
1.0
 40
1.0
 10
127.7194331035907
 20
148.8098237114112
 30
0.0
 10
127.7194331035907
 20
148.908172756806
 30
0.0
 10
127.7001218496942
 20
149.0091242949261
 30
0.0
 10
127.6287213890317
 20
149.1393663105044
 30
0.0
 10
127.5972998210147
 20
149.179410753962
 30
0.0
 10
127.5181648132082
 20
149.239089257973
 30
0.0
 10
127.4688806328715
 20
149.258105040044
 30
0.0
 10
127.4194331035907
 20
149.258105040044
 30
0.0
  0
LINE
  5
E5
330
1F
100
AcDbEntity
  8
0
  6
Continuous
 62
     7
370
    18
100
AcDbLine
 10
131.7194324926
 20
146.8382347283
 30
0.0
 11
127.7194327683
 21
146.8382347283
 31
0.0
  0
LINE
  5
E6
330
1F
100
AcDbEntity
  8
0
  6
Continuous
 62
     7
370
    18
100
AcDbLine
 10
127.7194327683
 20
142.766645751
 30
0.0
 11
127.7194327683
 21
144.7382346867
 31
0.0
  0
LINE
  5
E7
330
1F
100
AcDbEntity
  8
0
  6
Continuous
 62
     7
370
    18
100
AcDbLine
 10
127.7194327683
 20
146.8382347283
 30
0.0
 11
127.7194327683
 21
148.8098237804
 31
0.0
  0
LINE
  5
E8
330
1F
100
AcDbEntity
  8
0
  6
Continuous
 62
     7
370
    18
100
AcDbLine
 10
127.4194332779
 20
140.8520542225
 30
0.0
 11
127.4194332779
 21
142.3183643399
 31
0.0
  0
SPLINE
  5
E9
330
1F
100
AcDbEntity
  8
0
  6
Continuous
 62
     7
370
    18
100
AcDbSpline
210
0.0
220
0.0
230
1.0
 70
     8
 71
     3
 72
    14
 73
    10
 74
     0
 42
0.000000001
 43
0.00000001
 40
0.0
 40
0.0
 40
0.0
 40
0.0
 40
0.4999999999999993
 40
0.4999999999999993
 40
0.7499999999999994
 40
0.7499999999999994
 40
0.8749999999999997
 40
0.8749999999999997
 40
1.0
 40
1.0
 40
1.0
 40
1.0
 10
127.4194331035907
 20
140.8520542651795
 30
0.0
 10
127.457603558
 20
140.8837121870348
 30
0.0
 10
127.5125927030975
 20
140.9331682955947
 30
0.0
 10
127.6052023493489
 20
141.065050592285
 30
0.0
 10
127.6376305057577
 20
141.1189296446688
 30
0.0
 10
127.6794653529572
 20
141.2194717587172
 30
0.0
 10
127.6923063228879
 20
141.2564786879124
 30
0.0
 10
127.7121130843884
 20
141.3380581359646
 30
0.0
 10
127.7194331035907
 20
141.3826911574043
 30
0.0
 10
127.7194331035907
 20
141.4319174734719
 30
0.0
  0
LINE
  5
EA
330
1F
100
AcDbEntity
  8
0
  6
Continuous
 62
     7
370
    18
100
AcDbLine
 10
127.7194327683
 20
142.766645751
 30
0.0
 11
127.7194327683
 21
141.4319175436
 31
0.0
  0
LINE
  5
EB
330
1F
100
AcDbEntity
  8
0
  6
Continuous
 62
     7
370
    18
100
AcDbLine
 10
127.7194327683
 20
150.4882346979
 30
0.0
 11
127.7194327683
 21
148.8098237804
 31
0.0
  0
LINE
  5
EC
330
1F
100
AcDbEntity
  8
0
  6
Continuous
 62
     7
370
    18
100
AcDbLine
 10
125.7194333718
 20
141.0882348335
 30
0.0
 11
125.7194333718
 21
142.766645751
 31
0.0
  0
LINE
  5
ED
330
1F
100
AcDbEntity
  8
0
  6
Continuous
 62
     7
370
    18
100
AcDbLine
 10
125.7194333718
 20
148.8098237804
 30
0.0
 11
125.7194333718
 21
150.4882346979
 31
0.0
  0
LINE
  5
EE
330
1F
100
AcDbEntity
  8
0
  6
Continuous
 62
     7
370
    18
100
AcDbLine
 10
122.2194327981
 20
148.9882346849
 30
0.0
 11
122.2194327981
 21
142.5882346137
 31
0.0
  0
LINE
  5
EF
330
1F
100
AcDbEntity
  8
0
  6
Continuous
 62
     7
370
    18
100
AcDbLine
 10
120.219432936
 20
145.7882347257
 30
0.0
 11
120.219432936
 21
148.9882346849
 31
0.0
  0
LINE
  5
F0
330
1F
100
AcDbEntity
  8
0
  6
Continuous
 62
     7
370
    18
100
AcDbLine
 10
120.219432936
 20
142.5882346137
 30
0.0
 11
120.219432936
 21
145.7882347257
 31
0.0
  0
LINE
  5
F1
330
1F
100
AcDbEntity
  8
0
  6
Continuous
 62
     7
370
    18
100
AcDbLine
 10
127.7194327683
 20
131.4882343775
 30
0.0
 11
131.7194324926
 21
131.4882343775
 31
0.0
  0
LINE
  5
F2
330
1F
100
AcDbEntity
  8
0
  6
Continuous
 62
     7
370
    18
100
AcDbLine
 10
127.2194326864
 20
133.9882347873
 30
0.0
 11
132.2194335059
 21
133.9882347873
 31
0.0
  0
LINE
  5
F3
330
1F
100
AcDbEntity
  8
0
  6
Continuous
 62
     7
370
    18
100
AcDbLine
 10
127.2194326864
 20
136.4882342658
 30
0.0
 11
132.2194335059
 21
136.4882342658
 31
0.0
  0
SPLINE
  5
F4
330
1F
100
AcDbEntity
  8
0
  6
Continuous
 62
     7
370
    18
100
AcDbSpline
210
0.0
220
0.0
230
1.0
 70
    24
 71
     3
 72
    14
 73
    10
 74
     0
 42
0.000000001
 43
0.00000001
 40
0.0
 40
0.0
 40
0.0
 40
0.0
 40
0.5000000000000029
 40
0.5000000000000029
 40
0.7500000000000069
 40
0.7500000000000069
 40
0.8750000000000034
 40
0.8750000000000034
 40
1.0
 40
1.0
 40
1.0
 40
1.0
 10
162.4958263064441
 20
143.3882347254635
 30
0.0
 10
162.495829059209
 20
143.3882347254635
 30
0.0
 10
162.5034719855
 20
143.3882347254635
 30
0.0
 10
162.5401500804297
 20
143.3882347254635
 30
0.0
 10
162.5563861637889
 20
143.3882347254635
 30
0.0
 10
162.5966420136464
 20
143.3882347254635
 30
0.0
 10
162.6129779936869
 20
143.3882347254635
 30
0.0
 10
162.6567650446473
 20
143.3882347254635
 30
0.0
 10
162.6867747518122
 20
143.3882347254635
 30
0.0
 10
162.7194331035907
 20
143.3882347254635
 30
0.0
  0
SPLINE
  5
F5
330
1F
100
AcDbEntity
  8
0
  6
Continuous
 62
     7
370
    18
100
AcDbSpline
210
0.0
220
0.0
230
1.0
 70
    24
 71
     3
 72
    14
 73
    10
 74
     0
 42
0.000000001
 43
0.00000001
 40
0.0
 40
0.0
 40
0.0
 40
0.0
 40
0.1250000000000035
 40
0.1250000000000035
 40
0.250000000000007
 40
0.250000000000007
 40
0.500000000000003
 40
0.500000000000003
 40
1.0
 40
1.0
 40
1.0
 40
1.0
 10
162.719433103594
 20
148.1882347254635
 30
0.0
 10
162.6861626694953
 20
148.1882347254635
 30
0.0
 10
162.6566797615952
 20
148.1882347254635
 30
0.0
 10
162.6130955493089
 20
148.1882347254635
 30
0.0
 10
162.5967342634024
 20
148.1882347254635
 30
0.0
 10
162.556303605387
 20
148.1882347254635
 30
0.0
 10
162.539957276393
 20
148.1882347254635
 30
0.0
 10
162.5035897739608
 20
148.1882347254635
 30
0.0
 10
162.4958263058406
 20
148.1882347254635
 30
0.0
 10
162.4958263058406
 20
148.1882347254635
 30
0.0
  0
LINE
  5
F6
330
1F
100
AcDbEntity
  8
0
  6
Continuous
 62
     7
370
    18
100
AcDbLine
 10
162.7194338486
 20
148.1882346469
 30
0.0
 11
162.7194338486
 21
143.3882346517
 31
0.0
  0
LINE
  5
F7
330
1F
100
AcDbEntity
  8
0
  6
Continuous
 62
     7
370
    18
100
AcDbLine
 10
162.4194324956
 20
147.9500158365
 30
0.0
 11
162.4194324956
 21
147.9882347538
 31
0.0
  0
SPLINE
  5
F8
330
1F
100
AcDbEntity
  8
0
  6
Continuous
 62
     7
370
    18
100
AcDbSpline
210
0.0
220
0.0
230
1.0
 70
    24
 71
     3
 72
    13
 73
     9
 74
     0
 42
0.000000001
 43
0.00000001
 40
0.0
 40
0.0
 40
0.0
 40
0.0
 40
0.1641928079835047
 40
0.3286567899342891
 40
0.4940247597052457
 40
0.6597348758454604
 40
0.9125228026119032
 40
1.0
 40
1.0
 40
1.0
 40
1.0
 10
163.2194348619277
 20
143.3882346517059
 30
0.0
 10
163.2294872739558
 20
143.3882346517059
 30
0.0
 10
163.249608700155
 20
143.3882346517059
 30
0.0
 10
163.2740150661808
 20
143.3882346517059
 30
0.0
 10
163.2939205286288
 20
143.3882346517059
 30
0.0
 10
163.3104508044775
 20
143.3882346517059
 30
0.0
 10
163.3199461879818
 20
143.3882346517059
 30
0.0
 10
163.3183228077515
 20
143.3882346517059
 30
0.0
 10
163.3179054603869
 20
143.3882346517059
 30
0.0
  0
LINE
  5
F9
330
1F
100
AcDbEntity
  8
0
  6
Continuous
 62
     7
370
    18
100
AcDbLine
 10
163.2194348619
 20
143.3882346517
 30
0.0
 11
163.2194348619
 21
148.1882346469
 31
0.0
  0
SPLINE
  5
FA
330
1F
100
AcDbEntity
  8
0
  6
Continuous
 62
     7
370
    18
100
AcDbSpline
210
0.0
220
0.0
230
1.0
 70
    24
 71
     3
 72
    13
 73
     9
 74
     0
 42
0.000000001
 43
0.00000001
 40
0.0
 40
0.0
 40
0.0
 40
0.0
 40
0.0803496972282712
 40
0.3402393964594901
 40
0.504367652863248
 40
0.6688398419711831
 40
0.8342765696891419
 40
1.0
 40
1.0
 40
1.0
 40
1.0
 10
163.3179352627093
 20
148.188234646863
 30
0.0
 10
163.3183612333038
 20
148.188234646863
 30
0.0
 10
163.3201649983828
 20
148.188234646863
 30
0.0
 10
163.3106557604704
 20
148.188234646863
 30
0.0
 10
163.2940516414298
 20
148.188234646863
 30
0.0
 10
163.2742665788014
 20
148.188234646863
 30
0.0
 10
163.2498432029191
 20
148.188234646863
 30
0.0
 10
163.2295768241446
 20
148.188234646863
 30
0.0
 10
163.2194348619277
 20
148.188234646863
 30
0.0
  0
LINE
  5
FB
330
1F
100
AcDbEntity
  8
0
  6
Continuous
 62
     7
370
    18
100
AcDbLine
 10
163.7194321499
 20
147.7882346279
 30
0.0
 11
163.7194321499
 21
143.7882346707
 31
0.0
  0
LINE
  5
FC
330
1F
100
AcDbEntity
  8
0
  6
Continuous
 62
     7
370
    18
100
AcDbLine
 10
163.2194348619
 20
143.3882346517
 30
0.0
 11
162.7194338486
 21
143.3882346517
 31
0.0
  0
LINE
  5
FD
330
1F
100
AcDbEntity
  8
0
  6
Continuous
 62
     7
370
    18
100
AcDbLine
 10
163.2194348619
 20
148.1882346469
 30
0.0
 11
162.7194338486
 21
148.1882346469
 31
0.0
  0
LINE
  5
FE
330
1F
100
AcDbEntity
  8
0
  6
Continuous
 62
     7
370
    18
100
AcDbLine
 10
139.3329572872
 20
143.3882346517
 30
0.0
 11
137.8316764728
 21
143.3882346517
 31
0.0
  0
LINE
  5
FF
330
1F
100
AcDbEntity
  8
0
  6
Continuous
 62
     7
370
    18
100
AcDbLine
 10
137.3330184267
 20
143.3882346517
 30
0.0
 11
135.8315941886
 21
143.3882346517
 31
0.0
  0
LINE
  5
100
330
1F
100
AcDbEntity
  8
0
  6
Continuous
 62
     7
370
    18
100
AcDbLine
 10
135.3330534891
 20
143.3882346517
 30
0.0
 11
134.7194329844
 21
143.3882346517
 31
0.0
  0
LINE
  5
101
330
1F
100
AcDbEntity
  8
0
  6
Continuous
 62
     7
370
    18
100
AcDbLine
 10
139.7194338039
 20
148.1882346469
 30
0.0
 11
139.4491267399
 21
148.1882346469
 31
0.0
  0
LINE
  5
102
330
1F
100
AcDbEntity
  8
0
  6
Continuous
 62
     7
370
    18
100
AcDbLine
 10
138.9502414511
 20
148.1882346469
 30
0.0
 11
137.4485955582
 21
148.1882346469
 31
0.0
  0
LINE
  5
103
330
1F
100
AcDbEntity
  8
0
  6
Continuous
 62
     7
370
    18
100
AcDbLine
 10
136.9505298332
 20
148.1882346469
 30
0.0
 11
135.4486119942
 21
148.1882346469
 31
0.0
  0
LINE
  5
104
330
1F
100
AcDbEntity
  8
0
  6
Continuous
 62
     7
370
    18
100
AcDbLine
 10
134.9500247286
 20
148.1882346469
 30
0.0
 11
134.7194329844
 21
148.1882346469
 31
0.0
  0
SPLINE
  5
105
330
1F
100
AcDbEntity
  8
0
  6
Continuous
 62
     7
370
    18
100
AcDbSpline
210
0.0
220
0.0
230
1.0
 70
     8
 71
     3
 72
    14
 73
    10
 74
     0
 42
0.000000001
 43
0.00000001
 40
0.0
 40
0.0
 40
0.0
 40
0.0
 40
0.25
 40
0.25
 40
0.5
 40
0.5
 40
0.75
 40
0.75
 40
1.0
 40
1.0
 40
1.0
 40
1.0
 10
128.2275963688968
 20
141.4319174734719
 30
0.0
 10
128.2275963688968
 20
141.3120462497674
 30
0.0
 10
128.2010076646725
 20
141.1945936314672
 30
0.0
 10
128.1217149623995
 20
140.9875713442616
 30
0.0
 10
128.0681921861118
 20
140.8965112488004
 30
0.0
 10
127.9564046076584
 20
140.7491429002426
 30
0.0
 10
127.8970636726685
 20
140.6911381860757
 30
0.0
 10
127.7900290307092
 20
140.6052117112272
 30
0.0
 10
127.7408145258366
 20
140.5757939414891
 30
0.0
 10
127.7010657566519
 20
140.5558834375624
 30
0.0
  0
LINE
  5
106
330
1F
100
AcDbEntity
  8
0
  6
Continuous
 62
     7
370
    18
100
AcDbLine
 10
128.227596824
 20
142.3727440322
 30
0.0
 11
128.227596824
 21
141.4319175436
 31
0.0
  0
LINE
  5
107
330
1F
100
AcDbEntity
  8
0
  6
Continuous
 62
     7
370
    18
100
AcDbLine
 10
131.2112693683
 20
140.3681334248
 30
0.0
 11
131.2112693683
 21
142.3727440322
 31
0.0
  0
SPLINE
  5
108
330
1F
100
AcDbEntity
  8
0
  6
Continuous
 62
     7
370
    18
100
AcDbSpline
210
0.0
220
0.0
230
1.0
 70
     8
 71
     3
 72
    14
 73
    10
 74
     0
 42
0.000000001
 43
0.00000001
 40
0.0
 40
0.0
 40
0.0
 40
0.0
 40
0.2499999999999998
 40
0.2499999999999998
 40
0.4999999999999999
 40
0.4999999999999999
 40
0.7499999999999999
 40
0.7499999999999999
 40
1.0
 40
1.0
 40
1.0
 40
1.0
 10
131.7378004505296
 20
139.5450384286937
 30
0.0
 10
131.6985661948319
 20
139.5615091981556
 30
0.0
 10
131.6515363993546
 20
139.585608076867
 30
0.0
 10
131.5447656427797
 20
139.6619503236539
 30
0.0
 10
131.4868957549453
 20
139.7129895242421
 30
0.0
 10
131.3734914565713
 20
139.8507522127352
 30
0.0
 10
131.3193759651397
 20
139.9363624443669
 30
0.0
 10
131.2379931499907
 20
140.1371449934296
 30
0.0
 10
131.2112698382846
 20
140.2507301128703
 30
0.0
 10
131.2112698382846
 20
140.3681332503987
 30
0.0
  0
LINE
  5
109
330
1F
100
AcDbEntity
  8
0
  6
Continuous
 62
     7
370
    18
100
AcDbLine
 10
128.227596824
 20
141.4319175436
 30
0.0
 11
127.7194327683
 21
141.4319175436
 31
0.0
  0
LINE
  5
10A
330
1F
100
AcDbEntity
  8
0
  6
Continuous
 62
     7
370
    18
100
AcDbLine
 10
131.7194324926
 20
140.3681334248
 30
0.0
 11
131.2112693683
 21
140.3681334248
 31
0.0
  0
ARC
  5
10B
330
1F
100
AcDbEntity
  8
0
  6
Continuous
 62
     7
370
    18
100
AcDbCircle
 10
127.3920749297
 20
140.5440491106
 30
0.0
 40
0.3092177682364586
100
AcDbArc
 50
2.1933423608
 51
84.924062022
  0
ARC
  5
10C
330
1F
100
AcDbEntity
  8
0
  6
Continuous
 62
     7
370
    18
100
AcDbCircle
 10
132.0441704003
 20
139.5368536018
 30
0.0
 40
0.3064796756309939
100
AcDbArc
 50
94.6294865007
 51
178.4696766649
  0
LINE
  5
10D
330
1F
100
AcDbEntity
  8
0
  6
Continuous
 62
     7
370
    18
100
AcDbLine
 10
143.4194331066
 20
153.78823468
 30
0.0
 11
143.4194331066
 21
137.7882348514
 31
0.0
  0
LINE
  5
10E
330
1F
100
AcDbEntity
  8
0
  6
Continuous
 62
     7
370
    18
100
AcDbLine
 10
142.0194336222
 20
153.78823468
 30
0.0
 11
142.0194336222
 21
137.7882348514
 31
0.0
  0
LINE
  5
10F
330
1F
100
AcDbEntity
  8
0
  6
Continuous
 62
     7
370
    18
100
AcDbLine
 10
141.7194322691
 20
153.488234724
 30
0.0
 11
141.7194322691
 21
138.0882348074
 31
0.0
  0
LINE
  5
110
330
1F
100
AcDbEntity
  8
0
  6
Continuous
 62
     7
370
    18
100
AcDbLine
 10
143.719432597
 20
153.488234724
 30
0.0
 11
143.719432597
 21
138.0882348074
 31
0.0
  0
LINE
  5
111
330
1F
100
AcDbEntity
  8
0
  6
Continuous
 62
     7
370
    18
100
AcDbLine
 10
160.7194335208
 20
151.7882348179
 30
0.0
 11
160.7194335208
 21
139.7882347135
 31
0.0
  0
LINE
  5
112
330
1F
100
AcDbEntity
  8
0
  6
Continuous
 62
     7
370
    18
100
AcDbLine
 10
161.7194318221
 20
150.7882346539
 30
0.0
 11
161.7194318221
 21
140.7882348775
 31
0.0
  0
LINE
  5
113
330
1F
100
AcDbEntity
  8
0
  6
Continuous
 62
     7
370
    18
100
AcDbLine
 10
140.0194332943
 20
149.5382346819
 30
0.0
 11
140.0194332943
 21
142.0382346167
 31
0.0
  0
LINE
  5
114
330
1F
100
AcDbEntity
  8
0
  6
Continuous
 62
     7
370
    18
100
AcDbLine
 10
139.7194338039
 20
149.2382347258
 30
0.0
 11
139.7194338039
 21
144.7327718977
 31
0.0
  0
SPLINE
  5
115
330
1F
100
AcDbEntity
  8
0
  6
Continuous
 62
     7
370
    18
100
AcDbSpline
210
0.0
220
0.0
230
1.0
 70
     8
 71
     3
 72
    12
 73
     8
 74
     0
 42
0.000000001
 43
0.00000001
 40
0.0
 40
0.0
 40
0.0
 40
0.0
 40
0.2130539470086363
 40
0.4254644685228813
 40
0.6522304429441065
 40
0.8635962026408844
 40
1.0
 40
1.0
 40
1.0
 40
1.0
 10
141.4053940222556
 20
145.5834201386316
 30
0.0
 10
141.3775688200312
 20
145.5835575236488
 30
0.0
 10
141.3220024480294
 20
145.5838318787786
 30
0.0
 10
141.2463354543414
 20
145.585808402166
 30
0.0
 10
141.1886014868577
 20
145.5886976221412
 30
0.0
 10
141.1588883541251
 20
145.5919536330083
 30
0.0
 10
141.1591568994798
 20
145.5940272152589
 30
0.0
 10
141.1592622295911
 20
145.5948405253586
 30
0.0
  0
SPLINE
  5
116
330
1F
100
AcDbEntity
  8
0
  6
Continuous
 62
     7
370
    18
100
AcDbSpline
210
0.0
220
0.0
230
1.0
 70
     8
 71
     3
 72
    17
 73
    13
 74
     0
 42
0.000000001
 43
0.00000001
 40
0.0
 40
0.0
 40
0.0
 40
0.0
 40
0.039167893462995
 40
0.1535356849617106
 40
0.2756653187719526
 40
0.3895560270188654
 40
0.5003664253927077
 40
0.6220920714433245
 40
0.7374329312416956
 40
0.8471490876464773
 40
0.9686545163988662
 40
0.9999999999999999
 40
0.9999999999999999
 40
0.9999999999999999
 40
0.9999999999999999
 10
133.9514550761277
 20
142.0382346166881
 30
0.0
 10
133.9420375024156
 20
142.0369973968904
 30
0.0
 10
133.9051212043274
 20
142.0321475729069
 30
0.0
 10
133.8467569545461
 20
141.9974534463438
 30
0.0
 10
133.7877961620111
 20
141.9391843668676
 30
0.0
 10
133.757474383367
 20
141.8638989791986
 30
0.0
 10
133.7535702628287
 20
141.7846179263913
 30
0.0
 10
133.7765304586562
 20
141.7070091596366
 30
0.0
 10
133.8283728782853
 20
141.6431237321366
 30
0.0
 10
133.8985047516108
 20
141.5985189170705
 30
0.0
 10
133.9608669932731
 20
141.580879921731
 30
0.0
 10
133.9978147345342
 20
141.5798020978776
 30
0.0
 10
134.005391691714
 20
141.5795810660931
 30
0.0
  0
SPLINE
  5
117
330
1F
100
AcDbEntity
  8
0
  6
Continuous
 62
     7
370
    18
100
AcDbSpline
210
0.0
220
0.0
230
1.0
 70
     8
 71
     3
 72
    17
 73
    13
 74
     0
 42
0.000000001
 43
0.00000001
 40
0.0
 40
0.0
 40
0.0
 40
0.0
 40
0.1035458355338903
 40
0.2102956811661138
 40
0.3137480234455596
 40
0.4198250256130296
 40
0.5300074828664545
 40
0.6437958466491495
 40
0.7465787817544813
 40
0.8525716000056853
 40
0.9528567172271623
 40
1.0
 40
1.0
 40
1.0
 40
1.0
 10
141.4053940222556
 20
145.5834201386316
 30
0.0
 10
141.41911466552
 20
145.5834529972633
 30
0.0
 10
141.4469805087618
 20
145.5835197312686
 30
0.0
 10
141.4872749104822
 20
145.5840328292346
 30
0.0
 10
141.5255924680798
 20
145.5848141513557
 30
0.0
 10
141.5611391401736
 20
145.5858762714345
 30
0.0
 10
141.5934401921729
 20
145.5872298093855
 30
0.0
 10
141.6196693013488
 20
145.5888113046057
 30
0.0
 10
141.6386635120581
 20
145.5905661700749
 30
0.0
 10
141.6498759051218
 20
145.5923633388484
 30
0.0
 10
141.654897583769
 20
145.5938860689313
 30
0.0
 10
141.6539361724612
 20
145.5947748685095
 30
0.0
 10
141.6536287412936
 20
145.5950590805734
 30
0.0
  0
SPLINE
  5
118
330
1F
100
AcDbEntity
  8
0
  6
Continuous
 62
     7
370
    18
100
AcDbSpline
210
0.0
220
0.0
230
1.0
 70
     8
 71
     3
 72
    10
 73
     6
 74
     0
 42
0.000000001
 43
0.00000001
 40
0.5000618884285843
 40
0.5000618884285843
 40
0.5000618884285843
 40
0.5000618884285843
 40
0.6666666666666999
 40
0.8333333333333001
 40
0.9569121654664627
 40
0.9569121654664627
 40
0.9569121654664627
 40
0.9569121654664627
 10
134.0053911692834
 20
141.5795812776732
 30
0.0
 10
134.0919615455245
 20
141.5796159904812
 30
0.0
 10
134.2651023159049
 20
141.6731416198598
 30
0.0
 10
134.2651023159049
 20
141.9295048868488
 30
0.0
 10
134.133781333375
 20
142.0214677946661
 30
0.0
 10
134.0717137803281
 20
142.0382370791915
 30
0.0
  0
LINE
  5
119
330
1F
100
AcDbEntity
  8
0
  6
Continuous
 62
     8
370
    18
100
AcDbLine
 10
133.4194333301
 20
139.7882347135
 30
0.0
 11
133.4194333301
 21
151.7882348179
 31
0.0
  0
SPLINE
  5
11A
330
1F
100
AcDbEntity
  8
0
  6
Continuous
 62
     8
370
    18
100
AcDbSpline
210
0.0
220
0.0
230
1.0
 70
     8
 71
     3
 72
    12
 73
     8
 74
     0
 42
0.000000001
 43
0.00000001
 40
0.0
 40
0.0
 40
0.0
 40
0.0
 40
0.2212347494755943
 40
0.5577874053256245
 40
0.7866668829879008
 40
0.9017180492917029
 40
1.0
 40
1.0
 40
1.0
 40
1.0
 10
132.0194338456685
 20
139.8423333792599
 30
0.0
 10
132.0397970447581
 20
139.8351337241731
 30
0.0
 10
132.0911376954073
 20
139.8169816167864
 30
0.0
 10
132.1386937024171
 20
139.7995735634495
 30
0.0
 10
132.1609200624389
 20
139.7913863985225
 30
0.0
 10
132.169091499028
 20
139.7883613139599
 30
0.0
 10
132.1680626353586
 20
139.7887423133403
 30
0.0
 10
132.1675886408383
 20
139.7889178386542
 30
0.0
  0
LINE
  5
11B
330
1F
100
AcDbEntity
  8
0
  6
Continuous
 62
     8
370
    18
100
AcDbLine
 10
132.0194338457
 20
151.7882348179
 30
0.0
 11
132.0194338457
 21
139.8423333793
 31
0.0
  0
LINE
  5
11C
330
1F
100
AcDbEntity
  8
0
  6
Continuous
 62
     8
370
    18
100
AcDbLine
 10
134.419433494
 20
142.0382346167
 30
0.0
 11
134.419433494
 21
149.5382346819
 31
0.0
  0
SPLINE
  5
11D
330
1F
100
AcDbEntity
  8
0
  6
Continuous
 62
     8
370
    18
100
AcDbSpline
210
0.0
220
0.0
230
1.0
 70
     8
 71
     3
 72
    14
 73
    10
 74
     0
 42
0.000000001
 43
0.00000001
 40
0.0
 40
0.0
 40
0.0
 40
0.0
 40
0.0424803905136655
 40
0.3148033518855536
 40
0.5365962115734828
 40
0.7608434584826292
 40
0.8205549034938454
 40
0.9401296252094113
 40
1.0
 40
1.0
 40
1.0
 40
1.0
 10
127.2702111870939
 20
140.7885738788756
 30
0.0
 10
127.2699909020896
 20
140.7884778338335
 30
0.0
 10
127.2683584675263
 20
140.7877660865822
 30
0.0
 10
127.2805346898371
 20
140.7930810568998
 30
0.0
 10
127.3108817706875
 20
140.8062188974294
 30
0.0
 10
127.3440074933363
 20
140.8203948338536
 30
0.0
 10
127.3757336979591
 20
140.8338046419437
 30
0.0
 10
127.3964252303298
 20
140.8424951443211
 30
0.0
 10
127.4136772755086
 20
140.8496627950591
 30
0.0
 10
127.4194332779343
 20
140.8520542225453
 30
0.0
  0
LINE
  5
11E
330
1F
100
AcDbEntity
  8
0
  6
Continuous
 62
     8
370
    18
100
AcDbLine
 10
126.0194328622
 20
142.3183643399
 30
0.0
 11
126.0194328622
 21
140.7882348775
 31
0.0
  0
LINE
  5
11F
330
1F
100
AcDbEntity
  8
0
  6
Continuous
 62
     8
370
    18
100
AcDbLine
 10
127.4194332779
 20
149.2581049586
 30
0.0
 11
127.4194332779
 21
150.7882346539
 31
0.0
  0
LINE
  5
120
330
1F
100
AcDbEntity
  8
0
  6
Continuous
 62
     8
370
    18
100
AcDbLine
 10
126.0194328622
 20
150.7882346539
 30
0.0
 11
126.0194328622
 21
149.2581049586
 31
0.0
  0
LINE
  5
121
330
1F
100
AcDbEntity
  8
0
  6
Continuous
 62
     8
370
    18
100
AcDbLine
 10
121.9194333077
 20
142.2882346577
 30
0.0
 11
121.9194333077
 21
149.2882346409
 31
0.0
  0
LINE
  5
122
330
1F
100
AcDbEntity
  8
0
  6
Continuous
 62
     8
370
    18
100
AcDbLine
 10
120.519432892
 20
145.7882347257
 30
0.0
 11
120.519432892
 21
142.2882346577
 31
0.0
  0
LINE
  5
123
330
1F
100
AcDbEntity
  8
0
  6
Continuous
 62
     8
370
    18
100
AcDbLine
 10
120.519432892
 20
149.2882346409
 30
0.0
 11
120.519432892
 21
145.7882347257
 31
0.0
  0
SPLINE
  5
124
330
1F
100
AcDbEntity
  8
0
  6
Continuous
 62
     8
370
    18
100
AcDbSpline
210
0.0
220
0.0
230
1.0
 70
     8
 71
     3
 72
    13
 73
     9
 74
     0
 42
0.000000001
 43
0.00000001
 40
0.0
 40
0.0
 40
0.0
 40
0.0
 40
0.1192444937624819
 40
0.2387292906947113
 40
0.3466940651912335
 40
0.5635297660846541
 40
0.7836317199134512
 40
1.0
 40
1.0
 40
1.0
 40
1.0
 10
127.7010661558206
 20
140.5558833992692
 30
0.0
 10
127.6911350058701
 20
140.5508904981705
 30
0.0
 10
127.6712526925771
 20
140.5408946342092
 30
0.0
 10
127.6466420822123
 20
140.5283419588976
 30
0.0
 10
127.6189896654918
 20
140.5141296643077
 30
0.0
 10
127.5928963739474
 20
140.5005623396387
 30
0.0
 10
127.5730363239711
 20
140.4901351294674
 30
0.0
 10
127.5707654840399
 20
140.4889375524718
 30
0.0
 10
127.569639776736
 20
140.4883438861581
 30
0.0
  0
SPLINE
  5
125
330
1F
100
AcDbEntity
  8
0
  6
Continuous
 62
     8
370
    18
100
AcDbSpline
210
0.0
220
0.0
230
1.0
 70
     8
 71
     3
 72
    13
 73
     9
 74
     0
 42
0.000000001
 43
0.00000001
 40
0.0
 40
0.0
 40
0.0
 40
0.0
 40
0.0983979698790752
 40
0.2089497474251248
 40
0.4310118201818063
 40
0.6563804619374961
 40
0.88509441338548
 40
1.0
 40
1.0
 40
1.0
 40
1.0
 10
131.8692152396733
 20
139.4883316150519
 30
0.0
 10
131.8690534955582
 20
139.4884033759812
 30
0.0
 10
131.8687100292039
 20
139.4885557615243
 30
0.0
 10
131.8624834551629
 20
139.4913116384092
 30
0.0
 10
131.8467641402518
 20
139.4982565504951
 30
0.0
 10
131.8140526381922
 20
139.5125451059222
 30
0.0
 10
131.7760677644008
 20
139.5289105099518
 30
0.0
 10
131.7473898615114
 20
139.5409968164289
 30
0.0
 10
131.7378000364596
 20
139.5450384496363
 30
0.0
  0
SPLINE
  5
126
330
1F
100
AcDbEntity
  8
0
  6
Continuous
 62
     8
370
    18
100
AcDbSpline
210
0.0
220
0.0
230
1.0
 70
     8
 71
     3
 72
    16
 73
    12
 74
     0
 42
0.000000001
 43
0.00000001
 40
0.0
 40
0.0
 40
0.0
 40
0.0
 40
0.1121634705931026
 40
0.2241757876268255
 40
0.3363478560717874
 40
0.4486892604991983
 40
0.5609542595604292
 40
0.6730258772620116
 40
0.785176054947844
 40
0.8975036187622751
 40
0.9999999999999999
 40
0.9999999999999999
 40
0.9999999999999999
 40
0.9999999999999999
 10
141.4053940222556
 20
145.5834280403216
 30
0.0
 10
141.3861315188238
 20
145.856002120805
 30
0.0
 10
141.3476324704649
 20
146.4007829559193
 30
0.0
 10
141.2897179893872
 20
147.2003226720823
 30
0.0
 10
141.2319109629163
 20
147.951137359798
 30
0.0
 10
141.1741656551399
 20
148.6325254618353
 30
0.0
 10
141.1163908945927
 20
149.222921027829
 30
0.0
 10
141.058494868925
 20
149.7006419606081
 30
0.0
 10
141.0006530741091
 20
150.0404832929162
 30
0.0
 10
140.9445903676997
 20
150.2495470307449
 30
0.0
 10
140.907716318435
 20
150.2702276946821
 30
0.0
 10
140.8901230440432
 20
150.2800948126825
 30
0.0
  0
SPLINE
  5
127
330
1F
100
AcDbEntity
  8
0
  6
Continuous
 62
     8
370
    18
100
AcDbSpline
210
0.0
220
0.0
230
1.0
 70
     8
 71
     3
 72
    25
 73
    21
 74
     0
 42
0.000000001
 43
0.00000001
 40
0.0
 40
0.0
 40
0.0
 40
0.0
 40
0.0444032677831483
 40
0.1023115919334342
 40
0.160295605640772
 40
0.2182338853998213
 40
0.2760761738785344
 40
0.3339668175191658
 40
0.3919459366090322
 40
0.4498991295023762
 40
0.5077512805988904
 40
0.5656249471863801
 40
0.6235958831913502
 40
0.6815616398430179
 40
0.7394275530255618
 40
0.7972860755204246
 40
0.8552457678395772
 40
0.913221275075847
 40
0.9711034209575149
 40
1.0
 40
1.0
 40
1.0
 40
1.0
 10
139.8888395176226
 20
141.3023528783234
 30
0.0
 10
139.874042282927
 20
141.3065190147578
 30
0.0
 10
139.8399473004288
 20
141.31611839949
 30
0.0
 10
139.7866008435932
 20
141.5105983119006
 30
0.0
 10
139.7288556358161
 20
141.8404198666197
 30
0.0
 10
139.6710748815614
 20
142.301441894363
 30
0.0
 10
139.613176060153
 20
142.8775424433125
 30
0.0
 10
139.5553423858255
 20
143.5534590022013
 30
0.0
 10
139.4975959898328
 20
144.3009617861525
 30
0.0
 10
139.4398277039284
 20
145.0960985036581
 30
0.0
 10
139.3819429280397
 20
145.9145572123591
 30
0.0
 10
139.3240878640136
 20
146.7285503757961
 30
0.0
 10
139.2663331532993
 20
147.5115382663033
 30
0.0
 10
139.2085752506052
 20
148.2394477702809
 30
0.0
 10
139.1507087212735
 20
148.8880983207439
 30
0.0
 10
139.0928361145443
 20
149.4293436206331
 30
0.0
 10
139.0350723046451
 20
149.8531916757217
 30
0.0
 10
138.9773225458313
 20
150.1391902467381
 30
0.0
 10
138.9291135954272
 20
150.2850903714194
 30
0.0
 10
138.9002024913295
 20
150.2729045420614
 30
0.0
 10
138.890575338989
 20
150.2688467642876
 30
0.0
  0
SPLINE
  5
128
330
1F
100
AcDbEntity
  8
0
  6
Continuous
 62
     8
370
    18
100
AcDbSpline
210
0.0
220
0.0
230
1.0
 70
     8
 71
     3
 72
    26
 73
    22
 74
     0
 42
0.000000001
 43
0.00000001
 40
0.0
 40
0.0
 40
0.0
 40
0.0
 40
0.0119495700186773
 40
0.0697659960316489
 40
0.1275719569894655
 40
0.1852775154689492
 40
0.2429830697390298
 40
0.3007890261581041
 40
0.3586054713278028
 40
0.4163267055800609
 40
0.4740193677386753
 40
0.5318121493340751
 40
0.5896359457553786
 40
0.6473743872789588
 40
0.7050583974605126
 40
0.7628358183160542
 40
0.8206635880160464
 40
0.8784196871526515
 40
0.9361002211892177
 40
0.993860761499547
 40
1.0
 40
1.0
 40
1.0
 40
1.0
 10
137.8907986924941
 20
141.3026322750958
 30
0.0
 10
137.8868082575005
 20
141.2990591166574
 30
0.0
 10
137.8635106265822
 20
141.2781977001342
 30
0.0
 10
137.821030665898
 20
141.3850255195443
 30
0.0
 10
137.7632619576181
 20
141.6228807442239
 30
0.0
 10
137.7053933364297
 20
142.0098274041142
 30
0.0
 10
137.6475218468628
 20
142.5236140821916
 30
0.0
 10
137.5897617349462
 20
143.1445538690092
 30
0.0
 10
137.5320087924137
 20
143.8496762725307
 30
0.0
 10
137.4741585518495
 20
144.6181052947003
 30
0.0
 10
137.4162725709848
 20
145.4269125063571
 30
0.0
 10
137.3585013686497
 20
146.2470932618122
 30
0.0
 10
137.3007529007839
 20
147.0524922723219
 30
0.0
 10
137.2429256506327
 20
147.8175959874059
 30
0.0
 10
137.1850239083188
 20
148.5135358103115
 30
0.0
 10
137.1272399982947
 20
149.1183750123702
 30
0.0
 10
137.0694928720942
 20
149.6154953621765
 30
0.0
 10
137.0116890246861
 20
149.9939768333241
 30
0.0
 10
136.9537841714928
 20
150.2154916610876
 30
0.0
 10
136.9132186849011
 20
150.3046157802568
 30
0.0
 10
136.891925964997
 20
150.279766072244
 30
0.0
 10
136.8898802445227
 20
150.2773786103936
 30
0.0
  0
SPLINE
  5
129
330
1F
100
AcDbEntity
  8
0
  6
Continuous
 62
     8
370
    18
100
AcDbSpline
210
0.0
220
0.0
230
1.0
 70
     8
 71
     3
 72
    25
 73
    21
 74
     0
 42
0.000000001
 43
0.00000001
 40
0.0
 40
0.0
 40
0.0
 40
0.0
 40
0.0348273529286416
 40
0.0925295893228166
 40
0.1501836048922383
 40
0.2079333267915942
 40
0.2657286208222938
 40
0.3234484900776315
 40
0.3810976433610831
 40
0.438830807000666
 40
0.4966274532138876
 40
0.554364652443181
 40
0.6120144854783638
 40
0.6697301252833833
 40
0.7275245714850882
 40
0.7852780112274058
 40
0.8429340427611801
 40
0.9006323335058186
 40
0.9584212603305523
 40
1.0
 40
1.0
 40
1.0
 40
1.0
 10
135.8902321205432
 20
141.3098961255165
 30
0.0
 10
135.8786214298952
 20
141.3083838113464
 30
0.0
 10
135.8477740542815
 20
141.3043658829848
 30
0.0
 10
135.7976063317427
 20
141.459915681652
 30
0.0
 10
135.7397116246155
 20
141.7640283381967
 30
0.0
 10
135.6819301845115
 20
142.2081243720548
 30
0.0
 10
135.6241836660534
 20
142.7649051299558
 30
0.0
 10
135.5663721977387
 20
143.4194507819156
 30
0.0
 10
135.5084658769626
 20
144.1546050656691
 30
0.0
 10
135.4506694202062
 20
144.9443606278961
 30
0.0
 10
135.3929224806601
 20
145.7608745235029
 30
0.0
 10
135.3351332126457
 20
146.5785116050332
 30
0.0
 10
135.2772270995453
 20
147.3700942044884
 30
0.0
 10
135.2194109534921
 20
148.1075000355759
 30
0.0
 10
135.1616636786804
 20
148.7701711812238
 30
0.0
 10
135.1038865102832
 20
149.3372589832705
 30
0.0
 10
135.0459911337786
 20
149.7882699335418
 30
0.0
 10
134.9881492532826
 20
150.0968392131046
 30
0.0
 10
134.9358081701383
 20
150.2677675263005
 30
0.0
 10
134.9026538340189
 20
150.2696646135448
 30
0.0
 10
134.8887809560592
 20
150.270458418003
 30
0.0
  0
SPLINE
  5
12A
330
1F
100
AcDbEntity
  8
0
  6
Continuous
 62
     8
370
    18
100
AcDbSpline
210
0.0
220
0.0
230
1.0
 70
     8
 71
     3
 72
     9
 73
     5
 74
     0
 42
0.000000001
 43
0.00000001
 40
0.0
 40
0.0
 40
0.0
 40
0.0
 40
0.5356754806120769
 40
1.0
 40
1.0
 40
1.0
 40
1.0
 10
134.7194329843814
 20
149.2056202749374
 30
0.0
 10
134.7319348381382
 20
149.2897370830171
 30
0.0
 10
134.7552733223686
 20
149.4467664993788
 30
0.0
 10
134.778672532749
 20
149.5314400123225
 30
0.0
 10
134.789537359863
 20
149.570756000525
 30
0.0
  0
SPLINE
  5
12B
330
1F
100
AcDbEntity
  8
0
  6
Continuous
 62
     8
370
    18
100
AcDbSpline
210
0.0
220
0.0
230
1.0
 70
     8
 71
     3
 72
    11
 73
     7
 74
     0
 42
0.000000001
 43
0.00000001
 40
0.0
 40
0.0
 40
0.0
 40
0.0
 40
0.1889039756230605
 40
0.4888069828298569
 40
0.7892133282099947
 40
1.0
 40
1.0
 40
1.0
 40
1.0
 10
135.9924019322688
 20
142.0054325042876
 30
0.0
 10
136.0045450667392
 20
142.051724729791
 30
0.0
 10
136.035966580781
 20
142.1715102610492
 30
0.0
 10
136.0867011047399
 20
142.5099799511217
 30
0.0
 10
136.1387000649103
 20
142.9254215450628
 30
0.0
 10
136.1715005001047
 20
143.2531133513399
 30
0.0
 10
136.1850255177314
 20
143.3882346517059
 30
0.0
  0
SPLINE
  5
12C
330
1F
100
AcDbEntity
  8
0
  6
Continuous
 62
     8
370
    18
100
AcDbSpline
210
0.0
220
0.0
230
1.0
 70
     8
 71
     3
 72
    12
 73
     8
 74
     0
 42
0.000000001
 43
0.00000001
 40
0.0
 40
0.0
 40
0.0
 40
0.0
 40
0.0540314524367305
 40
0.3542333854291422
 40
0.654009078514711
 40
0.9534720462021653
 40
1.0
 40
1.0
 40
1.0
 40
1.0
 10
136.5965434358413
 20
148.188234646863
 30
0.0
 10
136.6000144372332
 20
148.2247106168532
 30
0.0
 10
136.6227705268521
 20
148.4638492250847
 30
0.0
 10
136.6647194261812
 20
148.8325782761429
 30
0.0
 10
136.7225401469783
 20
149.2549732544277
 30
0.0
 10
136.7641435192313
 20
149.5005478010058
 30
0.0
 10
136.7863715667334
 20
149.5674877753603
 30
0.0
 10
136.7893607363993
 20
149.5764896879556
 30
0.0
  0
SPLINE
  5
12D
330
1F
100
AcDbEntity
  8
0
  6
Continuous
 62
     8
370
    18
100
AcDbSpline
210
0.0
220
0.0
230
1.0
 70
     8
 71
     3
 72
    12
 73
     8
 74
     0
 42
0.000000001
 43
0.00000001
 40
0.0
 40
0.0
 40
0.0
 40
0.0
 40
0.0096091129428224
 40
0.3098614378942697
 40
0.6102746553119438
 40
0.9102450360939677
 40
1.0
 40
1.0
 40
1.0
 40
1.0
 10
137.9926015631253
 20
141.9939302048298
 30
0.0
 10
137.9932193564741
 20
141.995725332554
 30
0.0
 10
138.0131411053929
 20
142.0536121386663
 30
0.0
 10
138.0522785991816
 20
142.2844235253156
 30
0.0
 10
138.1100336017918
 20
142.6866241252034
 30
0.0
 10
138.1543747925832
 20
143.0669819894047
 30
0.0
 10
138.1794350634891
 20
143.3280986657379
 30
0.0
 10
138.1852065221364
 20
143.3882346517059
 30
0.0
  0
SPLINE
  5
12E
330
1F
100
AcDbEntity
  8
0
  6
Continuous
 62
     8
370
    18
100
AcDbSpline
210
0.0
220
0.0
230
1.0
 70
     8
 71
     3
 72
    11
 73
     7
 74
     0
 42
0.000000001
 43
0.00000001
 40
0.0
 40
0.0
 40
0.0
 40
0.0
 40
0.1748112377090424
 40
0.4748912947386364
 40
0.775284687480541
 40
1.0
 40
1.0
 40
1.0
 40
1.0
 10
138.5967672810847
 20
148.188234646863
 30
0.0
 10
138.607971407559
 20
148.3022249928338
 30
0.0
 10
138.6384084789825
 20
148.6118905709467
 30
0.0
 10
138.6882442485736
 20
149.0177336928875
 30
0.0
 10
138.7411801638561
 20
149.37488695843
 30
0.0
 10
138.7748121227606
 20
149.5121355960815
 30
0.0
 10
138.7892046020324
 20
149.5708698547097
 30
0.0
  0
LINE
  5
12F
330
1F
100
AcDbEntity
  8
0
  6
Continuous
 62
     8
370
    18
100
AcDbLine
 10
139.9915476338
 20
142.0057172562
 30
0.0
 11
140.0040999995
 21
142.05356861
 31
0.0
  0
LINE
  5
130
330
1F
100
AcDbEntity
  8
0
  6
Continuous
 62
     8
370
    18
100
AcDbLine
 10
140.7802120791
 20
149.5382346819
 30
0.0
 11
140.7891006217
 21
149.570458443
 31
0.0
  0
DIMENSION
  5
131
330
1F
100
AcDbEntity
  8
0
  6
Continuous
 62
     7
370
    18
100
AcDbDimension
  2
_D
 10
161.7194331036
 20
124.5427483927
 30
0.0
 11
152.7194331036
 21
124.5427483927
 31
0.0
 70
   160
  1
<>
 71
     2
 42
-1.0
  3
SLDDIMSTYLE0
100
AcDbAlignedDimension
 13
143.7194331036
 23
138.0882347255
 33
0.0
 14
161.7194331036
 24
140.7882347255
 34
0.0
100
AcDbRotatedDimension
  0
DIMENSION
  5
13C
330
1F
100
AcDbEntity
  8
0
  6
Continuous
 62
     7
370
    18
100
AcDbDimension
  2
_D_1
 10
168.9931327112
 20
143.3882347255
 30
0.0
 11
168.9931327112
 21
155.5966217986
 31
0.0
 70
   160
  1
%%c5
 71
     2
 42
-1.0
  3
SLDDIMSTYLE1
100
AcDbAlignedDimension
 13
163.2194331036
 23
148.1882347255
 33
0.0
 14
163.2194331036
 24
143.3882347255
 34
0.0
 50
90.0
100
AcDbRotatedDimension
  0
DIMENSION
  5
14A
330
1F
100
AcDbEntity
  8
0
  6
Continuous
 62
     7
370
    18
100
AcDbDimension
  2
_D_2
 10
177.8073374181
 20
139.7882347255
 30
0.0
 11
177.8073374181
 21
145.7882347255
 31
0.0
 70
   160
  1
%%c<>
 71
     2
 42
-1.0
  3
SLDDIMSTYLE0
100
AcDbAlignedDimension
 13
160.7194331036
 23
151.7882347255
 33
0.0
 14
160.7194331036
 24
139.7882347255
 34
0.0
 50
90.0
100
AcDbRotatedDimension
  0
DIMENSION
  5
155
330
1F
100
AcDbEntity
  8
0
  6
Continuous
 62
     7
370
    18
100
AcDbDimension
  2
_D_3
 10
134.7194331036
 20
158.3992301844
 30
0.0
 11
147.0109365429
 21
158.3992301844
 31
0.0
 70
   160
  1
<>st
 71
     2
 42
-1.0
  3
SLDDIMSTYLE1
100
AcDbAlignedDimension
 13
139.7194331036
 23
149.2382347255
 33
0.0
 14
134.7194331036
 24
149.2382347255
 34
0.0
100
AcDbRotatedDimension
  0
DIMENSION
  5
162
330
1F
100
AcDbEntity
  8
0
  6
Continuous
 62
     7
370
    18
100
AcDbDimension
  2
_D_4
 10
120.2194331036
 20
158.3992301844
 30
0.0
 11
112.3942728874
 21
158.3992301844
 31
0.0
 70
   160
  1
<>
 71
     2
 42
-1.0
  3
SLDDIMSTYLE1
100
AcDbAlignedDimension
 13
125.7194331036
 23
150.4882347255
 33
0.0
 14
120.2194331036
 24
148.9882347255
 34
0.0
100
AcDbRotatedDimension
  0
DIMENSION
  5
16E
330
1F
100
AcDbEntity
  8
0
  6
Continuous
 62
     7
370
    18
100
AcDbDimension
  2
_D_5
 10
111.3740903252
 20
142.2882347255
 30
0.0
 11
111.3740903252
 21
145.7882347255
 31
0.0
 70
   160
  1
%%c<>
 71
     2
 42
-1.0
  3
SLDDIMSTYLE1
100
AcDbAlignedDimension
 13
120.5194331036
 23
149.2882347255
 33
0.0
 14
120.5194331036
 24
142.2882347255
 34
0.0
 50
90.0
100
AcDbRotatedDimension
  0
DIMENSION
  5
17B
330
1F
100
AcDbEntity
  8
0
  6
Continuous
 62
     7
370
    18
100
AcDbDimension
  2
_D_6
 10
100.6994114033
 20
140.7882347255
 30
0.0
 11
100.6994114033
 21
145.7882347255
 31
0.0
 70
   160
  1
%%c<>
 71
     2
 42
-1.0
  3
SLDDIMSTYLE1
100
AcDbAlignedDimension
 13
126.0194331036
 23
150.7882347255
 33
0.0
 14
126.0194331036
 24
140.7882347255
 34
0.0
 50
90.0
100
AcDbRotatedDimension
  0
DIMENSION
  5
188
330
1F
100
AcDbEntity
  8
0
  6
Continuous
 62
     7
370
    18
100
AcDbDimension
  2
_D_7
 10
163.7194331036
 20
169.7882347255
 30
0.0
 11
141.9694331036
 21
169.7882347255
 31
0.0
 70
   160
  1
<>
 71
     2
 42
-1.0
  3
SLDDIMSTYLE0
100
AcDbAlignedDimension
 13
120.2194331036
 23
148.9882347255
 33
0.0
 14
163.7194331036
 24
147.7882347255
 34
0.0
100
AcDbRotatedDimension
  0
LINE
  5
192
330
1F
100
AcDbEntity
  8
0
  6
CENTERX2
 62
     7
370
    18
100
AcDbLine
 10
118.3744237052
 20
145.7882347255
 30
0.0
 11
166.0510162781
 21
145.7882347255
 31
0.0
  0
LINE
  5
193
330
1F
100
AcDbEntity
  8
0
  6
CENTERX2
 62
     7
370
    18
100
AcDbLine
 10
129.7194331036
 20
145.1844061191
 30
0.0
 11
129.7194331036
 21
130.4848499564
 31
0.0
  0
LINE
  5
194
330
1F
100
AcDbEntity
  8
0
  6
Continuous
 62
     7
370
    18
100
AcDbLine
 10
65.0703273614
 20
133.9882347873
 30
0.0
 11
65.5703272106
 21
131.4882343775
 31
0.0
  0
LINE
  5
195
330
1F
100
AcDbEntity
  8
0
  6
Continuous
 62
     7
370
    18
100
AcDbLine
 10
69.5703274005
 20
131.4882343775
 30
0.0
 11
70.0703272497
 21
133.9882347873
 31
0.0
  0
LINE
  5
196
330
1F
100
AcDbEntity
  8
0
  6
Continuous
 62
     7
370
    18
100
AcDbLine
 10
65.0703273614
 20
136.4882342658
 30
0.0
 11
65.5703272106
 21
133.9882347873
 31
0.0
  0
LINE
  5
197
330
1F
100
AcDbEntity
  8
0
  6
Continuous
 62
     7
370
    18
100
AcDbLine
 10
69.5703274005
 20
133.9882347873
 30
0.0
 11
70.0703272497
 21
136.4882342658
 31
0.0
  0
LINE
  5
198
330
1F
100
AcDbEntity
  8
0
  6
Continuous
 62
     7
370
    18
100
AcDbLine
 10
65.4203272325
 20
141.2740904978
 30
0.0
 11
65.4203272325
 21
136.4882342658
 31
0.0
  0
LINE
  5
199
330
1F
100
AcDbEntity
  8
0
  6
Continuous
 62
     7
370
    18
100
AcDbLine
 10
69.7203273786
 20
136.4882342658
 30
0.0
 11
69.7203273786
 21
141.2740904978
 31
0.0
  0
CIRCLE
  5
19A
330
1F
100
AcDbEntity
  8
0
  6
Continuous
 62
     7
370
    18
100
AcDbCircle
 10
67.5703273055
 20
145.7882347255
 30
0.0
 40
3.5
  0
CIRCLE
  5
19B
330
1F
100
AcDbEntity
  8
0
  6
Continuous
 62
     7
370
    18
100
AcDbCircle
 10
67.5703273055
 20
145.7882347255
 30
0.0
 40
3.200000000000003
  0
CIRCLE
  5
19C
330
1F
100
AcDbEntity
  8
0
  6
Continuous
 62
     7
370
    18
100
AcDbCircle
 10
67.5703273055
 20
145.7882347255
 30
0.0
 40
1.499999999999972
  0
SPLINE
  5
19D
330
1F
100
AcDbEntity
  8
0
  6
Continuous
 62
     7
370
    18
100
AcDbSpline
210
0.0
220
0.0
230
1.0
 70
     8
 71
     3
 72
    12
 73
     8
 74
     0
 42
0.000000001
 43
0.00000001
 40
0.0
 40
0.0
 40
0.0
 40
0.0
 40
0.5000000000000039
 40
0.5000000000000039
 40
0.7500000000000019
 40
0.7500000000000019
 40
1.0
 40
1.0
 40
1.0
 40
1.0
 10
66.69950374444295
 20
144.6230993473721
 30
0.0
 10
66.58502815530655
 20
144.7080549108736
 30
0.0
 10
66.49659732594179
 20
144.7996910620003
 30
0.0
 10
66.39689743079204
 20
144.9236380460503
 30
0.0
 10
66.37017289257876
 20
144.9614969691108
 30
0.0
 10
66.33108094071062
 20
145.0199598172927
 30
0.0
 10
66.31936787014666
 20
145.0392578564577
 30
0.0
 10
66.31737550808438
 20
145.0418282444438
 30
0.0
  0
SPLINE
  5
19E
330
1F
100
AcDbEntity
  8
0
  6
Continuous
 62
     7
370
    18
100
AcDbSpline
210
0.0
220
0.0
230
1.0
 70
     8
 71
     3
 72
    31
 73
    27
 74
     0
 42
0.000000001
 43
0.00000001
 40
0.0
 40
0.0
 40
0.0
 40
0.0
 40
0.0210487366472873
 40
0.0494947110174331
 40
0.0880423316696459
 40
0.127616209133441
 40
0.1901737466020395
 40
0.254490699929968
 40
0.3066537663322138
 40
0.3601615487377364
 40
0.4015393731853532
 40
0.4440268028537124
 40
0.4854535328862529
 40
0.5283539852324564
 40
0.565940115237724
 40
0.6045230885377733
 40
0.6441733415898712
 40
0.6846430076245449
 40
0.7437976887312735
 40
0.8046502473297145
 40
0.8649118832749008
 40
0.8958628889713072
 40
0.9271586450073148
 40
0.9554169562812084
 40
0.9843338384509006
 40
1.0
 40
1.0
 40
1.0
 40
1.0
 10
66.31804815431765
 20
145.0404701079825
 30
0.0
 10
66.31827514558047
 20
145.03982716047
 30
0.0
 10
66.3188089005105
 20
145.0383153119508
 30
0.0
 10
66.33441156871507
 20
145.0114848091596
 30
0.0
 10
66.3663202021385
 20
144.9610025015267
 30
0.0
 10
66.42810819743026
 20
144.8745920714698
 30
0.0
 10
66.5273133012868
 20
144.7585161223857
 30
0.0
 10
66.66741378683705
 20
144.6323879795642
 30
0.0
 10
66.829783843187
 20
144.5217299744527
 30
0.0
 10
66.99351841662912
 20
144.4390629920274
 30
0.0
 10
67.16434573020634
 20
144.3785041714195
 30
0.0
 10
67.33237548491438
 20
144.3401908927009
 30
0.0
 10
67.51044402187298
 20
144.3217394923383
 30
0.0
 10
67.68384833117057
 20
144.3252848760341
 30
0.0
 10
67.84922804925247
 20
144.3482362373291
 30
0.0
 10
68.00251158003279
 20
144.3868398692197
 30
0.0
 10
68.14848470848608
 20
144.4409234699688
 30
0.0
 10
68.3041817162272
 20
144.5181615267498
 30
0.0
 10
68.46011022867297
 20
144.621855783198
 30
0.0
 10
68.6028802119118
 20
144.748327964641
 30
0.0
 10
68.69640438374275
 20
144.855001111602
 30
0.0
 10
68.7545394330133
 20
144.9327235755238
 30
0.0
 10
68.7884106488092
 20
144.9830112585252
 30
0.0
 10
68.81122315916286
 20
145.0199072403009
 30
0.0
 10
68.82297429615183
 20
145.040346390473
 30
0.0
 10
68.8223793191993
 20
145.0398944948153
 30
0.0
 10
68.82217024856887
 20
145.0397357019248
 30
0.0
  0
ARC
  5
19F
330
1F
100
AcDbEntity
  8
0
  6
Continuous
 62
     7
370
    18
100
AcDbCircle
 10
67.5704845058
 20
145.8003752759
 30
0.0
 40
1.464440542720801
100
AcDbArc
 50
233.5049562886
 51
328.7491117772
  0
CIRCLE
  5
1A0
330
1F
100
AcDbEntity
  8
0
  6
Continuous
 62
     7
370
    18
100
AcDbCircle
 10
67.5703273055
 20
145.7882347255
 30
0.0
 40
1.449821465561911
  0
ARC
  5
1A1
330
1F
100
AcDbEntity
  8
0
  6
Continuous
 62
     7
370
    18
100
AcDbCircle
 10
67.5703273055
 20
145.7882347255
 30
0.0
 40
5.000000000000006
100
AcDbArc
 50
223.9455195623
 51
316.0544804377
  0
ARC
  5
1A2
330
1F
100
AcDbEntity
  8
0
  6
Continuous
 62
     7
370
    18
100
AcDbCircle
 10
67.5703273055
 20
145.7882347255
 30
0.0
 40
4.699999999999999
100
AcDbArc
 50
220.0077539135
 51
319.9922460865
  0
SPLINE
  5
1A3
330
1F
100
AcDbEntity
  8
0
  6
Continuous
 62
     7
370
    18
100
AcDbSpline
210
0.0
220
0.0
230
1.0
 70
    24
 71
     3
 72
    12
 73
     8
 74
     0
 42
0.000000001
 43
0.00000001
 40
0.0
 40
0.0
 40
0.0
 40
0.0
 40
0.5
 40
0.5
 40
0.75
 40
0.75
 40
1.0
 40
1.0
 40
1.0
 40
1.0
 10
71.1703273055487
 20
142.7666457395159
 30
0.0
 10
71.1703273055487
 20
142.668269165338
 30
0.0
 10
71.1703273055487
 20
142.5676959974476
 30
0.0
 10
71.1703273055487
 20
142.4370962460514
 30
0.0
 10
71.1703273055487
 20
142.3971340687558
 30
0.0
 10
71.1703273055487
 20
142.3374997865513
 30
0.0
 10
71.1703273055487
 20
142.318364410884
 30
0.0
 10
71.1703273055487
 20
142.318364410884
 30
0.0
  0
SPLINE
  5
1A4
330
1F
100
AcDbEntity
  8
0
  6
Continuous
 62
     7
370
    18
100
AcDbSpline
210
0.0
220
0.0
230
1.0
 70
    24
 71
     3
 72
    12
 73
     8
 74
     0
 42
0.000000001
 43
0.00000001
 40
0.0
 40
0.0
 40
0.0
 40
0.0
 40
0.25
 40
0.25
 40
0.5
 40
0.5
 40
1.0
 40
1.0
 40
1.0
 40
1.0
 10
63.97032730554871
 20
142.318364410884
 30
0.0
 10
63.97032730554871
 20
142.318364410884
 30
0.0
 10
63.97032730554871
 20
142.3371339561996
 30
0.0
 10
63.97032730554871
 20
142.3974707582894
 30
0.0
 10
63.97032730554871
 20
142.4375645934084
 30
0.0
 10
63.97032730554871
 20
142.567388436085
 30
0.0
 10
63.97032730554871
 20
142.6672420408819
 30
0.0
 10
63.97032730554871
 20
142.7666457395159
 30
0.0
  0
ARC
  5
1A5
330
1F
100
AcDbEntity
  8
0
  6
Continuous
 62
     7
370
    18
100
AcDbCircle
 10
67.5703273055
 20
145.7882347255
 30
0.0
 40
4.699999999999999
100
AcDbArc
 50
40.0077539135
 51
139.9922460865
  0
ARC
  5
1A6
330
1F
100
AcDbEntity
  8
0
  6
Continuous
 62
     7
370
    18
100
AcDbCircle
 10
67.5703273055
 20
145.7882347255
 30
0.0
 40
5.000000000000006
100
AcDbArc
 50
43.9455195623
 51
136.0544804377
  0
SPLINE
  5
1A7
330
1F
100
AcDbEntity
  8
0
  6
Continuous
 62
     7
370
    18
100
AcDbSpline
210
0.0
220
0.0
230
1.0
 70
    24
 71
     3
 72
    12
 73
     8
 74
     0
 42
0.000000001
 43
0.00000001
 40
0.0
 40
0.0
 40
0.0
 40
0.0
 40
0.2500000000000011
 40
0.2500000000000011
 40
0.5000000000000021
 40
0.5000000000000021
 40
1.0
 40
1.0
 40
1.0
 40
1.0
 10
71.1703273055487
 20
149.2581050400437
 30
0.0
 10
71.1703273055487
 20
149.2581050400437
 30
0.0
 10
71.1703273055487
 20
149.239113489818
 30
0.0
 10
71.1703273055487
 20
149.1791757051468
 30
0.0
 10
71.1703273055487
 20
149.1394524968266
 30
0.0
 10
71.1703273055487
 20
149.0079242979454
 30
0.0
 10
71.1703273055487
 20
148.9080358732166
 30
0.0
 10
71.1703273055487
 20
148.8098237114112
 30
0.0
  0
SPLINE
  5
1A8
330
1F
100
AcDbEntity
  8
0
  6
Continuous
 62
     7
370
    18
100
AcDbSpline
210
0.0
220
0.0
230
1.0
 70
    24
 71
     3
 72
    12
 73
     8
 74
     0
 42
0.000000001
 43
0.00000001
 40
0.0
 40
0.0
 40
0.0
 40
0.0
 40
0.5
 40
0.5
 40
0.75
 40
0.75
 40
1.0
 40
1.0
 40
1.0
 40
1.0
 10
63.97032730554871
 20
148.8098237114112
 30
0.0
 10
63.97032730554871
 20
148.9081868158479
 30
0.0
 10
63.97032730554871
 20
149.0091374534427
 30
0.0
 10
63.97032730554871
 20
149.1393633104969
 30
0.0
 10
63.97032730554871
 20
149.179409537955
 30
0.0
 10
63.97032730554871
 20
149.239093092314
 30
0.0
 10
63.97032730554871
 20
149.2581050400439
 30
0.0
 10
63.97032730554871
 20
149.2581050400439
 30
0.0
  0
LINE
  5
1A9
330
1F
100
AcDbEntity
  8
0
  6
Continuous
 62
     7
370
    18
100
AcDbLine
 10
71.1703272437
 20
142.766645751
 30
0.0
 11
71.1703272437
 21
148.8098237804
 31
0.0
  0
LINE
  5
1AA
330
1F
100
AcDbEntity
  8
0
  6
Continuous
 62
     7
370
    18
100
AcDbLine
 10
63.9703273674
 20
148.8098237804
 30
0.0
 11
63.9703273674
 21
142.766645751
 31
0.0
  0
LWPOLYLINE
  5
1AB
330
1F
100
AcDbEntity
  8
0
  6
Continuous
 62
     7
370
    18
100
AcDbPolyline
 90
        9
 70
   128
 43
0.0
 10
68.3666453597
 20
140.8520542225
 10
68.3484975499
 20
140.8436876862
 10
68.3327098278
 20
140.8250179282
 10
68.3198472735
 20
140.7967136382
 10
68.3103704842
 20
140.7597880951
 10
68.3046185778
 20
140.7155633113
 10
68.3027974929
 20
140.6656225352
 10
68.3049724804
 20
140.6117529749
 10
68.3110656001
 20
140.5558833993
  0
SPLINE
  5
1AC
330
1F
100
AcDbEntity
  8
0
  6
Continuous
 62
     7
370
    18
100
AcDbSpline
210
0.0
220
0.0
230
1.0
 70
     8
 71
     3
 72
    12
 73
     8
 74
     0
 42
0.000000001
 43
0.00000001
 40
0.0
 40
0.0
 40
0.0
 40
0.0
 40
0.5
 40
0.5
 40
0.75
 40
0.75
 40
1.0
 40
1.0
 40
1.0
 40
1.0
 10
68.31106562156273
 20
140.5558834375624
 30
0.0
 10
68.07460131098314
 20
140.512413524945
 30
0.0
 10
67.82402734895719
 20
140.4882234115674
 30
0.0
 10
67.4432043560184
 20
140.4882403884951
 30
0.0
 10
67.31564298723283
 20
140.4943032082279
 30
0.0
 10
67.06863030843441
 20
140.5172673352683
 30
0.0
 10
66.94779160654426
 20
140.5341539113605
 30
0.0
 10
66.82958898953464
 20
140.5558834375624
 30
0.0
  0
LWPOLYLINE
  5
1AD
330
1F
100
AcDbEntity
  8
0
  6
Continuous
 62
     7
370
    18
100
AcDbPolyline
 90
        9
 70
   128
 43
0.0
 10
66.7740092513
 20
140.8520542225
 10
66.7921570612
 20
140.8436876862
 10
66.8079447833
 20
140.8250179282
 10
66.8208073376
 20
140.7967136382
 10
66.8302841269
 20
140.7597880951
 10
66.8360360333
 20
140.7155633113
 10
66.8378571182
 20
140.6656225352
 10
66.8356821307
 20
140.6117529749
 10
66.829589011
 20
140.5558833993
  0
LINE
  5
1AE
330
1F
100
AcDbEntity
  8
0
  6
Continuous
 62
     7
370
    18
100
AcDbLine
 10
67.5703273055
 20
133.9882347873
 30
0.0
 11
70.0703272497
 21
133.9882347873
 31
0.0
  0
LINE
  5
1AF
330
1F
100
AcDbEntity
  8
0
  6
Continuous
 62
     7
370
    18
100
AcDbLine
 10
65.0703273614
 20
133.9882347873
 30
0.0
 11
67.5703273055
 21
133.9882347873
 31
0.0
  0
LINE
  5
1B0
330
1F
100
AcDbEntity
  8
0
  6
Continuous
 62
     7
370
    18
100
AcDbLine
 10
67.5703273055
 20
131.4882343775
 30
0.0
 11
69.5703274005
 21
131.4882343775
 31
0.0
  0
LINE
  5
1B1
330
1F
100
AcDbEntity
  8
0
  6
Continuous
 62
     7
370
    18
100
AcDbLine
 10
65.5703272106
 20
131.4882343775
 30
0.0
 11
67.5703273055
 21
131.4882343775
 31
0.0
  0
LINE
  5
1B2
330
1F
100
AcDbEntity
  8
0
  6
Continuous
 62
     7
370
    18
100
AcDbLine
 10
67.5703273055
 20
136.4882342658
 30
0.0
 11
70.0703272497
 21
136.4882342658
 31
0.0
  0
LINE
  5
1B3
330
1F
100
AcDbEntity
  8
0
  6
Continuous
 62
     7
370
    18
100
AcDbLine
 10
65.0703273614
 20
136.4882342658
 30
0.0
 11
67.5703273055
 21
136.4882342658
 31
0.0
  0
ARC
  5
1B4
330
1F
100
AcDbEntity
  8
0
  6
Continuous
 62
     7
370
    18
100
AcDbCircle
 10
67.5703273055
 20
145.7882347255
 30
0.0
 40
6.000000000000009
100
AcDbArc
 50
290.9978755459
 51
249.0021244541
  0
ARC
  5
1B5
330
1F
100
AcDbEntity
  8
0
  6
Continuous
 62
     7
370
    18
100
AcDbCircle
 10
67.5703273055
 20
145.7882347255
 30
0.0
 40
7.700000000000003
100
AcDbArc
 50
286.2137038924
 51
253.7862961076
  0
ARC
  5
1B6
330
1F
100
AcDbEntity
  8
0
  6
Continuous
 62
     7
370
    18
100
AcDbCircle
 10
67.5703273055
 20
145.7882347255
 30
0.0
 40
7.99999999999999
100
AcDbArc
 50
285.5898981071
 51
254.4101018929
  0
SPLINE
  5
1B7
330
1F
100
AcDbEntity
  8
0
  6
Continuous
 62
     8
370
    18
100
AcDbSpline
210
0.0
220
0.0
230
1.0
 70
     8
 71
     3
 72
    11
 73
     7
 74
     0
 42
0.000000001
 43
0.00000001
 40
0.0
 40
0.0
 40
0.0
 40
0.0
 40
0.2651610916448736
 40
0.6624930272048974
 40
0.9739585187479853
 40
1.0
 40
1.0
 40
1.0
 40
1.0
 10
66.82958901099569
 20
140.5558833992692
 30
0.0
 10
66.75012896499219
 20
140.5733817467611
 30
0.0
 10
66.55160162415142
 20
140.6171005786949
 30
0.0
 10
66.30877523861243
 20
140.7624727556737
 30
0.0
 10
66.15839109223118
 20
140.9225385631223
 30
0.0
 10
66.12245200754876
 20
141.0218131707023
 30
0.0
 10
66.11967900706163
 20
141.0294730356547
 30
0.0
  0
SPLINE
  5
1B8
330
1F
100
AcDbEntity
  8
0
  6
Continuous
 62
     8
370
    18
100
AcDbSpline
210
0.0
220
0.0
230
1.0
 70
     8
 71
     3
 72
    11
 73
     7
 74
     0
 42
0.000000001
 43
0.00000001
 40
0.0
 40
0.0
 40
0.0
 40
0.0
 40
0.1021538921113803
 40
0.4322443551222274
 40
0.8337094372085471
 40
1.0
 40
1.0
 40
1.0
 40
1.0
 10
69.01460035176656
 20
141.0282297200175
 30
0.0
 10
69.00219561619797
 20
140.9993642180293
 30
0.0
 10
68.94970738676803
 20
140.8772254523463
 30
0.0
 10
68.76870674864584
 20
140.712168289847
 30
0.0
 10
68.5306817658547
 20
140.6014780311114
 30
0.0
 10
68.36081736697906
 20
140.5662123907007
 30
0.0
 10
68.31106560010171
 20
140.5558833992692
 30
0.0
  0
ARC
  5
1B9
330
1F
100
AcDbEntity
  8
0
  6
Continuous
 62
     8
370
    18
100
AcDbCircle
 10
67.5703273055
 20
145.7882347255
 30
0.0
 40
5.70000000000001
100
AcDbArc
 50
292.1599175499
 51
247.8400824501
  0
DIMENSION
  5
1BA
330
1F
100
AcDbEntity
  8
0
  6
Continuous
 62
     7
370
    18
100
AcDbDimension
  2
_D_8
 10
72.3744274216
 20
139.3913118656
 30
0.0
 11
49.9003745381
 21
164.4510776474
 31
0.0
 70
   163
  1
<>
 71
     1
 42
-1.0
  3
SLDDIMSTYLE2
100
AcDbDiametricDimension
 15
62.7662271895
 25
152.1851575853
 35
0.0
 40
0.0
  0
INSERT
  5
1C9
330
1F
100
AcDbEntity
  8
0
  6
Continuous
 62
     7
370
     0
100
AcDbBlockReference
  2
SW_NOTE_0
 10
64.1281572099
 20
123.0862070903
 30
0.0
  0
LEADER
  5
1CB
330
1F
100
AcDbEntity
  8
0
  6
Continuous
 62
     7
370
     0
100
AcDbLeader
  3
SLDDIMSTYLE3
 76
     2
 10
68.1322482773
 20
134.9427762103
 30
0.0
 10
64.1281572099
 20
123.0862070903
 30
0.0
  0
INSERT
  5
1D7
330
1F
100
AcDbEntity
  8
0
  6
Continuous
 62
     7
370
    18
100
AcDbBlockReference
  2
SW_CENTERMARKSYMBOL_0
 10
67.5703273055
 20
145.7882347255
 30
0.0
  0
ENDSEC
  0
SECTION
  2
OBJECTS
  0
DICTIONARY
  5
C
330
0
100
AcDbDictionary
281
     1
  3
ACAD_GROUP
350
D
  3
ACAD_LAYOUT
350
1A
  3
ACAD_MLINESTYLE
350
17
  3
ACAD_PLOTSETTINGS
350
19
  3
ACAD_PLOTSTYLENAME
350
E
  3
ACAD_SCALELIST
350
47
  0
DICTIONARY
  5
D
102
{ACAD_REACTORS
330
C
102
}
330
C
100
AcDbDictionary
281
     1
  0
DICTIONARY
  5
1A
102
{ACAD_REACTORS
330
C
102
}
330
C
100
AcDbDictionary
281
     1
  3
Layout1
350
1E
  3
Layout2
350
26
  3
Model
350
22
  0
DICTIONARY
  5
17
102
{ACAD_REACTORS
330
C
102
}
330
C
100
AcDbDictionary
281
     1
  3
Standard
350
18
  0
DICTIONARY
  5
19
102
{ACAD_REACTORS
330
C
102
}
330
C
100
AcDbDictionary
281
     1
  0
ACDBDICTIONARYWDFLT
  5
E
102
{ACAD_REACTORS
330
C
102
}
330
C
100
AcDbDictionary
281
     1
  3
Normal
350
F
100
AcDbDictionaryWithDefault
340
F
  0
DICTIONARY
  5
47
102
{ACAD_REACTORS
330
C
102
}
330
C
100
AcDbDictionary
281
     1
  3
A0
350
48
  3
A1
350
49
  3
A2
350
4A
  3
A3
350
4B
  3
A4
350
4C
  3
A5
350
4D
  3
A6
350
4E
  3
A7
350
4F
  3
A8
350
50
  3
A9
350
51
  3
B0
350
52
  3
B1
350
53
  3
B2
350
54
  3
B3
350
55
  3
B4
350
56
  3
B5
350
57
  3
B6
350
58
  3
B7
350
59
  3
B8
350
5A
  3
B9
350
5B
  3
C0
350
5C
  3
C1
350
5D
  3
C2
350
5E
  3
C3
350
5F
  3
C4
350
60
  3
C5
350
61
  3
C6
350
62
  3
C7
350
63
  3
C8
350
64
  3
C9
350
65
  3
D0
350
66
  3
D1
350
67
  3
D2
350
68
  0
LAYOUT
  5
1E
102
{ACAD_REACTORS
330
1A
102
}
330
1A
100
AcDbPlotSettings
  1

  2
none_device
  4

  6

 40
0.0
 41
0.0
 42
0.0
 43
0.0
 44
0.0
 45
0.0
 46
0.0
 47
0.0
 48
0.0
 49
0.0
140
0.0
141
0.0
142
1.0
143
1.0
 70
   688
 72
     1
 73
     0
 74
     5
  7

 75
    16
147
1.0
148
0.0
149
0.0
100
AcDbLayout
  1
Layout1
 70
     1
 71
     1
 10
0.0
 20
0.0
 11
420.0
 21
297.0
 12
0.0
 22
0.0
 32
0.0
 14
1.0000000000E+20
 24
1.0000000000E+20
 34
1.0000000000E+20
 15
-1.0000000000E+20
 25
-1.0000000000E+20
 35
-1.0000000000E+20
146
0.0
 13
0.0
 23
0.0
 33
0.0
 16
1.0
 26
0.0
 36
0.0
 17
0.0
 27
1.0
 37
0.0
 76
     0
330
1B
  0
LAYOUT
  5
26
102
{ACAD_REACTORS
330
1A
102
}
330
1A
100
AcDbPlotSettings
  1

  2
none_device
  4

  6

 40
0.0
 41
0.0
 42
0.0
 43
0.0
 44
0.0
 45
0.0
 46
0.0
 47
0.0
 48
0.0
 49
0.0
140
0.0
141
0.0
142
1.0
143
1.0
 70
   688
 72
     1
 73
     0
 74
     5
  7

 75
    16
147
1.0
148
0.0
149
0.0
100
AcDbLayout
  1
Layout2
 70
     1
 71
     2
 10
0.0
 20
0.0
 11
0.0
 21
0.0
 12
0.0
 22
0.0
 32
0.0
 14
0.0
 24
0.0
 34
0.0
 15
0.0
 25
0.0
 35
0.0
146
0.0
 13
0.0
 23
0.0
 33
0.0
 16
1.0
 26
0.0
 36
0.0
 17
0.0
 27
1.0
 37
0.0
 76
     0
330
23
  0
LAYOUT
  5
22
102
{ACAD_REACTORS
330
1A
102
}
330
1A
100
AcDbPlotSettings
  1

  2
none_device
  4
Letter_(8.50_x_11.00_Inches)
  6

 40
6.35
 41
6.35
 42
6.35000508
 43
6.35000508
 44
215.9
 45
279.4
 46
0.0
 47
0.0
 48
0.0
 49
0.0
140
0.0
141
0.0
142
1.0
143
1.0
 70
  1712
 72
     1
 73
     0
 74
     0
  7

 75
     0
147
1.0
148
0.0
149
0.0
100
AcDbLayout
  1
Model
 70
     1
 71
     0
 10
0.0
 20
0.0
 11
210.0
 21
297.0
 12
0.0
 22
0.0
 32
0.0
 14
0.0
 24
0.0
 34
0.0
 15
210.0
 25
297.0
 35
0.0
146
0.0
 13
0.0
 23
0.0
 33
0.0
 16
1.0
 26
0.0
 36
0.0
 17
0.0
 27
1.0
 37
0.0
 76
     0
330
1F
331
29
  0
MLINESTYLE
  5
18
102
{ACAD_REACTORS
330
17
102
}
330
17
100
AcDbMlineStyle
  2
Standard
 70
     0
  3

 62
   256
 51
90.0
 52
90.0
 71
     2
 49
0.5
 62
   256
  6
BYLAYER
 49
-0.5
 62
   256
  6
BYLAYER
  0
ACDBPLACEHOLDER
  5
F
102
{ACAD_REACTORS
330
E
102
}
330
E
  0
SCALE
  5
48
102
{ACAD_REACTORS
330
47
102
}
330
47
100
AcDbScale
 70
     0
300
1:1
140
1.0
141
1.0
290
     1
  0
SCALE
  5
49
102
{ACAD_REACTORS
330
47
102
}
330
47
100
AcDbScale
 70
     0
300
1:2
140
1.0
141
2.0
290
     0
  0
SCALE
  5
4A
102
{ACAD_REACTORS
330
47
102
}
330
47
100
AcDbScale
 70
     0
300
1:4
140
1.0
141
4.0
290
     0
  0
SCALE
  5
4B
102
{ACAD_REACTORS
330
47
102
}
330
47
100
AcDbScale
 70
     0
300
1:5
140
1.0
141
5.0
290
     0
  0
SCALE
  5
4C
102
{ACAD_REACTORS
330
47
102
}
330
47
100
AcDbScale
 70
     0
300
1:8
140
1.0
141
8.0
290
     0
  0
SCALE
  5
4D
102
{ACAD_REACTORS
330
47
102
}
330
47
100
AcDbScale
 70
     0
300
1:10
140
1.0
141
10.0
290
     0
  0
SCALE
  5
4E
102
{ACAD_REACTORS
330
47
102
}
330
47
100
AcDbScale
 70
     0
300
1:16
140
1.0
141
16.0
290
     0
  0
SCALE
  5
4F
102
{ACAD_REACTORS
330
47
102
}
330
47
100
AcDbScale
 70
     0
300
1:20
140
1.0
141
20.0
290
     0
  0
SCALE
  5
50
102
{ACAD_REACTORS
330
47
102
}
330
47
100
AcDbScale
 70
     0
300
1:30
140
1.0
141
30.0
290
     0
  0
SCALE
  5
51
102
{ACAD_REACTORS
330
47
102
}
330
47
100
AcDbScale
 70
     0
300
1:40
140
1.0
141
40.0
290
     0
  0
SCALE
  5
52
102
{ACAD_REACTORS
330
47
102
}
330
47
100
AcDbScale
 70
     0
300
1:50
140
1.0
141
50.0
290
     0
  0
SCALE
  5
53
102
{ACAD_REACTORS
330
47
102
}
330
47
100
AcDbScale
 70
     0
300
1:100
140
1.0
141
100.0
290
     0
  0
SCALE
  5
54
102
{ACAD_REACTORS
330
47
102
}
330
47
100
AcDbScale
 70
     0
300
2:1
140
2.0
141
1.0
290
     0
  0
SCALE
  5
55
102
{ACAD_REACTORS
330
47
102
}
330
47
100
AcDbScale
 70
     0
300
4:1
140
4.0
141
1.0
290
     0
  0
SCALE
  5
56
102
{ACAD_REACTORS
330
47
102
}
330
47
100
AcDbScale
 70
     0
300
8:1
140
8.0
141
1.0
290
     0
  0
SCALE
  5
57
102
{ACAD_REACTORS
330
47
102
}
330
47
100
AcDbScale
 70
     0
300
10:1
140
10.0
141
1.0
290
     0
  0
SCALE
  5
58
102
{ACAD_REACTORS
330
47
102
}
330
47
100
AcDbScale
 70
     0
300
100:1
140
100.0
141
1.0
290
     0
  0
SCALE
  5
59
102
{ACAD_REACTORS
330
47
102
}
330
47
100
AcDbScale
 70
     0
300
1/128" = 1'-0"
140
0.0078125
141
12.0
290
     0
  0
SCALE
  5
5A
102
{ACAD_REACTORS
330
47
102
}
330
47
100
AcDbScale
 70
     0
300
1/64" = 1'-0"
140
0.015625
141
12.0
290
     0
  0
SCALE
  5
5B
102
{ACAD_REACTORS
330
47
102
}
330
47
100
AcDbScale
 70
     0
300
1/32" = 1'-0"
140
0.03125
141
12.0
290
     0
  0
SCALE
  5
5C
102
{ACAD_REACTORS
330
47
102
}
330
47
100
AcDbScale
 70
     0
300
1/16" = 1'-0"
140
0.0625
141
12.0
290
     0
  0
SCALE
  5
5D
102
{ACAD_REACTORS
330
47
102
}
330
47
100
AcDbScale
 70
     0
300
3/32" = 1'-0"
140
0.09375
141
12.0
290
     0
  0
SCALE
  5
5E
102
{ACAD_REACTORS
330
47
102
}
330
47
100
AcDbScale
 70
     0
300
1/8" = 1'-0"
140
0.125
141
12.0
290
     0
  0
SCALE
  5
5F
102
{ACAD_REACTORS
330
47
102
}
330
47
100
AcDbScale
 70
     0
300
3/16" = 1'-0"
140
0.1875
141
12.0
290
     0
  0
SCALE
  5
60
102
{ACAD_REACTORS
330
47
102
}
330
47
100
AcDbScale
 70
     0
300
1/4" = 1'-0"
140
0.25
141
12.0
290
     0
  0
SCALE
  5
61
102
{ACAD_REACTORS
330
47
102
}
330
47
100
AcDbScale
 70
     0
300
3/8" = 1'-0"
140
0.375
141
12.0
290
     0
  0
SCALE
  5
62
102
{ACAD_REACTORS
330
47
102
}
330
47
100
AcDbScale
 70
     0
300
1/2" = 1'-0"
140
0.5
141
12.0
290
     0
  0
SCALE
  5
63
102
{ACAD_REACTORS
330
47
102
}
330
47
100
AcDbScale
 70
     0
300
3/4" = 1'-0"
140
0.75
141
12.0
290
     0
  0
SCALE
  5
64
102
{ACAD_REACTORS
330
47
102
}
330
47
100
AcDbScale
 70
     0
300
1" = 1'-0"
140
1.0
141
12.0
290
     0
  0
SCALE
  5
65
102
{ACAD_REACTORS
330
47
102
}
330
47
100
AcDbScale
 70
     0
300
1-1/2" = 1'-0"
140
1.5
141
12.0
290
     0
  0
SCALE
  5
66
102
{ACAD_REACTORS
330
47
102
}
330
47
100
AcDbScale
 70
     0
300
3" = 1'-0"
140
3.0
141
12.0
290
     0
  0
SCALE
  5
67
102
{ACAD_REACTORS
330
47
102
}
330
47
100
AcDbScale
 70
     0
300
6" = 1'-0"
140
6.0
141
12.0
290
     0
  0
SCALE
  5
68
102
{ACAD_REACTORS
330
47
102
}
330
47
100
AcDbScale
 70
     0
300
1'-0" = 1'-0"
140
12.0
141
12.0
290
     0
  0
ENDSEC
  0
EOF
