  0
SECTION
  2
HEADER
  9
$ACADVER
  1
AC1015
  9
$ACADMAINTVER
 70
     6
  9
$DWGCODEPAGE
  3
DOS932
  9
$INSBASE
 10
0.0
 20
0.0
 30
0.0
  9
$EXTMIN
 10
0.0
 20
0.0
 30
0.0
  9
$EXTMAX
 10
210.0
 20
297.0
 30
0.0
  9
$LIMMIN
 10
0.0
 20
0.0
  9
$LIMMAX
 10
210.0
 20
297.0
  9
$ORTHOMODE
 70
     0
  9
$REGENMODE
 70
     1
  9
$FILLMODE
 70
     1
  9
$QTEXTMODE
 70
     0
  9
$MIRRTEXT
 70
     1
  9
$LTSCALE
 40
1.0
  9
$ATTMODE
 70
     1
  9
$TEXTSIZE
 40
3.5
  9
$TRACEWID
 40
1.0
  9
$TEXTSTYLE
  7
Standard
  9
$CLAYER
  8
0
  9
$CELTYPE
  6
ByLayer
  9
$CECOLOR
 62
   256
  9
$CELTSCALE
 40
1.0
  9
$DISPSILH
 70
     0
  9
$DIMSCALE
 40
1.0
  9
$DIMASZ
 40
3.0
  9
$DIMEXO
 40
1.0
  9
$DIMDLI
 40
3.75
  9
$DIMRND
 40
0.0
  9
$DIMDLE
 40
0.0
  9
$DIMEXE
 40
1.0
  9
$DIMTP
 40
0.0
  9
$DIMTM
 40
0.0
  9
$DIMTXT
 40
3.5
  9
$DIMCEN
 40
2.5
  9
$DIMTSZ
 40
0.0
  9
$DIMTOL
 70
     0
  9
$DIMLIM
 70
     0
  9
$DIMTIH
 70
     1
  9
$DIMTOH
 70
     1
  9
$DIMSE1
 70
     0
  9
$DIMSE2
 70
     0
  9
$DIMTAD
 70
     1
  9
$DIMZIN
 70
     0
  9
$DIMBLK
  1

  9
$DIMASO
 70
     1
  9
$DIMSHO
 70
     1
  9
$DIMPOST
  1

  9
$DIMAPOST
  1

  9
$DIMALT
 70
     0
  9
$DIMALTD
 70
     3
  9
$DIMALTF
 40
0.0393700787
  9
$DIMLFAC
 40
1.0
  9
$DIMTOFL
 70
     1
  9
$DIMTVP
 40
0.0
  9
$DIMTIX
 70
     0
  9
$DIMSOXD
 70
     0
  9
$DIMSAH
 70
     0
  9
$DIMBLK1
  1

  9
$DIMBLK2
  1

  9
$DIMSTYLE
  2
ISO-25
  9
$DIMCLRD
 70
     0
  9
$DIMCLRE
 70
     0
  9
$DIMCLRT
 70
     0
  9
$DIMTFAC
 40
1.0
  9
$DIMGAP
 40
1.524
  9
$DIMJUST
 70
     0
  9
$DIMSD1
 70
     0
  9
$DIMSD2
 70
     0
  9
$DIMTOLJ
 70
     0
  9
$DIMTZIN
 70
     0
  9
$DIMALTZ
 70
     0
  9
$DIMALTTZ
 70
     0
  9
$DIMUPT
 70
     0
  9
$DIMDEC
 70
     1
  9
$DIMTDEC
 70
     3
  9
$DIMALTU
 70
     2
  9
$DIMALTTD
 70
     3
  9
$DIMTXSTY
  7
Standard
  9
$DIMAUNIT
 70
     0
  9
$DIMADEC
 70
     2
  9
$DIMALTRND
 40
0.0
  9
$DIMAZIN
 70
     0
  9
$DIMDSEP
 70
    44
  9
$DIMATFIT
 70
     3
  9
$DIMFRAC
 70
     0
  9
$DIMLDRBLK
  1

  9
$DIMLUNIT
 70
     2
  9
$DIMLWD
 70
    -2
  9
$DIMLWE
 70
    -2
  9
$DIMTMOVE
 70
     0
  9
$LUNITS
 70
     2
  9
$LUPREC
 70
     1
  9
$SKETCHINC
 40
1.0
  9
$FILLETRAD
 40
10.0
  9
$AUNITS
 70
     0
  9
$AUPREC
 70
     2
  9
$MENU
  1
.
  9
$ELEVATION
 40
0.0
  9
$PELEVATION
 40
0.0
  9
$THICKNESS
 40
0.0
  9
$LIMCHECK
 70
     0
  9
$CHAMFERA
 40
0.0
  9
$CHAMFERB
 40
0.0
  9
$CHAMFERC
 40
0.0
  9
$CHAMFERD
 40
0.0
  9
$SKPOLY
 70
     0
  9
$TDCREATE
 40
2459019.466926134
  9
$TDUCREATE
 40
2459019.091926134
  9
$TDUPDATE
 40
2459019.466928264
  9
$TDUUPDATE
 40
2459019.091928264
  9
$TDINDWG
 40
0.0000000116
  9
$TDUSRTIMER
 40
0.0000000116
  9
$USRTIMER
 70
     1
  9
$ANGBASE
 50
0.0
  9
$ANGDIR
 70
     0
  9
$PDMODE
 70
     0
  9
$PDSIZE
 40
-1.0
  9
$PLINEWID
 40
0.0
  9
$SPLFRAME
 70
     0
  9
$SPLINETYPE
 70
     6
  9
$SPLINESEGS
 70
     8
  9
$HANDSEED
  5
1F6
  9
$SURFTAB1
 70
     6
  9
$SURFTAB2
 70
     6
  9
$SURFTYPE
 70
     6
  9
$SURFU
 70
     6
  9
$SURFV
 70
     6
  9
$UCSBASE
  2

  9
$UCSNAME
  2

  9
$UCSORG
 10
0.0
 20
0.0
 30
0.0
  9
$UCSXDIR
 10
1.0
 20
0.0
 30
0.0
  9
$UCSYDIR
 10
0.0
 20
1.0
 30
0.0
  9
$UCSORTHOREF
  2

  9
$UCSORTHOVIEW
 70
     0
  9
$UCSORGTOP
 10
0.0
 20
0.0
 30
0.0
  9
$UCSORGBOTTOM
 10
0.0
 20
0.0
 30
0.0
  9
$UCSORGLEFT
 10
0.0
 20
0.0
 30
0.0
  9
$UCSORGRIGHT
 10
0.0
 20
0.0
 30
0.0
  9
$UCSORGFRONT
 10
0.0
 20
0.0
 30
0.0
  9
$UCSORGBACK
 10
0.0
 20
0.0
 30
0.0
  9
$PUCSBASE
  2

  9
$PUCSNAME
  2

  9
$PUCSORG
 10
0.0
 20
0.0
 30
0.0
  9
$PUCSXDIR
 10
1.0
 20
0.0
 30
0.0
  9
$PUCSYDIR
 10
0.0
 20
1.0
 30
0.0
  9
$PUCSORTHOREF
  2

  9
$PUCSORTHOVIEW
 70
     0
  9
$PUCSORGTOP
 10
0.0
 20
0.0
 30
0.0
  9
$PUCSORGBOTTOM
 10
0.0
 20
0.0
 30
0.0
  9
$PUCSORGLEFT
 10
0.0
 20
0.0
 30
0.0
  9
$PUCSORGRIGHT
 10
0.0
 20
0.0
 30
0.0
  9
$PUCSORGFRONT
 10
0.0
 20
0.0
 30
0.0
  9
$PUCSORGBACK
 10
0.0
 20
0.0
 30
0.0
  9
$USERI1
 70
     0
  9
$USERI2
 70
     0
  9
$USERI3
 70
     0
  9
$USERI4
 70
     0
  9
$USERI5
 70
     0
  9
$USERR1
 40
0.0
  9
$USERR2
 40
0.0
  9
$USERR3
 40
0.0
  9
$USERR4
 40
0.0
  9
$USERR5
 40
0.0
  9
$WORLDVIEW
 70
     1
  9
$SHADEDGE
 70
     3
  9
$SHADEDIF
 70
    70
  9
$TILEMODE
 70
     1
  9
$MAXACTVP
 70
    64
  9
$PINSBASE
 10
0.0
 20
0.0
 30
0.0
  9
$PLIMCHECK
 70
     0
  9
$PEXTMIN
 10
1.0000000000E+20
 20
1.0000000000E+20
 30
1.0000000000E+20
  9
$PEXTMAX
 10
-1.0000000000E+20
 20
-1.0000000000E+20
 30
-1.0000000000E+20
  9
$PLIMMIN
 10
0.0
 20
0.0
  9
$PLIMMAX
 10
420.0
 20
297.0
  9
$UNITMODE
 70
     0
  9
$VISRETAIN
 70
     1
  9
$PLINEGEN
 70
     0
  9
$PSLTSCALE
 70
     1
  9
$TREEDEPTH
 70
  3020
  9
$CMLSTYLE
  2
Standard
  9
$CMLJUST
 70
     0
  9
$CMLSCALE
 40
20.0
  9
$PROXYGRAPHICS
 70
     1
  9
$MEASUREMENT
 70
     1
  9
$CELWEIGHT
370
    -1
  9
$ENDCAPS
280
     0
  9
$JOINSTYLE
280
     0
  9
$LWDISPLAY
290
     1
  9
$INSUNITS
 70
     4
  9
$HYPERLINKBASE
  1

  9
$STYLESHEET
  1

  9
$XEDIT
290
     1
  9
$CEPSNTYPE
380
     0
  9
$PSTYLEMODE
290
     1
  9
$FINGERPRINTGUID
  2
{FD5BFAC0-1254-4D08-ACF7-1FD9A9D85709}
  9
$VERSIONGUID
  2
{FAEB1C32-E019-11D5-929B-00C0DF256EC4}
  9
$EXTNAMES
290
     1
  9
$PSVPSCALE
 40
0.0
  9
$OLESTARTUP
290
     0
  0
ENDSEC
  0
SECTION
  2
CLASSES
  0
CLASS
  1
ACDBDICTIONARYWDFLT
  2
AcDbDictionaryWithDefault
  3
ObjectDBX Classes
 90
        0
280
     0
281
     0
  0
CLASS
  1
VISUALSTYLE
  2
AcDbVisualStyle
  3
ObjectDBX Classes
 90
     4095
280
     0
281
     0
  0
CLASS
  1
MATERIAL
  2
AcDbMaterial
  3
ObjectDBX Classes
 90
     1153
280
     0
281
     0
  0
CLASS
  1
SCALE
  2
AcDbScale
  3
ObjectDBX Classes
 90
     1153
280
     0
281
     0
  0
CLASS
  1
TABLESTYLE
  2
AcDbTableStyle
  3
ObjectDBX Classes
 90
     4095
280
     0
281
     0
  0
CLASS
  1
MLEADERSTYLE
  2
AcDbMLeaderStyle
  3
ACDB_MLEADERSTYLE_CLASS
 90
     4095
280
     0
281
     0
  0
CLASS
  1
SUN
  2
AcDbSun
  3
SCENEOE
 90
     1153
280
     0
281
     0
  0
CLASS
  1
ACDBPLACEHOLDER
  2
AcDbPlaceHolder
  3
ObjectDBX Classes
 90
        0
280
     0
281
     0
  0
CLASS
  1
LAYOUT
  2
AcDbLayout
  3
ObjectDBX Classes
 90
        0
280
     0
281
     0
  0
ENDSEC
  0
SECTION
  2
TABLES
  0
TABLE
  2
VPORT
  5
8
330
0
100
AcDbSymbolTable
 70
     1
  0
VPORT
  5
29
330
8
100
AcDbSymbolTableRecord
100
AcDbViewportTableRecord
  2
*Active
 70
     0
 10
0.0
 20
0.0
 11
1.0
 21
1.0
 12
105.0
 22
148.5
 13
0.0
 23
0.0
 14
10.0
 24
10.0
 15
10.0
 25
10.0
 16
0.0
 26
0.0
 36
1.0
 17
0.0
 27
0.0
 37
0.0
 40
297.0
 41
0.7070707071
 42
50.0
 43
0.0
 44
0.0
 50
0.0
 51
0.0
 71
     0
 72
  2000
 73
     1
 74
     3
 75
     0
 76
     0
 77
     0
 78
     0
281
     0
 65
     1
110
0.0
120
0.0
130
0.0
111
1.0
121
0.0
131
0.0
112
0.0
122
1.0
132
0.0
 79
     0
146
0.0
  0
ENDTAB
  0
TABLE
  2
LTYPE
  5
5
330
0
100
AcDbSymbolTable
 70
     6
  0
LTYPE
  5
14
330
5
100
AcDbSymbolTableRecord
100
AcDbLinetypeTableRecord
  2
ByBlock
 70
     0
  3

 72
    65
 73
     0
 40
0.0
  0
LTYPE
  5
15
330
5
100
AcDbSymbolTableRecord
100
AcDbLinetypeTableRecord
  2
ByLayer
 70
     0
  3

 72
    65
 73
     0
 40
0.0
  0
LTYPE
  5
16
330
5
100
AcDbSymbolTableRecord
100
AcDbLinetypeTableRecord
  2
Continuous
 70
     0
  3
Solid line
 72
    65
 73
     0
 40
0.0
  0
LTYPE
  5
6E
330
5
100
AcDbSymbolTableRecord
100
AcDbLinetypeTableRecord
  2
HIDDEN
 70
     0
  3
Hidden __ __ __ __ __ __ __ __ __ __ __ __ __ __
 72
    65
 73
     2
 40
1.905
 49
1.27
 74
     0
 49
-0.635
 74
     0
  0
LTYPE
  5
6F
330
5
100
AcDbSymbolTableRecord
100
AcDbLinetypeTableRecord
  2
PHANTOM
 70
     0
  3
Phantom ______  __  __  ______  __  __  ______
 72
    65
 73
     6
 40
12.7
 49
6.35
 74
     0
 49
-1.27
 74
     0
 49
1.27
 74
     0
 49
-1.27
 74
     0
 49
1.27
 74
     0
 49
-1.27
 74
     0
  0
LTYPE
  5
70
330
5
100
AcDbSymbolTableRecord
100
AcDbLinetypeTableRecord
  2
CENTER
 70
     0
  3
Center ____ _ ____ _ ____ _ ____ _ ____ _ ____
 72
    65
 73
     4
 40
10.16
 49
6.35
 74
     0
 49
-1.27
 74
     0
 49
1.27
 74
     0
 49
-1.27
 74
     0
  0
LTYPE
  5
71
330
5
100
AcDbSymbolTableRecord
100
AcDbLinetypeTableRecord
  2
CENTERX2
 70
     0
  3
Center (2x) ________  __  ________  __  _____
 72
    65
 73
     4
 40
20.32
 49
12.7
 74
     0
 49
-2.54
 74
     0
 49
2.54
 74
     0
 49
-2.54
 74
     0
  0
LTYPE
  5
72
330
5
100
AcDbSymbolTableRecord
100
AcDbLinetypeTableRecord
  2
DOT2
 70
     0
  3
Dot (.5x) ........................................
 72
    65
 73
     2
 40
0.635
 49
0.0
 74
     0
 49
-0.635
 74
     0
  0
ENDTAB
  0
TABLE
  2
LAYER
  5
2
330
0
100
AcDbSymbolTable
 70
     1
  0
LAYER
  5
10
330
2
100
AcDbSymbolTableRecord
100
AcDbLayerTableRecord
  2
0
 70
     0
 62
     7
  6
Continuous
370
    -3
390
F
  0
ENDTAB
  0
TABLE
  2
STYLE
  5
3
330
0
100
AcDbSymbolTable
 70
     2
  0
STYLE
  5
11
330
3
100
AcDbSymbolTableRecord
100
AcDbTextStyleTableRecord
  2
Standard
 70
     0
 40
0.0
 41
1.0
 50
0.0
 71
     0
 42
3.5
  3
txt
  4
bigfont
  0
STYLE
  5
7B
330
3
100
AcDbSymbolTableRecord
100
AcDbTextStyleTableRecord
  2
SLDTEXTSTYLE0
 70
     0
 40
0.0
 41
0.7
 50
0.0
 71
     0
 42
3.5
  3
TXT
  4
bigfont
  0
ENDTAB
  0
TABLE
  2
VIEW
  5
6
330
0
100
AcDbSymbolTable
 70
     0
  0
ENDTAB
  0
TABLE
  2
UCS
  5
7
330
0
100
AcDbSymbolTable
 70
     0
  0
ENDTAB
  0
TABLE
  2
APPID
  5
9
330
0
100
AcDbSymbolTable
 70
     1
  0
APPID
  5
12
330
9
100
AcDbSymbolTableRecord
100
AcDbRegAppTableRecord
  2
ACAD
 70
     0
  0
ENDTAB
  0
TABLE
  2
DIMSTYLE
  5
A
330
0
100
AcDbSymbolTable
 70
     6
100
AcDbDimStyleTable
  0
DIMSTYLE
105
27
330
A
100
AcDbSymbolTableRecord
100
AcDbDimStyleTableRecord
  2
ISO-25
 70
     0
 41
2.5
 42
0.625
 43
3.75
 44
1.25
 73
     0
 74
     0
 77
     1
 78
     8
140
2.5
141
2.5
143
0.0393700787
147
0.625
171
     3
172
     1
178
     0
271
     2
272
     2
274
     3
278
    44
283
     0
284
     8
340
11
  0
DIMSTYLE
105
156
102
{ACAD_REACTORS
330
155
330
16E
330
179
330
190
102
}
330
A
100
AcDbSymbolTableRecord
100
AcDbDimStyleTableRecord
  2
SLDDIMSTYLE0
 70
     0
 41
3.0
 44
0.0
 45
0.000000001
 73
     0
 74
     0
 77
     3
 78
    12
 79
     3
140
3.5
147
0.875
173
     1
178
     0
271
     1
272
     3
276
     2
284
    12
340
7B
  0
DIMSTYLE
105
161
102
{ACAD_REACTORS
330
160
102
}
330
A
100
AcDbSymbolTableRecord
100
AcDbDimStyleTableRecord
  2
SLDDIMSTYLE1
 70
     0
 41
3.0
 44
0.0
 45
0.000000001
 73
     0
 74
     0
 77
     3
 78
    12
 79
     3
140
3.5
147
0.875
172
     1
173
     1
178
     0
271
     0
272
     3
276
     2
284
    12
289
     0
340
7B
  0
DIMSTYLE
105
184
102
{ACAD_REACTORS
330
183
330
19B
330
1A8
102
}
330
A
100
AcDbSymbolTableRecord
100
AcDbDimStyleTableRecord
  2
SLDDIMSTYLE2
 70
     0
 41
3.0
 44
0.0
 45
0.000000001
 73
     0
 74
     0
 77
     3
 78
    12
 79
     3
140
3.5
147
0.875
172
     1
173
     1
178
     0
271
     1
272
     3
276
     2
284
    12
289
     0
340
7B
  0
DIMSTYLE
105
1D9
102
{ACAD_REACTORS
330
1D8
102
}
330
A
100
AcDbSymbolTableRecord
100
AcDbDimStyleTableRecord
  2
SLDDIMSTYLE3
 70
     0
 41
3.0
 44
0.0
 45
0.000000001
 78
    12
 79
     3
140
3.5
141
0.0
147
0.875
173
     1
178
     0
271
     1
272
     3
276
     2
284
    12
340
7B
  0
DIMSTYLE
105
1E8
330
A
100
AcDbSymbolTableRecord
100
AcDbDimStyleTableRecord
  2
SLDDIMSTYLE4
 70
     0
 41
3.0
 44
0.0
 45
0.000000001
146
3.0
147
0.0
173
     1
178
     0
271
     0
272
     0
276
     2
340
11
  0
ENDTAB
  0
TABLE
  2
BLOCK_RECORD
  5
1
330
0
100
AcDbSymbolTable
 70
    12
  0
BLOCK_RECORD
  5
1F
330
1
100
AcDbSymbolTableRecord
100
AcDbBlockTableRecord
  2
*Model_Space
340
22
  0
BLOCK_RECORD
  5
1B
330
1
100
AcDbSymbolTableRecord
100
AcDbBlockTableRecord
  2
*Paper_Space
340
1E
  0
BLOCK_RECORD
  5
23
330
1
100
AcDbSymbolTableRecord
100
AcDbBlockTableRecord
  2
*Paper_Space0
340
26
  0
BLOCK_RECORD
  5
157
330
1
100
AcDbSymbolTableRecord
100
AcDbBlockTableRecord
  2
_D
340
0
  0
BLOCK_RECORD
  5
162
330
1
100
AcDbSymbolTableRecord
100
AcDbBlockTableRecord
  2
_D_1
340
0
  0
BLOCK_RECORD
  5
16F
330
1
100
AcDbSymbolTableRecord
100
AcDbBlockTableRecord
  2
_D_2
340
0
  0
BLOCK_RECORD
  5
17A
330
1
100
AcDbSymbolTableRecord
100
AcDbBlockTableRecord
  2
_D_3
340
0
  0
BLOCK_RECORD
  5
185
330
1
100
AcDbSymbolTableRecord
100
AcDbBlockTableRecord
  2
_D_4
340
0
  0
BLOCK_RECORD
  5
191
330
1
100
AcDbSymbolTableRecord
100
AcDbBlockTableRecord
  2
_D_5
340
0
  0
BLOCK_RECORD
  5
19C
330
1
100
AcDbSymbolTableRecord
100
AcDbBlockTableRecord
  2
_D_6
340
0
  0
BLOCK_RECORD
  5
1A9
330
1
100
AcDbSymbolTableRecord
100
AcDbBlockTableRecord
  2
_D_7
340
0
  0
BLOCK_RECORD
  5
1DA
330
1
100
AcDbSymbolTableRecord
100
AcDbBlockTableRecord
  2
_D_8
340
0
  0
BLOCK_RECORD
  5
1E2
330
1
100
AcDbSymbolTableRecord
100
AcDbBlockTableRecord
  2
SW_NOTE_0
340
0
102
{BLKREFS
331
1E7
102
}
  0
BLOCK_RECORD
  5
1EA
330
1
100
AcDbSymbolTableRecord
100
AcDbBlockTableRecord
  2
SW_CENTERMARKSYMBOL_0
340
0
102
{BLKREFS
331
1F5
102
}
  0
ENDTAB
  0
ENDSEC
  0
SECTION
  2
BLOCKS
  0
BLOCK
  5
20
330
1F
100
AcDbEntity
  8
0
100
AcDbBlockBegin
  2
*Model_Space
 70
     0
 10
0.0
 20
0.0
 30
0.0
  3
*Model_Space
  1

  0
ENDBLK
  5
21
330
1F
100
AcDbEntity
  8
0
100
AcDbBlockEnd
  0
BLOCK
  5
1C
330
1B
100
AcDbEntity
 67
     1
  8
0
100
AcDbBlockBegin
  2
*Paper_Space
 70
     0
 10
0.0
 20
0.0
 30
0.0
  3
*Paper_Space
  1

  0
ENDBLK
  5
1D
330
1B
100
AcDbEntity
 67
     1
  8
0
100
AcDbBlockEnd
  0
BLOCK
  5
24
330
23
100
AcDbEntity
  8
0
100
AcDbBlockBegin
  2
*Paper_Space0
 70
     0
 10
0.0
 20
0.0
 30
0.0
  3
*Paper_Space0
  1

  0
ENDBLK
  5
25
330
23
100
AcDbEntity
  8
0
100
AcDbBlockEnd
  0
BLOCK
  5
158
330
157
100
AcDbEntity
  8
0
100
AcDbBlockBegin
  2
_D
 70
     0
 10
0.0
 20
0.0
 30
0.0
  3
_D
  1

  0
SOLID
  5
15A
330
157
100
AcDbEntity
  8
0
  6
Continuous
 62
     7
370
    18
100
AcDbTrace
 10
139.1802776649
 20
133.5221475421
 30
0.0
 11
142.1802776649
 21
132.7721475421
 31
0.0
 12
142.1802776649
 22
134.2721475421
 32
0.0
 13
142.1802776649
 23
134.2721475421
 33
0.0
  0
SOLID
  5
15B
330
157
100
AcDbEntity
  8
0
  6
Continuous
 62
     7
370
    18
100
AcDbTrace
 10
157.1802776649
 20
133.5221475421
 30
0.0
 11
154.1802776649
 21
134.2721475421
 31
0.0
 12
154.1802776649
 22
132.7721475421
 32
0.0
 13
154.1802776649
 23
132.7721475421
 33
0.0
  0
LINE
  5
15C
330
157
100
AcDbEntity
  8
0
  6
Continuous
 62
     7
370
    18
100
AcDbLine
 10
139.1802776649
 20
146.3077093596
 30
0.0
 11
139.1802776649
 21
132.5221475421
 31
0.0
  0
LINE
  5
15D
330
157
100
AcDbEntity
  8
0
  6
Continuous
 62
     7
370
    18
100
AcDbLine
 10
157.1802776649
 20
149.0077093596
 30
0.0
 11
157.1802776649
 21
132.5221475421
 31
0.0
  0
LINE
  5
15E
330
157
100
AcDbEntity
  8
0
  6
Continuous
 62
     7
370
    18
100
AcDbLine
 10
139.1802776649
 20
133.5221475421
 30
0.0
 11
157.1802776649
 21
133.5221475421
 31
0.0
  0
MTEXT
  5
15F
330
157
100
AcDbEntity
  8
0
  6
Continuous
 62
     7
370
    18
100
AcDbMText
 10
146.1434721674
 20
138.0338843984
 30
0.0
 40
3.5
 41
0.0
 71
     1
 72
     1
  1
18
  7
SLDTEXTSTYLE0
 73
     1
 44
1.0
  0
ENDBLK
  5
159
330
157
100
AcDbEntity
  8
0
100
AcDbBlockEnd
  0
BLOCK
  5
163
330
162
100
AcDbEntity
  8
0
100
AcDbBlockBegin
  2
_D_1
 70
     0
 10
0.0
 20
0.0
 30
0.0
  3
_D_1
  1

  0
SOLID
  5
165
330
162
100
AcDbEntity
  8
0
  6
Continuous
 62
     7
370
    18
100
AcDbTrace
 10
166.0350951381
 20
157.4077093596
 30
0.0
 11
166.7850951381
 21
160.4077093596
 31
0.0
 12
165.2850951381
 22
160.4077093596
 32
0.0
 13
165.2850951381
 23
160.4077093596
 33
0.0
  0
SOLID
  5
166
330
162
100
AcDbEntity
  8
0
  6
Continuous
 62
     7
370
    18
100
AcDbTrace
 10
166.0350951381
 20
152.6077093596
 30
0.0
 11
165.2850951381
 21
149.6077093596
 31
0.0
 12
166.7850951381
 22
149.6077093596
 32
0.0
 13
166.7850951381
 23
149.6077093596
 33
0.0
  0
LINE
  5
167
330
162
100
AcDbEntity
  8
0
  6
Continuous
 62
     7
370
    18
100
AcDbLine
 10
159.6802776649
 20
157.4077093596
 30
0.0
 11
167.0350951381
 21
157.4077093596
 31
0.0
  0
LINE
  5
168
330
162
100
AcDbEntity
  8
0
  6
Continuous
 62
     7
370
    18
100
AcDbLine
 10
159.6802776649
 20
152.6077093596
 30
0.0
 11
167.0350951381
 21
152.6077093596
 31
0.0
  0
LINE
  5
169
330
162
100
AcDbEntity
  8
0
  6
Continuous
 62
     7
370
    18
100
AcDbLine
 10
166.0350951381
 20
157.4077093596
 30
0.0
 11
166.0350951381
 21
167.7890533934
 31
0.0
  0
LINE
  5
16A
330
162
100
AcDbEntity
  8
0
  6
Continuous
 62
     7
370
    18
100
AcDbLine
 10
166.0350951381
 20
157.4077093596
 30
0.0
 11
166.0350951381
 21
152.6077093596
 31
0.0
  0
LINE
  5
16B
330
162
100
AcDbEntity
  8
0
  6
Continuous
 62
     7
370
    18
100
AcDbLine
 10
166.0350951381
 20
152.6077093596
 30
0.0
 11
166.0350951381
 21
147.6077093596
 31
0.0
  0
MTEXT
  5
16C
330
162
100
AcDbEntity
  8
0
  6
Continuous
 62
     7
370
    18
100
AcDbMText
 10
161.523357816
 20
161.8823173809
 30
0.0
 40
3.5
 41
0.0
 71
     1
 72
     1
  1
%%c
  7
SLDTEXTSTYLE0
 11
-7.044195017643634E-15
 21
1.0
 31
0.0
 73
     1
 44
1.0
  0
MTEXT
  5
16D
330
162
100
AcDbEntity
  8
0
  6
Continuous
 62
     7
370
    18
100
AcDbMText
 10
161.523357816
 20
165.7522478959
 30
0.0
 40
3.5
 41
0.0
 71
     1
 72
     1
  1
5
  7
SLDTEXTSTYLE0
 11
-7.044195017643634E-15
 21
1.0
 31
0.0
 73
     1
 44
1.0
  0
ENDBLK
  5
164
330
162
100
AcDbEntity
  8
0
100
AcDbBlockEnd
  0
BLOCK
  5
170
330
16F
100
AcDbEntity
  8
0
100
AcDbBlockBegin
  2
_D_2
 70
     0
 10
0.0
 20
0.0
 30
0.0
  3
_D_2
  1

  0
SOLID
  5
172
330
16F
100
AcDbEntity
  8
0
  6
Continuous
 62
     7
370
    18
100
AcDbTrace
 10
173.9941449727
 20
161.0077093596
 30
0.0
 11
173.2441449727
 21
158.0077093596
 31
0.0
 12
174.7441449727
 22
158.0077093596
 32
0.0
 13
174.7441449727
 23
158.0077093596
 33
0.0
  0
SOLID
  5
173
330
16F
100
AcDbEntity
  8
0
  6
Continuous
 62
     7
370
    18
100
AcDbTrace
 10
173.9941449727
 20
149.0077093596
 30
0.0
 11
174.7441449727
 21
152.0077093596
 31
0.0
 12
173.2441449727
 22
152.0077093596
 32
0.0
 13
173.2441449727
 23
152.0077093596
 33
0.0
  0
LINE
  5
174
330
16F
100
AcDbEntity
  8
0
  6
Continuous
 62
     7
370
    18
100
AcDbLine
 10
157.1802776649
 20
161.0077093596
 30
0.0
 11
174.9941449727
 21
161.0077093596
 31
0.0
  0
LINE
  5
175
330
16F
100
AcDbEntity
  8
0
  6
Continuous
 62
     7
370
    18
100
AcDbLine
 10
157.1802776649
 20
149.0077093596
 30
0.0
 11
174.9941449727
 21
149.0077093596
 31
0.0
  0
LINE
  5
176
330
16F
100
AcDbEntity
  8
0
  6
Continuous
 62
     7
370
    18
100
AcDbLine
 10
173.9941449727
 20
161.0077093596
 30
0.0
 11
173.9941449727
 21
149.0077093596
 31
0.0
  0
MTEXT
  5
177
330
16F
100
AcDbEntity
  8
0
  6
Continuous
 62
     7
370
    18
100
AcDbMText
 10
169.4824076507
 20
151.0359384882
 30
0.0
 40
3.5
 41
0.0
 71
     1
 72
     1
  1
%%c
  7
SLDTEXTSTYLE0
 11
-7.044195017643634E-15
 21
1.0
 31
0.0
 73
     1
 44
1.0
  0
MTEXT
  5
178
330
16F
100
AcDbEntity
  8
0
  6
Continuous
 62
     7
370
    18
100
AcDbMText
 10
169.4824076507
 20
154.9058690032
 30
0.0
 40
3.5
 41
0.0
 71
     1
 72
     1
  1
12
  7
SLDTEXTSTYLE0
 11
-7.044195017643634E-15
 21
1.0
 31
0.0
 73
     1
 44
1.0
  0
ENDBLK
  5
171
330
16F
100
AcDbEntity
  8
0
100
AcDbBlockEnd
  0
BLOCK
  5
17B
330
17A
100
AcDbEntity
  8
0
100
AcDbBlockBegin
  2
_D_3
 70
     0
 10
0.0
 20
0.0
 30
0.0
  3
_D_3
  1

  0
SOLID
  5
17D
330
17A
100
AcDbEntity
  8
0
  6
Continuous
 62
     7
370
    18
100
AcDbTrace
 10
159.1802776649
 20
181.7633982712
 30
0.0
 11
156.1802776649
 21
182.5133982712
 31
0.0
 12
156.1802776649
 22
181.0133982712
 32
0.0
 13
156.1802776649
 23
181.0133982712
 33
0.0
  0
SOLID
  5
17E
330
17A
100
AcDbEntity
  8
0
  6
Continuous
 62
     7
370
    18
100
AcDbTrace
 10
109.6802776649
 20
181.7633982712
 30
0.0
 11
112.6802776649
 21
181.0133982712
 31
0.0
 12
112.6802776649
 22
182.5133982712
 32
0.0
 13
112.6802776649
 23
182.5133982712
 33
0.0
  0
LINE
  5
17F
330
17A
100
AcDbEntity
  8
0
  6
Continuous
 62
     7
370
    18
100
AcDbLine
 10
159.1802776649
 20
158.0077093596
 30
0.0
 11
159.1802776649
 21
182.7633982712
 31
0.0
  0
LINE
  5
180
330
17A
100
AcDbEntity
  8
0
  6
Continuous
 62
     7
370
    18
100
AcDbLine
 10
109.6802776649
 20
159.2077093596
 30
0.0
 11
109.6802776649
 21
182.7633982712
 31
0.0
  0
LINE
  5
181
330
17A
100
AcDbEntity
  8
0
  6
Continuous
 62
     7
370
    18
100
AcDbLine
 10
159.1802776649
 20
181.7633982712
 30
0.0
 11
109.6802776649
 21
181.7633982712
 31
0.0
  0
MTEXT
  5
182
330
17A
100
AcDbEntity
  8
0
  6
Continuous
 62
     7
370
    18
100
AcDbMText
 10
130.35666667
 20
186.2751351276
 30
0.0
 40
3.5
 41
0.0
 71
     1
 72
     1
  1
49.5
  7
SLDTEXTSTYLE0
 73
     1
 44
1.0
  0
ENDBLK
  5
17C
330
17A
100
AcDbEntity
  8
0
100
AcDbBlockEnd
  0
BLOCK
  5
186
330
185
100
AcDbEntity
  8
0
100
AcDbBlockBegin
  2
_D_4
 70
     0
 10
0.0
 20
0.0
 30
0.0
  3
_D_4
  1

  0
SOLID
  5
188
330
185
100
AcDbEntity
  8
0
  6
Continuous
 62
     7
370
    18
100
AcDbTrace
 10
109.6802776649
 20
170.2560345453
 30
0.0
 11
106.6802776649
 21
171.0060345453
 31
0.0
 12
106.6802776649
 22
169.5060345453
 32
0.0
 13
106.6802776649
 23
169.5060345453
 33
0.0
  0
SOLID
  5
189
330
185
100
AcDbEntity
  8
0
  6
Continuous
 62
     7
370
    18
100
AcDbTrace
 10
115.1802776649
 20
170.2560345453
 30
0.0
 11
118.1802776649
 21
169.5060345453
 31
0.0
 12
118.1802776649
 22
171.0060345453
 32
0.0
 13
118.1802776649
 23
171.0060345453
 33
0.0
  0
LINE
  5
18A
330
185
100
AcDbEntity
  8
0
  6
Continuous
 62
     7
370
    18
100
AcDbLine
 10
109.6802776649
 20
159.2077093596
 30
0.0
 11
109.6802776649
 21
171.2560345453
 31
0.0
  0
LINE
  5
18B
330
185
100
AcDbEntity
  8
0
  6
Continuous
 62
     7
370
    18
100
AcDbLine
 10
115.1802776649
 20
160.7077093596
 30
0.0
 11
115.1802776649
 21
171.2560345453
 31
0.0
  0
LINE
  5
18C
330
185
100
AcDbEntity
  8
0
  6
Continuous
 62
     7
370
    18
100
AcDbLine
 10
109.6802776649
 20
170.2560345453
 30
0.0
 11
104.6802776649
 21
170.2560345453
 31
0.0
  0
LINE
  5
18D
330
185
100
AcDbEntity
  8
0
  6
Continuous
 62
     7
370
    18
100
AcDbLine
 10
109.6802776649
 20
170.2560345453
 30
0.0
 11
115.1802776649
 21
170.2560345453
 31
0.0
  0
LINE
  5
18E
330
185
100
AcDbEntity
  8
0
  6
Continuous
 62
     7
370
    18
100
AcDbLine
 10
115.1802776649
 20
170.2560345453
 30
0.0
 11
126.755667411
 21
170.2560345453
 31
0.0
  0
MTEXT
  5
18F
330
185
100
AcDbEntity
  8
0
  6
Continuous
 62
     7
370
    18
100
AcDbMText
 10
120.6452506857
 20
174.7677714017
 30
0.0
 40
3.5
 41
0.0
 71
     1
 72
     1
  1
5.5
  7
SLDTEXTSTYLE0
 73
     1
 44
1.0
  0
ENDBLK
  5
187
330
185
100
AcDbEntity
  8
0
100
AcDbBlockEnd
  0
BLOCK
  5
192
330
191
100
AcDbEntity
  8
0
100
AcDbBlockBegin
  2
_D_5
 70
     0
 10
0.0
 20
0.0
 30
0.0
  3
_D_5
  1

  0
SOLID
  5
194
330
191
100
AcDbEntity
  8
0
  6
Continuous
 62
     7
370
    18
100
AcDbTrace
 10
125.1802776649
 20
133.5221475421
 30
0.0
 11
128.1802776649
 21
132.7721475421
 31
0.0
 12
128.1802776649
 22
134.2721475421
 32
0.0
 13
128.1802776649
 23
134.2721475421
 33
0.0
  0
SOLID
  5
195
330
191
100
AcDbEntity
  8
0
  6
Continuous
 62
     7
370
    18
100
AcDbTrace
 10
135.1802776649
 20
133.5221475421
 30
0.0
 11
132.1802776649
 21
134.2721475421
 31
0.0
 12
132.1802776649
 22
132.7721475421
 32
0.0
 13
132.1802776649
 23
132.7721475421
 33
0.0
  0
LINE
  5
196
330
191
100
AcDbEntity
  8
0
  6
Continuous
 62
     7
370
    18
100
AcDbLine
 10
125.1802776649
 20
150.5577093596
 30
0.0
 11
125.1802776649
 21
132.5221475421
 31
0.0
  0
LINE
  5
197
330
191
100
AcDbEntity
  8
0
  6
Continuous
 62
     7
370
    18
100
AcDbLine
 10
135.1802776649
 20
150.5577093596
 30
0.0
 11
135.1802776649
 21
132.5221475421
 31
0.0
  0
LINE
  5
198
330
191
100
AcDbEntity
  8
0
  6
Continuous
 62
     7
370
    18
100
AcDbLine
 10
125.1802776649
 20
133.5221475421
 30
0.0
 11
135.1802776649
 21
133.5221475421
 31
0.0
  0
MTEXT
  5
199
330
191
100
AcDbEntity
  8
0
  6
Continuous
 62
     7
370
    18
100
AcDbMText
 10
126.10666667
 20
138.0338843984
 30
0.0
 40
3.5
 41
0.0
 71
     1
 72
     1
  1
10
  7
SLDTEXTSTYLE0
 73
     1
 44
1.0
  0
MTEXT
  5
19A
330
191
100
AcDbEntity
  8
0
  6
Continuous
 62
     7
370
    18
100
AcDbMText
 10
130.1802776649
 20
138.0338843984
 30
0.0
 40
3.5
 41
0.0
 71
     1
 72
     1
  1
st
  7
SLDTEXTSTYLE0
 73
     1
 44
1.0
  0
ENDBLK
  5
193
330
191
100
AcDbEntity
  8
0
100
AcDbBlockEnd
  0
BLOCK
  5
19D
330
19C
100
AcDbEntity
  8
0
100
AcDbBlockBegin
  2
_D_6
 70
     0
 10
0.0
 20
0.0
 30
0.0
  3
_D_6
  1

  0
SOLID
  5
19F
330
19C
100
AcDbEntity
  8
0
  6
Continuous
 62
     7
370
    18
100
AcDbTrace
 10
101.0124988889
 20
158.5077093596
 30
0.0
 11
101.7624988889
 21
161.5077093596
 31
0.0
 12
100.2624988889
 22
161.5077093596
 32
0.0
 13
100.2624988889
 23
161.5077093596
 33
0.0
  0
SOLID
  5
1A0
330
19C
100
AcDbEntity
  8
0
  6
Continuous
 62
     7
370
    18
100
AcDbTrace
 10
101.0124988889
 20
151.5077093596
 30
0.0
 11
100.2624988889
 21
148.5077093596
 31
0.0
 12
101.7624988889
 22
148.5077093596
 32
0.0
 13
101.7624988889
 23
148.5077093596
 33
0.0
  0
LINE
  5
1A1
330
19C
100
AcDbEntity
  8
0
  6
Continuous
 62
     7
370
    18
100
AcDbLine
 10
108.9802776649
 20
158.5077093596
 30
0.0
 11
100.0124988889
 21
158.5077093596
 31
0.0
  0
LINE
  5
1A2
330
19C
100
AcDbEntity
  8
0
  6
Continuous
 62
     7
370
    18
100
AcDbLine
 10
108.9802776649
 20
151.5077093596
 30
0.0
 11
100.0124988889
 21
151.5077093596
 31
0.0
  0
LINE
  5
1A3
330
19C
100
AcDbEntity
  8
0
  6
Continuous
 62
     7
370
    18
100
AcDbLine
 10
101.0124988889
 20
158.5077093596
 30
0.0
 11
101.0124988889
 21
163.5077093596
 31
0.0
  0
LINE
  5
1A4
330
19C
100
AcDbEntity
  8
0
  6
Continuous
 62
     7
370
    18
100
AcDbLine
 10
101.0124988889
 20
158.5077093596
 30
0.0
 11
101.0124988889
 21
151.5077093596
 31
0.0
  0
LINE
  5
1A5
330
19C
100
AcDbEntity
  8
0
  6
Continuous
 62
     7
370
    18
100
AcDbLine
 10
101.0124988889
 20
151.5077093596
 30
0.0
 11
101.0124988889
 21
146.5077093596
 31
0.0
  0
MTEXT
  5
1A6
330
19C
100
AcDbEntity
  8
0
  6
Continuous
 62
     7
370
    18
100
AcDbMText
 10
96.5007615669
 20
152.0543413533
 30
0.0
 40
3.5
 41
0.0
 71
     1
 72
     1
  1
%%c
  7
SLDTEXTSTYLE0
 11
-7.044195017643634E-15
 21
1.0
 31
0.0
 73
     1
 44
1.0
  0
MTEXT
  5
1A7
330
19C
100
AcDbEntity
  8
0
  6
Continuous
 62
     7
370
    18
100
AcDbMText
 10
96.5007615669
 20
155.9242718684
 30
0.0
 40
3.5
 41
0.0
 71
     1
 72
     1
  1
7
  7
SLDTEXTSTYLE0
 11
-7.044195017643634E-15
 21
1.0
 31
0.0
 73
     1
 44
1.0
  0
ENDBLK
  5
19E
330
19C
100
AcDbEntity
  8
0
100
AcDbBlockEnd
  0
BLOCK
  5
1AA
330
1A9
100
AcDbEntity
  8
0
100
AcDbBlockBegin
  2
_D_7
 70
     0
 10
0.0
 20
0.0
 30
0.0
  3
_D_7
  1

  0
SOLID
  5
1AC
330
1A9
100
AcDbEntity
  8
0
  6
Continuous
 62
     7
370
    18
100
AcDbTrace
 10
93.6802776649
 20
160.0077093596
 30
0.0
 11
94.4302776649
 21
163.0077093596
 31
0.0
 12
92.9302776649
 22
163.0077093596
 32
0.0
 13
92.9302776649
 23
163.0077093596
 33
0.0
  0
SOLID
  5
1AD
330
1A9
100
AcDbEntity
  8
0
  6
Continuous
 62
     7
370
    18
100
AcDbTrace
 10
93.6802776649
 20
150.0077093596
 30
0.0
 11
92.9302776649
 21
147.0077093596
 31
0.0
 12
94.4302776649
 22
147.0077093596
 32
0.0
 13
94.4302776649
 23
147.0077093596
 33
0.0
  0
LINE
  5
1AE
330
1A9
100
AcDbEntity
  8
0
  6
Continuous
 62
     7
370
    18
100
AcDbLine
 10
114.4802776649
 20
160.0077093596
 30
0.0
 11
92.6802776649
 21
160.0077093596
 31
0.0
  0
LINE
  5
1AF
330
1A9
100
AcDbEntity
  8
0
  6
Continuous
 62
     7
370
    18
100
AcDbLine
 10
114.4802776649
 20
150.0077093596
 30
0.0
 11
92.6802776649
 21
150.0077093596
 31
0.0
  0
LINE
  5
1B0
330
1A9
100
AcDbEntity
  8
0
  6
Continuous
 62
     7
370
    18
100
AcDbLine
 10
93.6802776649
 20
160.0077093596
 30
0.0
 11
93.6802776649
 21
165.0077093596
 31
0.0
  0
LINE
  5
1B1
330
1A9
100
AcDbEntity
  8
0
  6
Continuous
 62
     7
370
    18
100
AcDbLine
 10
93.6802776649
 20
160.0077093596
 30
0.0
 11
93.6802776649
 21
150.0077093596
 31
0.0
  0
LINE
  5
1B2
330
1A9
100
AcDbEntity
  8
0
  6
Continuous
 62
     7
370
    18
100
AcDbLine
 10
93.6802776649
 20
150.0077093596
 30
0.0
 11
93.6802776649
 21
145.0077093596
 31
0.0
  0
MTEXT
  5
1B3
330
1A9
100
AcDbEntity
  8
0
  6
Continuous
 62
     7
370
    18
100
AcDbMText
 10
89.1685403429
 20
151.0359384882
 30
0.0
 40
3.5
 41
0.0
 71
     1
 72
     1
  1
%%c
  7
SLDTEXTSTYLE0
 11
-6.156016597943509E-15
 21
1.0
 31
0.0
 73
     1
 44
1.0
  0
MTEXT
  5
1B4
330
1A9
100
AcDbEntity
  8
0
  6
Continuous
 62
     7
370
    18
100
AcDbMText
 10
89.1685403429
 20
154.9058690032
 30
0.0
 40
3.5
 41
0.0
 71
     1
 72
     1
  1
10
  7
SLDTEXTSTYLE0
 11
-6.156016597943509E-15
 21
1.0
 31
0.0
 73
     1
 44
1.0
  0
ENDBLK
  5
1AB
330
1A9
100
AcDbEntity
  8
0
100
AcDbBlockEnd
  0
BLOCK
  5
1DB
330
1DA
100
AcDbEntity
  8
0
100
AcDbBlockBegin
  2
_D_8
 70
     0
 10
0.0
 20
0.0
 30
0.0
  3
_D_8
  1

  0
SOLID
  5
1DD
330
1DA
100
AcDbEntity
  8
0
  6
Continuous
 62
     7
370
    18
100
AcDbTrace
 10
64.9563729783
 20
161.5821219014
 30
0.0
 11
63.8634027538
 21
164.4748569546
 31
0.0
 12
62.6307004022
 22
163.6201962544
 32
0.0
 13
62.6307004022
 23
163.6201962544
 33
0.0
  0
LINE
  5
1DE
330
1DA
100
AcDbEntity
  8
0
  6
Continuous
 62
     7
370
    18
100
AcDbLine
 10
64.9563729783
 20
161.5821219014
 30
0.0
 11
59.4574590221
 21
169.5133677906
 31
0.0
  0
LINE
  5
1DF
330
1DA
100
AcDbEntity
  8
0
  6
Continuous
 62
     7
370
    18
100
AcDbLine
 10
59.4574590221
 20
169.5133677906
 30
0.0
 11
49.9264172792
 21
169.5133677906
 31
0.0
  0
MTEXT
  5
1E0
330
1DA
100
AcDbEntity
  8
0
  6
Continuous
 62
     7
370
    18
100
AcDbMText
 10
49.9264172792
 20
174.0251051127
 30
0.0
 40
3.5
 41
0.0
 71
     1
 72
     1
  1
%%c
  7
SLDTEXTSTYLE0
 73
     1
 44
1.0
  0
MTEXT
  5
1E1
330
1DA
100
AcDbEntity
  8
0
  6
Continuous
 62
     7
370
    18
100
AcDbMText
 10
53.7963477943
 20
174.0251051127
 30
0.0
 40
3.5
 41
0.0
 71
     1
 72
     1
  1
16
  7
SLDTEXTSTYLE0
 73
     1
 44
1.0
  0
ENDBLK
  5
1DC
330
1DA
100
AcDbEntity
  8
0
100
AcDbBlockEnd
  0
BLOCK
  5
1E3
330
1E2
100
AcDbEntity
  8
0
100
AcDbBlockBegin
  2
SW_NOTE_0
 70
     0
 10
0.0
 20
0.0
 30
0.0
  3
SW_NOTE_0
  1

  0
LINE
  5
1E5
330
1E2
100
AcDbEntity
  8
0
  6
Continuous
 62
     0
370
     0
100
AcDbLine
 10
-34.7488468651
 20
0.0
 30
0.0
 11
0.0
 21
0.0
 31
0.0
  0
MTEXT
  5
1E6
330
1E2
100
AcDbEntity
  8
0
  6
Continuous
 62
     0
370
     0
100
AcDbMText
 10
-35.2483502596
 20
4.6187665409
 30
0.0
 40
3.5
 41
0.0
 71
     1
 72
     1
  1
外径φ6配管用継手
  7
SLDTEXTSTYLE0
 73
     1
 44
1.0
  0
ENDBLK
  5
1E4
330
1E2
100
AcDbEntity
  8
0
100
AcDbBlockEnd
  0
BLOCK
  5
1EB
330
1EA
100
AcDbEntity
  8
0
100
AcDbBlockBegin
  2
SW_CENTERMARKSYMBOL_0
 70
     0
 10
0.0
 20
0.0
 30
0.0
  3
SW_CENTERMARKSYMBOL_0
  1

  0
LINE
  5
1ED
330
1EA
100
AcDbEntity
  8
0
  6
Continuous
 62
     0
370
    18
100
AcDbLine
 10
0.0
 20
0.0
 30
0.0
 11
0.0
 21
2.5
 31
0.0
  0
LINE
  5
1EE
330
1EA
100
AcDbEntity
  8
0
  6
Continuous
 62
     0
370
    18
100
AcDbLine
 10
0.0
 20
0.0
 30
0.0
 11
-2.5
 21
0.0
 31
0.0
  0
LINE
  5
1EF
330
1EA
100
AcDbEntity
  8
0
  6
Continuous
 62
     0
370
    18
100
AcDbLine
 10
0.0
 20
0.0
 30
0.0
 11
0.0
 21
-2.5
 31
0.0
  0
LINE
  5
1F0
330
1EA
100
AcDbEntity
  8
0
  6
Continuous
 62
     0
370
    18
100
AcDbLine
 10
0.0
 20
0.0
 30
0.0
 11
2.5
 21
0.0
 31
0.0
  0
LINE
  5
1F1
330
1EA
100
AcDbEntity
  8
0
  6
Continuous
 62
     0
370
    18
100
AcDbLine
 10
0.0
 20
2.5
 30
0.0
 11
0.0
 21
10.2661565902
 31
0.0
  0
LINE
  5
1F2
330
1EA
100
AcDbEntity
  8
0
  6
Continuous
 62
     0
370
    18
100
AcDbLine
 10
-2.5
 20
0.0
 30
0.0
 11
-9.9259415261
 21
0.0
 31
0.0
  0
LINE
  5
1F3
330
1EA
100
AcDbEntity
  8
0
  6
Continuous
 62
     0
370
    18
100
AcDbLine
 10
0.0
 20
-2.5
 30
0.0
 11
0.0
 21
-15.3684176592
 31
0.0
  0
LINE
  5
1F4
330
1EA
100
AcDbEntity
  8
0
  6
Continuous
 62
     0
370
    18
100
AcDbLine
 10
2.5
 20
0.0
 30
0.0
 11
9.1805734423
 21
0.0
 31
0.0
  0
ENDBLK
  5
1EC
330
1EA
100
AcDbEntity
  8
0
100
AcDbBlockEnd
  0
ENDSEC
  0
SECTION
  2
ENTITIES
  0
LINE
  5
73
330
1F
100
AcDbEntity
  8
0
  6
Continuous
 62
     7
370
    18
100
AcDbLine
 10
20.2604743903
 20
285.0
 30
0.0
 11
196.7604743903
 21
285.0
 31
0.0
  0
LINE
  5
74
330
1F
100
AcDbEntity
  8
0
  6
Continuous
 62
     7
370
    18
100
AcDbLine
 10
20.2604743903
 20
285.0
 30
0.0
 11
20.2604743903
 21
10.0
 31
0.0
  0
LINE
  5
75
330
1F
100
AcDbEntity
  8
0
  6
Continuous
 62
     7
370
    18
100
AcDbLine
 10
20.2604743903
 20
10.0
 30
0.0
 11
196.7604743903
 21
10.0
 31
0.0
  0
LINE
  5
76
330
1F
100
AcDbEntity
  8
0
  6
Continuous
 62
     7
370
    18
100
AcDbLine
 10
196.7604743903
 20
285.0
 30
0.0
 11
196.7604743903
 21
10.0
 31
0.0
  0
LINE
  5
77
330
1F
100
AcDbEntity
  8
0
  6
Continuous
 62
     7
370
    18
100
AcDbLine
 10
127.0104743903
 20
50.75
 30
0.0
 11
196.7604743903
 21
50.75
 31
0.0
  0
LINE
  5
78
330
1F
100
AcDbEntity
  8
0
  6
Continuous
 62
     7
370
    18
100
AcDbLine
 10
127.0104743903
 20
50.75
 30
0.0
 11
127.0104743903
 21
10.0
 31
0.0
  0
LINE
  5
79
330
1F
100
AcDbEntity
  8
0
  6
Continuous
 62
     7
370
    18
100
AcDbLine
 10
127.0104743903
 20
22.75
 30
0.0
 11
196.7604743903
 21
22.75
 31
0.0
  0
LINE
  5
7A
330
1F
100
AcDbEntity
  8
0
  6
Continuous
 62
     7
370
    18
100
AcDbLine
 10
127.0104743903
 20
36.75
 30
0.0
 11
196.7604743903
 21
36.75
 31
0.0
  0
MTEXT
  5
7C
330
1F
100
AcDbEntity
  8
0
  6
Continuous
 62
     7
370
     0
100
AcDbMText
 10
162.0148229916
 20
30.4171582345
 30
0.0
 40
4.2333333333
 41
0.0
 71
     2
 72
     1
  1
VFILP-SS-10-P12
  7
SLDTEXTSTYLE0
 73
     1
 44
1.0
  0
MTEXT
  5
7D
330
1F
100
AcDbEntity
  8
0
  6
Continuous
 62
     7
370
     0
100
AcDbMText
 10
161.0903525561
 20
43.9409718514
 30
0.0
 40
4.2333333333
 41
0.0
 71
     2
 72
     1
  1
吸着樹脂具・ミニ用
  7
SLDTEXTSTYLE0
 73
     1
 44
1.0
  0
MTEXT
  5
7E
330
1F
100
AcDbEntity
  8
0
  6
Continuous
 62
     7
370
     0
100
AcDbMText
 10
163.1170109519
 20
16.8228189052
 30
0.0
 40
4.2333333333
 41
0.0
 71
     2
 72
     1
  1
211106
  7
SLDTEXTSTYLE0
 73
     1
 44
1.0
  0
LINE
  5
7F
330
1F
100
AcDbEntity
  8
0
  6
Continuous
 62
     7
370
    18
100
AcDbLine
 10
157.2802780762
 20
151.5077092918
 30
0.0
 11
157.880277057
 21
151.5077092918
 31
0.0
  0
LINE
  5
80
330
1F
100
AcDbEntity
  8
0
  6
Continuous
 62
     7
370
    18
100
AcDbLine
 10
157.880277057
 20
157.1694904706
 30
0.0
 11
157.2802780762
 21
157.1694904706
 31
0.0
  0
LINE
  5
81
330
1F
100
AcDbEntity
  8
0
  6
Continuous
 62
     7
370
    18
100
AcDbLine
 10
157.880277057
 20
157.9429149861
 30
0.0
 11
157.2802780762
 21
157.9429149861
 31
0.0
  0
ARC
  5
82
330
1F
100
AcDbEntity
  8
0
  6
Continuous
 62
     7
370
    18
100
AcDbCircle
 10
122.8802776649
 20
160.7077093596
 30
0.0
 40
0.3000000000000114
100
AcDbArc
 50
0.0
 51
90.0
  0
ARC
  5
83
330
1F
100
AcDbEntity
  8
0
  6
Continuous
 62
     7
370
    18
100
AcDbCircle
 10
122.8802776649
 20
149.3077093596
 30
0.0
 40
0.3000000000000114
100
AcDbArc
 50
270.0
 51
0.0
  0
LINE
  5
84
330
1F
100
AcDbEntity
  8
0
  6
Continuous
 62
     7
370
    18
100
AcDbLine
 10
122.8802778393
 20
161.007709452
 30
0.0
 11
121.4802774235
 21
161.007709452
 31
0.0
  0
LINE
  5
85
330
1F
100
AcDbEntity
  8
0
  6
Continuous
 62
     7
370
    18
100
AcDbLine
 10
121.6300936982
 20
149.0077093477
 30
0.0
 11
122.8802778393
 21
149.0077093477
 31
0.0
  0
ARC
  5
86
330
1F
100
AcDbEntity
  8
0
  6
Continuous
 62
     7
370
    18
100
AcDbCircle
 10
121.4802776649
 20
160.7077093596
 30
0.0
 40
0.3000000000000114
100
AcDbArc
 50
90.0
 51
180.0
  0
LINE
  5
87
330
1F
100
AcDbEntity
  8
0
  6
Continuous
 62
     7
370
    18
100
AcDbLine
 10
124.8802772358
 20
158.757709316
 30
0.0
 11
124.7574115738
 21
158.757709316
 31
0.0
  0
LINE
  5
88
330
1F
100
AcDbEntity
  8
0
  6
Continuous
 62
     7
370
    18
100
AcDbLine
 10
124.2561160221
 20
158.757709316
 30
0.0
 11
123.1802773296
 21
158.757709316
 31
0.0
  0
LINE
  5
89
330
1F
100
AcDbEntity
  8
0
  6
Continuous
 62
     7
370
    18
100
AcDbLine
 10
123.1802773296
 20
151.2577092508
 30
0.0
 11
124.8802772358
 21
151.2577092508
 31
0.0
  0
ARC
  5
8A
330
1F
100
AcDbEntity
  8
0
  6
Continuous
 62
     7
370
    18
100
AcDbCircle
 10
124.8802776649
 20
158.4577093596
 30
0.0
 40
0.3000000000000256
100
AcDbArc
 50
0.0
 51
90.0
  0
LWPOLYLINE
  5
8B
330
1F
100
AcDbEntity
  8
0
  6
Continuous
 62
     7
370
    18
100
AcDbPolyline
 90
        3
 70
   128
 43
0.0
 10
124.8802772358
 20
151.2577092508
 10
124.9388052716
 20
151.2634736719
 10
124.944750835
 20
151.2647193158
  0
ARC
  5
8C
330
1F
100
AcDbEntity
  8
0
  6
Continuous
 62
     7
370
    18
100
AcDbCircle
 10
115.4802776649
 20
159.7077093596
 30
0.0
 40
0.3000000000000114
100
AcDbArc
 50
90.0
 51
180.0
  0
LINE
  5
8D
330
1F
100
AcDbEntity
  8
0
  6
Continuous
 62
     7
370
    18
100
AcDbLine
 10
121.1802779331
 20
158.757709316
 30
0.0
 11
117.1802772775
 21
158.757709316
 31
0.0
  0
ARC
  5
8E
330
1F
100
AcDbEntity
  8
0
  6
Continuous
 62
     7
370
    18
100
AcDbCircle
 10
116.8802776649
 20
159.7077093596
 30
0.0
 40
0.3000000000000114
100
AcDbArc
 50
0.0
 51
90.0
  0
LINE
  5
8F
330
1F
100
AcDbEntity
  8
0
  6
Continuous
 62
     7
370
    18
100
AcDbLine
 10
115.480277837
 20
150.0077095116
 30
0.0
 11
116.7320531427
 21
150.0077095116
 31
0.0
  0
ARC
  5
90
330
1F
100
AcDbEntity
  8
0
  6
Continuous
 62
     7
370
    18
100
AcDbCircle
 10
115.4802776649
 20
150.3077093596
 30
0.0
 40
0.3000000000000114
100
AcDbArc
 50
180.0
 51
270.0
  0
LINE
  5
91
330
1F
100
AcDbEntity
  8
0
  6
Continuous
 62
     7
370
    18
100
AcDbLine
 10
116.8802777871
 20
160.0077092881
 30
0.0
 11
115.480277837
 21
160.0077092881
 31
0.0
  0
ARC
  5
92
330
1F
100
AcDbEntity
  8
0
  6
Continuous
 62
     7
370
    18
100
AcDbCircle
 10
109.9802776649
 20
151.8077093596
 30
0.0
 40
0.3000000000000114
100
AcDbArc
 50
180.0
 51
270.0
  0
ARC
  5
93
330
1F
100
AcDbEntity
  8
0
  6
Continuous
 62
     7
370
    18
100
AcDbCircle
 10
109.9802776649
 20
158.2077093596
 30
0.0
 40
0.3000000000000114
100
AcDbArc
 50
90.0
 51
180.0
  0
LINE
  5
94
330
1F
100
AcDbEntity
  8
0
  6
Continuous
 62
     7
370
    18
100
AcDbLine
 10
111.3802775841
 20
158.507709275
 30
0.0
 11
109.980277634
 21
158.507709275
 31
0.0
  0
LINE
  5
95
330
1F
100
AcDbEntity
  8
0
  6
Continuous
 62
     7
370
    18
100
AcDbLine
 10
109.980277634
 20
151.5077092918
 30
0.0
 11
111.3802775841
 21
151.5077092918
 31
0.0
  0
ARC
  5
96
330
1F
100
AcDbEntity
  8
0
  6
Continuous
 62
     7
370
    18
100
AcDbCircle
 10
111.3802776649
 20
158.2077093596
 30
0.0
 40
0.3000000000000114
100
AcDbArc
 50
0.0
 51
90.0
  0
ARC
  5
97
330
1F
100
AcDbEntity
  8
0
  6
Continuous
 62
     7
370
    18
100
AcDbCircle
 10
111.3802776649
 20
151.8077093596
 30
0.0
 40
0.3000000000000114
100
AcDbArc
 50
270.0
 51
0.0
  0
ARC
  5
98
330
1F
100
AcDbEntity
  8
0
  6
Continuous
 62
     7
370
    18
100
AcDbCircle
 10
158.1802776649
 20
152.8077093596
 30
0.0
 40
0.2999999999999829
100
AcDbArc
 50
180.0
 51
221.8399063145
  0
ARC
  5
99
330
1F
100
AcDbEntity
  8
0
  6
Continuous
 62
     7
370
    18
100
AcDbCircle
 10
158.1802776649
 20
157.2077093596
 30
0.0
 40
0.3000000000000082
100
AcDbArc
 50
138.1839398833
 51
180.0
  0
LINE
  5
9A
330
1F
100
AcDbEntity
  8
0
  6
Continuous
 62
     7
370
    18
100
AcDbLine
 10
158.7802773907
 20
152.6077092858
 30
0.0
 11
159.1802767112
 21
153.0077093048
 31
0.0
  0
LINE
  5
9B
330
1F
100
AcDbEntity
  8
0
  6
Continuous
 62
     7
370
    18
100
AcDbLine
 10
159.1802767112
 20
157.007709262
 30
0.0
 11
158.7802773907
 21
157.407709281
 31
0.0
  0
LINE
  5
9C
330
1F
100
AcDbEntity
  8
0
  6
Continuous
 62
     7
370
    18
100
AcDbLine
 10
116.6802781269
 20
143.2077094214
 30
0.0
 11
117.1802772775
 21
140.7077090117
 31
0.0
  0
LINE
  5
9D
330
1F
100
AcDbEntity
  8
0
  6
Continuous
 62
     7
370
    18
100
AcDbLine
 10
121.1802779331
 20
140.7077090117
 30
0.0
 11
121.6802780151
 21
143.2077094214
 31
0.0
  0
LINE
  5
9E
330
1F
100
AcDbEntity
  8
0
  6
Continuous
 62
     7
370
    18
100
AcDbLine
 10
116.6802781269
 20
145.7077088999
 30
0.0
 11
117.1802772775
 21
143.2077094214
 31
0.0
  0
LINE
  5
9F
330
1F
100
AcDbEntity
  8
0
  6
Continuous
 62
     7
370
    18
100
AcDbLine
 10
121.1802779331
 20
143.2077094214
 30
0.0
 11
121.6802780151
 21
145.7077088999
 31
0.0
  0
LINE
  5
A0
330
1F
100
AcDbEntity
  8
0
  6
Continuous
 62
     7
370
    18
100
AcDbLine
 10
115.180277881
 20
157.507709344
 30
0.0
 11
111.680277773
 21
157.507709344
 31
0.0
  0
LINE
  5
A1
330
1F
100
AcDbEntity
  8
0
  6
Continuous
 62
     7
370
    18
100
AcDbLine
 10
111.680277773
 20
152.5077094557
 30
0.0
 11
115.180277881
 21
152.5077094557
 31
0.0
  0
LINE
  5
A2
330
1F
100
AcDbEntity
  8
0
  6
Continuous
 62
     7
370
    18
100
AcDbLine
 10
117.0302775323
 20
149.7085966403
 30
0.0
 11
117.0302775323
 21
145.7077088999
 31
0.0
  0
LINE
  5
A3
330
1F
100
AcDbEntity
  8
0
  6
Continuous
 62
     7
370
    18
100
AcDbLine
 10
121.3302776783
 20
145.7077088999
 30
0.0
 11
121.3302776783
 21
148.7078062492
 31
0.0
  0
LINE
  5
A4
330
1F
100
AcDbEntity
  8
0
  6
Continuous
 62
     7
370
    18
100
AcDbLine
 10
157.2802780762
 20
156.5077094129
 30
0.0
 11
157.1802763834
 21
156.5077094129
 31
0.0
  0
LINE
  5
A5
330
1F
100
AcDbEntity
  8
0
  6
Continuous
 62
     7
370
    18
100
AcDbLine
 10
157.1802763834
 20
153.5077093868
 30
0.0
 11
157.2802780762
 21
153.5077093868
 31
0.0
  0
ARC
  5
A6
330
1F
100
AcDbEntity
  8
0
  6
Continuous
 62
     7
370
    18
100
AcDbCircle
 10
121.6302776649
 20
148.7077093596
 30
0.0
 40
0.3000000000000022
100
AcDbArc
 50
90.0540651112
 51
180.0149164704
  0
ARC
  5
A7
330
1F
100
AcDbEntity
  8
0
  6
Continuous
 62
     7
370
    18
100
AcDbCircle
 10
116.7302776649
 20
149.7077093596
 30
0.0
 40
0.3000000000000079
100
AcDbArc
 50
0.2407636824
 51
89.7046399123
  0
LINE
  5
A8
330
1F
100
AcDbEntity
  8
0
  6
Continuous
 62
     7
370
    18
100
AcDbLine
 10
137.4802781835
 20
163.0077093142
 30
0.0
 11
137.1802768305
 21
162.7077093581
 31
0.0
  0
LINE
  5
A9
330
1F
100
AcDbEntity
  8
0
  6
Continuous
 62
     7
370
    18
100
AcDbLine
 10
137.1802768305
 20
147.3077094416
 30
0.0
 11
137.4802781835
 21
147.0077094855
 31
0.0
  0
LINE
  5
AA
330
1F
100
AcDbEntity
  8
0
  6
Continuous
 62
     7
370
    18
100
AcDbLine
 10
138.8802776679
 20
163.0077093142
 30
0.0
 11
137.4802781835
 21
163.0077093142
 31
0.0
  0
LINE
  5
AB
330
1F
100
AcDbEntity
  8
0
  6
Continuous
 62
     7
370
    18
100
AcDbLine
 10
137.4802781835
 20
147.0077094855
 30
0.0
 11
138.8802776679
 21
147.0077094855
 31
0.0
  0
LINE
  5
AC
330
1F
100
AcDbEntity
  8
0
  6
Continuous
 62
     7
370
    18
100
AcDbLine
 10
138.8802776679
 20
147.0077094855
 30
0.0
 11
139.1802771583
 21
147.3077094416
 31
0.0
  0
LINE
  5
AD
330
1F
100
AcDbEntity
  8
0
  6
Continuous
 62
     7
370
    18
100
AcDbLine
 10
139.1802771583
 20
162.7077093581
 30
0.0
 11
138.8802776679
 21
163.0077093142
 31
0.0
  0
LINE
  5
AE
330
1F
100
AcDbEntity
  8
0
  6
Continuous
 62
     7
370
    18
100
AcDbLine
 10
156.1802780822
 20
149.0077093477
 30
0.0
 11
157.1802763834
 21
150.0077095116
 31
0.0
  0
LINE
  5
AF
330
1F
100
AcDbEntity
  8
0
  6
Continuous
 62
     7
370
    18
100
AcDbLine
 10
157.1802763834
 20
160.0077092881
 30
0.0
 11
156.1802780822
 21
161.007709452
 31
0.0
  0
LINE
  5
B0
330
1F
100
AcDbEntity
  8
0
  6
Continuous
 62
     7
370
    18
100
AcDbLine
 10
156.1802780822
 20
161.007709452
 30
0.0
 11
139.1802771583
 21
161.007709452
 31
0.0
  0
LINE
  5
B1
330
1F
100
AcDbEntity
  8
0
  6
Continuous
 62
     7
370
    18
100
AcDbLine
 10
139.1802771583
 20
149.0077093477
 30
0.0
 11
156.1802780822
 21
149.0077093477
 31
0.0
  0
LINE
  5
B2
330
1F
100
AcDbEntity
  8
0
  6
Continuous
 62
     7
370
    18
100
AcDbLine
 10
137.1802768305
 20
158.757709316
 30
0.0
 11
136.7553981587
 21
158.757709316
 31
0.0
  0
LINE
  5
B3
330
1F
100
AcDbEntity
  8
0
  6
Continuous
 62
     7
370
    18
100
AcDbLine
 10
136.2561664179
 20
158.757709316
 30
0.0
 11
135.4802778557
 21
158.757709316
 31
0.0
  0
LINE
  5
B4
330
1F
100
AcDbEntity
  8
0
  6
Continuous
 62
     7
370
    18
100
AcDbLine
 10
135.4802778557
 20
151.2577092508
 30
0.0
 11
137.1802768305
 21
151.2577092508
 31
0.0
  0
LINE
  5
B5
330
1F
100
AcDbEntity
  8
0
  6
Continuous
 62
     7
370
    18
100
AcDbLine
 10
135.4802778557
 20
158.757709316
 30
0.0
 11
135.1802783653
 21
158.45770936
 31
0.0
  0
LINE
  5
B6
330
1F
100
AcDbEntity
  8
0
  6
Continuous
 62
     7
370
    18
100
AcDbLine
 10
135.4405830249
 20
151.2974040816
 30
0.0
 11
135.4802778557
 21
151.2577092508
 31
0.0
  0
SPLINE
  5
B7
330
1F
100
AcDbEntity
  8
0
  6
Continuous
 62
     7
370
    18
100
AcDbSpline
210
0.0
220
0.0
230
1.0
 70
     8
 71
     3
 72
    35
 73
    31
 74
     0
 42
0.000000001
 43
0.00000001
 40
0.0
 40
0.0
 40
0.0
 40
0.0
 40
0.0014409127187376
 40
0.0197315940000467
 40
0.0456895430506065
 40
0.0732232839071025
 40
0.1077686551447659
 40
0.1493615397219738
 40
0.1979882838240399
 40
0.2536035511522837
 40
0.3086270765791286
 40
0.3561091170365326
 40
0.3959519233955833
 40
0.4280918108693055
 40
0.4533929090946565
 40
0.4813812418405095
 40
0.5146647549879418
 40
0.553275056514741
 40
0.5953946978866591
 40
0.6383067549971243
 40
0.6819666894101685
 40
0.7263981147375155
 40
0.7716741748223224
 40
0.8158251252853027
 40
0.8559751960138222
 40
0.8921118767045132
 40
0.9242555710095254
 40
0.9560245904796063
 40
0.976258779827415
 40
1.0
 40
1.0
 40
1.0
 40
1.0
 10
124.1861383065218
 20
159.0818396071422
 30
0.0
 10
124.1859230900205
 20
159.0820477299414
 30
0.0
 10
124.1829759547986
 20
159.0848977253106
 30
0.0
 10
124.1912197503962
 20
159.0666630706116
 30
0.0
 10
124.205544385365
 20
159.0151492736462
 30
0.0
 10
124.2301198315172
 20
158.9087865690887
 30
0.0
 10
124.260347064927
 20
158.7403533746226
 30
0.0
 10
124.2986168908792
 20
158.477912460855
 30
0.0
 10
124.3442822517583
 20
158.09769546012
 30
0.0
 10
124.3949634921107
 20
157.5986798409083
 30
0.0
 10
124.44547786949
 20
157.0291691289564
 30
0.0
 10
124.4909684888908
 20
156.4719957524607
 30
0.0
 10
124.5292054687914
 20
155.9813741042928
 30
0.0
 10
124.5603888802359
 20
155.5714329630533
 30
0.0
 10
124.5878067215341
 20
155.2070731052654
 30
0.0
 10
124.6156041359861
 20
154.8360711951179
 30
0.0
 10
124.6476761598621
 20
154.4092508596965
 30
0.0
 10
124.6842585629867
 20
153.9291316611716
 30
0.0
 10
124.7239084926705
 20
153.4240433455873
 30
0.0
 10
124.7652381477899
 20
152.923088671356
 30
0.0
 10
124.807437428666
 20
152.4471791969949
 30
0.0
 10
124.850593307814
 20
152.0078791917032
 30
0.0
 10
124.8940006480464
 20
151.6216614757627
 30
0.0
 10
124.9364241946639
 20
151.3033290304925
 30
0.0
 10
124.9773504342148
 20
151.0559074154474
 30
0.0
 10
125.0174655952297
 20
150.871962333139
 30
0.0
 10
125.0576807038799
 20
150.7421640056975
 30
0.0
 10
125.1038302983043
 20
150.6406798307177
 30
0.0
 10
125.2140502340582
 20
150.5323080928564
 30
0.0
 10
125.3063070262976
 20
150.5175357918319
 30
0.0
 10
125.3561141535276
 20
150.5095605971742
 30
0.0
  0
SPLINE
  5
B8
330
1F
100
AcDbEntity
  8
0
  6
Continuous
 62
     7
370
    18
100
AcDbSpline
210
0.0
220
0.0
230
1.0
 70
     8
 71
     3
 72
    36
 73
    32
 74
     0
 42
0.000000001
 43
0.00000001
 40
0.0
 40
0.0
 40
0.0
 40
0.0
 40
0.0046795942057137
 40
0.0285319663680004
 40
0.0564974852505837
 40
0.0886726429534233
 40
0.1250540478824679
 40
0.165610408999657
 40
0.2092962039117613
 40
0.2510625622677856
 40
0.2902227304315016
 40
0.3267411441675145
 40
0.3605776534481787
 40
0.4202510164155078
 40
0.4729713687903374
 40
0.5050695863966543
 40
0.5358453392829607
 40
0.5720053538896056
 40
0.6033800991326091
 40
0.6383938038304398
 40
0.6770642320744948
 40
0.71944908255678
 40
0.778891664300018
 40
0.8295061079844607
 40
0.8697911519101498
 40
0.8932293360178942
 40
0.9108546883415187
 40
0.9216201935797713
 40
0.9399382875482355
 40
0.9660390697609683
 40
1.0
 40
1.0
 40
1.0
 40
1.0
 10
126.1932129606241
 20
159.070453257345
 30
0.0
 10
126.1912515235745
 20
159.0721022212318
 30
0.0
 10
126.1792924404852
 20
159.0821561233638
 30
0.0
 10
126.2056733097309
 20
159.0277371312764
 30
0.0
 10
126.2193656337117
 20
158.951907615027
 30
0.0
 10
126.2484947140249
 20
158.8104961438441
 30
0.0
 10
126.2803109236803
 20
158.6061423450265
 30
0.0
 10
126.3178762389153
 20
158.3232977207233
 30
0.0
 10
126.3576010874186
 20
157.9695194530043
 30
0.0
 10
126.397020149126
 20
157.5694288008324
 30
0.0
 10
126.4342352417998
 20
157.1550263335413
 30
0.0
 10
126.4689953001126
 20
156.7416720044032
 30
0.0
 10
126.5103234853191
 20
156.2270653723357
 30
0.0
 10
126.5570094958868
 20
155.6188723510489
 30
0.0
 10
126.6031358821284
 20
155.0029261474743
 30
0.0
 10
126.63995812413
 20
154.5119511928347
 30
0.0
 10
126.6714865486383
 20
154.0958328586471
 30
0.0
 10
126.7028116961996
 20
153.6907806375879
 30
0.0
 10
126.7355332403829
 20
153.2813787824424
 30
0.0
 10
126.7691402175047
 20
152.878910945769
 30
0.0
 10
126.8063654315474
 20
152.4612141076607
 30
0.0
 10
126.8515365227548
 20
151.9988615002766
 30
0.0
 10
126.9005240193213
 20
151.563847213276
 30
0.0
 10
126.9505044204637
 20
151.2096896410734
 30
0.0
 10
126.9909837812451
 20
150.9897355253323
 30
0.0
 10
127.02510266323
 20
150.8545926252211
 30
0.0
 10
127.0502663465551
 20
150.776525425345
 30
0.0
 10
127.0859594414021
 20
150.6993571379923
 30
0.0
 10
127.139423730188
 20
150.6181907035183
 30
0.0
 10
127.2310922271081
 20
150.5312614185026
 30
0.0
 10
127.3112706300367
 20
150.5180628638324
 30
0.0
 10
127.3566062196725
 20
150.5105999531675
 30
0.0
  0
LWPOLYLINE
  5
B9
330
1F
100
AcDbEntity
  8
0
  6
Continuous
 62
     7
370
    18
100
AcDbPolyline
 90
       35
 70
   128
 43
0.0
 10
128.1424729719
 20
159.1168768937
 10
128.1423891529
 20
159.117693198
 10
128.1478746429
 20
159.1180606047
 10
128.1668922498
 20
159.1089196736
 10
128.1884318784
 20
159.073423245
 10
128.2131678059
 20
158.9956498938
 10
128.2420294925
 20
158.8577976218
 10
128.274251391
 20
158.6574077374
 10
128.3087419912
 20
158.3986420883
 10
128.3448996588
 20
158.0837046495
 10
128.382225205
 20
157.7178788139
 10
128.4203144356
 20
157.3078847724
 10
128.458861877
 20
156.8607633235
 10
128.5087397888
 20
156.2435544329
 10
128.5494292721
 20
155.7163301623
 10
128.5801126256
 20
155.3101212485
 10
128.6009146466
 20
155.0326651468
 10
128.6245311245
 20
154.7174394946
 10
128.6590962305
 20
154.2591750622
 10
128.6922308251
 20
153.827875969
 10
128.7315792039
 20
153.3326861682
 10
128.777104114
 20
152.7925556293
 10
128.8227985248
 20
152.2954594112
 10
128.8648011729
 20
151.8859815551
 10
128.9031604871
 20
151.557523408
 10
128.937936072
 20
151.3014201774
 10
128.9691912576
 20
151.1077234755
 10
128.9881064191
 20
151.0079676519
 10
129.0056394979
 20
150.9272070835
 10
129.0329142108
 20
150.8267192403
 10
129.0703124001
 20
150.7306002314
 10
129.132535924
 20
150.6301845657
 10
129.2278344378
 20
150.5460353801
 10
129.3571821048
 20
150.5101631629
 10
129.3571821048
 20
150.5101631629
  0
SPLINE
  5
BA
330
1F
100
AcDbEntity
  8
0
  6
Continuous
 62
     7
370
    18
100
AcDbSpline
210
0.0
220
0.0
230
1.0
 70
     8
 71
     3
 72
    10
 73
     6
 74
     0
 42
0.000000001
 43
0.00000001
 40
0.0
 40
0.0
 40
0.0
 40
0.0
 40
0.4989053339549213
 40
0.9508047171152858
 40
1.0
 40
1.0
 40
1.0
 40
1.0
 10
129.9189000025028
 20
158.5785312345702
 30
0.0
 10
129.8980854635353
 20
158.4110252491988
 30
0.0
 10
129.8584174935059
 20
158.0917953869451
 30
0.0
 10
129.8166413038682
 20
157.6721722522942
 30
0.0
 10
129.7957801663678
 20
157.431351963759
 30
0.0
 10
129.7937321111196
 20
157.4077092810053
 30
0.0
  0
SPLINE
  5
BB
330
1F
100
AcDbEntity
  8
0
  6
Continuous
 62
     7
370
    18
100
AcDbSpline
210
0.0
220
0.0
230
1.0
 70
     8
 71
     3
 72
    10
 73
     6
 74
     0
 42
0.000000001
 43
0.00000001
 40
0.0
 40
0.0
 40
0.0
 40
0.0
 40
0.2522371133326539
 40
0.9491379657862378
 40
0.9999999999999999
 40
0.9999999999999999
 40
0.9999999999999999
 40
0.9999999999999999
 10
129.4110945060485
 20
152.6077092858482
 30
0.0
 10
129.4060914332759
 20
152.5520720727028
 30
0.0
 10
129.3872654712619
 20
152.3427159212265
 30
0.0
 10
129.3672643026583
 20
152.1344923045499
 30
0.0
 10
129.3527142346717
 20
152.0106670663928
 30
0.0
 10
129.3517245545619
 20
152.0022446057278
 30
0.0
  0
SPLINE
  5
BC
330
1F
100
AcDbEntity
  8
0
  6
Continuous
 62
     7
370
    18
100
AcDbSpline
210
0.0
220
0.0
230
1.0
 70
     8
 71
     3
 72
    17
 73
    13
 74
     0
 42
0.000000001
 43
0.00000001
 40
0.0
 40
0.0
 40
0.0
 40
0.0
 40
0.0398233196914463
 40
0.099552252206141
 40
0.1616111089798134
 40
0.3475428136004964
 40
0.4519274219676527
 40
0.5638982674929007
 40
0.6835103967745041
 40
0.8101016281908128
 40
0.9330362461518223
 40
1.0
 40
1.0
 40
1.0
 40
1.0
 10
128.3563642397159
 20
159.5075541409183
 30
0.0
 10
128.3216867834235
 20
159.5034940440644
 30
0.0
 10
128.2349984083347
 20
159.4933444184404
 30
0.0
 10
128.1493521711905
 20
159.4237641865019
 30
0.0
 10
128.0786082446552
 20
159.3281634034284
 30
0.0
 10
128.0271010965862
 20
159.1786074345573
 30
0.0
 10
127.9748187969346
 20
158.9400459362598
 30
0.0
 10
127.9355335776463
 20
158.7028463336651
 30
0.0
 10
127.8955746444544
 20
158.40654605167
 30
0.0
 10
127.8556647269979
 20
158.0531329194443
 30
0.0
 10
127.8215227034746
 20
157.7147546118085
 30
0.0
 10
127.8011324615143
 20
157.4877557569095
 30
0.0
 10
127.7939422621959
 20
157.4077092810053
 30
0.0
  0
SPLINE
  5
BD
330
1F
100
AcDbEntity
  8
0
  6
Continuous
 62
     7
370
    18
100
AcDbSpline
210
0.0
220
0.0
230
1.0
 70
     8
 71
     3
 72
     9
 73
     5
 74
     0
 42
0.000000001
 43
0.00000001
 40
0.0
 40
0.0
 40
0.0
 40
0.0
 40
0.5232654079022327
 40
1.0
 40
1.0
 40
1.0
 40
1.0
 10
127.4111966237062
 20
152.6077092858482
 30
0.0
 10
127.400792897211
 20
152.4945074252378
 30
0.0
 10
127.3809105844533
 20
152.2781700581946
 30
0.0
 10
127.361146465787
 20
152.0934221122252
 30
0.0
 10
127.3517242267364
 20
152.0053463755626
 30
0.0
  0
SPLINE
  5
BE
330
1F
100
AcDbEntity
  8
0
  6
Continuous
 62
     7
370
    18
100
AcDbSpline
210
0.0
220
0.0
230
1.0
 70
     8
 71
     3
 72
    19
 73
    15
 74
     0
 42
0.000000001
 43
0.00000001
 40
0.0
 40
0.0
 40
0.0
 40
0.0
 40
0.0377550378774324
 40
0.0670616895647211
 40
0.0977993335739131
 40
0.1383466085772206
 40
0.1958246822325633
 40
0.2745853098799446
 40
0.3513869421738754
 40
0.4493174051733222
 40
0.5682110044261593
 40
0.7079976837754612
 40
0.8688093277650324
 40
1.0
 40
1.0
 40
1.0
 40
1.0
 10
126.356721539759
 20
159.5070651965666
 30
0.0
 10
126.3238739982469
 20
159.5038281321688
 30
0.0
 10
126.2655291585726
 20
159.4980783562461
 30
0.0
 10
126.1922146407995
 20
159.457500587669
 30
0.0
 10
126.1388659562484
 20
159.4100013541304
 30
0.0
 10
126.1063381638367
 20
159.366126688599
 30
0.0
 10
126.0710900475852
 20
159.3022090034963
 30
0.0
 10
126.0399551630836
 20
159.2170459519827
 30
0.0
 10
126.0079923014127
 20
159.0998166243123
 30
0.0
 10
125.9733877992583
 20
158.9349103147182
 30
0.0
 10
125.933077826076
 20
158.689937248797
 30
0.0
 10
125.8867906171173
 20
158.3352615272821
 30
0.0
 10
125.8398857467546
 20
157.9070496959938
 30
0.0
 10
125.8084519340923
 20
157.5625058076559
 30
0.0
 10
125.7943293645614
 20
157.4077092810053
 30
0.0
  0
SPLINE
  5
BF
330
1F
100
AcDbEntity
  8
0
  6
Continuous
 62
     7
370
    18
100
AcDbSpline
210
0.0
220
0.0
230
1.0
 70
     8
 71
     3
 72
    10
 73
     6
 74
     0
 42
0.000000001
 43
0.00000001
 40
0.0
 40
0.0
 40
0.0
 40
0.0
 40
0.0021234260141036
 40
0.7067665115152736
 40
1.0
 40
1.0
 40
1.0
 40
1.0
 10
125.4112596258157
 20
152.6077092858482
 30
0.0
 10
125.4112174064023
 20
152.6072228558765
 30
0.0
 10
125.3971649895171
 20
152.4453182677846
 30
0.0
 10
125.3770268446005
 20
152.2382275760378
 30
0.0
 10
125.3571913531477
 20
152.0573836889969
 30
0.0
 10
125.3513625457519
 20
152.0042413613278
 30
0.0
  0
SPLINE
  5
C0
330
1F
100
AcDbEntity
  8
0
  6
Continuous
 62
     7
370
    18
100
AcDbSpline
210
0.0
220
0.0
230
1.0
 70
     8
 71
     3
 72
    12
 73
     8
 74
     0
 42
0.000000001
 43
0.00000001
 40
0.0
 40
0.0
 40
0.0
 40
0.0
 40
0.1574770496610464
 40
0.3428117711790928
 40
0.5002059985060062
 40
0.7552018153324513
 40
1.0
 40
1.0
 40
1.0
 40
1.0
 10
124.3570620759958
 20
159.5055150101412
 30
0.0
 10
124.2987418689229
 20
159.4935187470397
 30
0.0
 10
124.1717846168965
 20
159.4674040832828
 30
0.0
 10
124.0769041081976
 20
159.3208387591084
 30
0.0
 10
124.0383105369526
 20
159.2120423827524
 30
0.0
 10
123.9905209260361
 20
159.0386321534369
 30
0.0
 10
123.9607699297249
 20
158.850067793467
 30
0.0
 10
123.9461979463333
 20
158.757709316023
 30
0.0
  0
LINE
  5
C1
330
1F
100
AcDbEntity
  8
0
  6
Continuous
 62
     7
370
    18
100
AcDbLine
 10
123.2530601889
 20
151.2577092508
 30
0.0
 11
123.2221356228
 21
151.0793684284
 31
0.0
  0
SPLINE
  5
C2
330
1F
100
AcDbEntity
  8
0
  6
Continuous
 62
     7
370
    18
100
AcDbSpline
210
0.0
220
0.0
230
1.0
 70
     8
 71
     3
 72
     9
 73
     5
 74
     0
 42
0.000000001
 43
0.00000001
 40
0.0
 40
0.0
 40
0.0
 40
0.0
 40
0.5032985487737522
 40
1.0
 40
1.0
 40
1.0
 40
1.0
 10
123.7063693448537
 20
150.9875758784342
 30
0.0
 10
123.7146764967674
 20
151.0191723646507
 30
0.0
 10
123.7311819127553
 20
151.0819511791207
 30
0.0
 10
123.7475027280528
 20
151.199381459933
 30
0.0
 10
123.7556093006962
 20
151.2577092508304
 30
0.0
  0
SPLINE
  5
C3
330
1F
100
AcDbEntity
  8
0
  6
Continuous
 62
     7
370
    18
100
AcDbSpline
210
0.0
220
0.0
230
1.0
 70
     8
 71
     3
 72
    17
 73
    13
 74
     0
 42
0.000000001
 43
0.00000001
 40
0.0
 40
0.0
 40
0.0
 40
0.0
 40
0.0654558295407146
 40
0.150812824929215
 40
0.22465274394028
 40
0.3084019635655423
 40
0.4198602062060823
 40
0.5588071563845162
 40
0.6811253519080845
 40
0.8189850517535009
 40
0.9722914752716323
 40
1.0
 40
1.0
 40
1.0
 40
1.0
 10
125.3460353806251
 20
150.5095564062226
 30
0.0
 10
125.3930506687281
 20
150.5170042350417
 30
0.0
 10
125.5013757554838
 20
150.5341643277589
 30
0.0
 10
125.6018408829543
 20
150.6493127890662
 30
0.0
 10
125.6448257624575
 20
150.7441211529923
 30
0.0
 10
125.6797898410306
 20
150.851753244536
 30
0.0
 10
125.7205328985441
 20
151.0261941855383
 30
0.0
 10
125.7629781873764
 20
151.2758262998418
 30
0.0
 10
125.8073121404058
 20
151.605124259373
 30
0.0
 10
125.8524339867033
 20
152.0080433093354
 30
0.0
 10
125.8869156096489
 20
152.3503666310132
 30
0.0
 10
125.9064263283274
 20
152.5735464520589
 30
0.0
 10
125.9094128951067
 20
152.6077092858482
 30
0.0
  0
SPLINE
  5
C4
330
1F
100
AcDbEntity
  8
0
  6
Continuous
 62
     7
370
    18
100
AcDbSpline
210
0.0
220
0.0
230
1.0
 70
     8
 71
     3
 72
     9
 73
     5
 74
     0
 42
0.000000001
 43
0.00000001
 40
0.0
 40
0.0
 40
0.0
 40
0.0
 40
0.5562245765361553
 40
1.0
 40
1.0
 40
1.0
 40
1.0
 10
126.2935201272005
 20
157.4077092810053
 30
0.0
 10
126.3045211350954
 20
157.5340886011844
 30
0.0
 10
126.3242991318957
 20
157.7612977636526
 30
0.0
 10
126.3438943268703
 20
157.930248319842
 30
0.0
 10
126.352590192818
 20
158.0052244244594
 30
0.0
  0
SPLINE
  5
C5
330
1F
100
AcDbEntity
  8
0
  6
Continuous
 62
     7
370
    18
100
AcDbSpline
210
0.0
220
0.0
230
1.0
 70
     8
 71
     3
 72
    18
 73
    14
 74
     0
 42
0.000000001
 43
0.00000001
 40
0.0
 40
0.0
 40
0.0
 40
0.0
 40
0.0496600263565652
 40
0.0957615677495303
 40
0.1791406794832577
 40
0.264763184628391
 40
0.3591558552025874
 40
0.46237665705889
 40
0.574564934641079
 40
0.6958378975704749
 40
0.825351328043278
 40
0.9510471350613184
 40
1.0
 40
1.0
 40
1.0
 40
1.0
 10
127.3461456045145
 20
150.5106074037481
 30
0.0
 10
127.3834235310321
 20
150.5149361472961
 30
0.0
 10
127.4553081623479
 20
150.5232834499246
 30
0.0
 10
127.5539137009532
 20
150.5910609315281
 30
0.0
 10
127.6096896696868
 20
150.6690288779249
 30
0.0
 10
127.6514052176902
 20
150.766175628724
 30
0.0
 10
127.6930726252143
 20
150.9059693503611
 30
0.0
 10
127.7320726539895
 20
151.0921592413013
 30
0.0
 10
127.7714904837148
 20
151.3361212679677
 30
0.0
 10
127.8118386954267
 20
151.6432536827399
 30
0.0
 10
127.8525727920896
 20
152.010178498471
 30
0.0
 10
127.8854322534257
 20
152.3375935083042
 30
0.0
 10
127.9042591134558
 20
152.5485731038723
 30
0.0
 10
127.9095361575121
 20
152.6077092858482
 30
0.0
  0
SPLINE
  5
C6
330
1F
100
AcDbEntity
  8
0
  6
Continuous
 62
     7
370
    18
100
AcDbSpline
210
0.0
220
0.0
230
1.0
 70
     8
 71
     3
 72
     9
 73
     5
 74
     0
 42
0.000000001
 43
0.00000001
 40
0.0
 40
0.0
 40
0.0
 40
0.0
 40
0.6305753949775026
 40
1.0
 40
1.0
 40
1.0
 40
1.0
 10
128.2924960001939
 20
157.4077092810053
 30
0.0
 10
128.3050371125912
 20
157.545436927929
 30
0.0
 10
128.3249254756594
 20
157.7638527557916
 30
0.0
 10
128.3447207341827
 20
157.9463646976524
 30
0.0
 10
128.3520335897439
 20
158.0137890996862
 30
0.0
  0
SPLINE
  5
C7
330
1F
100
AcDbEntity
  8
0
  6
Continuous
 62
     7
370
    18
100
AcDbSpline
210
0.0
220
0.0
230
1.0
 70
     8
 71
     3
 72
    16
 73
    12
 74
     0
 42
0.000000001
 43
0.00000001
 40
0.0
 40
0.0
 40
0.0
 40
0.0
 40
0.0690476839906634
 40
0.1669288224913719
 40
0.263031824950042
 40
0.3913516512039662
 40
0.5204897808813577
 40
0.6506923849394302
 40
0.7797837915911352
 40
0.9072085013411181
 40
1.0
 40
1.0
 40
1.0
 40
1.0
 10
129.346695412659
 20
150.5101813236702
 30
0.0
 10
129.3982911968398
 20
150.5198202485917
 30
0.0
 10
129.5230285232935
 20
150.5431231936613
 30
0.0
 10
129.6109781444731
 20
150.6661993844673
 30
0.0
 10
129.6583360131197
 20
150.7776785515923
 30
0.0
 10
129.7098491667835
 20
150.9674233027078
 30
0.0
 10
129.7545359664369
 20
151.2200796543057
 30
0.0
 10
129.7967930436078
 20
151.5204084490309
 30
0.0
 10
129.8385417288674
 20
151.8762807206003
 30
0.0
 10
129.8761356808049
 20
152.2383779603882
 30
0.0
 10
129.899746167258
 20
152.4982205850358
 30
0.0
 10
129.9096948101753
 20
152.6077092858482
 30
0.0
  0
SPLINE
  5
C8
330
1F
100
AcDbEntity
  8
0
  6
Continuous
 62
     7
370
    18
100
AcDbSpline
210
0.0
220
0.0
230
1.0
 70
     8
 71
     3
 72
     9
 73
     5
 74
     0
 42
0.000000001
 43
0.00000001
 40
0.0
 40
0.0
 40
0.0
 40
0.0
 40
0.500738839473085
 40
0.9999999999999999
 40
0.9999999999999999
 40
0.9999999999999999
 40
0.9999999999999999
 10
130.2924814268583
 20
157.4077092810053
 30
0.0
 10
130.3023927009608
 20
157.5172434875684
 30
0.0
 10
130.3221860010231
 20
157.7359886655506
 30
0.0
 10
130.3419776348516
 20
157.9184325424578
 30
0.0
 10
130.3518588289255
 20
158.0095196841735
 30
0.0
  0
SPLINE
  5
C9
330
1F
100
AcDbEntity
  8
0
  6
Continuous
 62
     7
370
    18
100
AcDbSpline
210
0.0
220
0.0
230
1.0
 70
     8
 71
     3
 72
    37
 73
    33
 74
     0
 42
0.000000001
 43
0.00000001
 40
0.0
 40
0.0
 40
0.0
 40
0.0
 40
0.0046734429517518
 40
0.0282581217943293
 40
0.0553838280105284
 40
0.0861284121751991
 40
0.120510346373385
 40
0.1585586978080321
 40
0.1994137710812996
 40
0.2387560338705731
 40
0.2759555254863233
 40
0.3109946894568273
 40
0.3438851922355992
 40
0.4033074390807101
 40
0.4563827127601465
 40
0.4886576372162553
 40
0.5196435411114667
 40
0.5565424291384625
 40
0.588907040825245
 40
0.6253219744893388
 40
0.6658011670864169
 40
0.7103324624576319
 40
0.7578019331747334
 40
0.8000340627961382
 40
0.8353938773661038
 40
0.8638654463635399
 40
0.8854130102058941
 40
0.9000147573543678
 40
0.9100901340056057
 40
0.9299754752388266
 40
0.9599213066824813
 40
0.9999999999999999
 40
0.9999999999999999
 40
0.9999999999999999
 40
0.9999999999999999
 10
129.5096824511522
 20
150.9483318077851
 30
0.0
 10
129.5116194079444
 20
150.9467139725472
 30
0.0
 10
129.5233312789371
 20
150.9369316802059
 30
0.0
 10
129.4977444685463
 20
150.9889259303165
 30
0.0
 10
129.4845524598996
 20
151.060249150439
 30
0.0
 10
129.4568933347602
 20
151.1922235387124
 30
0.0
 10
129.4268393131353
 20
151.382857262161
 30
0.0
 10
129.3916124473739
 20
151.6446683071102
 30
0.0
 10
129.3544084068408
 20
151.9689961809432
 30
0.0
 10
129.317341775385
 20
152.3340069720156
 30
0.0
 10
129.2819710139269
 20
152.7159385789477
 30
0.0
 10
129.248536109642
 20
153.1030558151377
 30
0.0
 10
129.2079646108631
 20
153.5984443497453
 30
0.0
 10
129.1615471556973
 20
154.1970652091751
 30
0.0
 10
129.1154002413452
 20
154.8117842202429
 30
0.0
 10
129.0783255402824
 20
155.3073768627509
 30
0.0
 10
129.0463779410785
 20
155.7314857182406
 30
0.0
 10
129.0143509395474
 20
156.1493667001661
 30
0.0
 10
128.9805772997254
 20
156.5770301454221
 30
0.0
 10
128.9456356406913
 20
157.0021922617126
 30
0.0
 10
128.9067572679708
 20
157.448143883555
 30
0.0
 10
128.8642043362581
 20
157.8959133615821
 30
0.0
 10
128.8210042838454
 20
158.2980171024435
 30
0.0
 10
128.7800343144898
 20
158.6199504611749
 30
0.0
 10
128.7440895270663
 20
158.8527379388865
 30
0.0
 10
128.7131319156124
 20
159.0154068366388
 30
0.0
 10
128.6866608698201
 20
159.1259460571503
 30
0.0
 10
128.6628244552847
 20
159.2040183616637
 30
0.0
 10
128.6277071135706
 20
159.2858658185658
 30
0.0
 10
128.5738291226461
 20
159.3779068814861
 30
0.0
 10
128.4774930070831
 20
159.4828224345938
 30
0.0
 10
128.3937312386516
 20
159.4985426631284
 30
0.0
 10
128.3457900032037
 20
159.5075401710797
 30
0.0
  0
SPLINE
  5
CA
330
1F
100
AcDbEntity
  8
0
  6
Continuous
 62
     7
370
    18
100
AcDbSpline
210
0.0
220
0.0
230
1.0
 70
     8
 71
     3
 72
    37
 73
    33
 74
     0
 42
0.000000001
 43
0.00000001
 40
0.0
 40
0.0
 40
0.0
 40
0.0
 40
0.0112180494940354
 40
0.0200452515865205
 40
0.0291541059471372
 40
0.0413125003777789
 40
0.0565527176897686
 40
0.0873956988103186
 40
0.1262500629060939
 40
0.1731246179143417
 40
0.2236610276564524
 40
0.2689090929939492
 40
0.3086241195541706
 40
0.342795896204149
 40
0.371384162060217
 40
0.4007755805123001
 40
0.4287456734995178
 40
0.4624370409415796
 40
0.5018490171368689
 40
0.5462155658794317
 40
0.592797037728044
 40
0.6662828129832404
 40
0.7047096429038257
 40
0.7442400084617418
 40
0.7964220894658756
 40
0.8431641184114117
 40
0.8842518120317694
 40
0.9113520293036238
 40
0.935470923548725
 40
0.9635134842787848
 40
0.9806677592320064
 40
1.0
 40
1.0
 40
1.0
 40
1.0
 10
127.4688268646234
 20
151.0289387079406
 30
0.0
 10
127.4722913752081
 20
151.0314755401205
 30
0.0
 10
127.4784820223729
 20
151.0360085419855
 30
0.0
 10
127.4827112245113
 20
151.0448559429157
 30
0.0
 10
127.4794875141016
 20
151.0684549704845
 30
0.0
 10
127.4728269217026
 20
151.1063897657642
 30
0.0
 10
127.4590568484632
 20
151.1822348803483
 30
0.0
 10
127.4357337007278
 20
151.3228225943948
 30
0.0
 10
127.4013491634607
 20
151.5668930771906
 30
0.0
 10
127.3597829898319
 20
151.9159756721612
 30
0.0
 10
127.3156986258881
 20
152.3463256929739
 30
0.0
 10
127.2737552389351
 20
152.8059118351396
 30
0.0
 10
127.23679272518
 20
153.2438095401416
 30
0.0
 10
127.2049875090071
 20
153.6397237988565
 30
0.0
 10
127.1763684358608
 20
154.0070586909058
 30
0.0
 10
127.1496471219325
 20
154.35715123566
 30
0.0
 10
127.1213229894072
 20
154.7330379391283
 30
0.0
 10
127.0898555170135
 20
155.1532784896073
 30
0.0
 10
127.0532483294038
 20
155.6406812507023
 30
0.0
 10
127.0126255166505
 20
156.17200871397
 30
0.0
 10
126.961436660332
 20
156.8178993139952
 30
0.0
 10
126.9118767762993
 20
157.398029318627
 30
0.0
 10
126.8644272325332
 20
157.8927036474023
 30
0.0
 10
126.8234471532081
 20
158.2763957778768
 30
0.0
 10
126.7797537310132
 20
158.6263760958178
 30
0.0
 10
126.7336740097766
 20
158.9181666835846
 30
0.0
 10
126.6943194288183
 20
159.1094195879395
 30
0.0
 10
126.6564886157985
 20
159.2374642550087
 30
0.0
 10
126.627296493484
 20
159.3192336245736
 30
0.0
 10
126.5627685543295
 20
159.4198030854871
 30
0.0
 10
126.4600749894499
 20
159.493326220416
 30
0.0
 10
126.385928827241
 20
159.502292235849
 30
0.0
 10
126.3466427668565
 20
159.5070428448248
 30
0.0
  0
SPLINE
  5
CB
330
1F
100
AcDbEntity
  8
0
  6
Continuous
 62
     7
370
    18
100
AcDbSpline
210
0.0
220
0.0
230
1.0
 70
     8
 71
     3
 72
    37
 73
    33
 74
     0
 42
0.000000001
 43
0.00000001
 40
0.0
 40
0.0
 40
0.0
 40
0.0
 40
0.0045499555798718
 40
0.0277705944209645
 40
0.0547404787241047
 40
0.0855641385565091
 40
0.1202519093457053
 40
0.1587824164083682
 40
0.2002047347067324
 40
0.2400066617084877
 40
0.2776044463040842
 40
0.3130067318665443
 40
0.346189377176826
 40
0.4058496778470019
 40
0.4589483539248699
 40
0.4912432450507963
 40
0.522282665028071
 40
0.5592545540371029
 40
0.5916609060910564
 40
0.6280666051610594
 40
0.6684627665020919
 40
0.7128695049161353
 40
0.7602928235733875
 40
0.8026064290848381
 40
0.838084875345722
 40
0.8667022010254807
 40
0.8884432264172545
 40
0.9033035122164317
 40
0.9132505974413732
 40
0.9325334383615757
 40
0.9614090867283598
 40
0.9999999999999999
 40
0.9999999999999999
 40
0.9999999999999999
 40
0.9999999999999999
 10
125.5093502446645
 20
150.9468239965368
 30
0.0
 10
125.5112637906848
 20
150.9452216790357
 30
0.0
 10
125.5229430938122
 20
150.9354419551077
 30
0.0
 10
125.4976855758975
 20
150.9876248294309
 30
0.0
 10
125.4846852443153
 20
151.0600013019698
 30
0.0
 10
125.4569915801801
 20
151.1937809643001
 30
0.0
 10
125.4268064984902
 20
151.3853388525876
 30
0.0
 10
125.3912439233811
 20
151.6481864208465
 30
0.0
 10
125.3536172506231
 20
151.9748857059547
 30
0.0
 10
125.3160934558106
 20
152.3446312144917
 30
0.0
 10
125.2803747460743
 20
152.7329286765034
 30
0.0
 10
125.246706267207
 20
153.1255035760417
 30
0.0
 10
125.2060129647212
 20
153.6245170034718
 30
0.0
 10
125.159553062568
 20
154.2241563866033
 30
0.0
 10
125.1133276985326
 20
154.8392342595871
 30
0.0
 10
125.0762446660686
 20
155.334144987904
 30
0.0
 10
125.0443257951812
 20
155.7573484756858
 30
0.0
 10
125.0123661369087
 20
156.1741064015343
 30
0.0
 10
124.9786827407593
 20
156.6007774284154
 30
0.0
 10
124.9438458639592
 20
157.0246518983557
 30
0.0
 10
124.9050690591971
 20
157.4685803096533
 30
0.0
 10
124.8626031284834
 20
157.9121660581434
 30
0.0
 10
124.8195282422314
 20
158.3083308157692
 30
0.0
 10
124.7786805613902
 20
158.6277692441421
 30
0.0
 10
124.7427052376728
 20
158.8608935002343
 30
0.0
 10
124.7116721878526
 20
159.024233824668
 30
0.0
 10
124.6848575297524
 20
159.1355147589144
 30
0.0
 10
124.66110655202
 20
159.2128798196884
 30
0.0
 10
124.6261298861897
 20
159.2931987821247
 30
0.0
 10
124.5726885832136
 20
159.3821731937
 30
0.0
 10
124.4774100177963
 20
159.4820887684616
 30
0.0
 10
124.3945658143438
 20
159.4969868050936
 30
0.0
 10
124.347178880834
 20
159.5055084908831
 30
0.0
  0
SPLINE
  5
CC
330
1F
100
AcDbEntity
  8
0
  6
Continuous
 62
     7
370
    18
100
AcDbSpline
210
0.0
220
0.0
230
1.0
 70
     8
 71
     3
 72
    18
 73
    14
 74
     0
 42
0.000000001
 43
0.00000001
 40
0.0
 40
0.0
 40
0.0
 40
0.0
 40
0.0512956356157403
 40
0.0981583767919474
 40
0.1803490107687955
 40
0.2639876755016389
 40
0.3572791140512528
 40
0.4601934204425013
 40
0.5727215487290619
 40
0.6949319534539767
 40
0.8260869752416466
 40
0.9535825081631142
 40
1.0
 40
1.0
 40
1.0
 40
1.0
 10
131.3469676866764
 20
150.5078995833624
 30
0.0
 10
131.3847990286076
 20
150.512591250724
 30
0.0
 10
131.4571923827646
 20
150.5215691383578
 30
0.0
 10
131.5560456769963
 20
150.5917915475634
 30
0.0
 10
131.611982590747
 20
150.6728805929994
 30
0.0
 10
131.652484360857
 20
150.7706769416073
 30
0.0
 10
131.6933645062376
 20
150.9096309602034
 30
0.0
 10
131.7318961731395
 20
151.0930856237938
 30
0.0
 10
131.7712387040924
 20
151.3337110986837
 30
0.0
 10
131.8118238580391
 20
151.640424908858
 30
0.0
 10
131.8529728158628
 20
152.012245987659
 30
0.0
 10
131.8858244295587
 20
152.3416514196269
 30
0.0
 10
131.9044868767998
 20
152.5516583174017
 30
0.0
 10
131.9094678952926
 20
152.6077092858482
 30
0.0
  0
SPLINE
  5
CD
330
1F
100
AcDbEntity
  8
0
  6
Continuous
 62
     7
370
    18
100
AcDbSpline
210
0.0
220
0.0
230
1.0
 70
     8
 71
     3
 72
     9
 73
     5
 74
     0
 42
0.000000001
 43
0.00000001
 40
0.0
 40
0.0
 40
0.0
 40
0.0
 40
0.6480095782985121
 40
1.0
 40
1.0
 40
1.0
 40
1.0
 10
132.2924668535226
 20
157.4077092810053
 30
0.0
 10
132.3053175211841
 20
157.547937398163
 30
0.0
 10
132.3251485053113
 20
157.7643356148774
 30
0.0
 10
132.3448444252126
 20
157.94588238643
 30
0.0
 10
132.3517772003644
 20
158.0097851111072
 30
0.0
  0
SPLINE
  5
CE
330
1F
100
AcDbEntity
  8
0
  6
Continuous
 62
     7
370
    18
100
AcDbSpline
210
0.0
220
0.0
230
1.0
 70
     8
 71
     3
 72
    14
 73
    10
 74
     0
 42
0.000000001
 43
0.00000001
 40
0.0
 40
0.0
 40
0.0
 40
0.0
 40
0.0583363180437806
 40
0.1388385289254908
 40
0.2134189515716641
 40
0.4159160934313145
 40
0.6309070638022456
 40
0.8510423560215461
 40
1.0
 40
1.0
 40
1.0
 40
1.0
 10
133.3460031643146
 20
150.509299361192
 30
0.0
 10
133.3888511236065
 20
150.5155467038002
 30
0.0
 10
133.4908278652837
 20
150.5304151748744
 30
0.0
 10
133.587407764042
 20
150.6304792452315
 30
0.0
 10
133.6546805815629
 20
150.7580639413391
 30
0.0
 10
133.7196836203627
 20
150.9969940894315
 30
0.0
 10
133.7904672652295
 20
151.4532962371605
 30
0.0
 10
133.8532462086338
 20
151.9962323488379
 30
0.0
 10
133.8927848722577
 20
152.4318882996942
 30
0.0
 10
133.90874179151
 20
152.6077092858482
 30
0.0
  0
SPLINE
  5
CF
330
1F
100
AcDbEntity
  8
0
  6
Continuous
 62
     7
370
    18
100
AcDbSpline
210
0.0
220
0.0
230
1.0
 70
     8
 71
     3
 72
     9
 73
     5
 74
     0
 42
0.000000001
 43
0.00000001
 40
0.0
 40
0.0
 40
0.0
 40
0.0
 40
0.6605129503225973
 40
0.9999999999999999
 40
0.9999999999999999
 40
0.9999999999999999
 40
0.9999999999999999
 10
134.2925472750896
 20
157.4077092810053
 30
0.0
 10
134.3057124656561
 20
157.5530006102905
 30
0.0
 10
134.3256442331711
 20
157.7729680298759
 30
0.0
 10
134.3453154661722
 20
157.9515032539052
 30
0.0
 10
134.3519935950273
 20
158.0121136503744
 30
0.0
  0
SPLINE
  5
D0
330
1F
100
AcDbEntity
  8
0
  6
Continuous
 62
     7
370
    18
100
AcDbSpline
210
0.0
220
0.0
230
1.0
 70
     8
 71
     3
 72
    14
 73
    10
 74
     0
 42
0.000000001
 43
0.00000001
 40
0.0
 40
0.0
 40
0.0
 40
0.0
 40
0.1041262519437977
 40
0.1992835796740741
 40
0.3656832472330276
 40
0.531317604727327
 40
0.7117594087804331
 40
0.907209089927123
 40
1.0
 40
1.0
 40
1.0
 40
1.0
 10
135.3460500582689
 20
150.5105277756679
 30
0.0
 10
135.3848219753416
 20
150.5152522903942
 30
0.0
 10
135.4590261868717
 20
150.5242943733396
 30
0.0
 10
135.5606295612596
 20
150.5979269505102
 30
0.0
 10
135.6190922724254
 20
150.6861139276971
 30
0.0
 10
135.6617239856036
 20
150.7950324709787
 30
0.0
 10
135.7031481231522
 20
150.9481954585277
 30
0.0
 10
135.734240810678
 20
151.1012563655061
 30
0.0
 10
135.7518815790935
 20
151.2196089741774
 30
0.0
 10
135.7575605257982
 20
151.2577092508304
 30
0.0
  0
SPLINE
  5
D1
330
1F
100
AcDbEntity
  8
0
  6
Continuous
 62
     7
370
    18
100
AcDbSpline
210
0.0
220
0.0
230
1.0
 70
     8
 71
     3
 72
    22
 73
    18
 74
     0
 42
0.000000001
 43
0.00000001
 40
0.0
 40
0.0
 40
0.0
 40
0.0
 40
0.048664294816545
 40
0.1140342187375818
 40
0.1813351497060128
 40
0.2506417597977589
 40
0.3219698412969738
 40
0.3946138788835617
 40
0.4682608203370053
 40
0.5429375310074182
 40
0.6187370504802974
 40
0.6958242382374671
 40
0.7741568309834227
 40
0.8461082202244075
 40
0.9075273382677073
 40
0.9587256289281365
 40
1.0
 40
1.0
 40
1.0
 40
1.0
 10
137.1152947291368
 20
154.8153484910013
 30
0.0
 10
137.1067397080326
 20
154.9290028013332
 30
0.0
 10
137.0866928718134
 20
155.1953270239223
 30
0.0
 10
137.0548281890432
 20
155.6202669479089
 30
0.0
 10
137.0192959424703
 20
156.0856046553096
 30
0.0
 10
136.9827216601616
 20
156.5508778089297
 30
0.0
 10
136.9452742580746
 20
157.0069993378817
 30
0.0
 10
136.9069385900213
 20
157.4462596886249
 30
0.0
 10
136.8676308121186
 20
157.8602559203443
 30
0.0
 10
136.826987768802
 20
158.2413514034295
 30
0.0
 10
136.7845691880319
 20
158.5806957562245
 30
0.0
 10
136.7393496958163
 20
158.872666948509
 30
0.0
 10
136.6936332356303
 20
159.0999570231196
 30
0.0
 10
136.6436074413184
 20
159.2719013063335
 30
0.0
 10
136.5752510829628
 20
159.3949349638752
 30
0.0
 10
136.4894687045163
 20
159.4844982734234
 30
0.0
 10
136.3901842854986
 20
159.5004848119227
 30
0.0
 10
136.3458695456022
 20
159.5076202648211
 30
0.0
  0
SPLINE
  5
D2
330
1F
100
AcDbEntity
  8
0
  6
Continuous
 62
     7
370
    18
100
AcDbSpline
210
0.0
220
0.0
230
1.0
 70
     8
 71
     3
 72
    37
 73
    33
 74
     0
 42
0.000000001
 43
0.00000001
 40
0.0
 40
0.0
 40
0.0
 40
0.0
 40
0.0080824076796421
 40
0.0174541492240585
 40
0.0270687267523416
 40
0.0394571800599258
 40
0.0546483013779397
 40
0.0848263496954622
 40
0.1222853561754166
 40
0.1670282110848397
 40
0.2153143514387572
 40
0.2597013233647592
 40
0.3000114023893776
 40
0.3362460107412681
 40
0.3683704603587476
 40
0.4047460454646536
 40
0.4362662031523075
 40
0.4698496187755615
 40
0.524826646575988
 40
0.5866811842529551
 40
0.6209611507251646
 40
0.657454695726048
 40
0.6961540442925742
 40
0.7370769034981836
 40
0.7921037321509738
 40
0.8410310419747742
 40
0.8835422696325073
 40
0.911205922704383
 40
0.935457753199044
 40
0.9634895219525974
 40
0.9806506658873927
 40
1.0
 40
1.0
 40
1.0
 40
1.0
 10
135.4734177335733
 20
151.0230373824465
 30
0.0
 10
135.4760494144953
 20
151.0244089312453
 30
0.0
 10
135.4817325912593
 20
151.0273708230914
 30
0.0
 10
135.4845566617743
 20
151.0364969598061
 30
0.0
 10
135.481240984327
 20
151.060565768005
 30
0.0
 10
135.4744829760277
 20
151.0983422002386
 30
0.0
 10
135.4609865100957
 20
151.1719919184165
 30
0.0
 10
135.438380478028
 20
151.3064308943045
 30
0.0
 10
135.4053402296449
 20
151.5371839908863
 30
0.0
 10
135.3655683244841
 20
151.864642555002
 30
0.0
 10
135.3231187208802
 20
152.2704501867447
 30
0.0
 10
135.2819678826596
 20
152.7128304930567
 30
0.0
 10
135.2444509954539
 20
153.1509789835336
 30
0.0
 10
135.2107227940504
 20
153.5670867652032
 30
0.0
 10
135.1781970043045
 20
153.9829157691223
 30
0.0
 10
135.1470937661868
 20
154.3906417817768
 30
0.0
 10
135.1155122191939
 20
154.8104987772554
 30
0.0
 10
135.0781171895658
 20
155.3099795556656
 30
0.0
 10
135.0311998809616
 20
155.9324798273735
 30
0.0
 10
134.9841109128678
 20
156.5355088479432
 30
0.0
 10
134.9427865410513
 20
157.0359094814135
 30
0.0
 10
134.9085929778501
 20
157.4279424058353
 30
0.0
 10
134.8722035093878
 20
157.8150142009609
 30
0.0
 10
134.8298235432971
 20
158.2211633908603
 30
0.0
 10
134.7841278408401
 20
158.5955135779029
 30
0.0
 10
134.7360350169425
 20
158.9055638673955
 30
0.0
 10
134.695430513902
 20
159.10536908668
 30
0.0
 10
134.6568886865546
 20
159.2365623700227
 30
0.0
 10
134.6275333664642
 20
159.3189629301264
 30
0.0
 10
134.5629571405063
 20
159.4195698234195
 30
0.0
 10
134.460229037048
 20
159.4930817403175
 30
0.0
 10
134.3860205349055
 20
159.5020500987744
 30
0.0
 10
134.3466925069326
 20
159.5068030292618
 30
0.0
  0
SPLINE
  5
D3
330
1F
100
AcDbEntity
  8
0
  6
Continuous
 62
     7
370
    18
100
AcDbSpline
210
0.0
220
0.0
230
1.0
 70
     8
 71
     3
 72
    37
 73
    33
 74
     0
 42
0.000000001
 43
0.00000001
 40
0.0
 40
0.0
 40
0.0
 40
0.0
 40
0.0045349888050131
 40
0.0275685904859646
 40
0.0539230260096897
 40
0.0836947500476688
 40
0.1168881219145466
 40
0.153480411953556
 40
0.1927804713571102
 40
0.2314337100096921
 40
0.2689955878310533
 40
0.3407717883003424
 40
0.3861946756319969
 40
0.4289738255602702
 40
0.4663852726061159
 40
0.4981185788757641
 40
0.5244118262053685
 40
0.5551341629748043
 40
0.58448290642552
 40
0.6192355345836976
 40
0.6593855962602705
 40
0.7049518555179167
 40
0.7546898760255709
 40
0.798896005814412
 40
0.8355737193616516
 40
0.864690925980834
 40
0.8862287984892807
 40
0.9001820473407011
 40
0.9098669389829881
 40
0.9295717830529514
 40
0.9595706314509491
 40
1.0
 40
1.0
 40
1.0
 40
1.0
 10
133.5093608691924
 20
150.9467257420051
 30
0.0
 10
133.5112781331245
 20
150.945129106969
 30
0.0
 10
133.5229333469449
 20
150.9354230240307
 30
0.0
 10
133.4980728168931
 20
150.9867946710738
 30
0.0
 10
133.4855183280331
 20
151.0566145412791
 30
0.0
 10
133.4589354595876
 20
151.1837686662025
 30
0.0
 10
133.4301384808597
 20
151.3634944750553
 30
0.0
 10
133.3963638738543
 20
151.6080663766157
 30
0.0
 10
133.3603873455054
 20
151.9131671248874
 30
0.0
 10
133.3239175349042
 20
152.2643655544069
 30
0.0
 10
133.2770836665591
 20
152.7637873069087
 30
0.0
 10
133.2278585088343
 20
153.3494157884695
 30
0.0
 10
133.177025524641
 20
153.9972186295932
 30
0.0
 10
133.1370236570137
 20
154.5234111819202
 30
0.0
 10
133.1013604552353
 20
154.998886145498
 30
0.0
 10
133.070966967856
 20
155.4042908366079
 30
0.0
 10
133.042732674525
 20
155.7779476484286
 30
0.0
 10
133.0152519959675
 20
156.1364334439355
 30
0.0
 10
132.9850608331022
 20
156.5209684833023
 30
0.0
 10
132.9518061269085
 20
156.9297971284637
 30
0.0
 10
132.9132751517346
 20
157.3778752454222
 30
0.0
 10
132.8697774629771
 20
157.8413035421001
 30
0.0
 10
132.8249832984021
 20
158.2619321489013
 30
0.0
 10
132.7824055037167
 20
158.6011753480666
 30
0.0
 10
132.7453591576403
 20
158.8454418740326
 30
0.0
 10
132.7138490530734
 20
159.0135717446839
 30
0.0
 10
132.6876786004805
 20
159.1245654985283
 30
0.0
 10
132.6641628108006
 20
159.2022144246878
 30
0.0
 10
132.6292810639795
 20
159.2837065394739
 30
0.0
 10
132.5758354848127
 20
159.3754971936052
 30
0.0
 10
132.4791219975019
 20
159.4806483017964
 30
0.0
 10
132.3952527504913
 20
159.4963098292172
 30
0.0
 10
132.3471075489753
 20
159.5053003402877
 30
0.0
  0
SPLINE
  5
D4
330
1F
100
AcDbEntity
  8
0
  6
Continuous
 62
     7
370
    18
100
AcDbSpline
210
0.0
220
0.0
230
1.0
 70
     8
 71
     3
 72
    36
 73
    32
 74
     0
 42
0.000000001
 43
0.00000001
 40
0.0
 40
0.0
 40
0.0
 40
0.0
 40
0.0113985528580872
 40
0.0206656073871841
 40
0.0301859903129626
 40
0.0426649559193761
 40
0.0581301305755886
 40
0.089114002637852
 40
0.1277995752173503
 40
0.1741782291698553
 40
0.2241165881829832
 40
0.2689459562568754
 40
0.3083302880627054
 40
0.3422144176336321
 40
0.3705737234817273
 40
0.3997975610112427
 40
0.4276990453271104
 40
0.4613442603068872
 40
0.5225310098561037
 40
0.5916165621446418
 40
0.6652004613094897
 40
0.7038203778653449
 40
0.743646924862791
 40
0.7962144246026726
 40
0.8431504480633317
 40
0.8842945619579055
 40
0.9113903885772856
 40
0.9354708230024826
 40
0.963485971458047
 40
0.9806496621072179
 40
1.0
 40
1.0
 40
1.0
 40
1.0
 10
131.469557677173
 20
151.0261340300071
 30
0.0
 10
131.4731302464826
 20
151.0287013041327
 30
0.0
 10
131.4796073243743
 20
151.033355779117
 30
0.0
 10
131.4832908884631
 20
151.043882549778
 30
0.0
 10
131.4798394615854
 20
151.0688042022977
 30
0.0
 10
131.4729713278823
 20
151.1077732235379
 30
0.0
 10
131.4590643669491
 20
151.1841084186292
 30
0.0
 10
131.4357179962088
 20
151.3237230139332
 30
0.0
 10
131.4014573427086
 20
151.5647680212832
 30
0.0
 10
131.3601392023786
 20
151.9102479244789
 30
0.0
 10
131.3164191489614
 20
152.3387249188201
 30
0.0
 10
131.2749056952097
 20
152.7944867535614
 30
0.0
 10
131.2382735751085
 20
153.227359120395
 30
0.0
 10
131.2066844956862
 20
153.6189907702527
 30
0.0
 10
131.1782067535708
 20
153.9831184831144
 30
0.0
 10
131.151538411922
 20
154.33140531591
 30
0.0
 10
131.1232184231385
 20
154.7066776284337
 30
0.0
 10
131.084951259561
 20
155.2176972442292
 30
0.0
 10
131.0338376910858
 20
155.8990493969055
 30
0.0
 10
130.9702444781518
 20
156.7157843183004
 30
0.0
 10
130.9133413682763
 20
157.3821103305327
 30
0.0
 10
130.8656469823624
 20
157.8785654756367
 30
0.0
 10
130.8244156160688
 20
158.26611397191
 30
0.0
 10
130.7804357904998
 20
158.6222268141306
 30
0.0
 10
130.7340480355441
 20
158.918985398241
 30
0.0
 10
130.6944940953937
 20
159.1107783397704
 30
0.0
 10
130.6565798228147
 20
159.2370953441309
 30
0.0
 10
130.6273784650835
 20
159.3171909299015
 30
0.0
 10
130.5627997507452
 20
159.4169027417823
 30
0.0
 10
130.460150105702
 20
159.4904125553972
 30
0.0
 10
130.3859903824776
 20
159.4997246925311
 30
0.0
 10
130.3466899886363
 20
159.5046595903564
 30
0.0
  0
SPLINE
  5
D5
330
1F
100
AcDbEntity
  8
0
  6
Continuous
 62
     7
370
    18
100
AcDbSpline
210
0.0
220
0.0
230
1.0
 70
     8
 71
     3
 72
    36
 73
    32
 74
     0
 42
0.000000001
 43
0.00000001
 40
0.0
 40
0.0
 40
0.0
 40
0.0
 40
0.0041916667412295
 40
0.0278797783789734
 40
0.0546822411747426
 40
0.0846744967916239
 40
0.1178841172627864
 40
0.1543226300536824
 40
0.1933546608719813
 40
0.2317760488973467
 40
0.2691072815352249
 40
0.34041194134828
 40
0.4074789921672463
 40
0.4656337727711477
 40
0.4973025031116635
 40
0.5235130771591104
 40
0.5541266892723761
 40
0.5833891922654527
 40
0.6180767043794129
 40
0.6581981979806816
 40
0.703740496430627
 40
0.7533545440917749
 40
0.7973931396542222
 40
0.8339492254753078
 40
0.8629837637007377
 40
0.8844550585258077
 40
0.898343737633982
 40
0.9081582713775674
 40
0.92823034641149
 40
0.9588142573911288
 40
1.0
 40
1.0
 40
1.0
 40
1.0
 10
130.1919339790576
 20
159.070871421181
 30
0.0
 10
130.1901662050869
 20
159.0724505071394
 30
0.0
 10
130.1784083174561
 20
159.0829533856552
 30
0.0
 10
130.2045112482348
 20
159.0316658449038
 30
0.0
 10
130.2171900003808
 20
158.9632157152923
 30
0.0
 10
130.2441795721739
 20
158.8358974326382
 30
0.0
 10
130.273104548101
 20
158.6550381032926
 30
0.0
 10
130.3068538956202
 20
158.4094242128684
 30
0.0
 10
130.3426826560964
 20
158.1043814775101
 30
0.0
 10
130.3789475542982
 20
157.7552400953408
 30
0.0
 10
130.4255764669668
 20
157.2608804946576
 30
0.0
 10
130.4817086399308
 20
156.5954839706913
 30
0.0
 10
130.5444096603717
 20
155.7858588412073
 30
0.0
 10
130.5944853865992
 20
155.1174630993681
 30
0.0
 10
130.6315167082093
 20
154.6232169848292
 30
0.0
 10
130.6597739997272
 20
154.2492869046475
 30
0.0
 10
130.6872778373433
 20
153.8908012317389
 30
0.0
 10
130.7174960735253
 20
153.50634453165
 30
0.0
 10
130.7507773677301
 20
153.097383752647
 30
0.0
 10
130.7893231621973
 20
152.6487243476591
 30
0.0
 10
130.8328000206469
 20
152.1829103819132
 30
0.0
 10
130.8776454903312
 20
151.7584652169993
 30
0.0
 10
130.9202699842258
 20
151.4189648681859
 30
0.0
 10
130.9572994660837
 20
151.1754938921851
 30
0.0
 10
130.9887963928367
 20
151.0078154280371
 30
0.0
 10
131.0148505305492
 20
150.8968819102007
 30
0.0
 10
131.0385039724434
 20
150.8184245252665
 30
0.0
 10
131.0735175425588
 20
150.7357192245152
 30
0.0
 10
131.1272725814895
 20
150.6416393761125
 30
0.0
 10
131.2245449268603
 20
150.5328299374284
 30
0.0
 10
131.3089444749366
 20
150.5170133469213
 30
0.0
 10
131.3573780104154
 20
150.5079368362653
 30
0.0
  0
SPLINE
  5
D6
330
1F
100
AcDbEntity
  8
0
  6
Continuous
 62
     7
370
    18
100
AcDbSpline
210
0.0
220
0.0
230
1.0
 70
     8
 71
     3
 72
    37
 73
    33
 74
     0
 42
0.000000001
 43
0.00000001
 40
0.0
 40
0.0
 40
0.0
 40
0.0
 40
0.0091195754558116
 40
0.018338882020648
 40
0.0278871805824856
 40
0.0403897283696298
 40
0.0558775277739941
 40
0.0869104824934119
 40
0.1256862396182595
 40
0.1721940805478245
 40
0.2221881037038947
 40
0.2670014900111935
 40
0.3063928008408709
 40
0.340324162435514
 40
0.3687512337995978
 40
0.3980593752278742
 40
0.4260205181815207
 40
0.4596993207489123
 40
0.4991153844757045
 40
0.5435380520511515
 40
0.5903120728360227
 40
0.6643296518557129
 40
0.7031507839623383
 40
0.7431892398366744
 40
0.7960859839194198
 40
0.8432836181386023
 40
0.8845530303337958
 40
0.9116180882782909
 40
0.9355652923160017
 40
0.963482308613476
 40
0.9806321896966175
 40
0.9999999999999999
 40
0.9999999999999999
 40
0.9999999999999999
 40
0.9999999999999999
 10
132.2315471812719
 20
158.991152071439
 30
0.0
 10
132.2285987034894
 20
158.9894240465582
 30
0.0
 10
132.222669503555
 20
158.985949099224
 30
0.0
 10
132.2193785786066
 20
158.9766351203575
 30
0.0
 10
132.2227892819854
 20
158.9520826689522
 30
0.0
 10
132.229671653801
 20
158.9133138677515
 30
0.0
 10
132.2435789897229
 20
158.8370079334871
 30
0.0
 10
132.2669410184172
 20
158.6969489371087
 30
0.0
 10
132.3011960030725
 20
158.4552650750997
 30
0.0
 10
132.3424509606287
 20
158.1109797001801
 30
0.0
 10
132.3861433932407
 20
157.6866220548873
 30
0.0
 10
132.4276719798302
 20
157.2324712157194
 30
0.0
 10
132.4642897459978
 20
156.8000037261093
 30
0.0
 10
132.4958525221948
 20
156.4084019342272
 30
0.0
 10
132.5243104372398
 20
156.0441727277064
 30
0.0
 10
132.5509579273782
 20
155.6959155028574
 30
0.0
 10
132.5792586929779
 20
155.3209605739298
 30
0.0
 10
132.6107344750079
 20
154.9009379526681
 30
0.0
 10
132.6473480557596
 20
154.4131866201923
 30
0.0
 10
132.6880158733424
 20
153.8799804440926
 30
0.0
 10
132.7394187640114
 20
153.2288831564776
 30
0.0
 10
132.7893443258216
 20
152.6415987663322
 30
0.0
 10
132.8372653393049
 20
152.1403328110718
 30
0.0
 10
132.8787250472691
 20
151.7510781026301
 30
0.0
 10
132.9229003111598
 20
151.3951509475359
 30
0.0
 10
132.9693859523325
 20
151.0990189150266
 30
0.0
 10
133.0089175494311
 20
150.9059899682228
 30
0.0
 10
133.0467563145868
 20
150.7778111983612
 30
0.0
 10
133.0758907472339
 20
150.6964396598852
 30
0.0
 10
133.1404538261232
 20
150.5964676999442
 30
0.0
 10
133.2430519748611
 20
150.5231632834154
 30
0.0
 10
133.3171388278674
 20
150.5141138115155
 30
0.0
 10
133.3564321145051
 20
150.5093142623532
 30
0.0
  0
SPLINE
  5
D7
330
1F
100
AcDbEntity
  8
0
  6
Continuous
 62
     7
370
    18
100
AcDbSpline
210
0.0
220
0.0
230
1.0
 70
     8
 71
     3
 72
    37
 73
    33
 74
     0
 42
0.000000001
 43
0.00000001
 40
0.0
 40
0.0
 40
0.0
 40
0.0
 40
0.0047433288695805
 40
0.0280743135330978
 40
0.0550238238598324
 40
0.0856839212321798
 40
0.1200526491733779
 40
0.1581018394366671
 40
0.1989273193241971
 40
0.2382260149474783
 40
0.2754373523112342
 40
0.3105459560090653
 40
0.3435192927897512
 40
0.4030099446226074
 40
0.4560529707835993
 40
0.4883352550600882
 40
0.519383627962508
 40
0.5564798797816507
 40
0.5890579755445499
 40
0.6257001662644717
 40
0.6664084604813778
 40
0.7112346748001812
 40
0.7591406111273533
 40
0.8017221896148237
 40
0.8372002008293276
 40
0.8655597072773202
 40
0.8867923266001685
 40
0.9008955351676222
 40
0.9106373316047175
 40
0.9302406925445108
 40
0.9599856283448711
 40
0.9999999999999999
 40
0.9999999999999999
 40
0.9999999999999999
 40
0.9999999999999999
 10
134.1940692260497
 20
159.0688602300811
 30
0.0
 10
134.1920770379119
 20
159.0704989954727
 30
0.0
 10
134.1802858853401
 20
159.0801983468513
 30
0.0
 10
134.2055992717218
 20
159.0275069655507
 30
0.0
 10
134.2186399090573
 20
158.9552201756594
 30
0.0
 10
134.2461335611962
 20
158.8228472551245
 30
0.0
 10
134.2760462691551
 20
158.6342278185586
 30
0.0
 10
134.3111890146928
 20
158.3760252791776
 30
0.0
 10
134.3483694317882
 20
158.054915129949
 30
0.0
 10
134.3854418748756
 20
157.6904104020663
 30
0.0
 10
134.4207855312695
 20
157.307790092811
 30
0.0
 10
134.4541790297629
 20
156.9202148141165
 30
0.0
 10
134.4946783403649
 20
156.4257009255705
 30
0.0
 10
134.5410602076378
 20
155.8291179068822
 30
0.0
 10
134.5872666752217
 20
155.2150087323729
 30
0.0
 10
134.6243350899183
 20
154.7199471735747
 30
0.0
 10
134.6562985651934
 20
154.2954668651531
 30
0.0
 10
134.6883685654307
 20
153.8762113880177
 30
0.0
 10
134.7222470367821
 20
153.4457060857325
 30
0.0
 10
134.7573562641761
 20
153.0171020635079
 30
0.0
 10
134.7964923882874
 20
152.5678220495895
 30
0.0
 10
134.8393609625756
 20
152.1188971301282
 30
0.0
 10
134.8828058236064
 20
151.717030534628
 30
0.0
 10
134.9239115181465
 20
151.3936001573972
 30
0.0
 10
134.959862426395
 20
151.1590132665794
 30
0.0
 10
134.9906732564909
 20
150.9960345303146
 30
0.0
 10
135.0167030428425
 20
150.8868458826753
 30
0.0
 10
135.0401633514435
 20
150.8101784973115
 30
0.0
 10
135.074952341198
 20
150.7295746900289
 30
0.0
 10
135.1284147482381
 20
150.6388118081674
 30
0.0
 10
135.2247895391208
 20
150.535132731581
 30
0.0
 10
135.3084771424836
 20
150.5194928533051
 30
0.0
 10
135.3564808711046
 20
150.5105217220712
 30
0.0
  0
SPLINE
  5
D8
330
1F
100
AcDbEntity
  8
0
  6
Continuous
 62
     7
370
    18
100
AcDbSpline
210
0.0
220
0.0
230
1.0
 70
     8
 71
     3
 72
    22
 73
    18
 74
     0
 42
0.000000001
 43
0.00000001
 40
0.0
 40
0.0
 40
0.0
 40
0.0
 40
0.0171029423565698
 40
0.0378629098242527
 40
0.0633069877659851
 40
0.1004285965399289
 40
0.1493910615202097
 40
0.2102545960597318
 40
0.2830284129386717
 40
0.3677287212037397
 40
0.4584769390664359
 40
0.5492484319031594
 40
0.6399649936874204
 40
0.7305358478140203
 40
0.8209277041971719
 40
0.9112213534638898
 40
1.0
 40
1.0
 40
1.0
 40
1.0
 10
136.2353383198017
 20
158.9870896423686
 30
0.0
 10
136.2326348548174
 20
158.9852999397176
 30
0.0
 10
136.2266498582726
 20
158.9813378524539
 30
0.0
 10
136.2211492331794
 20
158.9728780585774
 30
0.0
 10
136.2231141757075
 20
158.9470212583606
 30
0.0
 10
136.2337068709637
 20
158.8902262113343
 30
0.0
 10
136.250991917305
 20
158.7930227974712
 30
0.0
 10
136.2752846415181
 20
158.6407754828632
 30
0.0
 10
136.3058380999227
 20
158.4191377630699
 30
0.0
 10
136.3416146598911
 20
158.1176696191897
 30
0.0
 10
136.3802436741215
 20
157.7447334401371
 30
0.0
 10
136.419771850059
 20
157.3203104213617
 30
0.0
 10
136.4593716101375
 20
156.85970889617
 30
0.0
 10
136.499012614619
 20
156.3703402994152
 30
0.0
 10
136.5386913235336
 20
155.8593969445104
 30
0.0
 10
136.5781398810775
 20
155.3374292570849
 30
0.0
 10
136.6043315222724
 20
154.9876014417736
 30
0.0
 10
136.6173165484899
 20
154.8141673556979
 30
0.0
  0
SPLINE
  5
D9
330
1F
100
AcDbEntity
  8
0
  6
Continuous
 62
     7
370
    18
100
AcDbSpline
210
0.0
220
0.0
230
1.0
 70
     8
 71
     3
 72
    14
 73
    10
 74
     0
 42
0.000000001
 43
0.00000001
 40
0.0
 40
0.0
 40
0.0
 40
0.0
 40
0.0921524378257085
 40
0.1772716438070713
 40
0.3299333933372942
 40
0.4870861932261565
 40
0.6618606316385943
 40
0.8542238819717365
 40
1.0
 40
1.0
 40
1.0
 40
1.0
 10
136.3562724187606
 20
159.5076416852403
 30
0.0
 10
136.3188283217087
 20
159.5031113591687
 30
0.0
 10
136.246797925206
 20
159.4943964692683
 30
0.0
 10
136.1482843171792
 20
159.4252948046346
 30
0.0
 10
136.09290362476
 20
159.3457894259539
 30
0.0
 10
136.0519477956614
 20
159.2483448272149
 30
0.0
 10
136.0108320120589
 20
159.1079260189824
 30
0.0
 10
135.9762278087204
 20
158.9479434244823
 30
0.0
 10
135.9552469059654
 20
158.8150159958622
 30
0.0
 10
135.9462017759317
 20
158.757709316023
 30
0.0
  0
SPLINE
  5
DA
330
1F
100
AcDbEntity
  8
0
  6
Continuous
 62
     7
370
    18
100
AcDbSpline
210
0.0
220
0.0
230
1.0
 70
     8
 71
     3
 72
    15
 73
    11
 74
     0
 42
0.000000001
 43
0.00000001
 40
0.0
 40
0.0
 40
0.0
 40
0.0
 40
0.0540406369329344
 40
0.1054512930382196
 40
0.2024399163585958
 40
0.2980844480502329
 40
0.3942290011971746
 40
0.588680223094144
 40
0.791521920983896
 40
1.0
 40
1.0
 40
1.0
 40
1.0
 10
134.3571140065425
 20
159.5068309689391
 30
0.0
 10
134.3165663388402
 20
159.501375699605
 30
0.0
 10
134.2374443256374
 20
159.4907306510306
 30
0.0
 10
134.1317558089591
 20
159.4083686565638
 30
0.0
 10
134.0764836095751
 20
159.3150582535481
 30
0.0
 10
134.0332389998249
 20
159.1956318865632
 30
0.0
 10
133.9807820330343
 20
158.9879945651898
 30
0.0
 10
133.9257767363127
 20
158.6535212903241
 30
0.0
 10
133.8603748073783
 20
158.1172829765394
 30
0.0
 10
133.8161821675389
 20
157.6463847774625
 30
0.0
 10
133.7937830581897
 20
157.4077092810053
 30
0.0
  0
SPLINE
  5
DB
330
1F
100
AcDbEntity
  8
0
  6
Continuous
 62
     7
370
    18
100
AcDbSpline
210
0.0
220
0.0
230
1.0
 70
     8
 71
     3
 72
     9
 73
     5
 74
     0
 42
0.000000001
 43
0.00000001
 40
0.0
 40
0.0
 40
0.0
 40
0.0
 40
0.2236116939841414
 40
0.9999999999999999
 40
0.9999999999999999
 40
0.9999999999999999
 40
0.9999999999999999
 10
133.4109033092492
 20
152.6077092858482
 30
0.0
 10
133.4064888080204
 20
152.5579517290209
 30
0.0
 10
133.3867469906309
 20
152.335434042487
 30
0.0
 10
133.3671188604792
 20
152.1476682437466
 30
0.0
 10
133.3518798097604
 20
152.001889073335
 30
0.0
  0
SPLINE
  5
DC
330
1F
100
AcDbEntity
  8
0
  6
Continuous
 62
     7
370
    18
100
AcDbSpline
210
0.0
220
0.0
230
1.0
 70
     8
 71
     3
 72
    18
 73
    14
 74
     0
 42
0.000000001
 43
0.00000001
 40
0.0
 40
0.0
 40
0.0
 40
0.0
 40
0.0544488061299871
 40
0.1046640277488505
 40
0.194012447527843
 40
0.2836450204877456
 40
0.3809161489669569
 40
0.485899719330175
 40
0.5987861070459092
 40
0.7197925432247416
 40
0.8403171423765254
 40
0.9871457374905861
 40
1.0
 40
1.0
 40
1.0
 40
1.0
 10
132.357538361811
 20
159.5053026685941
 30
0.0
 10
132.3190795003762
 20
159.5006073753751
 30
0.0
 10
132.2451520880691
 20
159.4915818643549
 30
0.0
 10
132.1438033318841
 20
159.4185705442179
 30
0.0
 10
132.085630976583
 20
159.3314293520577
 30
0.0
 10
132.0426078761667
 20
159.2221522441577
 30
0.0
 10
132.000847454841
 20
159.0704438520366
 30
0.0
 10
131.9621541511972
 20
158.8735857215534
 30
0.0
 10
131.9232710316058
 20
158.6196506694851
 30
0.0
 10
131.8845105542873
 20
158.3127067713488
 30
0.0
 10
131.8425530313797
 20
157.9250373299907
 30
0.0
 10
131.8122795544984
 20
157.6201731813215
 30
0.0
 10
131.7950969868577
 20
157.4235381458103
 30
0.0
 10
131.7937138124936
 20
157.4077092810053
 30
0.0
  0
SPLINE
  5
DD
330
1F
100
AcDbEntity
  8
0
  6
Continuous
 62
     7
370
    18
100
AcDbSpline
210
0.0
220
0.0
230
1.0
 70
     8
 71
     3
 72
    10
 73
     6
 74
     0
 42
0.000000001
 43
0.00000001
 40
0.0
 40
0.0
 40
0.0
 40
0.0
 40
0.0359253365099303
 40
0.6987105388309793
 40
1.0
 40
1.0
 40
1.0
 40
1.0
 10
131.4112717851633
 20
152.6077092858482
 30
0.0
 10
131.4105552572971
 20
152.5995672780871
 30
0.0
 10
131.3966195333734
 20
152.4412136707853
 30
0.0
 10
131.3767239330455
 20
152.2337323995575
 30
0.0
 10
131.3576219336206
 20
152.0590443214751
 30
0.0
 10
131.3516522392267
 20
152.0044513745684
 30
0.0
  0
SPLINE
  5
DE
330
1F
100
AcDbEntity
  8
0
  6
Continuous
 62
     7
370
    18
100
AcDbSpline
210
0.0
220
0.0
230
1.0
 70
     8
 71
     3
 72
    14
 73
    10
 74
     0
 42
0.000000001
 43
0.00000001
 40
0.0
 40
0.0
 40
0.0
 40
0.0
 40
0.0546676128794748
 40
0.12954752474959
 40
0.2248851557784939
 40
0.3405134132686024
 40
0.5256714128457805
 40
0.7456624111924619
 40
1.0
 40
1.0
 40
1.0
 40
1.0
 10
130.3571152135366
 20
159.5046470175016
 30
0.0
 10
130.3348274658211
 20
159.5031077004713
 30
0.0
 10
130.2820115041081
 20
159.499459933529
 30
0.0
 10
130.2239535215087
 20
159.4720011231471
 30
0.0
 10
130.1635917681765
 20
159.4255916689639
 30
0.0
 10
130.0995814566772
 20
159.339624518962
 30
0.0
 10
130.0350559178928
 20
159.1900454719739
 30
0.0
 10
129.9726828956832
 20
158.9432434139375
 30
0.0
 10
129.9375853750357
 20
158.7057600539275
 30
0.0
 10
129.918765892052
 20
158.5784201743531
 30
0.0
  0
LINE
  5
DF
330
1F
100
AcDbEntity
  8
0
  6
Continuous
 62
     7
370
    18
100
AcDbLine
 10
157.880277057
 20
157.0883862442
 30
0.0
 11
157.2802780762
 21
157.0883862442
 31
0.0
  0
LINE
  5
E0
330
1F
100
AcDbEntity
  8
0
  6
Continuous
 62
     7
370
    18
100
AcDbLine
 10
157.880277057
 20
151.5077092918
 30
0.0
 11
157.880277057
 21
157.0883862442
 31
0.0
  0
LINE
  5
E1
330
1F
100
AcDbEntity
  8
0
  6
Continuous
 62
     7
370
    18
100
AcDbLine
 10
157.2802780762
 20
151.5077092918
 30
0.0
 11
157.2802780762
 21
157.0883862442
 31
0.0
  0
LINE
  5
E2
330
1F
100
AcDbEntity
  8
0
  6
Continuous
 62
     7
370
    18
100
AcDbLine
 10
157.880277057
 20
157.1694904706
 30
0.0
 11
157.880277057
 21
157.0883862442
 31
0.0
  0
LINE
  5
E3
330
1F
100
AcDbEntity
  8
0
  6
Continuous
 62
     7
370
    18
100
AcDbLine
 10
157.2802780762
 20
157.0883862442
 30
0.0
 11
157.2802780762
 21
157.1694904706
 31
0.0
  0
LINE
  5
E4
330
1F
100
AcDbEntity
  8
0
  6
Continuous
 62
     7
370
    18
100
AcDbLine
 10
157.880277057
 20
157.7955122339
 30
0.0
 11
157.2802780762
 21
157.7955122339
 31
0.0
  0
LINE
  5
E5
330
1F
100
AcDbEntity
  8
0
  6
Continuous
 62
     7
370
    18
100
AcDbLine
 10
157.880277057
 20
157.2077093879
 30
0.0
 11
157.880277057
 21
157.7955122339
 31
0.0
  0
LINE
  5
E6
330
1F
100
AcDbEntity
  8
0
  6
Continuous
 62
     7
370
    18
100
AcDbLine
 10
157.2802780762
 20
157.1694904706
 30
0.0
 11
157.2802780762
 21
157.7955122339
 31
0.0
  0
LINE
  5
E7
330
1F
100
AcDbEntity
  8
0
  6
Continuous
 62
     7
370
    18
100
AcDbLine
 10
157.880277057
 20
157.9429149861
 30
0.0
 11
157.880277057
 21
157.7955122339
 31
0.0
  0
LINE
  5
E8
330
1F
100
AcDbEntity
  8
0
  6
Continuous
 62
     7
370
    18
100
AcDbLine
 10
157.2802780762
 20
157.7955122339
 30
0.0
 11
157.2802780762
 21
157.9429149861
 31
0.0
  0
LINE
  5
E9
330
1F
100
AcDbEntity
  8
0
  6
Continuous
 62
     7
370
    18
100
AcDbLine
 10
123.1802773296
 20
160.707709496
 30
0.0
 11
123.1802773296
 21
149.3077093037
 31
0.0
  0
SPLINE
  5
EA
330
1F
100
AcDbEntity
  8
0
  6
Continuous
 62
     7
370
    18
100
AcDbSpline
210
0.0
220
0.0
230
1.0
 70
     8
 71
     3
 72
    14
 73
    10
 74
     0
 42
0.000000001
 43
0.00000001
 40
0.0
 40
0.0
 40
0.0
 40
0.0
 40
0.1249999999999998
 40
0.1249999999999998
 40
0.2499999999999996
 40
0.2499999999999996
 40
0.4999999999999992
 40
0.4999999999999992
 40
1.0
 40
1.0
 40
1.0
 40
1.0
 10
121.180277664923
 20
149.587607884541
 30
0.0
 10
121.180277664923
 20
149.5388511716997
 30
0.0
 10
121.188309895377
 20
149.4960998294008
 30
0.0
 10
121.2095801065906
 20
149.4182281178159
 30
0.0
 10
121.2231291121594
 20
149.3837010192007
 30
0.0
 10
121.2665618933327
 20
149.2910058701267
 30
0.0
 10
121.299163696512
 20
149.2433310271936
 30
0.0
 10
121.3905373604456
 20
149.1284378261841
 30
0.0
 10
121.4431791852952
 20
149.0878407311125
 30
0.0
 10
121.4802776649231
 20
149.0618081245869
 30
0.0
  0
LINE
  5
EB
330
1F
100
AcDbEntity
  8
0
  6
Continuous
 62
     7
370
    18
100
AcDbLine
 10
121.1802779331
 20
149.587608059
 30
0.0
 11
121.1802779331
 21
160.707709496
 31
0.0
  0
LINE
  5
EC
330
1F
100
AcDbEntity
  8
0
  6
Continuous
 62
     7
370
    18
100
AcDbLine
 10
125.1802785888
 20
158.45770936
 30
0.0
 11
125.1802785888
 21
153.9534609765
 31
0.0
  0
LINE
  5
ED
330
1F
100
AcDbEntity
  8
0
  6
Continuous
 62
     7
370
    18
100
AcDbLine
 10
117.1802772775
 20
151.9861203852
 30
0.0
 11
117.1802772775
 21
153.9577093209
 31
0.0
  0
SPLINE
  5
EE
330
1F
100
AcDbEntity
  8
0
  6
Continuous
 62
     7
370
    18
100
AcDbSpline
210
0.0
220
0.0
230
1.0
 70
     8
 71
     3
 72
    12
 73
     8
 74
     0
 42
0.000000001
 43
0.00000001
 40
0.0
 40
0.0
 40
0.0
 40
0.0
 40
0.2500000000000004
 40
0.2500000000000004
 40
0.5000000000000009
 40
0.5000000000000009
 40
1.0
 40
1.0
 40
1.0
 40
1.0
 10
116.8802776649286
 20
151.537839045026
 30
0.0
 10
116.9296896626222
 20
151.5378390450273
 30
0.0
 10
116.9788985376241
 20
151.5567702086201
 30
0.0
 10
117.0582626406242
 20
151.6166235463899
 30
0.0
 10
117.0899349011779
 20
151.6571202100471
 30
0.0
 10
117.1610453947155
 20
151.7872272654881
 30
0.0
 10
117.180277664923
 20
151.8871549721737
 30
0.0
 10
117.180277664923
 20
151.9861203736582
 30
0.0
  0
LINE
  5
EF
330
1F
100
AcDbEntity
  8
0
  6
Continuous
 62
     7
370
    18
100
AcDbLine
 10
115.480277837
 20
151.5378389741
 30
0.0
 11
116.8802777871
 21
151.5378389741
 31
0.0
  0
SPLINE
  5
F0
330
1F
100
AcDbEntity
  8
0
  6
Continuous
 62
     7
370
    18
100
AcDbSpline
210
0.0
220
0.0
230
1.0
 70
     8
 71
     3
 72
    12
 73
     8
 74
     0
 42
0.000000001
 43
0.00000001
 40
0.0
 40
0.0
 40
0.0
 40
0.0
 40
0.4999999999999989
 40
0.4999999999999989
 40
0.7499999999999994
 40
0.7499999999999994
 40
1.0
 40
1.0
 40
1.0
 40
1.0
 10
115.180277664923
 20
151.9861203736582
 30
0.0
 10
115.180277664923
 20
151.88751549848
 30
0.0
 10
115.1993315706905
 20
151.7876392148134
 30
0.0
 10
115.2705773408271
 20
151.6571563618714
 30
0.0
 10
115.3018010433759
 20
151.6170815652351
 30
0.0
 10
115.3815272524676
 20
151.5567813408018
 30
0.0
 10
115.4306822441172
 20
151.537839045026
 30
0.0
 10
115.4802776649231
 20
151.537839045026
 30
0.0
  0
LINE
  5
F1
330
1F
100
AcDbEntity
  8
0
  6
Continuous
 62
     7
370
    18
100
AcDbLine
 10
115.180277881
 20
151.9861203852
 30
0.0
 11
115.180277881
 21
158.0292984145
 31
0.0
  0
SPLINE
  5
F2
330
1F
100
AcDbEntity
  8
0
  6
Continuous
 62
     7
370
    18
100
AcDbSpline
210
0.0
220
0.0
230
1.0
 70
     8
 71
     3
 72
    12
 73
     8
 74
     0
 42
0.000000001
 43
0.00000001
 40
0.0
 40
0.0
 40
0.0
 40
0.0
 40
0.25
 40
0.25
 40
0.5
 40
0.5
 40
1.0
 40
1.0
 40
1.0
 40
1.0
 10
115.4802776649231
 20
158.4775796741856
 30
0.0
 10
115.4307961580791
 20
158.4775796741856
 30
0.0
 10
115.3815313617126
 20
158.4585987025383
 30
0.0
 10
115.302095998797
 20
158.3986018677662
 30
0.0
 10
115.2708819565258
 20
158.3587575713267
 30
0.0
 10
115.1991063134351
 20
158.2274918029268
 30
0.0
 10
115.180277664923
 20
158.1275565856373
 30
0.0
 10
115.180277664923
 20
158.0292983455535
 30
0.0
  0
LINE
  5
F3
330
1F
100
AcDbEntity
  8
0
  6
Continuous
 62
     7
370
    18
100
AcDbLine
 10
116.8802777871
 20
158.4775795928
 30
0.0
 11
115.480277837
 21
158.4775795928
 31
0.0
  0
SPLINE
  5
F4
330
1F
100
AcDbEntity
  8
0
  6
Continuous
 62
     7
370
    18
100
AcDbSpline
210
0.0
220
0.0
230
1.0
 70
     8
 71
     3
 72
    12
 73
     8
 74
     0
 42
0.000000001
 43
0.00000001
 40
0.0
 40
0.0
 40
0.0
 40
0.0
 40
0.500000000000001
 40
0.500000000000001
 40
0.7500000000000004
 40
0.7500000000000004
 40
1.0
 40
1.0
 40
1.0
 40
1.0
 10
117.1802776649231
 20
158.0292983455535
 30
0.0
 10
117.1802776649231
 20
158.1276466534962
 30
0.0
 10
117.1609667669299
 20
158.2285982095533
 30
0.0
 10
117.0895658816035
 20
158.358841105228
 30
0.0
 10
117.0581442672748
 20
158.3988854491526
 30
0.0
 10
116.9790096751067
 20
158.4585636911796
 30
0.0
 10
116.9297252005604
 20
158.4775796741863
 30
0.0
 10
116.8802776649231
 20
158.4775796741863
 30
0.0
  0
LINE
  5
F5
330
1F
100
AcDbEntity
  8
0
  6
Continuous
 62
     7
370
    18
100
AcDbLine
 10
117.1802772775
 20
156.0577093624
 30
0.0
 11
117.1802772775
 21
158.0292984145
 31
0.0
  0
LINE
  5
F6
330
1F
100
AcDbEntity
  8
0
  6
Continuous
 62
     7
370
    18
100
AcDbLine
 10
121.1802779331
 20
156.0577093624
 30
0.0
 11
117.1802772775
 21
156.0577093624
 31
0.0
  0
LINE
  5
F7
330
1F
100
AcDbEntity
  8
0
  6
Continuous
 62
     7
370
    18
100
AcDbLine
 10
117.1802772775
 20
153.9577093209
 30
0.0
 11
121.1802779331
 21
153.9577093209
 31
0.0
  0
LINE
  5
F8
330
1F
100
AcDbEntity
  8
0
  6
Continuous
 62
     7
370
    18
100
AcDbLine
 10
115.180277881
 20
158.0292984145
 30
0.0
 11
115.180277881
 21
159.707709332
 31
0.0
  0
LINE
  5
F9
330
1F
100
AcDbEntity
  8
0
  6
Continuous
 62
     7
370
    18
100
AcDbLine
 10
117.1802772775
 20
159.707709332
 30
0.0
 11
117.1802772775
 21
158.0292984145
 31
0.0
  0
LINE
  5
FA
330
1F
100
AcDbEntity
  8
0
  6
Continuous
 62
     7
370
    18
100
AcDbLine
 10
116.8802777871
 20
150.0715288567
 30
0.0
 11
116.8802777871
 21
151.5378389741
 31
0.0
  0
LINE
  5
FB
330
1F
100
AcDbEntity
  8
0
  6
Continuous
 62
     7
370
    18
100
AcDbLine
 10
117.1802772775
 20
151.9861203852
 30
0.0
 11
117.1802772775
 21
150.6513921777
 31
0.0
  0
SPLINE
  5
FC
330
1F
100
AcDbEntity
  8
0
  6
Continuous
 62
     7
370
    18
100
AcDbSpline
210
0.0
220
0.0
230
1.0
 70
     8
 71
     3
 72
    14
 73
    10
 74
     0
 42
0.000000001
 43
0.00000001
 40
0.0
 40
0.0
 40
0.0
 40
0.0
 40
0.5000000000000009
 40
0.5000000000000009
 40
0.7500000000000004
 40
0.7500000000000004
 40
0.8750000000000002
 40
0.8750000000000002
 40
1.0
 40
1.0
 40
1.0
 40
1.0
 10
116.880277664923
 20
150.0715288993218
 30
0.0
 10
116.9184481193324
 20
150.1031868211771
 30
0.0
 10
116.9734372644298
 20
150.152642929737
 30
0.0
 10
117.0660469106813
 20
150.2845252264273
 30
0.0
 10
117.09847506709
 20
150.3384042788111
 30
0.0
 10
117.1403099142896
 20
150.4389463928595
 30
0.0
 10
117.1531508842203
 20
150.4759533220547
 30
0.0
 10
117.1729576457208
 20
150.5575327701069
 30
0.0
 10
117.180277664923
 20
150.6021657915466
 30
0.0
 10
117.180277664923
 20
150.6513921076142
 30
0.0
  0
LINE
  5
FD
330
1F
100
AcDbEntity
  8
0
  6
Continuous
 62
     7
370
    18
100
AcDbLine
 10
115.180277881
 20
150.3077094676
 30
0.0
 11
115.180277881
 21
151.9861203852
 31
0.0
  0
SPLINE
  5
FE
330
1F
100
AcDbEntity
  8
0
  6
Continuous
 62
     7
370
    18
100
AcDbSpline
210
0.0
220
0.0
230
1.0
 70
     8
 71
     3
 72
    14
 73
    10
 74
     0
 42
0.000000001
 43
0.00000001
 40
0.0
 40
0.0
 40
0.0
 40
0.0
 40
0.25
 40
0.25
 40
0.5
 40
0.5
 40
0.75
 40
0.75
 40
1.0
 40
1.0
 40
1.0
 40
1.0
 10
120.6721143996169
 20
151.5922186418638
 30
0.0
 10
120.7143575989798
 20
151.5737674259746
 30
0.0
 10
120.7693592176887
 20
151.5616315564698
 30
0.0
 10
120.8894025428742
 20
151.5528359310815
 30
0.0
 10
120.9527962390059
 20
151.5564564860687
 30
0.0
 10
121.0614991188531
 20
151.5784631432829
 30
0.0
 10
121.1064532269797
 20
151.5968253045812
 30
0.0
 10
121.1654493412149
 20
151.6424191982185
 30
0.0
 10
121.180277664923
 20
151.669741265084
 30
0.0
 10
121.180277664923
 20
151.698630938051
 30
0.0
  0
SPLINE
  5
FF
330
1F
100
AcDbEntity
  8
0
  6
Continuous
 62
     7
370
    18
100
AcDbSpline
210
0.0
220
0.0
230
1.0
 70
     8
 71
     3
 72
    20
 73
    16
 74
     0
 42
0.000000001
 43
0.00000001
 40
0.0
 40
0.0
 40
0.0
 40
0.0
 40
0.1249999999999998
 40
0.1249999999999998
 40
0.2499999999999997
 40
0.2499999999999997
 40
0.3749999999999996
 40
0.3749999999999996
 40
0.4999999999999994
 40
0.4999999999999994
 40
0.6249999999999993
 40
0.6249999999999993
 40
0.7499999999999992
 40
0.7499999999999992
 40
1.0
 40
1.0
 40
1.0
 40
1.0
 10
120.6721143996169
 20
151.5922186418638
 30
0.0
 10
120.5756951085498
 20
151.6343331876887
 30
0.0
 10
120.4696534756025
 20
151.6773455957435
 30
0.0
 10
120.2433456324765
 20
151.7582561252723
 30
0.0
 10
120.124138733497
 20
151.7958451393913
 30
0.0
 10
119.8723369549363
 20
151.8606243411772
 30
0.0
 10
119.7378182691494
 20
151.8880265423543
 30
0.0
 10
119.4637679517231
 20
151.9251882976172
 30
0.0
 10
119.3243906198224
 20
151.9351485245339
 30
0.0
 10
119.0405704732186
 20
151.9353520169678
 30
0.0
 10
118.8998306705562
 20
151.9254535378122
 30
0.0
 10
118.6264238917905
 20
151.8886703351073
 30
0.0
 10
118.4916191091968
 20
151.8614084006824
 30
0.0
 10
118.1109544343407
 20
151.7637474852226
 30
0.0
 10
117.8815102477583
 20
151.6765485153827
 30
0.0
 10
117.6884409302292
 20
151.5922186418638
 30
0.0
  0
SPLINE
  5
100
330
1F
100
AcDbEntity
  8
0
  6
Continuous
 62
     7
370
    18
100
AcDbSpline
210
0.0
220
0.0
230
1.0
 70
     8
 71
     3
 72
    14
 73
    10
 74
     0
 42
0.000000001
 43
0.00000001
 40
0.0
 40
0.0
 40
0.0
 40
0.0
 40
0.25
 40
0.25
 40
0.5
 40
0.5
 40
0.75
 40
0.75
 40
1.0
 40
1.0
 40
1.0
 40
1.0
 10
117.1802776649231
 20
151.698630938051
 30
0.0
 10
117.1802776649231
 20
151.6697209459806
 30
0.0
 10
117.1950968768577
 20
151.6425159963667
 30
0.0
 10
117.253604310726
 20
151.5971210295922
 30
0.0
 10
117.2979551579595
 20
151.578772992212
 30
0.0
 10
117.4072992809112
 20
151.5564638617229
 30
0.0
 10
117.4699814499095
 20
151.5528246415733
 30
0.0
 10
117.5907226536397
 20
151.5615233398815
 30
0.0
 10
117.6461132313351
 20
151.5737305178068
 30
0.0
 10
117.6884409302292
 20
151.5922186418638
 30
0.0
  0
LINE
  5
101
330
1F
100
AcDbEntity
  8
0
  6
Continuous
 62
     7
370
    18
100
AcDbLine
 10
109.680277678
 20
155.0077093598
 30
0.0
 11
109.680277678
 21
158.207709319
 31
0.0
  0
LINE
  5
102
330
1F
100
AcDbEntity
  8
0
  6
Continuous
 62
     7
370
    18
100
AcDbLine
 10
109.680277678
 20
151.8077092479
 30
0.0
 11
109.680277678
 21
155.0077093598
 31
0.0
  0
LINE
  5
103
330
1F
100
AcDbEntity
  8
0
  6
Continuous
 62
     7
370
    18
100
AcDbLine
 10
111.680277773
 20
158.207709319
 30
0.0
 11
111.680277773
 21
151.8077092479
 31
0.0
  0
SPLINE
  5
104
330
1F
100
AcDbEntity
  8
0
  6
Continuous
 62
     7
370
    18
100
AcDbSpline
210
0.0
220
0.0
230
1.0
 70
    24
 71
     3
 72
    14
 73
    10
 74
     0
 42
0.000000001
 43
0.00000001
 40
0.0
 40
0.0
 40
0.0
 40
0.0
 40
0.4999999999999944
 40
0.4999999999999944
 40
0.7499999999999917
 40
0.7499999999999917
 40
0.8749999999999958
 40
0.8749999999999958
 40
1.0
 40
1.0
 40
1.0
 40
1.0
 10
157.956670869742
 20
152.6077093596058
 30
0.0
 10
157.9566765490004
 20
152.6077093596058
 30
0.0
 10
157.9643211381972
 20
152.6077093596058
 30
0.0
 10
158.0010008963855
 20
152.6077093596058
 30
0.0
 10
158.0172372080674
 20
152.6077093596058
 30
0.0
 10
158.0574927175965
 20
152.6077093596058
 30
0.0
 10
158.0738284047286
 20
152.6077093596058
 30
0.0
 10
158.117613963393
 20
152.6077093596058
 30
0.0
 10
158.1476218507329
 20
152.6077093596058
 30
0.0
 10
158.1802776649231
 20
152.6077093596058
 30
0.0
  0
SPLINE
  5
105
330
1F
100
AcDbEntity
  8
0
  6
Continuous
 62
     7
370
    18
100
AcDbSpline
210
0.0
220
0.0
230
1.0
 70
    24
 71
     3
 72
    14
 73
    10
 74
     0
 42
0.000000001
 43
0.00000001
 40
0.0
 40
0.0
 40
0.0
 40
0.0
 40
0.1250000000000035
 40
0.1250000000000035
 40
0.250000000000007
 40
0.250000000000007
 40
0.5000000000000029
 40
0.5000000000000029
 40
1.0
 40
1.0
 40
1.0
 40
1.0
 10
158.1802776649264
 20
157.4077093596058
 30
0.0
 10
158.1470065513615
 20
157.4077093596058
 30
0.0
 10
158.1175232013208
 20
157.4077093596058
 30
0.0
 10
158.0739385619633
 20
157.4077093596058
 30
0.0
 10
158.0575772128848
 20
157.4077093596058
 30
0.0
 10
158.0171464362862
 20
157.4077093596058
 30
0.0
 10
158.0008002144948
 20
157.4077093596058
 30
0.0
 10
157.9644331255279
 20
157.4077093596058
 30
0.0
 10
157.9566700904581
 20
157.4077093596058
 30
0.0
 10
157.9566708672207
 20
157.4077093596058
 30
0.0
  0
LINE
  5
106
330
1F
100
AcDbEntity
  8
0
  6
Continuous
 62
     7
370
    18
100
AcDbLine
 10
158.18027841
 20
157.407709281
 30
0.0
 11
158.18027841
 21
152.6077092858
 31
0.0
  0
LINE
  5
107
330
1F
100
AcDbEntity
  8
0
  6
Continuous
 62
     7
370
    18
100
AcDbLine
 10
157.880277057
 20
157.1694904706
 30
0.0
 11
157.880277057
 21
157.2077093879
 31
0.0
  0
LINE
  5
108
330
1F
100
AcDbEntity
  8
0
  6
Continuous
 62
     7
370
    18
100
AcDbLine
 10
158.6802794233
 20
152.6077092858
 30
0.0
 11
158.18027841
 21
152.6077092858
 31
0.0
  0
LINE
  5
109
330
1F
100
AcDbEntity
  8
0
  6
Continuous
 62
     7
370
    18
100
AcDbLine
 10
158.6802794233
 20
157.407709281
 30
0.0
 11
158.18027841
 21
157.407709281
 31
0.0
  0
LINE
  5
10A
330
1F
100
AcDbEntity
  8
0
  6
Continuous
 62
     7
370
    18
100
AcDbLine
 10
158.6802794233
 20
152.6077092858
 30
0.0
 11
158.6802794233
 21
157.407709281
 31
0.0
  0
SPLINE
  5
10B
330
1F
100
AcDbEntity
  8
0
  6
Continuous
 62
     7
370
    18
100
AcDbSpline
210
0.0
220
0.0
230
1.0
 70
    24
 71
     3
 72
    10
 73
     6
 74
     0
 42
0.000000001
 43
0.00000001
 40
0.0
 40
0.0
 40
0.0
 40
0.0
 40
0.3285440427624345
 40
0.6594911339593523
 40
1.0
 40
1.0
 40
1.0
 40
1.0
 10
158.6802794232601
 20
152.6077092858482
 30
0.0
 10
158.6993553741324
 20
152.6077092858482
 30
0.0
 10
158.7376468018701
 20
152.6077092858482
 30
0.0
 10
158.7746330035571
 20
152.6077092858482
 30
0.0
 10
158.7744578859837
 20
152.6077092858482
 30
0.0
 10
158.7743690803283
 20
152.6077092858482
 30
0.0
  0
SPLINE
  5
10C
330
1F
100
AcDbEntity
  8
0
  6
Continuous
 62
     7
370
    18
100
AcDbSpline
210
0.0
220
0.0
230
1.0
 70
    24
 71
     3
 72
    10
 73
     6
 74
     0
 42
0.000000001
 43
0.00000001
 40
0.0
 40
0.0
 40
0.0
 40
0.0
 40
0.3404837085084613
 40
0.6689549730686672
 40
1.0
 40
1.0
 40
1.0
 40
1.0
 10
158.7739667489761
 20
157.4077092810053
 30
0.0
 10
158.7742279660447
 20
157.4077092810053
 30
0.0
 10
158.7747411843068
 20
157.4077092810053
 30
0.0
 10
158.737731591568
 20
157.4077092810053
 30
0.0
 10
158.699479905099
 20
157.4077092810053
 30
0.0
 10
158.6802794232601
 20
157.4077092810053
 30
0.0
  0
LINE
  5
10D
330
1F
100
AcDbEntity
  8
0
  6
Continuous
 62
     7
370
    18
100
AcDbLine
 10
159.1802767112
 20
157.007709262
 30
0.0
 11
159.1802767112
 21
153.0077093048
 31
0.0
  0
LINE
  5
10E
330
1F
100
AcDbEntity
  8
0
  6
Continuous
 62
     7
370
    18
100
AcDbLine
 10
116.6802781269
 20
143.2077094214
 30
0.0
 11
121.6802780151
 21
143.2077094214
 31
0.0
  0
LINE
  5
10F
330
1F
100
AcDbEntity
  8
0
  6
Continuous
 62
     7
370
    18
100
AcDbLine
 10
117.1802772775
 20
140.7077090117
 30
0.0
 11
121.1802779331
 21
140.7077090117
 31
0.0
  0
LINE
  5
110
330
1F
100
AcDbEntity
  8
0
  6
Continuous
 62
     7
370
    18
100
AcDbLine
 10
116.6802781269
 20
145.7077088999
 30
0.0
 11
121.6802780151
 21
145.7077088999
 31
0.0
  0
LINE
  5
111
330
1F
100
AcDbEntity
  8
0
  6
Continuous
 62
     7
370
    18
100
AcDbLine
 10
134.7935597047
 20
152.6077092858
 30
0.0
 11
133.2922062471
 21
152.6077092858
 31
0.0
  0
LINE
  5
112
330
1F
100
AcDbEntity
  8
0
  6
Continuous
 62
     7
370
    18
100
AcDbLine
 10
132.7938536748
 20
152.6077092858
 30
0.0
 11
131.292548646
 21
152.6077092858
 31
0.0
  0
LINE
  5
113
330
1F
100
AcDbEntity
  8
0
  6
Continuous
 62
     7
370
    18
100
AcDbLine
 10
130.7938421711
 20
152.6077092858
 30
0.0
 11
129.2924551859
 21
152.6077092858
 31
0.0
  0
LINE
  5
114
330
1F
100
AcDbEntity
  8
0
  6
Continuous
 62
     7
370
    18
100
AcDbLine
 10
128.7940970257
 20
152.6077092858
 30
0.0
 11
127.2925051495
 21
152.6077092858
 31
0.0
  0
LINE
  5
115
330
1F
100
AcDbEntity
  8
0
  6
Continuous
 62
     7
370
    18
100
AcDbLine
 10
126.7938042625
 20
152.6077092858
 30
0.0
 11
125.2923725739
 21
152.6077092858
 31
0.0
  0
LINE
  5
116
330
1F
100
AcDbEntity
  8
0
  6
Continuous
 62
     7
370
    18
100
AcDbLine
 10
135.1802783653
 20
157.407709281
 30
0.0
 11
134.9099582627
 21
157.407709281
 31
0.0
  0
LINE
  5
117
330
1F
100
AcDbEntity
  8
0
  6
Continuous
 62
     7
370
    18
100
AcDbLine
 10
134.411093463
 20
157.407709281
 30
0.0
 11
132.9097511813
 21
157.407709281
 31
0.0
  0
LINE
  5
118
330
1F
100
AcDbEntity
  8
0
  6
Continuous
 62
     7
370
    18
100
AcDbLine
 10
132.4109944149
 20
157.407709281
 30
0.0
 11
130.9095291987
 21
157.407709281
 31
0.0
  0
LINE
  5
119
330
1F
100
AcDbEntity
  8
0
  6
Continuous
 62
     7
370
    18
100
AcDbLine
 10
130.4112380936
 20
157.407709281
 30
0.0
 11
128.90977474
 21
157.407709281
 31
0.0
  0
LINE
  5
11A
330
1F
100
AcDbEntity
  8
0
  6
Continuous
 62
     7
370
    18
100
AcDbLine
 10
128.4110403254
 20
157.407709281
 30
0.0
 11
126.9094670757
 21
157.407709281
 31
0.0
  0
LINE
  5
11B
330
1F
100
AcDbEntity
  8
0
  6
Continuous
 62
     7
370
    18
100
AcDbLine
 10
126.4110455855
 20
157.407709281
 30
0.0
 11
125.1802785888
 21
157.407709281
 31
0.0
  0
SPLINE
  5
11C
330
1F
100
AcDbEntity
  8
0
  6
Continuous
 62
     7
370
    18
100
AcDbSpline
210
0.0
220
0.0
230
1.0
 70
     8
 71
     3
 72
    14
 73
    10
 74
     0
 42
0.000000001
 43
0.00000001
 40
0.0
 40
0.0
 40
0.0
 40
0.0
 40
0.2499999999999999
 40
0.2499999999999999
 40
0.4999999999999999
 40
0.4999999999999999
 40
0.7499999999999998
 40
0.7499999999999998
 40
1.0
 40
1.0
 40
1.0
 40
1.0
 10
117.6884409302292
 20
150.6513921076142
 30
0.0
 10
117.6884409302292
 20
150.5315208839097
 30
0.0
 10
117.6618522260049
 20
150.4140682656095
 30
0.0
 10
117.5825595237319
 20
150.207045978404
 30
0.0
 10
117.5290367474442
 20
150.1159858829427
 30
0.0
 10
117.4172491689908
 20
149.9686175343849
 30
0.0
 10
117.3579082340009
 20
149.910612820218
 30
0.0
 10
117.2508735920415
 20
149.8246863453696
 30
0.0
 10
117.201659087169
 20
149.7952685756314
 30
0.0
 10
117.1619103179843
 20
149.7753580717047
 30
0.0
  0
LINE
  5
11D
330
1F
100
AcDbEntity
  8
0
  6
Continuous
 62
     7
370
    18
100
AcDbLine
 10
117.6884413331
 20
151.5922186664
 30
0.0
 11
117.6884413331
 21
150.6513921777
 31
0.0
  0
LINE
  5
11E
330
1F
100
AcDbEntity
  8
0
  6
Continuous
 62
     7
370
    18
100
AcDbLine
 10
120.6721148088
 20
149.587608059
 30
0.0
 11
120.6721148088
 21
151.5922186664
 31
0.0
  0
SPLINE
  5
11F
330
1F
100
AcDbEntity
  8
0
  6
Continuous
 62
     7
370
    18
100
AcDbSpline
210
0.0
220
0.0
230
1.0
 70
     8
 71
     3
 72
    14
 73
    10
 74
     0
 42
0.000000001
 43
0.00000001
 40
0.0
 40
0.0
 40
0.0
 40
0.0
 40
0.2500000000000002
 40
0.2500000000000002
 40
0.5000000000000001
 40
0.5000000000000001
 40
0.75
 40
0.75
 40
1.0
 40
1.0
 40
1.0
 40
1.0
 10
121.198645011862
 20
148.764513062836
 30
0.0
 10
121.1594107561642
 20
148.7809838322979
 30
0.0
 10
121.112380960687
 20
148.8050827110093
 30
0.0
 10
121.005610204112
 20
148.8814249577962
 30
0.0
 10
120.9477403162777
 20
148.9324641583844
 30
0.0
 10
120.8343360179037
 20
149.0702268468775
 30
0.0
 10
120.780220526472
 20
149.1558370785093
 30
0.0
 10
120.6988377113231
 20
149.3566196275719
 30
0.0
 10
120.6721143996169
 20
149.4702047470126
 30
0.0
 10
120.6721143996169
 20
149.587607884541
 30
0.0
  0
LINE
  5
120
330
1F
100
AcDbEntity
  8
0
  6
Continuous
 62
     7
370
    18
100
AcDbLine
 10
117.6884413331
 20
150.6513921777
 30
0.0
 11
117.1802772775
 21
150.6513921777
 31
0.0
  0
LINE
  5
121
330
1F
100
AcDbEntity
  8
0
  6
Continuous
 62
     7
370
    18
100
AcDbLine
 10
121.1802779331
 20
149.587608059
 30
0.0
 11
120.6721148088
 21
149.587608059
 31
0.0
  0
ARC
  5
122
330
1F
100
AcDbEntity
  8
0
  6
Continuous
 62
     7
370
    18
100
AcDbCircle
 10
116.8529194389
 20
149.7635237448
 30
0.0
 40
0.3092177682364444
100
AcDbArc
 50
2.1933423608
 51
84.924062022
  0
ARC
  5
123
330
1F
100
AcDbEntity
  8
0
  6
Continuous
 62
     7
370
    18
100
AcDbCircle
 10
121.5050139379
 20
148.7563301936
 30
0.0
 40
0.3064777210993387
100
AcDbArc
 50
94.6295085324
 51
178.470033018
  0
LINE
  5
124
330
1F
100
AcDbEntity
  8
0
  6
Continuous
 62
     7
370
    18
100
AcDbLine
 10
137.4802781835
 20
163.0077093142
 30
0.0
 11
137.4802781835
 21
147.0077094855
 31
0.0
  0
LINE
  5
125
330
1F
100
AcDbEntity
  8
0
  6
Continuous
 62
     7
370
    18
100
AcDbLine
 10
137.1802768305
 20
162.7077093581
 30
0.0
 11
137.1802768305
 21
147.3077094416
 31
0.0
  0
LINE
  5
126
330
1F
100
AcDbEntity
  8
0
  6
Continuous
 62
     7
370
    18
100
AcDbLine
 10
138.8802776679
 20
163.0077093142
 30
0.0
 11
138.8802776679
 21
147.0077094855
 31
0.0
  0
LINE
  5
127
330
1F
100
AcDbEntity
  8
0
  6
Continuous
 62
     7
370
    18
100
AcDbLine
 10
139.1802771583
 20
162.7077093581
 30
0.0
 11
139.1802771583
 21
147.3077094416
 31
0.0
  0
LINE
  5
128
330
1F
100
AcDbEntity
  8
0
  6
Continuous
 62
     7
370
    18
100
AcDbLine
 10
157.1802763834
 20
160.0077092881
 30
0.0
 11
157.1802763834
 21
150.0077095116
 31
0.0
  0
LINE
  5
129
330
1F
100
AcDbEntity
  8
0
  6
Continuous
 62
     7
370
    18
100
AcDbLine
 10
156.1802780822
 20
161.007709452
 30
0.0
 11
156.1802780822
 21
149.0077093477
 31
0.0
  0
LINE
  5
12A
330
1F
100
AcDbEntity
  8
0
  6
Continuous
 62
     7
370
    18
100
AcDbLine
 10
135.4802778557
 20
158.757709316
 30
0.0
 11
135.4802778557
 21
151.2577092508
 31
0.0
  0
LINE
  5
12B
330
1F
100
AcDbEntity
  8
0
  6
Continuous
 62
     7
370
    18
100
AcDbLine
 10
135.1802783653
 20
158.45770936
 30
0.0
 11
135.1802783653
 21
153.9490290452
 31
0.0
  0
SPLINE
  5
12C
330
1F
100
AcDbEntity
  8
0
  6
Continuous
 62
     7
370
    18
100
AcDbSpline
210
0.0
220
0.0
230
1.0
 70
     8
 71
     3
 72
    17
 73
    13
 74
     0
 42
0.000000001
 43
0.00000001
 40
0.0
 40
0.0
 40
0.0
 40
0.0
 40
0.0470795860558396
 40
0.1604769383736684
 40
0.2815859730192444
 40
0.3945526071527807
 40
0.5044870761983399
 40
0.625265885016802
 40
0.7397026547152232
 40
0.8485405758794091
 40
0.9690405963809434
 40
1.0
 40
1.0
 40
1.0
 40
1.0
 10
123.4182432859772
 20
151.2577092508304
 30
0.0
 10
123.4068124001206
 20
151.256262694888
 30
0.0
 10
123.3678487277767
 20
151.2513319194018
 30
0.0
 10
123.3075961150216
 20
151.2160587959598
 30
0.0
 10
123.2486938819617
 20
151.1576223944574
 30
0.0
 10
123.2183586416831
 20
151.0823664378419
 30
0.0
 10
123.2144495644441
 20
151.0030464165465
 30
0.0
 10
123.2374158839151
 20
150.925404371497
 30
0.0
 10
123.2892778552485
 20
150.8614888526784
 30
0.0
 10
123.3594299124567
 20
150.816876138891
 30
0.0
 10
123.4217729434479
 20
150.7992507652747
 30
0.0
 10
123.4586900722909
 20
150.7981736501114
 30
0.0
 10
123.4662362008923
 20
150.7979534799683
 30
0.0
  0
SPLINE
  5
12D
330
1F
100
AcDbEntity
  8
0
  6
Continuous
 62
     7
370
    18
100
AcDbSpline
210
0.0
220
0.0
230
1.0
 70
     8
 71
     3
 72
    16
 73
    12
 74
     0
 42
0.000000001
 43
0.00000001
 40
0.0
 40
0.0
 40
0.0
 40
0.0
 40
0.1139352209839175
 40
0.2275238968205635
 40
0.3488117882122546
 40
0.461913258061813
 40
0.5720318256948915
 40
0.6929928464131998
 40
0.8075694905168482
 40
0.9165827195935748
 40
1.0
 40
1.0
 40
1.0
 40
1.0
 10
123.4662362008923
 20
150.7979534799683
 30
0.0
 10
123.4940685654236
 20
150.8007707257058
 30
0.0
 10
123.5496486396201
 20
150.8063966482515
 30
0.0
 10
123.6250905059049
 20
150.846998104475
 30
0.0
 10
123.6836886004342
 20
150.9063281236745
 30
0.0
 10
123.7140408130231
 20
150.9813967268351
 30
0.0
 10
123.7178769904271
 20
151.0607173544323
 30
0.0
 10
123.6949124006015
 20
151.138565029582
 30
0.0
 10
123.6428263756444
 20
151.2016198487023
 30
0.0
 10
123.5808315675142
 20
151.2440678800288
 30
0.0
 10
123.5347330919624
 20
151.2535840553603
 30
0.0
 10
123.5147497251266
 20
151.2577092508304
 30
0.0
  0
SPLINE
  5
12E
330
1F
100
AcDbEntity
  8
0
  6
Continuous
 62
     7
370
    18
100
AcDbSpline
210
0.0
220
0.0
230
1.0
 70
     8
 71
     3
 72
    12
 73
     8
 74
     0
 42
0.000000001
 43
0.00000001
 40
0.0
 40
0.0
 40
0.0
 40
0.0
 40
0.2019527494292061
 40
0.4032991417375837
 40
0.6183216437375244
 40
0.8188846225854611
 40
0.9999999999999999
 40
0.9999999999999999
 40
0.9999999999999999
 40
0.9999999999999999
 10
136.866238583588
 20
154.8028429970595
 30
0.0
 10
136.8940589306094
 20
154.8029786258265
 30
0.0
 10
136.9496160948881
 20
154.8032494761391
 30
0.0
 10
137.0251956366377
 20
154.8052241760655
 30
0.0
 10
137.0833395544558
 20
154.8081088263748
 30
0.0
 10
137.1147325855298
 20
154.8116802991475
 30
0.0
 10
137.1139251345673
 20
154.8140831596721
 30
0.0
 10
137.1135419800514
 20
154.8152233736341
 30
0.0
  0
SPLINE
  5
12F
330
1F
100
AcDbEntity
  8
0
  6
Continuous
 62
     7
370
    18
100
AcDbSpline
210
0.0
220
0.0
230
1.0
 70
     8
 71
     3
 72
    17
 73
    13
 74
     0
 42
0.000000001
 43
0.00000001
 40
0.0
 40
0.0
 40
0.0
 40
0.0
 40
0.1051084235792901
 40
0.2134771063142506
 40
0.3184898052448675
 40
0.4261729656027812
 40
0.5380151336997222
 40
0.6535155409637541
 40
0.7578488230418228
 40
0.865432878542089
 40
0.9672947178215011
 40
1.0
 40
1.0
 40
1.0
 40
1.0
 10
136.866238583588
 20
154.8028429970595
 30
0.0
 10
136.8525188686416
 20
154.8028754815739
 30
0.0
 10
136.8246538798377
 20
154.8029414582091
 30
0.0
 10
136.7843672299421
 20
154.8034564160052
 30
0.0
 10
136.7460612564487
 20
154.8042388079038
 30
0.0
 10
136.7105315188955
 20
154.8053019996078
 30
0.0
 10
136.6782501469944
 20
154.8066564977264
 30
0.0
 10
136.6520548330481
 20
154.8082388255732
 30
0.0
 10
136.6330651585744
 20
154.8099940203562
 30
0.0
 10
136.6219529558332
 20
154.8117918370419
 30
0.0
 10
136.6170146997351
 20
154.8132250641553
 30
0.0
 10
136.6178014712177
 20
154.8140241615529
 30
0.0
 10
136.6179926886791
 20
154.8142183747127
 30
0.0
  0
LINE
  5
130
330
1F
100
AcDbEntity
  8
0
  6
Continuous
 62
     8
370
    18
100
AcDbLine
 10
122.8802778393
 20
149.0077093477
 30
0.0
 11
122.8802778393
 21
161.007709452
 31
0.0
  0
SPLINE
  5
131
330
1F
100
AcDbEntity
  8
0
  6
Continuous
 62
     8
370
    18
100
AcDbSpline
210
0.0
220
0.0
230
1.0
 70
     8
 71
     3
 72
    13
 73
     9
 74
     0
 42
0.000000001
 43
0.00000001
 40
0.0
 40
0.0
 40
0.0
 40
0.0
 40
0.1106256144591532
 40
0.3331420492345866
 40
0.5585007493185171
 40
0.7868043035255657
 40
0.9017198992932897
 40
0.9999999999999999
 40
0.9999999999999999
 40
0.9999999999999999
 40
0.9999999999999999
 10
121.4802774235242
 20
149.0618080134022
 30
0.0
 10
121.4907889651276
 20
149.0581060846392
 30
0.0
 10
121.5224438086054
 20
149.0469579600365
 30
0.0
 10
121.5653308375621
 20
149.0315286680511
 30
0.0
 10
121.6033378698737
 20
149.0176611261562
 30
0.0
 10
121.622069373028
 20
149.0107470826685
 30
0.0
 10
121.6294206047168
 20
149.0080270288773
 30
0.0
 10
121.629881316683
 20
149.0078561205003
 30
0.0
 10
121.6300936981672
 20
149.0077773342359
 30
0.0
  0
LINE
  5
132
330
1F
100
AcDbEntity
  8
0
  6
Continuous
 62
     8
370
    18
100
AcDbLine
 10
121.4802774235
 20
161.007709452
 30
0.0
 11
121.4802774235
 21
149.0618080134
 31
0.0
  0
LINE
  5
133
330
1F
100
AcDbEntity
  8
0
  6
Continuous
 62
     8
370
    18
100
AcDbLine
 10
124.8802772358
 20
151.2577092508
 30
0.0
 11
124.8802772358
 21
151.7295098166
 31
0.0
  0
LINE
  5
134
330
1F
100
AcDbEntity
  8
0
  6
Continuous
 62
     8
370
    18
100
AcDbLine
 10
124.8802772358
 20
157.7254213626
 30
0.0
 11
124.8802772358
 21
158.757709316
 31
0.0
  0
LINE
  5
135
330
1F
100
AcDbEntity
  8
0
  6
Continuous
 62
     8
370
    18
100
AcDbLine
 10
115.480277837
 20
160.0077092881
 30
0.0
 11
115.480277837
 21
158.4775795928
 31
0.0
  0
LINE
  5
136
330
1F
100
AcDbEntity
  8
0
  6
Continuous
 62
     8
370
    18
100
AcDbLine
 10
116.8802777871
 20
158.4775795928
 30
0.0
 11
116.8802777871
 21
160.0077092881
 31
0.0
  0
LINE
  5
137
330
1F
100
AcDbEntity
  8
0
  6
Continuous
 62
     8
370
    18
100
AcDbLine
 10
115.480277837
 20
151.5378389741
 30
0.0
 11
115.480277837
 21
150.0077095116
 31
0.0
  0
SPLINE
  5
138
330
1F
100
AcDbEntity
  8
0
  6
Continuous
 62
     8
370
    18
100
AcDbSpline
210
0.0
220
0.0
230
1.0
 70
     8
 71
     3
 72
    13
 73
     9
 74
     0
 42
0.000000001
 43
0.00000001
 40
0.0
 40
0.0
 40
0.0
 40
0.0
 40
0.0969672544187581
 40
0.3155070679463655
 40
0.592828129867081
 40
0.7608531389514805
 40
0.8802990688773175
 40
0.9999999999999999
 40
0.9999999999999999
 40
0.9999999999999999
 40
0.9999999999999999
 10
116.7320531427496
 20
150.0084834406603
 30
0.0
 10
116.7316556508884
 20
150.0083102306198
 30
0.0
 10
116.7303623123028
 20
150.0077466486938
 30
0.0
 10
116.7450395221144
 20
150.014143564043
 30
0.0
 10
116.7748513799307
 20
150.0270496170841
 30
0.0
 10
116.8134080170448
 20
150.0434976486488
 30
0.0
 10
116.8463010901251
 20
150.0573872779432
 30
0.0
 10
116.8689441733783
 20
150.0668116473855
 30
0.0
 10
116.8802777871126
 20
150.0715288566876
 30
0.0
  0
LINE
  5
139
330
1F
100
AcDbEntity
  8
0
  6
Continuous
 62
     8
370
    18
100
AcDbLine
 10
109.980277634
 20
155.0077093598
 30
0.0
 11
109.980277634
 21
151.5077092918
 31
0.0
  0
LINE
  5
13A
330
1F
100
AcDbEntity
  8
0
  6
Continuous
 62
     8
370
    18
100
AcDbLine
 10
109.980277634
 20
158.507709275
 30
0.0
 11
109.980277634
 21
155.0077093598
 31
0.0
  0
LINE
  5
13B
330
1F
100
AcDbEntity
  8
0
  6
Continuous
 62
     8
370
    18
100
AcDbLine
 10
111.3802775841
 20
151.5077092918
 30
0.0
 11
111.3802775841
 21
158.507709275
 31
0.0
  0
SPLINE
  5
13C
330
1F
100
AcDbEntity
  8
0
  6
Continuous
 62
     8
370
    18
100
AcDbSpline
210
0.0
220
0.0
230
1.0
 70
     8
 71
     3
 72
    13
 73
     9
 74
     0
 42
0.000000001
 43
0.00000001
 40
0.0
 40
0.0
 40
0.0
 40
0.0
 40
0.1192475695415383
 40
0.238735448451177
 40
0.4548110992894439
 40
0.6724292401528584
 40
0.8950457740482672
 40
1.0
 40
1.0
 40
1.0
 40
1.0
 10
117.1619106649989
 20
149.7753580334115
 30
0.0
 10
117.1519798394074
 20
149.7703652522795
 30
0.0
 10
117.1320981754861
 20
149.7603696284932
 30
0.0
 10
117.0998073512337
 20
149.7439005178578
 30
0.0
 10
117.0677208640897
 20
149.7273300613201
 30
0.0
 10
117.0428390459767
 20
149.7143221308709
 30
0.0
 10
117.0304758236007
 20
149.7078138195206
 30
0.0
 10
117.0316015955894
 20
149.7084066851578
 30
0.0
 10
117.0319622948402
 20
149.7085966403115
 30
0.0
  0
SPLINE
  5
13D
330
1F
100
AcDbEntity
  8
0
  6
Continuous
 62
     8
370
    18
100
AcDbSpline
210
0.0
220
0.0
230
1.0
 70
     8
 71
     3
 72
    13
 73
     9
 74
     0
 42
0.000000001
 43
0.00000001
 40
0.0
 40
0.0
 40
0.0
 40
0.0
 40
0.0983980089856792
 40
0.2089498503752205
 40
0.431012189459506
 40
0.6563807283499683
 40
0.8850951387874914
 40
1.0
 40
1.0
 40
1.0
 40
1.0
 10
121.3300588175291
 20
148.7078062491942
 30
0.0
 10
121.3298974498096
 20
148.7078780100207
 30
0.0
 10
121.3295547827049
 20
148.7080303953598
 30
0.0
 10
121.3233280135425
 20
148.7107862761626
 30
0.0
 10
121.3076069105826
 20
148.7177311634847
 30
0.0
 10
121.2748982004788
 20
148.7320197872656
 30
0.0
 10
121.2369102841402
 20
148.7483850561747
 30
0.0
 10
121.20823453028
 20
148.7604714453116
 30
0.0
 10
121.1986454769605
 20
148.7645130837786
 30
0.0
  0
SPLINE
  5
13E
330
1F
100
AcDbEntity
  8
0
  6
Continuous
 62
     8
370
    18
100
AcDbSpline
210
0.0
220
0.0
230
1.0
 70
     8
 71
     3
 72
    28
 73
    24
 74
     0
 42
0.000000001
 43
0.00000001
 40
0.0
 40
0.0
 40
0.0
 40
0.0
 40
0.0045760548411276
 40
0.0569443507479822
 40
0.1092871549907252
 40
0.1616888077455288
 40
0.214115198276084
 40
0.2664939561257504
 40
0.3188329729520872
 40
0.3712248114215848
 40
0.4236525655476579
 40
0.4760419193624313
 40
0.5283805416420659
 40
0.5807618998195238
 40
0.6331888307137868
 40
0.6855881943730121
 40
0.7379297507640172
 40
0.7903004606775481
 40
0.8427244651346446
 40
0.8951327953346779
 40
0.9474802961970782
 40
0.9998407731820979
 40
0.9999999999999999
 40
0.9999999999999999
 40
0.9999999999999999
 40
0.9999999999999999
 10
124.3515113934511
 20
159.5007843571234
 30
0.0
 10
124.3530343557656
 20
159.5024103852699
 30
0.0
 10
124.3719860736152
 20
159.5226446526281
 30
0.0
 10
124.4084120354188
 20
159.4492975479209
 30
0.0
 10
124.4608024108041
 20
159.2669659178195
 30
0.0
 10
124.5131267286307
 20
158.9563860136063
 30
0.0
 10
124.5654277923698
 20
158.5451177019476
 30
0.0
 10
124.6177749859458
 20
158.0391628665757
 30
0.0
 10
124.670174504442
 20
157.449244757271
 30
0.0
 10
124.7225064624196
 20
156.7925298256977
 30
0.0
 10
124.7748100028065
 20
156.0888509549727
 30
0.0
 10
124.8271452954935
 20
155.3564620154806
 30
0.0
 10
124.8795424432299
 20
154.6142155245628
 30
0.0
 10
124.9318865581745
 20
153.8830829092017
 30
0.0
 10
124.9841905679897
 20
153.1819019144825
 30
0.0
 10
125.0365151706395
 20
152.5287582669311
 30
0.0
 10
125.0889110921981
 20
151.9429396295136
 30
0.0
 10
125.1412679215858
 20
151.4423728674991
 30
0.0
 10
125.1935712109939
 20
151.0376686752901
 30
0.0
 10
125.2458978023355
 20
150.7336313461279
 30
0.0
 10
125.2982376339327
 20
150.5595449463256
 30
0.0
 10
125.333310212058
 20
150.4898102676066
 30
0.0
 10
125.3507174501322
 20
150.509628105559
 30
0.0
 10
125.3507702245945
 20
150.5096881883669
 30
0.0
  0
SPLINE
  5
13F
330
1F
100
AcDbEntity
  8
0
  6
Continuous
 62
     8
370
    18
100
AcDbSpline
210
0.0
220
0.0
230
1.0
 70
     8
 71
     3
 72
    27
 73
    23
 74
     0
 42
0.000000001
 43
0.00000001
 40
0.0
 40
0.0
 40
0.0
 40
0.0
 40
0.0461062210756094
 40
0.0984200468363442
 40
0.1507853766251238
 40
0.2031319589208364
 40
0.2554181696426272
 40
0.3077216172895461
 40
0.360082491089771
 40
0.4124370617964644
 40
0.4647310404845926
 40
0.5170250168561873
 40
0.5693795757892232
 40
0.6217404479986981
 40
0.6740438982979313
 40
0.7263301053293342
 40
0.7786767133975794
 40
0.8310420427755164
 40
0.883355853928188
 40
0.9356368521852855
 40
0.9879741833371236
 40
0.9999999999999999
 40
0.9999999999999999
 40
0.9999999999999999
 40
0.9999999999999999
 10
126.3513254567617
 20
159.5006185817051
 30
0.0
 10
126.3667141906659
 20
159.4947143090627
 30
0.0
 10
126.3995635519078
 20
159.4821108300432
 30
0.0
 10
126.4498609426297
 20
159.3108090858298
 30
0.0
 10
126.5021659490599
 20
159.0301069285423
 30
0.0
 10
126.5544815749305
 20
158.6402167794767
 30
0.0
 10
126.6068724530539
 20
158.1527278797172
 30
0.0
 10
126.6592383560341
 20
157.5770940855546
 30
0.0
 10
126.7115465836886
 20
156.9333021238336
 30
0.0
 10
126.7638586689833
 20
156.23872793077
 30
0.0
 10
126.8162386425912
 20
155.5108311790814
 30
0.0
 10
126.8686145148185
 20
154.7688300950787
 30
0.0
 10
126.9209277244883
 20
154.0335589626053
 30
0.0
 10
126.9732356029016
 20
153.3239844890258
 30
0.0
 10
127.0256017670313
 20
152.6589863418924
 30
0.0
 10
127.0779919347923
 20
152.0596698858963
 30
0.0
 10
127.1303102056474
 20
151.5401427268799
 30
0.0
 10
127.1826164036993
 20
151.1127716298525
 30
0.0
 10
127.2349661253751
 20
150.7859286517828
 30
0.0
 10
127.2873640760739
 20
150.586347386093
 30
0.0
 10
127.326245358095
 20
150.5004680708742
 30
0.0
 10
127.3476880105571
 20
150.5178399049268
 30
0.0
 10
127.351694424414
 20
150.5210857140351
 30
0.0
  0
SPLINE
  5
140
330
1F
100
AcDbEntity
  8
0
  6
Continuous
 62
     8
370
    18
100
AcDbSpline
210
0.0
220
0.0
230
1.0
 70
     8
 71
     3
 72
    27
 73
    23
 74
     0
 42
0.000000001
 43
0.00000001
 40
0.0
 40
0.0
 40
0.0
 40
0.0
 40
0.0357239125955452
 40
0.0879910512083528
 40
0.1402738009373517
 40
0.1925033934552489
 40
0.2447039260054548
 40
0.2969621158199336
 40
0.3492477696594033
 40
0.401488005528825
 40
0.4536856157637094
 40
0.50593380910719
 40
0.5582202954728768
 40
0.6104709802900402
 40
0.6626689704361951
 40
0.7149065992810871
 40
0.767191756418103
 40
0.8194522104322061
 40
0.8716539767538496
 40
0.9238811714058152
 40
0.9761630036889763
 40
1.0
 40
1.0
 40
1.0
 40
1.0
 10
128.3507316007846
 20
159.4941556686986
 30
0.0
 10
128.3626739039166
 20
159.4941434595558
 30
0.0
 10
128.392088817628
 20
159.4941133873931
 30
0.0
 10
128.4389018361612
 20
159.3534321047183
 30
0.0
 10
128.4912093975531
 20
159.0991559987003
 30
0.0
 10
128.5435620971468
 20
158.7314780968356
 30
0.0
 10
128.5959591443013
 20
158.261174936661
 30
0.0
 10
128.6482833451281
 20
157.7021500112001
 30
0.0
 10
128.7005877719101
 20
157.0722369073517
 30
0.0
 10
128.7529307405892
 20
156.3875055068005
 30
0.0
 10
128.8053319860802
 20
155.6643811364005
 30
0.0
 10
128.8576631832366
 20
154.9234719708626
 30
0.0
 10
128.909967853412
 20
154.1849459533117
 30
0.0
 10
128.9622994328561
 20
153.467998903469
 30
0.0
 10
129.0146992735008
 20
152.7930086521483
 30
0.0
 10
129.0670455984318
 20
152.1796423180251
 30
0.0
 10
129.1193498500834
 20
151.6411798763324
 30
0.0
 10
129.1716733461392
 20
151.1919116650172
 30
0.0
 10
129.2240638841344
 20
150.844341578687
 30
0.0
 10
129.2764265032189
 20
150.6197915235976
 30
0.0
 10
129.3192394079211
 20
150.5107866645179
 30
0.0
 10
129.3446514130311
 20
150.5216005891017
 30
0.0
 10
129.3526093110078
 20
150.5249870243001
 30
0.0
  0
SPLINE
  5
141
330
1F
100
AcDbEntity
  8
0
  6
Continuous
 62
     8
370
    18
100
AcDbSpline
210
0.0
220
0.0
230
1.0
 70
     8
 71
     3
 72
    13
 73
     9
 74
     0
 42
0.000000001
 43
0.00000001
 40
0.0
 40
0.0
 40
0.0
 40
0.0
 40
0.2340051852822008
 40
0.4693489052052433
 40
0.5867680505779872
 40
0.7038684450421181
 40
0.9385971628957167
 40
1.0
 40
1.0
 40
1.0
 40
1.0
 10
130.1662369265788
 20
158.3457557717788
 30
0.0
 10
130.133709361712
 20
158.3491667402183
 30
0.0
 10
130.0684681708348
 20
158.3560081882007
 30
0.0
 10
129.9992550705779
 20
158.3961684349801
 30
0.0
 10
129.9568225528713
 20
158.4377372465345
 30
0.0
 10
129.9272157503105
 20
158.4859112181153
 30
0.0
 10
129.9110975201137
 20
158.5348386799741
 30
0.0
 10
129.9202027462575
 20
158.5683467600148
 30
0.0
 10
129.9220907136434
 20
158.5752946557927
 30
0.0
  0
SPLINE
  5
142
330
1F
100
AcDbEntity
  8
0
  6
Continuous
 62
     8
370
    18
100
AcDbSpline
210
0.0
220
0.0
230
1.0
 70
     8
 71
     3
 72
    10
 73
     6
 74
     0
 42
0.000000001
 43
0.00000001
 40
0.0
 40
0.0
 40
0.0
 40
0.0
 40
0.478325882869796
 40
0.9562210477621326
 40
1.0
 40
1.0
 40
1.0
 40
1.0
 10
130.1662369265788
 20
158.3457557717788
 30
0.0
 10
130.148795424783
 20
158.2157697705328
 30
0.0
 10
130.1139281267358
 20
157.9559148164999
 30
0.0
 10
130.0773827880631
 20
157.6258009902214
 30
0.0
 10
130.058354916472
 20
157.4245945488347
 30
0.0
 10
130.0567580952876
 20
157.4077092810053
 30
0.0
  0
SPLINE
  5
143
330
1F
100
AcDbEntity
  8
0
  6
Continuous
 62
     8
370
    18
100
AcDbSpline
210
0.0
220
0.0
230
1.0
 70
     8
 71
     3
 72
    12
 73
     8
 74
     0
 42
0.000000001
 43
0.00000001
 40
0.0
 40
0.0
 40
0.0
 40
0.0
 40
0.0198467931965066
 40
0.2905309276880959
 40
0.5615199732663457
 40
0.8325079315885562
 40
1.0
 40
1.0
 40
1.0
 40
1.0
 10
129.6466371610397
 20
152.6077092858482
 30
0.0
 10
129.6453581697187
 20
152.5941730174891
 30
0.0
 10
129.6266354203407
 20
152.3960198667587
 30
0.0
 10
129.5904181823494
 20
152.0728763678705
 30
0.0
 10
129.5381120968316
 20
151.6634183425886
 30
0.0
 10
129.4924477415707
 20
151.3744273736234
 30
0.0
 10
129.464177264896
 20
151.2645676365138
 30
0.0
 10
129.4533784135812
 20
151.2226030463803
 30
0.0
  0
SPLINE
  5
144
330
1F
100
AcDbEntity
  8
0
  6
Continuous
 62
     8
370
    18
100
AcDbSpline
210
0.0
220
0.0
230
1.0
 70
     8
 71
     3
 72
    12
 73
     8
 74
     0
 42
0.000000001
 43
0.00000001
 40
0.0
 40
0.0
 40
0.0
 40
0.0
 40
0.1142988671285972
 40
0.3836244227247466
 40
0.6526413879304032
 40
0.921635577683025
 40
1.0
 40
1.0
 40
1.0
 40
1.0
 10
128.2517301484579
 20
158.797460491814
 30
0.0
 10
128.2443259205717
 20
158.771521710948
 30
0.0
 10
128.2194749074347
 20
158.6844626692804
 30
0.0
 10
128.1772093695234
 20
158.4323363231181
 30
0.0
 10
128.124833770422
 20
158.046267243798
 30
0.0
 10
128.0848361674813
 20
157.6949894062102
 30
0.0
 10
128.0623320445461
 20
157.4605900021231
 30
0.0
 10
128.0572550937169
 20
157.4077092810053
 30
0.0
  0
SPLINE
  5
145
330
1F
100
AcDbEntity
  8
0
  6
Continuous
 62
     8
370
    18
100
AcDbSpline
210
0.0
220
0.0
230
1.0
 70
     8
 71
     3
 72
    11
 73
     7
 74
     0
 42
0.000000001
 43
0.00000001
 40
0.0
 40
0.0
 40
0.0
 40
0.0
 40
0.2333571473442971
 40
0.5050246437725409
 40
0.776480496140026
 40
0.9999999999999999
 40
0.9999999999999999
 40
0.9999999999999999
 40
0.9999999999999999
 10
127.6463835134739
 20
152.6077092858482
 30
0.0
 10
127.6313838918799
 20
152.4603301460565
 30
0.0
 10
127.5989221539882
 20
152.1413765660189
 30
0.0
 10
127.5490733571381
 20
151.7423203782582
 30
0.0
 10
127.4997960848469
 20
151.4125727595017
 30
0.0
 10
127.467948052803
 20
151.2788828199966
 30
0.0
 10
127.4535662129158
 20
151.2185115134794
 30
0.0
  0
SPLINE
  5
146
330
1F
100
AcDbEntity
  8
0
  6
Continuous
 62
     8
370
    18
100
AcDbSpline
210
0.0
220
0.0
230
1.0
 70
     8
 71
     3
 72
    12
 73
     8
 74
     0
 42
0.000000001
 43
0.00000001
 40
0.0
 40
0.0
 40
0.0
 40
0.0
 40
0.0479743383144455
 40
0.3204147582829697
 40
0.5926182376209626
 40
0.8650726327229324
 40
1.0
 40
1.0
 40
1.0
 40
1.0
 10
126.249666009807
 20
158.7940951576907
 30
0.0
 10
126.2465958491159
 20
158.7843125093221
 30
0.0
 10
126.2260906200646
 20
158.7189753932198
 30
0.0
 10
126.1881408843464
 20
158.5012305436237
 30
0.0
 10
126.1357400430384
 20
158.1352704784391
 30
0.0
 10
126.092222160607
 20
157.7620966195896
 30
0.0
 10
126.0661561959967
 20
157.4958814101041
 30
0.0
 10
126.0575229867929
 20
157.4077092810053
 30
0.0
  0
SPLINE
  5
147
330
1F
100
AcDbEntity
  8
0
  6
Continuous
 62
     8
370
    18
100
AcDbSpline
210
0.0
220
0.0
230
1.0
 70
     8
 71
     3
 72
    12
 73
     8
 74
     0
 42
0.000000001
 43
0.00000001
 40
0.0
 40
0.0
 40
0.0
 40
0.0
 40
0.176113513475017
 40
0.4497351511809106
 40
0.7230392309902225
 40
0.9963663984099996
 40
1.0
 40
1.0
 40
1.0
 40
1.0
 10
125.6460162445539
 20
152.6077092858482
 30
0.0
 10
125.6347872043776
 20
152.4948759400512
 30
0.0
 10
125.6061119824618
 20
152.2067372229878
 30
0.0
 10
125.5600232291781
 20
151.8197021669934
 30
0.0
 10
125.5076486674751
 20
151.468624713099
 30
0.0
 10
125.4724888240961
 20
151.27040311506
 30
0.0
 10
125.4548368273962
 20
151.2175986839133
 30
0.0
 10
125.4546052410835
 20
151.2169059133607
 30
0.0
  0
LINE
  5
148
330
1F
100
AcDbEntity
  8
0
  6
Continuous
 62
     8
370
    18
100
AcDbLine
 10
124.2489690527
 20
158.7974155555
 30
0.0
 11
124.2407566502
 21
158.757709316
 31
0.0
  0
SPLINE
  5
149
330
1F
100
AcDbEntity
  8
0
  6
Continuous
 62
     8
370
    18
100
AcDbSpline
210
0.0
220
0.0
230
1.0
 70
     8
 71
     3
 72
     9
 73
     5
 74
     0
 42
0.000000001
 43
0.00000001
 40
0.0
 40
0.0
 40
0.0
 40
0.0
 40
0.632395099456103
 40
1.0
 40
1.0
 40
1.0
 40
1.0
 10
130.1662369265788
 20
158.3457594970691
 30
0.0
 10
130.1994391175373
 20
158.3482786506601
 30
0.0
 10
130.2519414076199
 20
158.3522621628555
 30
0.0
 10
130.2932430011527
 20
158.3786499832854
 30
0.0
 10
130.3084256693357
 20
158.3883502753902
 30
0.0
  0
SPLINE
  5
14A
330
1F
100
AcDbEntity
  8
0
  6
Continuous
 62
     8
370
    18
100
AcDbSpline
210
0.0
220
0.0
230
1.0
 70
     8
 71
     3
 72
     9
 73
     5
 74
     0
 42
0.000000001
 43
0.00000001
 40
0.0
 40
0.0
 40
0.0
 40
0.0
 40
0.625206863780842
 40
1.0
 40
1.0
 40
1.0
 40
1.0
 10
130.1662369265788
 20
158.3457594970691
 30
0.0
 10
130.1836798688246
 20
158.4616502177999
 30
0.0
 10
130.211579342193
 20
158.6470140188784
 30
0.0
 10
130.2395177715203
 20
158.7526506427127
 30
0.0
 10
130.2499889030689
 20
158.7922425242591
 30
0.0
  0
SPLINE
  5
14B
330
1F
100
AcDbEntity
  8
0
  6
Continuous
 62
     8
370
    18
100
AcDbSpline
210
0.0
220
0.0
230
1.0
 70
     8
 71
     3
 72
    12
 73
     8
 74
     0
 42
0.000000001
 43
0.00000001
 40
0.0
 40
0.0
 40
0.0
 40
0.0
 40
0.1128682452403955
 40
0.38391660916759
 40
0.6547027762365127
 40
0.9257097488920535
 40
1.0
 40
1.0
 40
1.0
 40
1.0
 10
131.4530509158605
 20
151.2231881497878
 30
0.0
 10
131.4603103220694
 20
151.2487586879968
 30
0.0
 10
131.4850028882587
 20
151.335735802799
 30
0.0
 10
131.5271451168491
 20
151.5876613741115
 30
0.0
 10
131.5795437432207
 20
151.9767818383662
 30
0.0
 10
131.6192105057862
 20
152.3264423033592
 30
0.0
 10
131.6414211712965
 20
152.5579094323995
 30
0.0
 10
131.6461997672552
 20
152.6077092858482
 30
0.0
  0
SPLINE
  5
14C
330
1F
100
AcDbEntity
  8
0
  6
Continuous
 62
     8
370
    18
100
AcDbSpline
210
0.0
220
0.0
230
1.0
 70
     8
 71
     3
 72
    11
 73
     7
 74
     0
 42
0.000000001
 43
0.00000001
 40
0.0
 40
0.0
 40
0.0
 40
0.0
 40
0.2379620287124356
 40
0.5095765139065545
 40
0.7808797676048344
 40
1.0
 40
1.0
 40
1.0
 40
1.0
 10
132.0571011498207
 20
157.4077092810053
 30
0.0
 10
132.0723868263758
 20
157.5577955272469
 30
0.0
 10
132.1051198712813
 20
157.8791931323981
 30
0.0
 10
132.1552632066948
 20
158.2803399925041
 30
0.0
 10
132.2042897851003
 20
158.6066345891481
 30
0.0
 10
132.23583133633
 20
158.7373660883227
 30
0.0
 10
132.2499240383142
 20
158.7957766605991
 30
0.0
  0
SPLINE
  5
14D
330
1F
100
AcDbEntity
  8
0
  6
Continuous
 62
     8
370
    18
100
AcDbSpline
210
0.0
220
0.0
230
1.0
 70
     8
 71
     3
 72
    12
 73
     8
 74
     0
 42
0.000000001
 43
0.00000001
 40
0.0
 40
0.0
 40
0.0
 40
0.0
 40
0.0517697377831275
 40
0.3242693931433605
 40
0.5967691753238462
 40
0.8695840114969636
 40
1.0
 40
1.0
 40
1.0
 40
1.0
 10
133.4539602145189
 20
151.2218423886675
 30
0.0
 10
133.4572710760297
 20
151.232411380626
 30
0.0
 10
133.4780092736501
 20
151.2986122299113
 30
0.0
 10
133.516239946862
 20
151.5188510075891
 30
0.0
 10
133.5686182694973
 20
151.8881866723694
 30
0.0
 10
133.6118158007218
 20
152.2590835279284
 30
0.0
 10
133.6376042241259
 20
152.522509914815
 30
0.0
 10
133.6459449126953
 20
152.6077092858482
 30
0.0
  0
SPLINE
  5
14E
330
1F
100
AcDbEntity
  8
0
  6
Continuous
 62
     8
370
    18
100
AcDbSpline
210
0.0
220
0.0
230
1.0
 70
     8
 71
     3
 72
    11
 73
     7
 74
     0
 42
0.000000001
 43
0.00000001
 40
0.0
 40
0.0
 40
0.0
 40
0.0
 40
0.1808276266021356
 40
0.4543489345394854
 40
0.7276322477196061
 40
1.0
 40
1.0
 40
1.0
 40
1.0
 10
134.0574423417085
 20
157.4077092810053
 30
0.0
 10
134.0689664254944
 20
157.5236205428993
 30
0.0
 10
134.0979219301814
 20
157.814860102541
 30
0.0
 10
134.1443344392266
 20
158.2001855682363
 30
0.0
 10
134.1966640757517
 20
158.5629274697131
 30
0.0
 10
134.2314577559662
 20
158.7198191555842
 30
0.0
 10
134.2488254055017
 20
158.7981333723742
 30
0.0
  0
LINE
  5
14F
330
1F
100
AcDbEntity
  8
0
  6
Continuous
 62
     8
370
    18
100
AcDbLine
 10
135.4542436644
 20
151.2151389616
 30
0.0
 11
135.4658926472
 21
151.272093528
 31
0.0
  0
LINE
  5
150
330
1F
100
AcDbEntity
  8
0
  6
Continuous
 62
     8
370
    18
100
AcDbLine
 10
136.2393765345
 20
158.757709316
 30
0.0
 11
136.2502674207
 21
158.7949917885
 31
0.0
  0
SPLINE
  5
151
330
1F
100
AcDbEntity
  8
0
  6
Continuous
 62
     8
370
    18
100
AcDbSpline
210
0.0
220
0.0
230
1.0
 70
     8
 71
     3
 72
    17
 73
    13
 74
     0
 42
0.000000001
 43
0.00000001
 40
0.0
 40
0.0
 40
0.0
 40
0.0
 40
0.10168312841392
 40
0.203274347273271
 40
0.3049627645242855
 40
0.4067545640757966
 40
0.5085010830147522
 40
0.610131021035253
 40
0.7118077607541556
 40
0.8135907534789415
 40
0.9153500929415035
 40
0.9999999999999999
 40
0.9999999999999999
 40
0.9999999999999999
 40
0.9999999999999999
 10
136.866238583588
 20
154.8028429970595
 30
0.0
 10
136.8487956423084
 20
155.049642941153
 30
0.0
 10
136.8139255261108
 20
155.5430197513006
 30
0.0
 10
136.7615202477407
 20
156.2705577014746
 30
0.0
 10
136.7091775642375
 20
156.9625831013886
 30
0.0
 10
136.6568750217272
 20
157.6028692765055
 30
0.0
 10
136.6045531567372
 20
158.174900754116
 30
0.0
 10
136.5521619946373
 20
158.6608717947572
 30
0.0
 10
136.4998011393403
 20
159.0456839862165
 30
0.0
 10
136.4474943229023
 20
159.3195154424121
 30
0.0
 10
136.3980927060956
 20
159.4831624716912
 30
0.0
 10
136.3660853883806
 20
159.4940738646062
 30
0.0
 10
136.3515506133073
 20
159.4990288140702
 30
0.0
  0
SPLINE
  5
152
330
1F
100
AcDbEntity
  8
0
  6
Continuous
 62
     8
370
    18
100
AcDbSpline
210
0.0
220
0.0
230
1.0
 70
     8
 71
     3
 72
    28
 73
    24
 74
     0
 42
0.000000001
 43
0.00000001
 40
0.0
 40
0.0
 40
0.0
 40
0.0
 40
0.0032510939232191
 40
0.0556447236265088
 40
0.107980535690507
 40
0.1603455021694881
 40
0.2127637677932997
 40
0.2651663699370233
 40
0.3175081461777328
 40
0.3698628959523965
 40
0.4222762151685864
 40
0.4746863873960139
 40
0.5270364442112313
 40
0.5793820679735463
 40
0.6317886137326229
 40
0.6842046749239092
 40
0.7365644976977574
 40
0.7889029138871123
 40
0.8413011257853534
 40
0.8937211324715201
 40
0.9460914775031032
 40
0.9984254181793077
 40
1.0
 40
1.0
 40
1.0
 40
1.0
 10
135.3515150591367
 20
150.5139326910007
 30
0.0
 10
135.3504328671857
 20
150.512783606626
 30
0.0
 10
135.3319104026098
 20
150.4931162318999
 30
0.0
 10
135.2959585875666
 20
150.5655811336003
 30
0.0
 10
135.243565009577
 20
150.7429704331022
 30
0.0
 10
135.1912082011572
 20
151.0523231052746
 30
0.0
 10
135.138902459728
 20
151.4630274900687
 30
0.0
 10
135.0865856561581
 20
151.9681413888494
 30
0.0
 10
135.0341980317955
 20
152.5552659676376
 30
0.0
 10
134.9818287440645
 20
153.2110701416025
 30
0.0
 10
134.9295188821376
 20
153.9145181391407
 30
0.0
 10
134.8772109695789
 20
154.6467912808825
 30
0.0
 10
134.8248341820582
 20
155.3890415000133
 30
0.0
 10
134.7724523014372
 20
156.1206286177845
 30
0.0
 10
134.7201384552359
 20
156.8219862389554
 30
0.0
 10
134.667831423109
 20
157.4755188760957
 30
0.0
 10
134.6154678771372
 20
158.0635508689926
 30
0.0
 10
134.5630784559591
 20
158.5665397389621
 30
0.0
 10
134.5107581945694
 20
158.9718323496946
 30
0.0
 10
134.458449761656
 20
159.2764048056617
 30
0.0
 10
134.4061142016715
 20
159.4536843955997
 30
0.0
 10
134.3706292623297
 20
159.5260910449622
 30
0.0
 10
134.3526889657827
 20
159.5057075815309
 30
0.0
 10
134.352164958381
 20
159.5051122131276
 30
0.0
  0
SPLINE
  5
153
330
1F
100
AcDbEntity
  8
0
  6
Continuous
 62
     8
370
    18
100
AcDbSpline
210
0.0
220
0.0
230
1.0
 70
     8
 71
     3
 72
    27
 73
    23
 74
     0
 42
0.000000001
 43
0.00000001
 40
0.0
 40
0.0
 40
0.0
 40
0.0
 40
0.0448672410860938
 40
0.0971824880809613
 40
0.14955815751243
 40
0.2019525597991373
 40
0.2542954337133523
 40
0.3066054649818449
 40
0.3589718725883794
 40
0.4113686616104689
 40
0.4637221976184241
 40
0.5160301289238064
 40
0.5683863365025655
 40
0.6207834194864709
 40
0.6731473042955151
 40
0.7254564878722471
 40
0.7778020584974646
 40
0.8301972573640475
 40
0.8825706954521977
 40
0.9348843606302741
 40
0.987219418172755
 40
1.0
 40
1.0
 40
1.0
 40
1.0
 10
133.3517382487291
 20
150.5167252617407
 30
0.0
 10
133.3367814420547
 20
150.5216663020992
 30
0.0
 10
133.3043849841673
 20
150.5323686003492
 30
0.0
 10
133.2544833219963
 20
150.6996406821107
 30
0.0
 10
133.2021654738712
 20
150.9796049360544
 30
0.0
 10
133.1498599118669
 20
151.3689594061286
 30
0.0
 10
133.0975071914834
 20
151.854087022125
 30
0.0
 10
133.0451094796597
 20
152.4273290869963
 30
0.0
 10
132.9927829412682
 20
153.0707004188607
 30
0.0
 10
132.940478017557
 20
153.7650810286983
 30
0.0
 10
132.8881410584337
 20
154.4924881738237
 30
0.0
 10
132.8357395044903
 20
155.2343655127778
 30
0.0
 10
132.7834025002888
 20
155.9697403305537
 30
0.0
 10
132.7310985081992
 20
156.679524066293
 30
0.0
 10
132.6787694987102
 20
157.3453273608462
 30
0.0
 10
132.6263697898285
 20
157.947365400721
 30
0.0
 10
132.5740234820637
 20
158.4677830362699
 30
0.0
 10
132.5217179036981
 20
158.8956860461793
 30
0.0
 10
132.4693969182805
 20
159.223715225127
 30
0.0
 10
132.4170075958469
 20
159.4279280298425
 30
0.0
 10
132.3778437560408
 20
159.515170928736
 30
0.0
 10
132.3561614255333
 20
159.4977484870395
 30
0.0
 10
132.3519057228797
 20
159.4943288946974
 30
0.0
  0
SPLINE
  5
154
330
1F
100
AcDbEntity
  8
0
  6
Continuous
 62
     8
370
    18
100
AcDbSpline
210
0.0
220
0.0
230
1.0
 70
     8
 71
     3
 72
    27
 73
    23
 74
     0
 42
0.000000001
 43
0.00000001
 40
0.0
 40
0.0
 40
0.0
 40
0.0
 40
0.0350789575901107
 40
0.0874063292257841
 40
0.1397812959786397
 40
0.1921315434433516
 40
0.2444230028811678
 40
0.2967399221741842
 40
0.3491115608698251
 40
0.4014704435025558
 40
0.4537681646790203
 40
0.5060745644253285
 40
0.5584404286833403
 40
0.6108065309693946
 40
0.6631135909634893
 40
0.7154122876291135
 40
0.7677716422831088
 40
0.8201431700967506
 40
0.872460026495678
 40
0.924752829896341
 40
0.9771055989029268
 40
1.0
 40
1.0
 40
1.0
 40
1.0
 10
131.3529151126378
 20
150.5217045778859
 30
0.0
 10
131.3412082509724
 20
150.5208919906611
 30
0.0
 10
131.3120382335253
 20
150.5188672649743
 30
0.0
 10
131.2654302420987
 20
150.6580927477986
 30
0.0
 10
131.2131256143822
 20
150.9116890233914
 30
0.0
 10
131.1608031928865
 20
151.2781166564202
 30
0.0
 10
131.1084087871295
 20
151.744783601573
 30
0.0
 10
131.056049426159
 20
152.3027728961284
 30
0.0
 10
131.0037431368083
 20
152.9323378642444
 30
0.0
 10
130.9514271371266
 20
153.6166627897777
 30
0.0
 10
130.8990453152842
 20
154.3387520336467
 30
0.0
 10
130.846671642865
 20
155.0795376337741
 30
0.0
 10
130.7943617875461
 20
155.8180934622174
 30
0.0
 10
130.7420516058909
 20
156.5352934627449
 30
0.0
 10
130.689679052395
 20
157.2119776233805
 30
0.0
 10
130.6372936217499
 20
157.8269172845673
 30
0.0
 10
130.5849817401358
 20
158.3658285286662
 30
0.0
 10
130.5326740103633
 20
158.8156933822073
 30
0.0
 10
130.4803143932326
 20
159.1663312312452
 30
0.0
 10
130.4279191429384
 20
159.3939647651816
 30
0.0
 10
130.385424271947
 20
159.5030027265889
 30
0.0
 10
130.3603573175137
 20
159.4930537006501
 30
0.0
 10
130.3527305468553
 20
159.490026650064
 30
0.0
  0
DIMENSION
  5
155
330
1F
100
AcDbEntity
  8
0
  6
Continuous
 62
     7
370
    18
100
AcDbDimension
  2
_D
 10
157.1802776649
 20
133.5221475421
 30
0.0
 11
148.1802776649
 21
133.5221475421
 31
0.0
 70
   160
  1
<>
 71
     2
 42
-1.0
  3
SLDDIMSTYLE0
100
AcDbAlignedDimension
 13
139.1802776649
 23
147.3077093596
 33
0.0
 14
157.1802776649
 24
150.0077093596
 34
0.0
100
AcDbRotatedDimension
  0
DIMENSION
  5
160
330
1F
100
AcDbEntity
  8
0
  6
Continuous
 62
     7
370
    18
100
AcDbDimension
  2
_D_1
 10
166.0350951381
 20
152.6077093596
 30
0.0
 11
166.0350951381
 21
164.8356853872
 31
0.0
 70
   160
  1
%%c<>
 71
     2
 42
-1.0
  3
SLDDIMSTYLE1
100
AcDbAlignedDimension
 13
158.6802776649
 23
157.4077093596
 33
0.0
 14
158.6802776649
 24
152.6077093596
 34
0.0
 50
90.0
100
AcDbRotatedDimension
  0
DIMENSION
  5
16E
330
1F
100
AcDbEntity
  8
0
  6
Continuous
 62
     7
370
    18
100
AcDbDimension
  2
_D_2
 10
173.9941449727
 20
149.0077093596
 30
0.0
 11
173.9941449727
 21
155.0077093596
 31
0.0
 70
   160
  1
%%c<>
 71
     2
 42
-1.0
  3
SLDDIMSTYLE0
100
AcDbAlignedDimension
 13
156.1802776649
 23
161.0077093596
 33
0.0
 14
156.1802776649
 24
149.0077093596
 34
0.0
 50
90.0
100
AcDbRotatedDimension
  0
DIMENSION
  5
179
330
1F
100
AcDbEntity
  8
0
  6
Continuous
 62
     7
370
    18
100
AcDbDimension
  2
_D_3
 10
109.6802776649
 20
181.7633982712
 30
0.0
 11
134.4302776649
 21
181.7633982712
 31
0.0
 70
   160
  1
<>
 71
     2
 42
-1.0
  3
SLDDIMSTYLE0
100
AcDbAlignedDimension
 13
159.1802776649
 23
157.0077093596
 33
0.0
 14
109.6802776649
 24
158.2077093596
 34
0.0
100
AcDbRotatedDimension
  0
DIMENSION
  5
183
330
1F
100
AcDbEntity
  8
0
  6
Continuous
 62
     7
370
    18
100
AcDbDimension
  2
_D_4
 10
115.1802776649
 20
170.2560345453
 30
0.0
 11
123.7004590484
 21
170.2560345453
 31
0.0
 70
   160
  1
<>
 71
     2
 42
-1.0
  3
SLDDIMSTYLE2
100
AcDbAlignedDimension
 13
109.6802776649
 23
158.2077093596
 33
0.0
 14
115.1802776649
 24
159.7077093596
 34
0.0
100
AcDbRotatedDimension
  0
DIMENSION
  5
190
330
1F
100
AcDbEntity
  8
0
  6
Continuous
 62
     7
370
    18
100
AcDbDimension
  2
_D_5
 10
135.1802776649
 20
133.5221475421
 30
0.0
 11
130.1802776649
 21
133.5221475421
 31
0.0
 70
   160
  1
<>st
 71
     2
 42
-1.0
  3
SLDDIMSTYLE0
100
AcDbAlignedDimension
 13
125.1802776649
 23
151.5577093596
 33
0.0
 14
135.1802776649
 24
151.5577093596
 34
0.0
100
AcDbRotatedDimension
  0
DIMENSION
  5
19B
330
1F
100
AcDbEntity
  8
0
  6
Continuous
 62
     7
370
    18
100
AcDbDimension
  2
_D_6
 10
101.0124988889
 20
151.5077093596
 30
0.0
 11
101.0124988889
 21
155.0077093596
 31
0.0
 70
   160
  1
%%c<>
 71
     2
 42
-1.0
  3
SLDDIMSTYLE2
100
AcDbAlignedDimension
 13
109.9802776649
 23
158.5077093596
 33
0.0
 14
109.9802776649
 24
151.5077093596
 34
0.0
 50
90.0
100
AcDbRotatedDimension
  0
DIMENSION
  5
1A8
330
1F
100
AcDbEntity
  8
0
  6
Continuous
 62
     7
370
    18
100
AcDbDimension
  2
_D_7
 10
93.6802776649
 20
150.0077093596
 30
0.0
 11
93.6802776649
 21
155.0077093596
 31
0.0
 70
   160
  1
%%c<>
 71
     2
 42
-1.0
  3
SLDDIMSTYLE2
100
AcDbAlignedDimension
 13
115.4802776649
 23
160.0077093596
 33
0.0
 14
115.4802776649
 24
150.0077093596
 34
0.0
 50
90.0
100
AcDbRotatedDimension
  0
LINE
  5
1B5
330
1F
100
AcDbEntity
  8
0
  6
CENTERX2
 62
     7
370
    18
100
AcDbLine
 10
108.7221608868
 20
155.0077093596
 30
0.0
 11
160.3067012207
 21
155.0077093596
 31
0.0
  0
LINE
  5
1B6
330
1F
100
AcDbEntity
  8
0
  6
CENTERX2
 62
     7
370
    18
100
AcDbLine
 10
119.1802776649
 20
140.0500366822
 30
0.0
 11
119.1802776649
 21
154.4467189556
 31
0.0
  0
LINE
  5
1B7
330
1F
100
AcDbEntity
  8
0
  6
Continuous
 62
     7
370
    18
100
AcDbLine
 10
67.0145634351
 20
145.7077088999
 30
0.0
 11
67.5145632842
 21
143.2077094214
 31
0.0
  0
LINE
  5
1B8
330
1F
100
AcDbEntity
  8
0
  6
Continuous
 62
     7
370
    18
100
AcDbLine
 10
71.5145634742
 20
143.2077094214
 30
0.0
 11
72.0145633233
 21
145.7077088999
 31
0.0
  0
LINE
  5
1B9
330
1F
100
AcDbEntity
  8
0
  6
Continuous
 62
     7
370
    18
100
AcDbLine
 10
67.0145634351
 20
143.2077094214
 30
0.0
 11
67.5145632842
 21
140.7077090117
 31
0.0
  0
LINE
  5
1BA
330
1F
100
AcDbEntity
  8
0
  6
Continuous
 62
     7
370
    18
100
AcDbLine
 10
71.5145634742
 20
140.7077090117
 30
0.0
 11
72.0145633233
 21
143.2077094214
 31
0.0
  0
LINE
  5
1BB
330
1F
100
AcDbEntity
  8
0
  6
Continuous
 62
     7
370
    18
100
AcDbLine
 10
67.3645633062
 20
150.493565132
 30
0.0
 11
67.3645633062
 21
145.7077088999
 31
0.0
  0
LINE
  5
1BC
330
1F
100
AcDbEntity
  8
0
  6
Continuous
 62
     7
370
    18
100
AcDbLine
 10
71.6645634522
 20
145.7077088999
 30
0.0
 11
71.6645634522
 21
150.493565132
 31
0.0
  0
CIRCLE
  5
1BD
330
1F
100
AcDbEntity
  8
0
  6
Continuous
 62
     7
370
    18
100
AcDbCircle
 10
69.5145633792
 20
155.0077093596
 30
0.0
 40
3.499999999999986
  0
CIRCLE
  5
1BE
330
1F
100
AcDbEntity
  8
0
  6
Continuous
 62
     7
370
    18
100
AcDbCircle
 10
69.5145633792
 20
155.0077093596
 30
0.0
 40
3.199999999999989
  0
CIRCLE
  5
1BF
330
1F
100
AcDbEntity
  8
0
  6
Continuous
 62
     7
370
    18
100
AcDbCircle
 10
69.5145633792
 20
155.0077093596
 30
0.0
 40
1.500000000000014
  0
SPLINE
  5
1C0
330
1F
100
AcDbEntity
  8
0
  6
Continuous
 62
     7
370
    18
100
AcDbSpline
210
0.0
220
0.0
230
1.0
 70
    11
 71
     3
 72
    54
 73
    50
 74
     0
 42
0.000000001
 43
0.00000001
 40
0.0
 40
0.0
 40
0.0
 40
0.0
 40
0.0625000000000004
 40
0.0625000000000004
 40
0.0937500000000005
 40
0.0937500000000005
 40
0.1250000000000007
 40
0.1250000000000007
 40
0.1562500000000009
 40
0.1562500000000009
 40
0.1875000000000011
 40
0.1875000000000011
 40
0.2500000000000009
 40
0.2500000000000009
 40
0.3125000000000008
 40
0.3125000000000008
 40
0.3437500000000008
 40
0.3437500000000008
 40
0.3750000000000007
 40
0.3750000000000007
 40
0.4062500000000007
 40
0.4062500000000007
 40
0.4375000000000006
 40
0.4375000000000006
 40
0.5000000000000006
 40
0.5000000000000006
 40
0.5625000000000004
 40
0.5625000000000004
 40
0.5937500000000004
 40
0.5937500000000004
 40
0.6250000000000003
 40
0.6250000000000003
 40
0.6562500000000003
 40
0.6562500000000003
 40
0.6875000000000003
 40
0.6875000000000003
 40
0.7500000000000002
 40
0.7500000000000002
 40
0.8125000000000001
 40
0.8125000000000001
 40
0.8437500000000001
 40
0.8437500000000001
 40
0.875
 40
0.875
 40
0.90625
 40
0.90625
 40
0.9375
 40
0.9375
 40
1.0
 40
1.0
 40
1.0
 40
1.0
 10
68.64373981810309
 20
153.8425739815144
 30
0.0
 10
68.53092941873112
 20
153.9262937607247
 30
0.0
 10
68.44353477120798
 20
154.0163439540321
 30
0.0
 10
68.34415892967027
 20
154.1391005382627
 30
0.0
 10
68.3173555647642
 20
154.1767597144467
 30
0.0
 10
68.27757204754282
 20
154.235891093827
 30
0.0
 10
68.26512700167291
 20
154.2563012390504
 30
0.0
 10
68.25898809810872
 20
154.2650775879861
 30
0.0
 10
68.26547540389046
 20
154.2529583936503
 30
0.0
 10
68.29513126399327
 20
154.2045859998081
 30
0.0
 10
68.3174379019991
 20
154.1701960560234
 30
0.0
 10
68.40350655584649
 20
154.0538168594481
 30
0.0
 10
68.4839979902377
 20
153.9623555957698
 30
0.0
 10
68.69173553368749
 20
153.7908688055186
 30
0.0
 10
68.81785274852379
 20
153.7108929839867
 30
0.0
 10
69.04329451693278
 20
153.6196444516136
 30
0.0
 10
69.12247971888789
 20
153.5948261969578
 30
0.0
 10
69.29004251217387
 20
153.5585362176642
 30
0.0
 10
69.37819544408798
 20
153.5474315470579
 30
0.0
 10
69.5533545340529
 20
153.5415613302122
 30
0.0
 10
69.64307240925844
 20
153.5467542175773
 30
0.0
 10
69.81513394635424
 20
153.5723768514293
 30
0.0
 10
69.8984450447274
 20
153.592723287194
 30
0.0
 10
70.13470924851882
 20
153.6718708399464
 30
0.0
 10
70.27098089714595
 20
153.7477849324973
 30
0.0
 10
70.49399496838674
 20
153.9133815300419
 30
0.0
 10
70.58391550043864
 20
154.0059956025235
 30
0.0
 10
70.68225012909905
 20
154.1287779924249
 30
0.0
 10
70.70924881711571
 20
154.167209014988
 30
0.0
 10
70.75007795019312
 20
154.2297944062132
 30
0.0
 10
70.76304791054291
 20
154.2523880967991
 30
0.0
 10
70.77042647909722
 20
154.2662484536868
 30
0.0
 10
70.76451570196122
 20
154.2566519547679
 30
0.0
 10
70.73576785838372
 20
154.2121177128074
 30
0.0
 10
70.71370845459438
 20
154.1788913629755
 30
0.0
 10
70.62751838208008
 20
154.0641998282359
 30
0.0
 10
70.54740101292425
 20
153.9734817217401
 30
0.0
 10
70.33853805423658
 20
153.8016762016935
 30
0.0
 10
70.21421427901392
 20
153.7228502041146
 30
0.0
 10
69.9882267217982
 20
153.6311939254884
 30
0.0
 10
69.90883055823663
 20
153.606239719185
 30
0.0
 10
69.74077715259492
 20
153.5697087241293
 30
0.0
 10
69.65236377529715
 20
153.5585016020001
 30
0.0
 10
69.47658862095771
 20
153.5524908068203
 30
0.0
 10
69.38652459918873
 20
153.5576524954911
 30
0.0
 10
69.21391035391669
 20
153.5832631256333
 30
0.0
 10
69.13024314729496
 20
153.6036566437699
 30
0.0
 10
68.8932966631775
 20
153.6829077582118
 30
0.0
 10
68.75655021747507
 20
153.758854202304
 30
0.0
 10
68.64373981810309
 20
153.8425739815144
 30
0.0
  0
CIRCLE
  5
1C1
330
1F
100
AcDbEntity
  8
0
  6
Continuous
 62
     7
370
    18
100
AcDbCircle
 10
69.5145633792
 20
155.0077093596
 30
0.0
 40
1.449821465561925
  0
ARC
  5
1C2
330
1F
100
AcDbEntity
  8
0
  6
Continuous
 62
     7
370
    18
100
AcDbCircle
 10
69.5145633792
 20
155.0077093596
 30
0.0
 40
4.699999999999991
100
AcDbArc
 50
220.0077539135
 51
319.9922460865
  0
SPLINE
  5
1C3
330
1F
100
AcDbEntity
  8
0
  6
Continuous
 62
     7
370
    18
100
AcDbSpline
210
0.0
220
0.0
230
1.0
 70
    24
 71
     3
 72
    12
 73
     8
 74
     0
 42
0.000000001
 43
0.00000001
 40
0.0
 40
0.0
 40
0.0
 40
0.0
 40
0.4999999999999989
 40
0.4999999999999989
 40
0.7499999999999994
 40
0.7499999999999994
 40
1.0
 40
1.0
 40
1.0
 40
1.0
 10
73.11456337920885
 20
151.9861203736582
 30
0.0
 10
73.11456337920885
 20
151.88751549848
 30
0.0
 10
73.11456337920885
 20
151.7876392148134
 30
0.0
 10
73.11456337920885
 20
151.6571563618714
 30
0.0
 10
73.11456337920885
 20
151.6170815652351
 30
0.0
 10
73.11456337920885
 20
151.5567813408018
 30
0.0
 10
73.11456337920885
 20
151.537839045026
 30
0.0
 10
73.11456337920885
 20
151.537839045026
 30
0.0
  0
ARC
  5
1C4
330
1F
100
AcDbEntity
  8
0
  6
Continuous
 62
     7
370
    18
100
AcDbCircle
 10
69.5145633792
 20
155.0077093596
 30
0.0
 40
4.999999999999996
100
AcDbArc
 50
223.9455195623
 51
316.0544804377
  0
SPLINE
  5
1C5
330
1F
100
AcDbEntity
  8
0
  6
Continuous
 62
     7
370
    18
100
AcDbSpline
210
0.0
220
0.0
230
1.0
 70
    24
 71
     3
 72
    12
 73
     8
 74
     0
 42
0.000000001
 43
0.00000001
 40
0.0
 40
0.0
 40
0.0
 40
0.0
 40
0.250000000000001
 40
0.250000000000001
 40
0.500000000000002
 40
0.500000000000002
 40
1.0
 40
1.0
 40
1.0
 40
1.0
 10
65.91456337920886
 20
151.5378390450263
 30
0.0
 10
65.91456337920886
 20
151.5378390450263
 30
0.0
 10
65.91456337920886
 20
151.5570683721951
 30
0.0
 10
65.91456337920886
 20
151.6165771076357
 30
0.0
 10
65.91456337920886
 20
151.6566860839219
 30
0.0
 10
65.91456337920886
 20
151.7867732013868
 30
0.0
 10
65.91456337920886
 20
151.8876348955125
 30
0.0
 10
65.91456337920886
 20
151.9861203736582
 30
0.0
  0
ARC
  5
1C6
330
1F
100
AcDbEntity
  8
0
  6
Continuous
 62
     7
370
    18
100
AcDbCircle
 10
69.5145633792
 20
155.0077093596
 30
0.0
 40
5.000000000000036
100
AcDbArc
 50
43.9455195623
 51
136.0544804377
  0
SPLINE
  5
1C7
330
1F
100
AcDbEntity
  8
0
  6
Continuous
 62
     7
370
    18
100
AcDbSpline
210
0.0
220
0.0
230
1.0
 70
    24
 71
     3
 72
    12
 73
     8
 74
     0
 42
0.000000001
 43
0.00000001
 40
0.0
 40
0.0
 40
0.0
 40
0.0
 40
0.25
 40
0.25
 40
0.5
 40
0.5
 40
1.0
 40
1.0
 40
1.0
 40
1.0
 10
73.11456337920885
 20
158.4775796741856
 30
0.0
 10
73.11456337920885
 20
158.4775796741856
 30
0.0
 10
73.11456337920885
 20
158.4585987025383
 30
0.0
 10
73.11456337920885
 20
158.3986018677662
 30
0.0
 10
73.11456337920885
 20
158.3587575713267
 30
0.0
 10
73.11456337920885
 20
158.2274918029268
 30
0.0
 10
73.11456337920885
 20
158.1275565856373
 30
0.0
 10
73.11456337920885
 20
158.0292983455535
 30
0.0
  0
ARC
  5
1C8
330
1F
100
AcDbEntity
  8
0
  6
Continuous
 62
     7
370
    18
100
AcDbCircle
 10
69.5145633792
 20
155.0077093596
 30
0.0
 40
4.700000000000028
100
AcDbArc
 50
40.0077539135
 51
139.9922460865
  0
SPLINE
  5
1C9
330
1F
100
AcDbEntity
  8
0
  6
Continuous
 62
     7
370
    18
100
AcDbSpline
210
0.0
220
0.0
230
1.0
 70
    24
 71
     3
 72
    12
 73
     8
 74
     0
 42
0.000000001
 43
0.00000001
 40
0.0
 40
0.0
 40
0.0
 40
0.0
 40
0.4999999999999989
 40
0.4999999999999989
 40
0.7499999999999994
 40
0.7499999999999994
 40
1.0
 40
1.0
 40
1.0
 40
1.0
 10
65.91456337920886
 20
158.0292983455535
 30
0.0
 10
65.91456337920886
 20
158.128092640683
 30
0.0
 10
65.91456337920886
 20
158.2287739214421
 30
0.0
 10
65.91456337920886
 20
158.3588141776889
 30
0.0
 10
65.91456337920886
 20
158.3988646066179
 30
0.0
 10
65.91456337920886
 20
158.4586408765478
 30
0.0
 10
65.91456337920886
 20
158.4775796741857
 30
0.0
 10
65.91456337920886
 20
158.4775796741857
 30
0.0
  0
LINE
  5
1CA
330
1F
100
AcDbEntity
  8
0
  6
Continuous
 62
     7
370
    18
100
AcDbLine
 10
73.1145633174
 20
151.9861203852
 30
0.0
 11
73.1145633174
 21
158.0292984145
 31
0.0
  0
LINE
  5
1CB
330
1F
100
AcDbEntity
  8
0
  6
Continuous
 62
     7
370
    18
100
AcDbLine
 10
65.914563441
 20
158.0292984145
 30
0.0
 11
65.914563441
 21
151.9861203852
 31
0.0
  0
LWPOLYLINE
  5
1CC
330
1F
100
AcDbEntity
  8
0
  6
Continuous
 62
     7
370
    18
100
AcDbPolyline
 90
        9
 70
   128
 43
0.0
 10
70.3108814334
 20
150.0715288567
 10
70.2927336235
 20
150.0631623203
 10
70.2769459014
 20
150.0444925623
 10
70.2640833471
 20
150.0161882723
 10
70.2546065579
 20
149.9792627292
 10
70.2488546514
 20
149.9350379454
 10
70.2470335666
 20
149.8850971694
 10
70.249208554
 20
149.831227609
 10
70.2553016738
 20
149.7753580334
  0
SPLINE
  5
1CD
330
1F
100
AcDbEntity
  8
0
  6
Continuous
 62
     7
370
    18
100
AcDbSpline
210
0.0
220
0.0
230
1.0
 70
     8
 71
     3
 72
    12
 73
     8
 74
     0
 42
0.000000001
 43
0.00000001
 40
0.0
 40
0.0
 40
0.0
 40
0.0
 40
0.5
 40
0.5
 40
0.75
 40
0.75
 40
1.0
 40
1.0
 40
1.0
 40
1.0
 10
70.25530169522293
 20
149.7753580717047
 30
0.0
 10
70.01883738464335
 20
149.7318881590873
 30
0.0
 10
69.76826342261737
 20
149.7076980457097
 30
0.0
 10
69.38744042967856
 20
149.7077150226374
 30
0.0
 10
69.259879060893
 20
149.7137778423702
 30
0.0
 10
69.01286638209456
 20
149.7367419694106
 30
0.0
 10
68.89202768020441
 20
149.7536285455028
 30
0.0
 10
68.77382506319479
 20
149.7753580717047
 30
0.0
  0
LWPOLYLINE
  5
1CE
330
1F
100
AcDbEntity
  8
0
  6
Continuous
 62
     7
370
    18
100
AcDbPolyline
 90
        9
 70
   128
 43
0.0
 10
68.718245325
 20
150.0715288567
 10
68.7363931349
 20
150.0631623203
 10
68.752180857
 20
150.0444925623
 10
68.7650434113
 20
150.0161882723
 10
68.7745202005
 20
149.9792627292
 10
68.780272107
 20
149.9350379454
 10
68.7820931919
 20
149.8850971694
 10
68.7799182044
 20
149.831227609
 10
68.7738250847
 20
149.7753580334
  0
LINE
  5
1CF
330
1F
100
AcDbEntity
  8
0
  6
Continuous
 62
     7
370
    18
100
AcDbLine
 10
67.0145634351
 20
145.7077088999
 30
0.0
 11
72.0145633233
 21
145.7077088999
 31
0.0
  0
LINE
  5
1D0
330
1F
100
AcDbEntity
  8
0
  6
Continuous
 62
     7
370
    18
100
AcDbLine
 10
67.5145632842
 20
140.7077090117
 30
0.0
 11
71.5145634742
 21
140.7077090117
 31
0.0
  0
LINE
  5
1D1
330
1F
100
AcDbEntity
  8
0
  6
Continuous
 62
     7
370
    18
100
AcDbLine
 10
67.0145634351
 20
143.2077094214
 30
0.0
 11
72.0145633233
 21
143.2077094214
 31
0.0
  0
ARC
  5
1D2
330
1F
100
AcDbEntity
  8
0
  6
Continuous
 62
     7
370
    18
100
AcDbCircle
 10
69.5145633792
 20
155.0077093596
 30
0.0
 40
5.999999999999982
100
AcDbArc
 50
290.9978755459
 51
249.0021244541
  0
ARC
  5
1D3
330
1F
100
AcDbEntity
  8
0
  6
Continuous
 62
     7
370
    18
100
AcDbCircle
 10
69.5145633792
 20
155.0077093596
 30
0.0
 40
7.699999999999975
100
AcDbArc
 50
286.2137038924
 51
253.7862961076
  0
ARC
  5
1D4
330
1F
100
AcDbEntity
  8
0
  6
Continuous
 62
     7
370
    18
100
AcDbCircle
 10
69.5145633792
 20
155.0077093596
 30
0.0
 40
7.999999999999987
100
AcDbArc
 50
285.5898981071
 51
254.4101018929
  0
SPLINE
  5
1D5
330
1F
100
AcDbEntity
  8
0
  6
Continuous
 62
     8
370
    18
100
AcDbSpline
210
0.0
220
0.0
230
1.0
 70
     8
 71
     3
 72
    11
 73
     7
 74
     0
 42
0.000000001
 43
0.00000001
 40
0.0
 40
0.0
 40
0.0
 40
0.0
 40
0.268747941774208
 40
0.6714536035290686
 40
0.9871318710677619
 40
1.0
 40
1.0
 40
1.0
 40
1.0
 10
68.77382508465585
 20
149.7753580334115
 30
0.0
 10
68.69434223900913
 20
149.792838614093
 30
0.0
 10
68.49575823209213
 20
149.8365129909565
 30
0.0
 10
68.25347608046256
 20
149.982308713112
 30
0.0
 10
68.1045649922651
 20
150.1384902127849
 30
0.0
 10
68.06964700254714
 20
150.2335279298175
 30
0.0
 10
68.06827937472177
 20
150.2372502582598
 30
0.0
  0
SPLINE
  5
1D6
330
1F
100
AcDbEntity
  8
0
  6
Continuous
 62
     8
370
    18
100
AcDbSpline
210
0.0
220
0.0
230
1.0
 70
     8
 71
     3
 72
    11
 73
     7
 74
     0
 42
0.000000001
 43
0.00000001
 40
0.0
 40
0.0
 40
0.0
 40
0.0
 40
0.1037990743881188
 40
0.4332849720645229
 40
0.8340142246264193
 40
1.0
 40
1.0
 40
1.0
 40
1.0
 10
70.95954690813583
 20
150.2492242726016
 30
0.0
 10
70.9469295223076
 20
150.2198307189014
 30
0.0
 10
70.8942611945953
 20
150.0971341999877
 30
0.0
 10
70.71298147413928
 20
149.9316094507354
 30
0.0
 10
70.47491410025886
 20
149.8209559187708
 30
0.0
 10
70.30505259354952
 20
149.7856877618936
 30
0.0
 10
70.25530167376188
 20
149.7753580334115
 30
0.0
  0
ARC
  5
1D7
330
1F
100
AcDbEntity
  8
0
  6
Continuous
 62
     8
370
    18
100
AcDbCircle
 10
69.5145633792
 20
155.0077093596
 30
0.0
 40
5.699999999999989
100
AcDbArc
 50
292.1599175499
 51
247.8400824501
  0
DIMENSION
  5
1D8
330
1F
100
AcDbEntity
  8
0
  6
Continuous
 62
     7
370
    18
100
AcDbDimension
  2
_D_8
 10
74.0727537801
 20
148.4332968179
 30
0.0
 11
53.8981881507
 21
172.0501733701
 31
0.0
 70
   163
  1
<>
 71
     1
 42
-1.0
  3
SLDDIMSTYLE3
100
AcDbDiametricDimension
 15
64.9563729783
 25
161.5821219014
 35
0.0
 40
0.0
  0
INSERT
  5
1E7
330
1F
100
AcDbEntity
  8
0
  6
Continuous
 62
     7
370
     0
100
AcDbBlockReference
  2
SW_NOTE_0
 10
63.8818517912
 20
128.5049263021
 30
0.0
  0
LEADER
  5
1E9
330
1F
100
AcDbEntity
  8
0
  6
Continuous
 62
     7
370
     0
100
AcDbLeader
  3
SLDDIMSTYLE4
 76
     2
 10
68.6935106508
 20
144.1670298038
 30
0.0
 10
63.8818517912
 20
128.5049263021
 30
0.0
  0
INSERT
  5
1F5
330
1F
100
AcDbEntity
  8
0
  6
Continuous
 62
     7
370
    18
100
AcDbBlockReference
  2
SW_CENTERMARKSYMBOL_0
 10
69.5145633792
 20
155.0077093596
 30
0.0
  0
ENDSEC
  0
SECTION
  2
OBJECTS
  0
DICTIONARY
  5
C
330
0
100
AcDbDictionary
281
     1
  3
ACAD_GROUP
350
D
  3
ACAD_LAYOUT
350
1A
  3
ACAD_MLINESTYLE
350
17
  3
ACAD_PLOTSETTINGS
350
19
  3
ACAD_PLOTSTYLENAME
350
E
  3
ACAD_SCALELIST
350
47
  0
DICTIONARY
  5
D
102
{ACAD_REACTORS
330
C
102
}
330
C
100
AcDbDictionary
281
     1
  0
DICTIONARY
  5
1A
102
{ACAD_REACTORS
330
C
102
}
330
C
100
AcDbDictionary
281
     1
  3
Layout1
350
1E
  3
Layout2
350
26
  3
Model
350
22
  0
DICTIONARY
  5
17
102
{ACAD_REACTORS
330
C
102
}
330
C
100
AcDbDictionary
281
     1
  3
Standard
350
18
  0
DICTIONARY
  5
19
102
{ACAD_REACTORS
330
C
102
}
330
C
100
AcDbDictionary
281
     1
  0
ACDBDICTIONARYWDFLT
  5
E
102
{ACAD_REACTORS
330
C
102
}
330
C
100
AcDbDictionary
281
     1
  3
Normal
350
F
100
AcDbDictionaryWithDefault
340
F
  0
DICTIONARY
  5
47
102
{ACAD_REACTORS
330
C
102
}
330
C
100
AcDbDictionary
281
     1
  3
A0
350
48
  3
A1
350
49
  3
A2
350
4A
  3
A3
350
4B
  3
A4
350
4C
  3
A5
350
4D
  3
A6
350
4E
  3
A7
350
4F
  3
A8
350
50
  3
A9
350
51
  3
B0
350
52
  3
B1
350
53
  3
B2
350
54
  3
B3
350
55
  3
B4
350
56
  3
B5
350
57
  3
B6
350
58
  3
B7
350
59
  3
B8
350
5A
  3
B9
350
5B
  3
C0
350
5C
  3
C1
350
5D
  3
C2
350
5E
  3
C3
350
5F
  3
C4
350
60
  3
C5
350
61
  3
C6
350
62
  3
C7
350
63
  3
C8
350
64
  3
C9
350
65
  3
D0
350
66
  3
D1
350
67
  3
D2
350
68
  0
LAYOUT
  5
1E
102
{ACAD_REACTORS
330
1A
102
}
330
1A
100
AcDbPlotSettings
  1

  2
none_device
  4

  6

 40
0.0
 41
0.0
 42
0.0
 43
0.0
 44
0.0
 45
0.0
 46
0.0
 47
0.0
 48
0.0
 49
0.0
140
0.0
141
0.0
142
1.0
143
1.0
 70
   688
 72
     1
 73
     0
 74
     5
  7

 75
    16
147
1.0
148
0.0
149
0.0
100
AcDbLayout
  1
Layout1
 70
     1
 71
     1
 10
0.0
 20
0.0
 11
420.0
 21
297.0
 12
0.0
 22
0.0
 32
0.0
 14
1.0000000000E+20
 24
1.0000000000E+20
 34
1.0000000000E+20
 15
-1.0000000000E+20
 25
-1.0000000000E+20
 35
-1.0000000000E+20
146
0.0
 13
0.0
 23
0.0
 33
0.0
 16
1.0
 26
0.0
 36
0.0
 17
0.0
 27
1.0
 37
0.0
 76
     0
330
1B
  0
LAYOUT
  5
26
102
{ACAD_REACTORS
330
1A
102
}
330
1A
100
AcDbPlotSettings
  1

  2
none_device
  4

  6

 40
0.0
 41
0.0
 42
0.0
 43
0.0
 44
0.0
 45
0.0
 46
0.0
 47
0.0
 48
0.0
 49
0.0
140
0.0
141
0.0
142
1.0
143
1.0
 70
   688
 72
     1
 73
     0
 74
     5
  7

 75
    16
147
1.0
148
0.0
149
0.0
100
AcDbLayout
  1
Layout2
 70
     1
 71
     2
 10
0.0
 20
0.0
 11
0.0
 21
0.0
 12
0.0
 22
0.0
 32
0.0
 14
0.0
 24
0.0
 34
0.0
 15
0.0
 25
0.0
 35
0.0
146
0.0
 13
0.0
 23
0.0
 33
0.0
 16
1.0
 26
0.0
 36
0.0
 17
0.0
 27
1.0
 37
0.0
 76
     0
330
23
  0
LAYOUT
  5
22
102
{ACAD_REACTORS
330
1A
102
}
330
1A
100
AcDbPlotSettings
  1

  2
none_device
  4
Letter_(8.50_x_11.00_Inches)
  6

 40
6.35
 41
6.35
 42
6.35000508
 43
6.35000508
 44
215.9
 45
279.4
 46
0.0
 47
0.0
 48
0.0
 49
0.0
140
0.0
141
0.0
142
1.0
143
1.0
 70
  1712
 72
     1
 73
     0
 74
     0
  7

 75
     0
147
1.0
148
0.0
149
0.0
100
AcDbLayout
  1
Model
 70
     1
 71
     0
 10
0.0
 20
0.0
 11
210.0
 21
297.0
 12
0.0
 22
0.0
 32
0.0
 14
0.0
 24
0.0
 34
0.0
 15
210.0
 25
297.0
 35
0.0
146
0.0
 13
0.0
 23
0.0
 33
0.0
 16
1.0
 26
0.0
 36
0.0
 17
0.0
 27
1.0
 37
0.0
 76
     0
330
1F
331
29
  0
MLINESTYLE
  5
18
102
{ACAD_REACTORS
330
17
102
}
330
17
100
AcDbMlineStyle
  2
Standard
 70
     0
  3

 62
   256
 51
90.0
 52
90.0
 71
     2
 49
0.5
 62
   256
  6
BYLAYER
 49
-0.5
 62
   256
  6
BYLAYER
  0
ACDBPLACEHOLDER
  5
F
102
{ACAD_REACTORS
330
E
102
}
330
E
  0
SCALE
  5
48
102
{ACAD_REACTORS
330
47
102
}
330
47
100
AcDbScale
 70
     0
300
1:1
140
1.0
141
1.0
290
     1
  0
SCALE
  5
49
102
{ACAD_REACTORS
330
47
102
}
330
47
100
AcDbScale
 70
     0
300
1:2
140
1.0
141
2.0
290
     0
  0
SCALE
  5
4A
102
{ACAD_REACTORS
330
47
102
}
330
47
100
AcDbScale
 70
     0
300
1:4
140
1.0
141
4.0
290
     0
  0
SCALE
  5
4B
102
{ACAD_REACTORS
330
47
102
}
330
47
100
AcDbScale
 70
     0
300
1:5
140
1.0
141
5.0
290
     0
  0
SCALE
  5
4C
102
{ACAD_REACTORS
330
47
102
}
330
47
100
AcDbScale
 70
     0
300
1:8
140
1.0
141
8.0
290
     0
  0
SCALE
  5
4D
102
{ACAD_REACTORS
330
47
102
}
330
47
100
AcDbScale
 70
     0
300
1:10
140
1.0
141
10.0
290
     0
  0
SCALE
  5
4E
102
{ACAD_REACTORS
330
47
102
}
330
47
100
AcDbScale
 70
     0
300
1:16
140
1.0
141
16.0
290
     0
  0
SCALE
  5
4F
102
{ACAD_REACTORS
330
47
102
}
330
47
100
AcDbScale
 70
     0
300
1:20
140
1.0
141
20.0
290
     0
  0
SCALE
  5
50
102
{ACAD_REACTORS
330
47
102
}
330
47
100
AcDbScale
 70
     0
300
1:30
140
1.0
141
30.0
290
     0
  0
SCALE
  5
51
102
{ACAD_REACTORS
330
47
102
}
330
47
100
AcDbScale
 70
     0
300
1:40
140
1.0
141
40.0
290
     0
  0
SCALE
  5
52
102
{ACAD_REACTORS
330
47
102
}
330
47
100
AcDbScale
 70
     0
300
1:50
140
1.0
141
50.0
290
     0
  0
SCALE
  5
53
102
{ACAD_REACTORS
330
47
102
}
330
47
100
AcDbScale
 70
     0
300
1:100
140
1.0
141
100.0
290
     0
  0
SCALE
  5
54
102
{ACAD_REACTORS
330
47
102
}
330
47
100
AcDbScale
 70
     0
300
2:1
140
2.0
141
1.0
290
     0
  0
SCALE
  5
55
102
{ACAD_REACTORS
330
47
102
}
330
47
100
AcDbScale
 70
     0
300
4:1
140
4.0
141
1.0
290
     0
  0
SCALE
  5
56
102
{ACAD_REACTORS
330
47
102
}
330
47
100
AcDbScale
 70
     0
300
8:1
140
8.0
141
1.0
290
     0
  0
SCALE
  5
57
102
{ACAD_REACTORS
330
47
102
}
330
47
100
AcDbScale
 70
     0
300
10:1
140
10.0
141
1.0
290
     0
  0
SCALE
  5
58
102
{ACAD_REACTORS
330
47
102
}
330
47
100
AcDbScale
 70
     0
300
100:1
140
100.0
141
1.0
290
     0
  0
SCALE
  5
59
102
{ACAD_REACTORS
330
47
102
}
330
47
100
AcDbScale
 70
     0
300
1/128" = 1'-0"
140
0.0078125
141
12.0
290
     0
  0
SCALE
  5
5A
102
{ACAD_REACTORS
330
47
102
}
330
47
100
AcDbScale
 70
     0
300
1/64" = 1'-0"
140
0.015625
141
12.0
290
     0
  0
SCALE
  5
5B
102
{ACAD_REACTORS
330
47
102
}
330
47
100
AcDbScale
 70
     0
300
1/32" = 1'-0"
140
0.03125
141
12.0
290
     0
  0
SCALE
  5
5C
102
{ACAD_REACTORS
330
47
102
}
330
47
100
AcDbScale
 70
     0
300
1/16" = 1'-0"
140
0.0625
141
12.0
290
     0
  0
SCALE
  5
5D
102
{ACAD_REACTORS
330
47
102
}
330
47
100
AcDbScale
 70
     0
300
3/32" = 1'-0"
140
0.09375
141
12.0
290
     0
  0
SCALE
  5
5E
102
{ACAD_REACTORS
330
47
102
}
330
47
100
AcDbScale
 70
     0
300
1/8" = 1'-0"
140
0.125
141
12.0
290
     0
  0
SCALE
  5
5F
102
{ACAD_REACTORS
330
47
102
}
330
47
100
AcDbScale
 70
     0
300
3/16" = 1'-0"
140
0.1875
141
12.0
290
     0
  0
SCALE
  5
60
102
{ACAD_REACTORS
330
47
102
}
330
47
100
AcDbScale
 70
     0
300
1/4" = 1'-0"
140
0.25
141
12.0
290
     0
  0
SCALE
  5
61
102
{ACAD_REACTORS
330
47
102
}
330
47
100
AcDbScale
 70
     0
300
3/8" = 1'-0"
140
0.375
141
12.0
290
     0
  0
SCALE
  5
62
102
{ACAD_REACTORS
330
47
102
}
330
47
100
AcDbScale
 70
     0
300
1/2" = 1'-0"
140
0.5
141
12.0
290
     0
  0
SCALE
  5
63
102
{ACAD_REACTORS
330
47
102
}
330
47
100
AcDbScale
 70
     0
300
3/4" = 1'-0"
140
0.75
141
12.0
290
     0
  0
SCALE
  5
64
102
{ACAD_REACTORS
330
47
102
}
330
47
100
AcDbScale
 70
     0
300
1" = 1'-0"
140
1.0
141
12.0
290
     0
  0
SCALE
  5
65
102
{ACAD_REACTORS
330
47
102
}
330
47
100
AcDbScale
 70
     0
300
1-1/2" = 1'-0"
140
1.5
141
12.0
290
     0
  0
SCALE
  5
66
102
{ACAD_REACTORS
330
47
102
}
330
47
100
AcDbScale
 70
     0
300
3" = 1'-0"
140
3.0
141
12.0
290
     0
  0
SCALE
  5
67
102
{ACAD_REACTORS
330
47
102
}
330
47
100
AcDbScale
 70
     0
300
6" = 1'-0"
140
6.0
141
12.0
290
     0
  0
SCALE
  5
68
102
{ACAD_REACTORS
330
47
102
}
330
47
100
AcDbScale
 70
     0
300
1'-0" = 1'-0"
140
12.0
141
12.0
290
     0
  0
ENDSEC
  0
EOF
