  0
SECTION
  2
HEADER
  9
$ACADVER
  1
AC1015
  9
$ACADMAINTVER
 70
     6
  9
$DWGCODEPAGE
  3
DOS932
  9
$INSBASE
 10
0.0
 20
0.0
 30
0.0
  9
$EXTMIN
 10
0.0
 20
0.0
 30
0.0
  9
$EXTMAX
 10
210.0
 20
297.0
 30
0.0
  9
$LIMMIN
 10
0.0
 20
0.0
  9
$LIMMAX
 10
210.0
 20
297.0
  9
$ORTHOMODE
 70
     0
  9
$REGENMODE
 70
     1
  9
$FILLMODE
 70
     1
  9
$QTEXTMODE
 70
     0
  9
$MIRRTEXT
 70
     1
  9
$LTSCALE
 40
1.0
  9
$ATTMODE
 70
     1
  9
$TEXTSIZE
 40
3.5
  9
$TRACEWID
 40
1.0
  9
$TEXTSTYLE
  7
Standard
  9
$CLAYER
  8
0
  9
$CELTYPE
  6
ByLayer
  9
$CECOLOR
 62
   256
  9
$CELTSCALE
 40
1.0
  9
$DISPSILH
 70
     0
  9
$DIMSCALE
 40
1.0
  9
$DIMASZ
 40
3.0
  9
$DIMEXO
 40
1.0
  9
$DIMDLI
 40
3.75
  9
$DIMRND
 40
0.0
  9
$DIMDLE
 40
0.0
  9
$DIMEXE
 40
1.0
  9
$DIMTP
 40
0.0
  9
$DIMTM
 40
0.0
  9
$DIMTXT
 40
3.5
  9
$DIMCEN
 40
2.5
  9
$DIMTSZ
 40
0.0
  9
$DIMTOL
 70
     0
  9
$DIMLIM
 70
     0
  9
$DIMTIH
 70
     1
  9
$DIMTOH
 70
     1
  9
$DIMSE1
 70
     0
  9
$DIMSE2
 70
     0
  9
$DIMTAD
 70
     1
  9
$DIMZIN
 70
     0
  9
$DIMBLK
  1

  9
$DIMASO
 70
     1
  9
$DIMSHO
 70
     1
  9
$DIMPOST
  1

  9
$DIMAPOST
  1

  9
$DIMALT
 70
     0
  9
$DIMALTD
 70
     3
  9
$DIMALTF
 40
0.0393700787
  9
$DIMLFAC
 40
1.0
  9
$DIMTOFL
 70
     1
  9
$DIMTVP
 40
0.0
  9
$DIMTIX
 70
     0
  9
$DIMSOXD
 70
     0
  9
$DIMSAH
 70
     0
  9
$DIMBLK1
  1

  9
$DIMBLK2
  1

  9
$DIMSTYLE
  2
ISO-25
  9
$DIMCLRD
 70
     0
  9
$DIMCLRE
 70
     0
  9
$DIMCLRT
 70
     0
  9
$DIMTFAC
 40
1.0
  9
$DIMGAP
 40
1.524
  9
$DIMJUST
 70
     0
  9
$DIMSD1
 70
     0
  9
$DIMSD2
 70
     0
  9
$DIMTOLJ
 70
     0
  9
$DIMTZIN
 70
     0
  9
$DIMALTZ
 70
     0
  9
$DIMALTTZ
 70
     0
  9
$DIMUPT
 70
     0
  9
$DIMDEC
 70
     1
  9
$DIMTDEC
 70
     3
  9
$DIMALTU
 70
     2
  9
$DIMALTTD
 70
     3
  9
$DIMTXSTY
  7
Standard
  9
$DIMAUNIT
 70
     0
  9
$DIMADEC
 70
     2
  9
$DIMALTRND
 40
0.0
  9
$DIMAZIN
 70
     0
  9
$DIMDSEP
 70
    44
  9
$DIMATFIT
 70
     3
  9
$DIMFRAC
 70
     0
  9
$DIMLDRBLK
  1

  9
$DIMLUNIT
 70
     2
  9
$DIMLWD
 70
    -2
  9
$DIMLWE
 70
    -2
  9
$DIMTMOVE
 70
     0
  9
$LUNITS
 70
     2
  9
$LUPREC
 70
     1
  9
$SKETCHINC
 40
1.0
  9
$FILLETRAD
 40
10.0
  9
$AUNITS
 70
     0
  9
$AUPREC
 70
     2
  9
$MENU
  1
.
  9
$ELEVATION
 40
0.0
  9
$PELEVATION
 40
0.0
  9
$THICKNESS
 40
0.0
  9
$LIMCHECK
 70
     0
  9
$CHAMFERA
 40
0.0
  9
$CHAMFERB
 40
0.0
  9
$CHAMFERC
 40
0.0
  9
$CHAMFERD
 40
0.0
  9
$SKPOLY
 70
     0
  9
$TDCREATE
 40
2459019.468292106
  9
$TDUCREATE
 40
2459019.093292106
  9
$TDUPDATE
 40
2459019.468293993
  9
$TDUUPDATE
 40
2459019.093293993
  9
$TDINDWG
 40
0.0000000116
  9
$TDUSRTIMER
 40
0.0000000116
  9
$USRTIMER
 70
     1
  9
$ANGBASE
 50
0.0
  9
$ANGDIR
 70
     0
  9
$PDMODE
 70
     0
  9
$PDSIZE
 40
-1.0
  9
$PLINEWID
 40
0.0
  9
$SPLFRAME
 70
     0
  9
$SPLINETYPE
 70
     6
  9
$SPLINESEGS
 70
     8
  9
$HANDSEED
  5
20F
  9
$SURFTAB1
 70
     6
  9
$SURFTAB2
 70
     6
  9
$SURFTYPE
 70
     6
  9
$SURFU
 70
     6
  9
$SURFV
 70
     6
  9
$UCSBASE
  2

  9
$UCSNAME
  2

  9
$UCSORG
 10
0.0
 20
0.0
 30
0.0
  9
$UCSXDIR
 10
1.0
 20
0.0
 30
0.0
  9
$UCSYDIR
 10
0.0
 20
1.0
 30
0.0
  9
$UCSORTHOREF
  2

  9
$UCSORTHOVIEW
 70
     0
  9
$UCSORGTOP
 10
0.0
 20
0.0
 30
0.0
  9
$UCSORGBOTTOM
 10
0.0
 20
0.0
 30
0.0
  9
$UCSORGLEFT
 10
0.0
 20
0.0
 30
0.0
  9
$UCSORGRIGHT
 10
0.0
 20
0.0
 30
0.0
  9
$UCSORGFRONT
 10
0.0
 20
0.0
 30
0.0
  9
$UCSORGBACK
 10
0.0
 20
0.0
 30
0.0
  9
$PUCSBASE
  2

  9
$PUCSNAME
  2

  9
$PUCSORG
 10
0.0
 20
0.0
 30
0.0
  9
$PUCSXDIR
 10
1.0
 20
0.0
 30
0.0
  9
$PUCSYDIR
 10
0.0
 20
1.0
 30
0.0
  9
$PUCSORTHOREF
  2

  9
$PUCSORTHOVIEW
 70
     0
  9
$PUCSORGTOP
 10
0.0
 20
0.0
 30
0.0
  9
$PUCSORGBOTTOM
 10
0.0
 20
0.0
 30
0.0
  9
$PUCSORGLEFT
 10
0.0
 20
0.0
 30
0.0
  9
$PUCSORGRIGHT
 10
0.0
 20
0.0
 30
0.0
  9
$PUCSORGFRONT
 10
0.0
 20
0.0
 30
0.0
  9
$PUCSORGBACK
 10
0.0
 20
0.0
 30
0.0
  9
$USERI1
 70
     0
  9
$USERI2
 70
     0
  9
$USERI3
 70
     0
  9
$USERI4
 70
     0
  9
$USERI5
 70
     0
  9
$USERR1
 40
0.0
  9
$USERR2
 40
0.0
  9
$USERR3
 40
0.0
  9
$USERR4
 40
0.0
  9
$USERR5
 40
0.0
  9
$WORLDVIEW
 70
     1
  9
$SHADEDGE
 70
     3
  9
$SHADEDIF
 70
    70
  9
$TILEMODE
 70
     1
  9
$MAXACTVP
 70
    64
  9
$PINSBASE
 10
0.0
 20
0.0
 30
0.0
  9
$PLIMCHECK
 70
     0
  9
$PEXTMIN
 10
1.0000000000E+20
 20
1.0000000000E+20
 30
1.0000000000E+20
  9
$PEXTMAX
 10
-1.0000000000E+20
 20
-1.0000000000E+20
 30
-1.0000000000E+20
  9
$PLIMMIN
 10
0.0
 20
0.0
  9
$PLIMMAX
 10
420.0
 20
297.0
  9
$UNITMODE
 70
     0
  9
$VISRETAIN
 70
     1
  9
$PLINEGEN
 70
     0
  9
$PSLTSCALE
 70
     1
  9
$TREEDEPTH
 70
  3020
  9
$CMLSTYLE
  2
Standard
  9
$CMLJUST
 70
     0
  9
$CMLSCALE
 40
20.0
  9
$PROXYGRAPHICS
 70
     1
  9
$MEASUREMENT
 70
     1
  9
$CELWEIGHT
370
    -1
  9
$ENDCAPS
280
     0
  9
$JOINSTYLE
280
     0
  9
$LWDISPLAY
290
     1
  9
$INSUNITS
 70
     4
  9
$HYPERLINKBASE
  1

  9
$STYLESHEET
  1

  9
$XEDIT
290
     1
  9
$CEPSNTYPE
380
     0
  9
$PSTYLEMODE
290
     1
  9
$FINGERPRINTGUID
  2
{B4346C99-D4AE-46BF-9C07-B970FC95E06F}
  9
$VERSIONGUID
  2
{FAEB1C32-E019-11D5-929B-00C0DF256EC4}
  9
$EXTNAMES
290
     1
  9
$PSVPSCALE
 40
0.0
  9
$OLESTARTUP
290
     0
  0
ENDSEC
  0
SECTION
  2
CLASSES
  0
CLASS
  1
ACDBDICTIONARYWDFLT
  2
AcDbDictionaryWithDefault
  3
ObjectDBX Classes
 90
        0
280
     0
281
     0
  0
CLASS
  1
VISUALSTYLE
  2
AcDbVisualStyle
  3
ObjectDBX Classes
 90
     4095
280
     0
281
     0
  0
CLASS
  1
MATERIAL
  2
AcDbMaterial
  3
ObjectDBX Classes
 90
     1153
280
     0
281
     0
  0
CLASS
  1
SCALE
  2
AcDbScale
  3
ObjectDBX Classes
 90
     1153
280
     0
281
     0
  0
CLASS
  1
TABLESTYLE
  2
AcDbTableStyle
  3
ObjectDBX Classes
 90
     4095
280
     0
281
     0
  0
CLASS
  1
MLEADERSTYLE
  2
AcDbMLeaderStyle
  3
ACDB_MLEADERSTYLE_CLASS
 90
     4095
280
     0
281
     0
  0
CLASS
  1
SUN
  2
AcDbSun
  3
SCENEOE
 90
     1153
280
     0
281
     0
  0
CLASS
  1
ACDBPLACEHOLDER
  2
AcDbPlaceHolder
  3
ObjectDBX Classes
 90
        0
280
     0
281
     0
  0
CLASS
  1
LAYOUT
  2
AcDbLayout
  3
ObjectDBX Classes
 90
        0
280
     0
281
     0
  0
ENDSEC
  0
SECTION
  2
TABLES
  0
TABLE
  2
VPORT
  5
8
330
0
100
AcDbSymbolTable
 70
     1
  0
VPORT
  5
29
330
8
100
AcDbSymbolTableRecord
100
AcDbViewportTableRecord
  2
*Active
 70
     0
 10
0.0
 20
0.0
 11
1.0
 21
1.0
 12
105.0
 22
148.5
 13
0.0
 23
0.0
 14
10.0
 24
10.0
 15
10.0
 25
10.0
 16
0.0
 26
0.0
 36
1.0
 17
0.0
 27
0.0
 37
0.0
 40
297.0
 41
0.7070707071
 42
50.0
 43
0.0
 44
0.0
 50
0.0
 51
0.0
 71
     0
 72
  2000
 73
     1
 74
     3
 75
     0
 76
     0
 77
     0
 78
     0
281
     0
 65
     1
110
0.0
120
0.0
130
0.0
111
1.0
121
0.0
131
0.0
112
0.0
122
1.0
132
0.0
 79
     0
146
0.0
  0
ENDTAB
  0
TABLE
  2
LTYPE
  5
5
330
0
100
AcDbSymbolTable
 70
     6
  0
LTYPE
  5
14
330
5
100
AcDbSymbolTableRecord
100
AcDbLinetypeTableRecord
  2
ByBlock
 70
     0
  3

 72
    65
 73
     0
 40
0.0
  0
LTYPE
  5
15
330
5
100
AcDbSymbolTableRecord
100
AcDbLinetypeTableRecord
  2
ByLayer
 70
     0
  3

 72
    65
 73
     0
 40
0.0
  0
LTYPE
  5
16
330
5
100
AcDbSymbolTableRecord
100
AcDbLinetypeTableRecord
  2
Continuous
 70
     0
  3
Solid line
 72
    65
 73
     0
 40
0.0
  0
LTYPE
  5
6E
330
5
100
AcDbSymbolTableRecord
100
AcDbLinetypeTableRecord
  2
HIDDEN
 70
     0
  3
Hidden __ __ __ __ __ __ __ __ __ __ __ __ __ __
 72
    65
 73
     2
 40
1.905
 49
1.27
 74
     0
 49
-0.635
 74
     0
  0
LTYPE
  5
6F
330
5
100
AcDbSymbolTableRecord
100
AcDbLinetypeTableRecord
  2
PHANTOM
 70
     0
  3
Phantom ______  __  __  ______  __  __  ______
 72
    65
 73
     6
 40
12.7
 49
6.35
 74
     0
 49
-1.27
 74
     0
 49
1.27
 74
     0
 49
-1.27
 74
     0
 49
1.27
 74
     0
 49
-1.27
 74
     0
  0
LTYPE
  5
70
330
5
100
AcDbSymbolTableRecord
100
AcDbLinetypeTableRecord
  2
CENTER
 70
     0
  3
Center ____ _ ____ _ ____ _ ____ _ ____ _ ____
 72
    65
 73
     4
 40
10.16
 49
6.35
 74
     0
 49
-1.27
 74
     0
 49
1.27
 74
     0
 49
-1.27
 74
     0
  0
LTYPE
  5
71
330
5
100
AcDbSymbolTableRecord
100
AcDbLinetypeTableRecord
  2
CENTERX2
 70
     0
  3
Center (2x) ________  __  ________  __  _____
 72
    65
 73
     4
 40
20.32
 49
12.7
 74
     0
 49
-2.54
 74
     0
 49
2.54
 74
     0
 49
-2.54
 74
     0
  0
LTYPE
  5
72
330
5
100
AcDbSymbolTableRecord
100
AcDbLinetypeTableRecord
  2
DOT2
 70
     0
  3
Dot (.5x) ........................................
 72
    65
 73
     2
 40
0.635
 49
0.0
 74
     0
 49
-0.635
 74
     0
  0
ENDTAB
  0
TABLE
  2
LAYER
  5
2
330
0
100
AcDbSymbolTable
 70
     1
  0
LAYER
  5
10
330
2
100
AcDbSymbolTableRecord
100
AcDbLayerTableRecord
  2
0
 70
     0
 62
     7
  6
Continuous
370
    -3
390
F
  0
ENDTAB
  0
TABLE
  2
STYLE
  5
3
330
0
100
AcDbSymbolTable
 70
     2
  0
STYLE
  5
11
330
3
100
AcDbSymbolTableRecord
100
AcDbTextStyleTableRecord
  2
Standard
 70
     0
 40
0.0
 41
1.0
 50
0.0
 71
     0
 42
3.5
  3
txt
  4
bigfont
  0
STYLE
  5
7B
330
3
100
AcDbSymbolTableRecord
100
AcDbTextStyleTableRecord
  2
SLDTEXTSTYLE0
 70
     0
 40
0.0
 41
0.7
 50
0.0
 71
     0
 42
3.5
  3
TXT
  4
bigfont
  0
ENDTAB
  0
TABLE
  2
VIEW
  5
6
330
0
100
AcDbSymbolTable
 70
     0
  0
ENDTAB
  0
TABLE
  2
UCS
  5
7
330
0
100
AcDbSymbolTable
 70
     0
  0
ENDTAB
  0
TABLE
  2
APPID
  5
9
330
0
100
AcDbSymbolTable
 70
     1
  0
APPID
  5
12
330
9
100
AcDbSymbolTableRecord
100
AcDbRegAppTableRecord
  2
ACAD
 70
     0
  0
ENDTAB
  0
TABLE
  2
DIMSTYLE
  5
A
330
0
100
AcDbSymbolTable
 70
     6
100
AcDbDimStyleTable
  0
DIMSTYLE
105
27
330
A
100
AcDbSymbolTableRecord
100
AcDbDimStyleTableRecord
  2
ISO-25
 70
     0
 41
2.5
 42
0.625
 43
3.75
 44
1.25
 73
     0
 74
     0
 77
     1
 78
     8
140
2.5
141
2.5
143
0.0393700787
147
0.625
171
     3
172
     1
178
     0
271
     2
272
     2
274
     3
278
    44
283
     0
284
     8
340
11
  0
DIMSTYLE
105
16F
102
{ACAD_REACTORS
330
16E
330
187
330
19F
330
1A9
102
}
330
A
100
AcDbSymbolTableRecord
100
AcDbDimStyleTableRecord
  2
SLDDIMSTYLE0
 70
     0
 41
3.0
 44
0.0
 45
0.000000001
 73
     0
 74
     0
 77
     3
 78
    12
 79
     3
140
3.5
147
0.875
173
     1
178
     0
271
     1
272
     3
276
     2
284
    12
340
7B
  0
DIMSTYLE
105
17A
102
{ACAD_REACTORS
330
179
102
}
330
A
100
AcDbSymbolTableRecord
100
AcDbDimStyleTableRecord
  2
SLDDIMSTYLE1
 70
     0
 41
3.0
 44
0.0
 45
0.000000001
 73
     0
 74
     0
 77
     3
 78
    12
 79
     3
140
3.5
147
0.875
172
     1
173
     1
178
     0
271
     0
272
     3
276
     2
284
    12
289
     0
340
7B
  0
DIMSTYLE
105
193
102
{ACAD_REACTORS
330
192
330
1B4
330
1C1
102
}
330
A
100
AcDbSymbolTableRecord
100
AcDbDimStyleTableRecord
  2
SLDDIMSTYLE2
 70
     0
 41
3.0
 44
0.0
 45
0.000000001
 73
     0
 74
     0
 77
     3
 78
    12
 79
     3
140
3.5
147
0.875
172
     1
173
     1
178
     0
271
     1
272
     3
276
     2
284
    12
289
     0
340
7B
  0
DIMSTYLE
105
1F2
102
{ACAD_REACTORS
330
1F1
102
}
330
A
100
AcDbSymbolTableRecord
100
AcDbDimStyleTableRecord
  2
SLDDIMSTYLE3
 70
     0
 41
3.0
 44
0.0
 45
0.000000001
 78
    12
 79
     3
140
3.5
141
0.0
147
0.875
173
     1
178
     0
271
     1
272
     3
276
     2
284
    12
340
7B
  0
DIMSTYLE
105
201
330
A
100
AcDbSymbolTableRecord
100
AcDbDimStyleTableRecord
  2
SLDDIMSTYLE4
 70
     0
 41
3.0
 44
0.0
 45
0.000000001
146
3.0
147
0.0
173
     1
178
     0
271
     0
272
     0
276
     2
340
11
  0
ENDTAB
  0
TABLE
  2
BLOCK_RECORD
  5
1
330
0
100
AcDbSymbolTable
 70
    12
  0
BLOCK_RECORD
  5
1F
330
1
100
AcDbSymbolTableRecord
100
AcDbBlockTableRecord
  2
*Model_Space
340
22
  0
BLOCK_RECORD
  5
1B
330
1
100
AcDbSymbolTableRecord
100
AcDbBlockTableRecord
  2
*Paper_Space
340
1E
  0
BLOCK_RECORD
  5
23
330
1
100
AcDbSymbolTableRecord
100
AcDbBlockTableRecord
  2
*Paper_Space0
340
26
  0
BLOCK_RECORD
  5
170
330
1
100
AcDbSymbolTableRecord
100
AcDbBlockTableRecord
  2
_D
340
0
  0
BLOCK_RECORD
  5
17B
330
1
100
AcDbSymbolTableRecord
100
AcDbBlockTableRecord
  2
_D_1
340
0
  0
BLOCK_RECORD
  5
188
330
1
100
AcDbSymbolTableRecord
100
AcDbBlockTableRecord
  2
_D_2
340
0
  0
BLOCK_RECORD
  5
194
330
1
100
AcDbSymbolTableRecord
100
AcDbBlockTableRecord
  2
_D_3
340
0
  0
BLOCK_RECORD
  5
1A0
330
1
100
AcDbSymbolTableRecord
100
AcDbBlockTableRecord
  2
_D_4
340
0
  0
BLOCK_RECORD
  5
1AA
330
1
100
AcDbSymbolTableRecord
100
AcDbBlockTableRecord
  2
_D_5
340
0
  0
BLOCK_RECORD
  5
1B5
330
1
100
AcDbSymbolTableRecord
100
AcDbBlockTableRecord
  2
_D_6
340
0
  0
BLOCK_RECORD
  5
1C2
330
1
100
AcDbSymbolTableRecord
100
AcDbBlockTableRecord
  2
_D_7
340
0
  0
BLOCK_RECORD
  5
1F3
330
1
100
AcDbSymbolTableRecord
100
AcDbBlockTableRecord
  2
_D_8
340
0
  0
BLOCK_RECORD
  5
1FB
330
1
100
AcDbSymbolTableRecord
100
AcDbBlockTableRecord
  2
SW_NOTE_0
340
0
102
{BLKREFS
331
200
102
}
  0
BLOCK_RECORD
  5
203
330
1
100
AcDbSymbolTableRecord
100
AcDbBlockTableRecord
  2
SW_CENTERMARKSYMBOL_0
340
0
102
{BLKREFS
331
20E
102
}
  0
ENDTAB
  0
ENDSEC
  0
SECTION
  2
BLOCKS
  0
BLOCK
  5
20
330
1F
100
AcDbEntity
  8
0
100
AcDbBlockBegin
  2
*Model_Space
 70
     0
 10
0.0
 20
0.0
 30
0.0
  3
*Model_Space
  1

  0
ENDBLK
  5
21
330
1F
100
AcDbEntity
  8
0
100
AcDbBlockEnd
  0
BLOCK
  5
1C
330
1B
100
AcDbEntity
 67
     1
  8
0
100
AcDbBlockBegin
  2
*Paper_Space
 70
     0
 10
0.0
 20
0.0
 30
0.0
  3
*Paper_Space
  1

  0
ENDBLK
  5
1D
330
1B
100
AcDbEntity
 67
     1
  8
0
100
AcDbBlockEnd
  0
BLOCK
  5
24
330
23
100
AcDbEntity
  8
0
100
AcDbBlockBegin
  2
*Paper_Space0
 70
     0
 10
0.0
 20
0.0
 30
0.0
  3
*Paper_Space0
  1

  0
ENDBLK
  5
25
330
23
100
AcDbEntity
  8
0
100
AcDbBlockEnd
  0
BLOCK
  5
171
330
170
100
AcDbEntity
  8
0
100
AcDbBlockBegin
  2
_D
 70
     0
 10
0.0
 20
0.0
 30
0.0
  3
_D
  1

  0
SOLID
  5
173
330
170
100
AcDbEntity
  8
0
  6
Continuous
 62
     7
370
    18
100
AcDbTrace
 10
152.2534946668
 20
130.5056009622
 30
0.0
 11
155.2534946668
 21
129.7556009622
 31
0.0
 12
155.2534946668
 22
131.2556009622
 32
0.0
 13
155.2534946668
 23
131.2556009622
 33
0.0
  0
SOLID
  5
174
330
170
100
AcDbEntity
  8
0
  6
Continuous
 62
     7
370
    18
100
AcDbTrace
 10
170.2534946668
 20
130.5056009622
 30
0.0
 11
167.2534946668
 21
131.2556009622
 31
0.0
 12
167.2534946668
 22
129.7556009622
 32
0.0
 13
167.2534946668
 23
129.7556009622
 33
0.0
  0
LINE
  5
175
330
170
100
AcDbEntity
  8
0
  6
Continuous
 62
     7
370
    18
100
AcDbLine
 10
152.2534946668
 20
146.1056009622
 30
0.0
 11
152.2534946668
 21
129.5056009622
 31
0.0
  0
LINE
  5
176
330
170
100
AcDbEntity
  8
0
  6
Continuous
 62
     7
370
    18
100
AcDbLine
 10
170.2534946668
 20
148.8056009622
 30
0.0
 11
170.2534946668
 21
129.5056009622
 31
0.0
  0
LINE
  5
177
330
170
100
AcDbEntity
  8
0
  6
Continuous
 62
     7
370
    18
100
AcDbLine
 10
152.2534946668
 20
130.5056009622
 30
0.0
 11
170.2534946668
 21
130.5056009622
 31
0.0
  0
MTEXT
  5
178
330
170
100
AcDbEntity
  8
0
  6
Continuous
 62
     7
370
    18
100
AcDbMText
 10
159.2166891693
 20
135.0173378186
 30
0.0
 40
3.5
 41
0.0
 71
     1
 72
     1
  1
18
  7
SLDTEXTSTYLE0
 73
     1
 44
1.0
  0
ENDBLK
  5
172
330
170
100
AcDbEntity
  8
0
100
AcDbBlockEnd
  0
BLOCK
  5
17C
330
17B
100
AcDbEntity
  8
0
100
AcDbBlockBegin
  2
_D_1
 70
     0
 10
0.0
 20
0.0
 30
0.0
  3
_D_1
  1

  0
SOLID
  5
17E
330
17B
100
AcDbEntity
  8
0
  6
Continuous
 62
     7
370
    18
100
AcDbTrace
 10
179.1674833732
 20
152.4056009622
 30
0.0
 11
178.4174833732
 21
149.4056009622
 31
0.0
 12
179.9174833732
 22
149.4056009622
 32
0.0
 13
179.9174833732
 23
149.4056009622
 33
0.0
  0
SOLID
  5
17F
330
17B
100
AcDbEntity
  8
0
  6
Continuous
 62
     7
370
    18
100
AcDbTrace
 10
179.1674833732
 20
157.2056009622
 30
0.0
 11
179.9174833732
 21
160.2056009622
 31
0.0
 12
178.4174833732
 22
160.2056009622
 32
0.0
 13
178.4174833732
 23
160.2056009622
 33
0.0
  0
LINE
  5
180
330
17B
100
AcDbEntity
  8
0
  6
Continuous
 62
     7
370
    18
100
AcDbLine
 10
172.7534946668
 20
152.4056009622
 30
0.0
 11
180.1674833732
 21
152.4056009622
 31
0.0
  0
LINE
  5
181
330
17B
100
AcDbEntity
  8
0
  6
Continuous
 62
     7
370
    18
100
AcDbLine
 10
172.7534946668
 20
157.2056009622
 30
0.0
 11
180.1674833732
 21
157.2056009622
 31
0.0
  0
LINE
  5
182
330
17B
100
AcDbEntity
  8
0
  6
Continuous
 62
     7
370
    18
100
AcDbLine
 10
179.1674833732
 20
152.4056009622
 30
0.0
 11
179.1674833732
 21
147.4056009622
 31
0.0
  0
LINE
  5
183
330
17B
100
AcDbEntity
  8
0
  6
Continuous
 62
     7
370
    18
100
AcDbLine
 10
179.1674833732
 20
152.4056009622
 30
0.0
 11
179.1674833732
 21
157.2056009622
 31
0.0
  0
LINE
  5
184
330
17B
100
AcDbEntity
  8
0
  6
Continuous
 62
     7
370
    18
100
AcDbLine
 10
179.1674833732
 20
157.2056009622
 30
0.0
 11
179.1674833732
 21
167.7834384655
 31
0.0
  0
MTEXT
  5
185
330
17B
100
AcDbEntity
  8
0
  6
Continuous
 62
     7
370
    18
100
AcDbMText
 10
174.6557460511
 20
161.8767024529
 30
0.0
 40
3.5
 41
0.0
 71
     1
 72
     1
  1
%%c
  7
SLDTEXTSTYLE0
 11
6.123233995736766E-17
 21
1.0
 31
0.0
 73
     1
 44
1.0
  0
MTEXT
  5
186
330
17B
100
AcDbEntity
  8
0
  6
Continuous
 62
     7
370
    18
100
AcDbMText
 10
174.6557460511
 20
165.746632968
 30
0.0
 40
3.5
 41
0.0
 71
     1
 72
     1
  1
5
  7
SLDTEXTSTYLE0
 11
6.123233995736766E-17
 21
1.0
 31
0.0
 73
     1
 44
1.0
  0
ENDBLK
  5
17D
330
17B
100
AcDbEntity
  8
0
100
AcDbBlockEnd
  0
BLOCK
  5
189
330
188
100
AcDbEntity
  8
0
100
AcDbBlockBegin
  2
_D_2
 70
     0
 10
0.0
 20
0.0
 30
0.0
  3
_D_2
  1

  0
SOLID
  5
18B
330
188
100
AcDbEntity
  8
0
  6
Continuous
 62
     7
370
    18
100
AcDbTrace
 10
128.2534946668
 20
130.5056009622
 30
0.0
 11
131.2534946668
 21
129.7556009622
 31
0.0
 12
131.2534946668
 22
131.2556009622
 32
0.0
 13
131.2534946668
 23
131.2556009622
 33
0.0
  0
SOLID
  5
18C
330
188
100
AcDbEntity
  8
0
  6
Continuous
 62
     7
370
    18
100
AcDbTrace
 10
148.2534946668
 20
130.5056009622
 30
0.0
 11
145.2534946668
 21
131.2556009622
 31
0.0
 12
145.2534946668
 22
129.7556009622
 32
0.0
 13
145.2534946668
 23
129.7556009622
 33
0.0
  0
LINE
  5
18D
330
188
100
AcDbEntity
  8
0
  6
Continuous
 62
     7
370
    18
100
AcDbLine
 10
128.2534946668
 20
150.3556009622
 30
0.0
 11
128.2534946668
 21
129.5056009622
 31
0.0
  0
LINE
  5
18E
330
188
100
AcDbEntity
  8
0
  6
Continuous
 62
     7
370
    18
100
AcDbLine
 10
148.2534946668
 20
150.3556009622
 30
0.0
 11
148.2534946668
 21
129.5056009622
 31
0.0
  0
LINE
  5
18F
330
188
100
AcDbEntity
  8
0
  6
Continuous
 62
     7
370
    18
100
AcDbLine
 10
128.2534946668
 20
130.5056009622
 30
0.0
 11
148.2534946668
 21
130.5056009622
 31
0.0
  0
MTEXT
  5
190
330
188
100
AcDbEntity
  8
0
  6
Continuous
 62
     7
370
    18
100
AcDbMText
 10
134.1798836718
 20
135.0173378186
 30
0.0
 40
3.5
 41
0.0
 71
     1
 72
     1
  1
20
  7
SLDTEXTSTYLE0
 73
     1
 44
1.0
  0
MTEXT
  5
191
330
188
100
AcDbEntity
  8
0
  6
Continuous
 62
     7
370
    18
100
AcDbMText
 10
138.2534946668
 20
135.0173378186
 30
0.0
 40
3.5
 41
0.0
 71
     1
 72
     1
  1
st
  7
SLDTEXTSTYLE0
 73
     1
 44
1.0
  0
ENDBLK
  5
18A
330
188
100
AcDbEntity
  8
0
100
AcDbBlockEnd
  0
BLOCK
  5
195
330
194
100
AcDbEntity
  8
0
100
AcDbBlockBegin
  2
_D_3
 70
     0
 10
0.0
 20
0.0
 30
0.0
  3
_D_3
  1

  0
SOLID
  5
197
330
194
100
AcDbEntity
  8
0
  6
Continuous
 62
     7
370
    18
100
AcDbTrace
 10
116.2534946668
 20
168.8157262769
 30
0.0
 11
119.2534946668
 21
168.0657262769
 31
0.0
 12
119.2534946668
 22
169.5657262769
 32
0.0
 13
119.2534946668
 23
169.5657262769
 33
0.0
  0
SOLID
  5
198
330
194
100
AcDbEntity
  8
0
  6
Continuous
 62
     7
370
    18
100
AcDbTrace
 10
110.7534946668
 20
168.8157262769
 30
0.0
 11
107.7534946668
 21
169.5657262769
 31
0.0
 12
107.7534946668
 22
168.0657262769
 32
0.0
 13
107.7534946668
 23
168.0657262769
 33
0.0
  0
LINE
  5
199
330
194
100
AcDbEntity
  8
0
  6
Continuous
 62
     7
370
    18
100
AcDbLine
 10
116.2534946668
 20
160.5056009622
 30
0.0
 11
116.2534946668
 21
169.8157262769
 31
0.0
  0
LINE
  5
19A
330
194
100
AcDbEntity
  8
0
  6
Continuous
 62
     7
370
    18
100
AcDbLine
 10
110.7534946668
 20
159.0056009622
 30
0.0
 11
110.7534946668
 21
169.8157262769
 31
0.0
  0
LINE
  5
19B
330
194
100
AcDbEntity
  8
0
  6
Continuous
 62
     7
370
    18
100
AcDbLine
 10
116.2534946668
 20
168.8157262769
 30
0.0
 11
128.2112963738
 21
168.8157262769
 31
0.0
  0
LINE
  5
19C
330
194
100
AcDbEntity
  8
0
  6
Continuous
 62
     7
370
    18
100
AcDbLine
 10
116.2534946668
 20
168.8157262769
 30
0.0
 11
110.7534946668
 21
168.8157262769
 31
0.0
  0
LINE
  5
19D
330
194
100
AcDbEntity
  8
0
  6
Continuous
 62
     7
370
    18
100
AcDbLine
 10
110.7534946668
 20
168.8157262769
 30
0.0
 11
105.7534946668
 21
168.8157262769
 31
0.0
  0
MTEXT
  5
19E
330
194
100
AcDbEntity
  8
0
  6
Continuous
 62
     7
370
    18
100
AcDbMText
 10
122.1008796485
 20
173.3274631332
 30
0.0
 40
3.5
 41
0.0
 71
     1
 72
     1
  1
5.5
  7
SLDTEXTSTYLE0
 73
     1
 44
1.0
  0
ENDBLK
  5
196
330
194
100
AcDbEntity
  8
0
100
AcDbBlockEnd
  0
BLOCK
  5
1A1
330
1A0
100
AcDbEntity
  8
0
100
AcDbBlockBegin
  2
_D_4
 70
     0
 10
0.0
 20
0.0
 30
0.0
  3
_D_4
  1

  0
SOLID
  5
1A3
330
1A0
100
AcDbEntity
  8
0
  6
Continuous
 62
     7
370
    18
100
AcDbTrace
 10
110.7534946668
 20
178.8056009622
 30
0.0
 11
113.7534946668
 21
178.0556009622
 31
0.0
 12
113.7534946668
 22
179.5556009622
 32
0.0
 13
113.7534946668
 23
179.5556009622
 33
0.0
  0
SOLID
  5
1A4
330
1A0
100
AcDbEntity
  8
0
  6
Continuous
 62
     7
370
    18
100
AcDbTrace
 10
172.2534946668
 20
178.8056009622
 30
0.0
 11
169.2534946668
 21
179.5556009622
 31
0.0
 12
169.2534946668
 22
178.0556009622
 32
0.0
 13
169.2534946668
 23
178.0556009622
 33
0.0
  0
LINE
  5
1A5
330
1A0
100
AcDbEntity
  8
0
  6
Continuous
 62
     7
370
    18
100
AcDbLine
 10
110.7534946668
 20
159.0056009622
 30
0.0
 11
110.7534946668
 21
179.8056009622
 31
0.0
  0
LINE
  5
1A6
330
1A0
100
AcDbEntity
  8
0
  6
Continuous
 62
     7
370
    18
100
AcDbLine
 10
172.2534946668
 20
157.8056009622
 30
0.0
 11
172.2534946668
 21
179.8056009622
 31
0.0
  0
LINE
  5
1A7
330
1A0
100
AcDbEntity
  8
0
  6
Continuous
 62
     7
370
    18
100
AcDbLine
 10
110.7534946668
 20
178.8056009622
 30
0.0
 11
172.2534946668
 21
178.8056009622
 31
0.0
  0
MTEXT
  5
1A8
330
1A0
100
AcDbEntity
  8
0
  6
Continuous
 62
     7
370
    18
100
AcDbMText
 10
137.4298836718
 20
183.3173378186
 30
0.0
 40
3.5
 41
0.0
 71
     1
 72
     1
  1
61.5
  7
SLDTEXTSTYLE0
 73
     1
 44
1.0
  0
ENDBLK
  5
1A2
330
1A0
100
AcDbEntity
  8
0
100
AcDbBlockEnd
  0
BLOCK
  5
1AB
330
1AA
100
AcDbEntity
  8
0
100
AcDbBlockBegin
  2
_D_5
 70
     0
 10
0.0
 20
0.0
 30
0.0
  3
_D_5
  1

  0
SOLID
  5
1AD
330
1AA
100
AcDbEntity
  8
0
  6
Continuous
 62
     7
370
    18
100
AcDbTrace
 10
188.2534946668
 20
160.8056009622
 30
0.0
 11
187.5034946668
 21
157.8056009622
 31
0.0
 12
189.0034946668
 22
157.8056009622
 32
0.0
 13
189.0034946668
 23
157.8056009622
 33
0.0
  0
SOLID
  5
1AE
330
1AA
100
AcDbEntity
  8
0
  6
Continuous
 62
     7
370
    18
100
AcDbTrace
 10
188.2534946668
 20
148.8056009622
 30
0.0
 11
189.0034946668
 21
151.8056009622
 31
0.0
 12
187.5034946668
 22
151.8056009622
 32
0.0
 13
187.5034946668
 23
151.8056009622
 33
0.0
  0
LINE
  5
1AF
330
1AA
100
AcDbEntity
  8
0
  6
Continuous
 62
     7
370
    18
100
AcDbLine
 10
170.2534946668
 20
160.8056009622
 30
0.0
 11
189.2534946668
 21
160.8056009622
 31
0.0
  0
LINE
  5
1B0
330
1AA
100
AcDbEntity
  8
0
  6
Continuous
 62
     7
370
    18
100
AcDbLine
 10
170.2534946668
 20
148.8056009622
 30
0.0
 11
189.2534946668
 21
148.8056009622
 31
0.0
  0
LINE
  5
1B1
330
1AA
100
AcDbEntity
  8
0
  6
Continuous
 62
     7
370
    18
100
AcDbLine
 10
188.2534946668
 20
160.8056009622
 30
0.0
 11
188.2534946668
 21
148.8056009622
 31
0.0
  0
MTEXT
  5
1B2
330
1AA
100
AcDbEntity
  8
0
  6
Continuous
 62
     7
370
    18
100
AcDbMText
 10
183.7417573448
 20
150.8338300908
 30
0.0
 40
3.5
 41
0.0
 71
     1
 72
     1
  1
%%c
  7
SLDTEXTSTYLE0
 11
-7.044195017643634E-15
 21
1.0
 31
0.0
 73
     1
 44
1.0
  0
MTEXT
  5
1B3
330
1AA
100
AcDbEntity
  8
0
  6
Continuous
 62
     7
370
    18
100
AcDbMText
 10
183.7417573448
 20
154.7037606058
 30
0.0
 40
3.5
 41
0.0
 71
     1
 72
     1
  1
12
  7
SLDTEXTSTYLE0
 11
-7.044195017643634E-15
 21
1.0
 31
0.0
 73
     1
 44
1.0
  0
ENDBLK
  5
1AC
330
1AA
100
AcDbEntity
  8
0
100
AcDbBlockEnd
  0
BLOCK
  5
1B6
330
1B5
100
AcDbEntity
  8
0
100
AcDbBlockBegin
  2
_D_6
 70
     0
 10
0.0
 20
0.0
 30
0.0
  3
_D_6
  1

  0
SOLID
  5
1B8
330
1B5
100
AcDbEntity
  8
0
  6
Continuous
 62
     7
370
    18
100
AcDbTrace
 10
102.5814919149
 20
158.3056009622
 30
0.0
 11
103.3314919149
 21
161.3056009622
 31
0.0
 12
101.8314919149
 22
161.3056009622
 32
0.0
 13
101.8314919149
 23
161.3056009622
 33
0.0
  0
SOLID
  5
1B9
330
1B5
100
AcDbEntity
  8
0
  6
Continuous
 62
     7
370
    18
100
AcDbTrace
 10
102.5814919149
 20
151.3056009622
 30
0.0
 11
101.8314919149
 21
148.3056009622
 31
0.0
 12
103.3314919149
 22
148.3056009622
 32
0.0
 13
103.3314919149
 23
148.3056009622
 33
0.0
  0
LINE
  5
1BA
330
1B5
100
AcDbEntity
  8
0
  6
Continuous
 62
     7
370
    18
100
AcDbLine
 10
110.0534946668
 20
158.3056009622
 30
0.0
 11
101.5814919149
 21
158.3056009622
 31
0.0
  0
LINE
  5
1BB
330
1B5
100
AcDbEntity
  8
0
  6
Continuous
 62
     7
370
    18
100
AcDbLine
 10
110.0534946668
 20
151.3056009622
 30
0.0
 11
101.5814919149
 21
151.3056009622
 31
0.0
  0
LINE
  5
1BC
330
1B5
100
AcDbEntity
  8
0
  6
Continuous
 62
     7
370
    18
100
AcDbLine
 10
102.5814919149
 20
158.3056009622
 30
0.0
 11
102.5814919149
 21
163.3056009622
 31
0.0
  0
LINE
  5
1BD
330
1B5
100
AcDbEntity
  8
0
  6
Continuous
 62
     7
370
    18
100
AcDbLine
 10
102.5814919149
 20
158.3056009622
 30
0.0
 11
102.5814919149
 21
151.3056009622
 31
0.0
  0
LINE
  5
1BE
330
1B5
100
AcDbEntity
  8
0
  6
Continuous
 62
     7
370
    18
100
AcDbLine
 10
102.5814919149
 20
151.3056009622
 30
0.0
 11
102.5814919149
 21
146.3056009622
 31
0.0
  0
MTEXT
  5
1BF
330
1B5
100
AcDbEntity
  8
0
  6
Continuous
 62
     7
370
    18
100
AcDbMText
 10
98.0697545929
 20
151.8522329559
 30
0.0
 40
3.5
 41
0.0
 71
     1
 72
     1
  1
%%c
  7
SLDTEXTSTYLE0
 11
-7.044195017643634E-15
 21
1.0
 31
0.0
 73
     1
 44
1.0
  0
MTEXT
  5
1C0
330
1B5
100
AcDbEntity
  8
0
  6
Continuous
 62
     7
370
    18
100
AcDbMText
 10
98.0697545929
 20
155.722163471
 30
0.0
 40
3.5
 41
0.0
 71
     1
 72
     1
  1
7
  7
SLDTEXTSTYLE0
 11
-7.044195017643634E-15
 21
1.0
 31
0.0
 73
     1
 44
1.0
  0
ENDBLK
  5
1B7
330
1B5
100
AcDbEntity
  8
0
100
AcDbBlockEnd
  0
BLOCK
  5
1C3
330
1C2
100
AcDbEntity
  8
0
100
AcDbBlockBegin
  2
_D_7
 70
     0
 10
0.0
 20
0.0
 30
0.0
  3
_D_7
  1

  0
SOLID
  5
1C5
330
1C2
100
AcDbEntity
  8
0
  6
Continuous
 62
     7
370
    18
100
AcDbTrace
 10
92.9707176009
 20
159.8056009622
 30
0.0
 11
93.7207176009
 21
162.8056009622
 31
0.0
 12
92.2207176009
 22
162.8056009622
 32
0.0
 13
92.2207176009
 23
162.8056009622
 33
0.0
  0
SOLID
  5
1C6
330
1C2
100
AcDbEntity
  8
0
  6
Continuous
 62
     7
370
    18
100
AcDbTrace
 10
92.9707176009
 20
149.8056009622
 30
0.0
 11
92.2207176009
 21
146.8056009622
 31
0.0
 12
93.7207176009
 22
146.8056009622
 32
0.0
 13
93.7207176009
 23
146.8056009622
 33
0.0
  0
LINE
  5
1C7
330
1C2
100
AcDbEntity
  8
0
  6
Continuous
 62
     7
370
    18
100
AcDbLine
 10
115.5534946668
 20
159.8056009622
 30
0.0
 11
91.9707176009
 21
159.8056009622
 31
0.0
  0
LINE
  5
1C8
330
1C2
100
AcDbEntity
  8
0
  6
Continuous
 62
     7
370
    18
100
AcDbLine
 10
115.5534946668
 20
149.8056009622
 30
0.0
 11
91.9707176009
 21
149.8056009622
 31
0.0
  0
LINE
  5
1C9
330
1C2
100
AcDbEntity
  8
0
  6
Continuous
 62
     7
370
    18
100
AcDbLine
 10
92.9707176009
 20
159.8056009622
 30
0.0
 11
92.9707176009
 21
164.8056009622
 31
0.0
  0
LINE
  5
1CA
330
1C2
100
AcDbEntity
  8
0
  6
Continuous
 62
     7
370
    18
100
AcDbLine
 10
92.9707176009
 20
159.8056009622
 30
0.0
 11
92.9707176009
 21
149.8056009622
 31
0.0
  0
LINE
  5
1CB
330
1C2
100
AcDbEntity
  8
0
  6
Continuous
 62
     7
370
    18
100
AcDbLine
 10
92.9707176009
 20
149.8056009622
 30
0.0
 11
92.9707176009
 21
144.8056009622
 31
0.0
  0
MTEXT
  5
1CC
330
1C2
100
AcDbEntity
  8
0
  6
Continuous
 62
     7
370
    18
100
AcDbMText
 10
88.4589802789
 20
150.8338300908
 30
0.0
 40
3.5
 41
0.0
 71
     1
 72
     1
  1
%%c
  7
SLDTEXTSTYLE0
 11
-7.044195017643634E-15
 21
1.0
 31
0.0
 73
     1
 44
1.0
  0
MTEXT
  5
1CD
330
1C2
100
AcDbEntity
  8
0
  6
Continuous
 62
     7
370
    18
100
AcDbMText
 10
88.4589802789
 20
154.7037606058
 30
0.0
 40
3.5
 41
0.0
 71
     1
 72
     1
  1
10
  7
SLDTEXTSTYLE0
 11
-7.044195017643634E-15
 21
1.0
 31
0.0
 73
     1
 44
1.0
  0
ENDBLK
  5
1C4
330
1C2
100
AcDbEntity
  8
0
100
AcDbBlockEnd
  0
BLOCK
  5
1F4
330
1F3
100
AcDbEntity
  8
0
100
AcDbBlockBegin
  2
_D_8
 70
     0
 10
0.0
 20
0.0
 30
0.0
  3
_D_8
  1

  0
SOLID
  5
1F6
330
1F3
100
AcDbEntity
  8
0
  6
Continuous
 62
     7
370
    18
100
AcDbTrace
 10
59.8529113311
 20
160.8981227105
 30
0.0
 11
58.4798204068
 21
163.6688845757
 31
0.0
 12
57.337472579
 22
162.6967521566
 32
0.0
 13
57.337472579
 23
162.6967521566
 33
0.0
  0
LINE
  5
1F7
330
1F3
100
AcDbEntity
  8
0
  6
Continuous
 62
     7
370
    18
100
AcDbLine
 10
59.8529113311
 20
160.8981227105
 30
0.0
 11
53.3556560759
 21
168.5330140911
 31
0.0
  0
LINE
  5
1F8
330
1F3
100
AcDbEntity
  8
0
  6
Continuous
 62
     7
370
    18
100
AcDbLine
 10
53.3556560759
 20
168.5330140911
 30
0.0
 11
43.824614333
 21
168.5330140911
 31
0.0
  0
MTEXT
  5
1F9
330
1F3
100
AcDbEntity
  8
0
  6
Continuous
 62
     7
370
    18
100
AcDbMText
 10
43.824614333
 20
173.0447514132
 30
0.0
 40
3.5
 41
0.0
 71
     1
 72
     1
  1
%%c
  7
SLDTEXTSTYLE0
 73
     1
 44
1.0
  0
MTEXT
  5
1FA
330
1F3
100
AcDbEntity
  8
0
  6
Continuous
 62
     7
370
    18
100
AcDbMText
 10
47.6945448481
 20
173.0447514132
 30
0.0
 40
3.5
 41
0.0
 71
     1
 72
     1
  1
16
  7
SLDTEXTSTYLE0
 73
     1
 44
1.0
  0
ENDBLK
  5
1F5
330
1F3
100
AcDbEntity
  8
0
100
AcDbBlockEnd
  0
BLOCK
  5
1FC
330
1FB
100
AcDbEntity
  8
0
100
AcDbBlockBegin
  2
SW_NOTE_0
 70
     0
 10
0.0
 20
0.0
 30
0.0
  3
SW_NOTE_0
  1

  0
LINE
  5
1FE
330
1FB
100
AcDbEntity
  8
0
  6
Continuous
 62
     0
370
     0
100
AcDbLine
 10
-30.6752344731
 20
0.0
 30
0.0
 11
0.0
 21
0.0
 31
0.0
  0
MTEXT
  5
1FF
330
1FB
100
AcDbEntity
  8
0
  6
Continuous
 62
     0
370
     0
100
AcDbMText
 10
-31.0852857399
 20
4.5843788046
 30
0.0
 40
3.5
 41
0.0
 71
     1
 72
     1
  1
外径φ6配管継手
  7
SLDTEXTSTYLE0
 73
     1
 44
1.0
  0
ENDBLK
  5
1FD
330
1FB
100
AcDbEntity
  8
0
100
AcDbBlockEnd
  0
BLOCK
  5
204
330
203
100
AcDbEntity
  8
0
100
AcDbBlockBegin
  2
SW_CENTERMARKSYMBOL_0
 70
     0
 10
0.0
 20
0.0
 30
0.0
  3
SW_CENTERMARKSYMBOL_0
  1

  0
LINE
  5
206
330
203
100
AcDbEntity
  8
0
  6
Continuous
 62
     0
370
    18
100
AcDbLine
 10
0.0
 20
0.0
 30
0.0
 11
0.0
 21
2.5
 31
0.0
  0
LINE
  5
207
330
203
100
AcDbEntity
  8
0
  6
Continuous
 62
     0
370
    18
100
AcDbLine
 10
0.0
 20
0.0
 30
0.0
 11
-2.5
 21
0.0
 31
0.0
  0
LINE
  5
208
330
203
100
AcDbEntity
  8
0
  6
Continuous
 62
     0
370
    18
100
AcDbLine
 10
0.0
 20
0.0
 30
0.0
 11
0.0
 21
-2.5
 31
0.0
  0
LINE
  5
209
330
203
100
AcDbEntity
  8
0
  6
Continuous
 62
     0
370
    18
100
AcDbLine
 10
0.0
 20
0.0
 30
0.0
 11
2.5
 21
0.0
 31
0.0
  0
LINE
  5
20A
330
203
100
AcDbEntity
  8
0
  6
Continuous
 62
     0
370
    18
100
AcDbLine
 10
0.0
 20
5.0
 30
0.0
 11
0.0
 21
10.5
 31
0.0
  0
LINE
  5
20B
330
203
100
AcDbEntity
  8
0
  6
Continuous
 62
     0
370
    18
100
AcDbLine
 10
-5.0
 20
0.0
 30
0.0
 11
-10.5
 21
0.0
 31
0.0
  0
LINE
  5
20C
330
203
100
AcDbEntity
  8
0
  6
Continuous
 62
     0
370
    18
100
AcDbLine
 10
0.0
 20
-5.0
 30
0.0
 11
0.0
 21
-18.5946391278
 31
0.0
  0
LINE
  5
20D
330
203
100
AcDbEntity
  8
0
  6
Continuous
 62
     0
370
    18
100
AcDbLine
 10
5.0
 20
0.0
 30
0.0
 11
10.5
 21
0.0
 31
0.0
  0
ENDBLK
  5
205
330
203
100
AcDbEntity
  8
0
100
AcDbBlockEnd
  0
ENDSEC
  0
SECTION
  2
ENTITIES
  0
LINE
  5
73
330
1F
100
AcDbEntity
  8
0
  6
Continuous
 62
     7
370
    18
100
AcDbLine
 10
20.2604743903
 20
285.0
 30
0.0
 11
196.7604743903
 21
285.0
 31
0.0
  0
LINE
  5
74
330
1F
100
AcDbEntity
  8
0
  6
Continuous
 62
     7
370
    18
100
AcDbLine
 10
20.2604743903
 20
285.0
 30
0.0
 11
20.2604743903
 21
10.0
 31
0.0
  0
LINE
  5
75
330
1F
100
AcDbEntity
  8
0
  6
Continuous
 62
     7
370
    18
100
AcDbLine
 10
20.2604743903
 20
10.0
 30
0.0
 11
196.7604743903
 21
10.0
 31
0.0
  0
LINE
  5
76
330
1F
100
AcDbEntity
  8
0
  6
Continuous
 62
     7
370
    18
100
AcDbLine
 10
196.7604743903
 20
285.0
 30
0.0
 11
196.7604743903
 21
10.0
 31
0.0
  0
LINE
  5
77
330
1F
100
AcDbEntity
  8
0
  6
Continuous
 62
     7
370
    18
100
AcDbLine
 10
127.0104743903
 20
50.75
 30
0.0
 11
196.7604743903
 21
50.75
 31
0.0
  0
LINE
  5
78
330
1F
100
AcDbEntity
  8
0
  6
Continuous
 62
     7
370
    18
100
AcDbLine
 10
127.0104743903
 20
50.75
 30
0.0
 11
127.0104743903
 21
10.0
 31
0.0
  0
LINE
  5
79
330
1F
100
AcDbEntity
  8
0
  6
Continuous
 62
     7
370
    18
100
AcDbLine
 10
127.0104743903
 20
22.75
 30
0.0
 11
196.7604743903
 21
22.75
 31
0.0
  0
LINE
  5
7A
330
1F
100
AcDbEntity
  8
0
  6
Continuous
 62
     7
370
    18
100
AcDbLine
 10
127.0104743903
 20
36.75
 30
0.0
 11
196.7604743903
 21
36.75
 31
0.0
  0
MTEXT
  5
7C
330
1F
100
AcDbEntity
  8
0
  6
Continuous
 62
     7
370
     0
100
AcDbMText
 10
161.94720711
 20
30.4171582345
 30
0.0
 40
4.2333333333
 41
0.0
 71
     2
 72
     1
  1
VFILP-SS-20-P12
  7
SLDTEXTSTYLE0
 73
     1
 44
1.0
  0
MTEXT
  5
7D
330
1F
100
AcDbEntity
  8
0
  6
Continuous
 62
     7
370
     0
100
AcDbMText
 10
161.0903525561
 20
43.9409718514
 30
0.0
 40
4.2333333333
 41
0.0
 71
     2
 72
     1
  1
吸着樹脂具・ミニ用
  7
SLDTEXTSTYLE0
 73
     1
 44
1.0
  0
MTEXT
  5
7E
330
1F
100
AcDbEntity
  8
0
  6
Continuous
 62
     7
370
     0
100
AcDbMText
 10
163.1243609496
 20
16.8228189052
 30
0.0
 40
4.2333333333
 41
0.0
 71
     2
 72
     1
  1
211107
  7
SLDTEXTSTYLE0
 73
     1
 44
1.0
  0
LINE
  5
7F
330
1F
100
AcDbEntity
  8
0
  6
Continuous
 62
     7
370
    18
100
AcDbLine
 10
170.3534950781
 20
151.3056008944
 30
0.0
 11
170.9534940588
 21
151.3056008944
 31
0.0
  0
LINE
  5
80
330
1F
100
AcDbEntity
  8
0
  6
Continuous
 62
     7
370
    18
100
AcDbLine
 10
170.9534940588
 20
156.9673820732
 30
0.0
 11
170.3534950781
 21
156.9673820732
 31
0.0
  0
LINE
  5
81
330
1F
100
AcDbEntity
  8
0
  6
Continuous
 62
     7
370
    18
100
AcDbLine
 10
170.9534940588
 20
157.7408065887
 30
0.0
 11
170.3534950781
 21
157.7408065887
 31
0.0
  0
LINE
  5
82
330
1F
100
AcDbEntity
  8
0
  6
Continuous
 62
     7
370
    18
100
AcDbLine
 10
123.9534947368
 20
160.8056010546
 30
0.0
 11
122.5534946703
 21
160.8056010546
 31
0.0
  0
LINE
  5
83
330
1F
100
AcDbEntity
  8
0
  6
Continuous
 62
     7
370
    18
100
AcDbLine
 10
122.7016502804
 20
148.8056009503
 30
0.0
 11
123.9534947368
 21
148.8056009503
 31
0.0
  0
ARC
  5
84
330
1F
100
AcDbEntity
  8
0
  6
Continuous
 62
     7
370
    18
100
AcDbCircle
 10
123.9534946668
 20
160.5056009622
 30
0.0
 40
0.2999999999999972
100
AcDbArc
 50
0.0
 51
90.0
  0
ARC
  5
85
330
1F
100
AcDbEntity
  8
0
  6
Continuous
 62
     7
370
    18
100
AcDbCircle
 10
123.9534946668
 20
149.1056009622
 30
0.0
 40
0.2999999999999972
100
AcDbArc
 50
270.0
 51
0.0
  0
ARC
  5
86
330
1F
100
AcDbEntity
  8
0
  6
Continuous
 62
     7
370
    18
100
AcDbCircle
 10
122.5534946668
 20
160.5056009622
 30
0.0
 40
0.2999999999999972
100
AcDbArc
 50
90.0
 51
180.0
  0
ARC
  5
87
330
1F
100
AcDbEntity
  8
0
  6
Continuous
 62
     7
370
    18
100
AcDbCircle
 10
127.9534946668
 20
158.2556009622
 30
0.0
 40
0.2999999999999952
100
AcDbArc
 50
44.3025165321
 51
90.0
  0
ARC
  5
88
330
1F
100
AcDbEntity
  8
0
  6
Continuous
 62
     7
370
    18
100
AcDbCircle
 10
127.9534946668
 20
151.3556009622
 30
0.0
 40
0.3000000000000114
100
AcDbArc
 50
270.0
 51
0.0
  0
LINE
  5
89
330
1F
100
AcDbEntity
  8
0
  6
Continuous
 62
     7
370
    18
100
AcDbLine
 10
127.9534944611
 20
158.5556009186
 30
0.0
 11
125.653461581
 21
158.5556009186
 31
0.0
  0
LINE
  5
8A
330
1F
100
AcDbEntity
  8
0
  6
Continuous
 62
     7
370
    18
100
AcDbLine
 10
125.1489180419
 20
158.5556009186
 30
0.0
 11
124.2534946929
 21
158.5556009186
 31
0.0
  0
LINE
  5
8B
330
1F
100
AcDbEntity
  8
0
  6
Continuous
 62
     7
370
    18
100
AcDbLine
 10
124.2534946929
 20
151.0556008534
 30
0.0
 11
126.1841105576
 21
151.0556008534
 31
0.0
  0
LINE
  5
8C
330
1F
100
AcDbEntity
  8
0
  6
Continuous
 62
     7
370
    18
100
AcDbLine
 10
126.6895621362
 20
151.0556008534
 30
0.0
 11
127.9534944611
 21
151.0556008534
 31
0.0
  0
ARC
  5
8D
330
1F
100
AcDbEntity
  8
0
  6
Continuous
 62
     7
370
    18
100
AcDbCircle
 10
117.9534946668
 20
159.5056009622
 30
0.0
 40
0.2999999999999972
100
AcDbArc
 50
0.0
 51
90.0
  0
ARC
  5
8E
330
1F
100
AcDbEntity
  8
0
  6
Continuous
 62
     7
370
    18
100
AcDbCircle
 10
116.5534946668
 20
159.5056009622
 30
0.0
 40
0.2999999999999972
100
AcDbArc
 50
90.0
 51
180.0
  0
LINE
  5
8F
330
1F
100
AcDbEntity
  8
0
  6
Continuous
 62
     7
370
    18
100
AcDbLine
 10
117.9534946847
 20
159.8056008907
 30
0.0
 11
116.5534947346
 21
159.8056008907
 31
0.0
  0
ARC
  5
90
330
1F
100
AcDbEntity
  8
0
  6
Continuous
 62
     7
370
    18
100
AcDbCircle
 10
116.5534946668
 20
150.1056009622
 30
0.0
 40
0.3000000000000114
100
AcDbArc
 50
180.0
 51
270.0
  0
LINE
  5
91
330
1F
100
AcDbEntity
  8
0
  6
Continuous
 62
     7
370
    18
100
AcDbLine
 10
116.5534947346
 20
149.8056011142
 30
0.0
 11
117.81738515
 21
149.8056011142
 31
0.0
  0
LINE
  5
92
330
1F
100
AcDbEntity
  8
0
  6
Continuous
 62
     7
370
    18
100
AcDbLine
 10
122.2534947143
 20
158.5556009186
 30
0.0
 11
118.2534946407
 21
158.5556009186
 31
0.0
  0
ARC
  5
93
330
1F
100
AcDbEntity
  8
0
  6
Continuous
 62
     7
370
    18
100
AcDbCircle
 10
112.4534946668
 20
158.0056009622
 30
0.0
 40
0.2999999999999972
100
AcDbArc
 50
0.0
 51
90.0
  0
ARC
  5
94
330
1F
100
AcDbEntity
  8
0
  6
Continuous
 62
     7
370
    18
100
AcDbCircle
 10
112.4534946668
 20
151.6056009622
 30
0.0
 40
0.2999999999999972
100
AcDbArc
 50
270.0
 51
0.0
  0
LINE
  5
95
330
1F
100
AcDbEntity
  8
0
  6
Continuous
 62
     7
370
    18
100
AcDbLine
 10
112.4534947145
 20
158.3056008777
 30
0.0
 11
111.0534942987
 21
158.3056008777
 31
0.0
  0
LINE
  5
96
330
1F
100
AcDbEntity
  8
0
  6
Continuous
 62
     7
370
    18
100
AcDbLine
 10
111.0534942987
 20
151.3056008944
 30
0.0
 11
112.4534947145
 21
151.3056008944
 31
0.0
  0
ARC
  5
97
330
1F
100
AcDbEntity
  8
0
  6
Continuous
 62
     7
370
    18
100
AcDbCircle
 10
111.0534946668
 20
151.6056009622
 30
0.0
 40
0.2999999999999829
100
AcDbArc
 50
180.0
 51
270.0
  0
ARC
  5
98
330
1F
100
AcDbEntity
  8
0
  6
Continuous
 62
     7
370
    18
100
AcDbCircle
 10
111.0534946668
 20
158.0056009622
 30
0.0
 40
0.2999999999999829
100
AcDbArc
 50
90.0
 51
180.0
  0
LINE
  5
99
330
1F
100
AcDbEntity
  8
0
  6
Continuous
 62
     7
370
    18
100
AcDbLine
 10
117.7534945588
 20
143.0056010241
 30
0.0
 11
118.2534946407
 21
140.5056006143
 31
0.0
  0
LINE
  5
9A
330
1F
100
AcDbEntity
  8
0
  6
Continuous
 62
     7
370
    18
100
AcDbLine
 10
122.2534947143
 20
140.5056006143
 30
0.0
 11
122.7534946798
 21
143.0056010241
 31
0.0
  0
ARC
  5
9B
330
1F
100
AcDbEntity
  8
0
  6
Continuous
 62
     7
370
    18
100
AcDbCircle
 10
171.2534946668
 20
152.6056009622
 30
0.0
 40
0.2999999999999829
100
AcDbArc
 50
180.0
 51
221.8420367925
  0
ARC
  5
9C
330
1F
100
AcDbEntity
  8
0
  6
Continuous
 62
     7
370
    18
100
AcDbCircle
 10
171.2534946668
 20
157.0056009622
 30
0.0
 40
0.2999999999999829
100
AcDbArc
 50
138.1836777598
 51
180.0
  0
LINE
  5
9D
330
1F
100
AcDbEntity
  8
0
  6
Continuous
 62
     7
370
    18
100
AcDbLine
 10
117.7534945588
 20
145.5056005025
 30
0.0
 11
118.2534946407
 21
143.0056010241
 31
0.0
  0
LINE
  5
9E
330
1F
100
AcDbEntity
  8
0
  6
Continuous
 62
     7
370
    18
100
AcDbLine
 10
122.2534947143
 20
143.0056010241
 30
0.0
 11
122.7534946798
 21
145.5056005025
 31
0.0
  0
LINE
  5
9F
330
1F
100
AcDbEntity
  8
0
  6
Continuous
 62
     7
370
    18
100
AcDbLine
 10
171.8534943926
 20
152.4056008885
 30
0.0
 11
172.2534937131
 21
152.8056009075
 31
0.0
  0
LINE
  5
A0
330
1F
100
AcDbEntity
  8
0
  6
Continuous
 62
     7
370
    18
100
AcDbLine
 10
172.2534937131
 20
156.8056008646
 30
0.0
 11
171.8534943926
 21
157.2056008836
 31
0.0
  0
LINE
  5
A1
330
1F
100
AcDbEntity
  8
0
  6
Continuous
 62
     7
370
    18
100
AcDbLine
 10
116.2534947785
 20
157.3056009466
 30
0.0
 11
112.7534942048
 21
157.3056009466
 31
0.0
  0
LINE
  5
A2
330
1F
100
AcDbEntity
  8
0
  6
Continuous
 62
     7
370
    18
100
AcDbLine
 10
112.7534942048
 20
152.3056010583
 30
0.0
 11
116.2534947785
 21
152.3056010583
 31
0.0
  0
LINE
  5
A3
330
1F
100
AcDbEntity
  8
0
  6
Continuous
 62
     7
370
    18
100
AcDbLine
 10
118.1034946627
 20
149.5083602013
 30
0.0
 11
118.1034946627
 21
145.5056005025
 31
0.0
  0
LINE
  5
A4
330
1F
100
AcDbEntity
  8
0
  6
Continuous
 62
     7
370
    18
100
AcDbLine
 10
122.4034946923
 20
145.5056005025
 30
0.0
 11
122.4034946923
 21
148.5076890195
 31
0.0
  0
LINE
  5
A5
330
1F
100
AcDbEntity
  8
0
  6
Continuous
 62
     7
370
    18
100
AcDbLine
 10
170.3534950781
 20
156.3056010155
 30
0.0
 11
170.2534933853
 21
156.3056010155
 31
0.0
  0
LINE
  5
A6
330
1F
100
AcDbEntity
  8
0
  6
Continuous
 62
     7
370
    18
100
AcDbLine
 10
170.2534933853
 20
153.3056009894
 30
0.0
 11
170.3534950781
 21
153.3056009894
 31
0.0
  0
ARC
  5
A7
330
1F
100
AcDbEntity
  8
0
  6
Continuous
 62
     7
370
    18
100
AcDbCircle
 10
122.7034946668
 20
148.5056009622
 30
0.0
 40
0.3000000000000135
100
AcDbArc
 50
90.388984454
 51
179.7578394397
  0
SPLINE
  5
A8
330
1F
100
AcDbEntity
  8
0
  6
Continuous
 62
     7
370
    18
100
AcDbSpline
210
0.0
220
0.0
230
1.0
 70
     8
 71
     3
 72
    13
 73
     9
 74
     0
 42
0.000000001
 43
0.00000001
 40
0.0
 40
0.0
 40
0.0
 40
0.0
 40
0.0291353860407301
 40
0.2238973235408822
 40
0.4524855026643103
 40
0.6902563999060488
 40
0.9464280957252639
 40
1.0
 40
1.0
 40
1.0
 40
1.0
 10
117.8171015622907
 20
149.8042385892814
 30
0.0
 10
117.8214969970435
 20
149.8043688529119
 30
0.0
 10
117.8552746883896
 20
149.8053698926163
 30
0.0
 10
117.9224888841131
 20
149.7854286216311
 30
0.0
 10
118.0093507308038
 20
149.7332368442336
 30
0.0
 10
118.0755686486783
 20
149.6449500165043
 30
0.0
 10
118.1055166302607
 20
149.5635054197809
 30
0.0
 10
118.1015549286663
 20
149.5168480249647
 30
0.0
 10
118.10086973001
 20
149.5087783651298
 30
0.0
  0
LINE
  5
A9
330
1F
100
AcDbEntity
  8
0
  6
Continuous
 62
     7
370
    18
100
AcDbLine
 10
151.9534946698
 20
162.8056009168
 30
0.0
 11
150.5534951853
 21
162.8056009168
 31
0.0
  0
LINE
  5
AA
330
1F
100
AcDbEntity
  8
0
  6
Continuous
 62
     7
370
    18
100
AcDbLine
 10
150.5534951853
 20
146.8056010881
 30
0.0
 11
151.9534946698
 21
146.8056010881
 31
0.0
  0
LINE
  5
AB
330
1F
100
AcDbEntity
  8
0
  6
Continuous
 62
     7
370
    18
100
AcDbLine
 10
150.5534951853
 20
162.8056009168
 30
0.0
 11
150.2534938323
 21
162.5056009607
 31
0.0
  0
LINE
  5
AC
330
1F
100
AcDbEntity
  8
0
  6
Continuous
 62
     7
370
    18
100
AcDbLine
 10
150.2534938323
 20
147.1056010442
 30
0.0
 11
150.5534951853
 21
146.8056010881
 31
0.0
  0
LINE
  5
AD
330
1F
100
AcDbEntity
  8
0
  6
Continuous
 62
     7
370
    18
100
AcDbLine
 10
151.9534946698
 20
146.8056010881
 30
0.0
 11
152.2534941601
 21
147.1056010442
 31
0.0
  0
LINE
  5
AE
330
1F
100
AcDbEntity
  8
0
  6
Continuous
 62
     7
370
    18
100
AcDbLine
 10
152.2534941601
 20
162.5056009607
 30
0.0
 11
151.9534946698
 21
162.8056009168
 31
0.0
  0
LINE
  5
AF
330
1F
100
AcDbEntity
  8
0
  6
Continuous
 62
     7
370
    18
100
AcDbLine
 10
169.253495084
 20
148.8056009503
 30
0.0
 11
170.2534933853
 21
149.8056011142
 31
0.0
  0
LINE
  5
B0
330
1F
100
AcDbEntity
  8
0
  6
Continuous
 62
     7
370
    18
100
AcDbLine
 10
170.2534933853
 20
159.8056008907
 30
0.0
 11
169.253495084
 21
160.8056010546
 31
0.0
  0
LINE
  5
B1
330
1F
100
AcDbEntity
  8
0
  6
Continuous
 62
     7
370
    18
100
AcDbLine
 10
169.253495084
 20
160.8056010546
 30
0.0
 11
152.2534941601
 21
160.8056010546
 31
0.0
  0
LINE
  5
B2
330
1F
100
AcDbEntity
  8
0
  6
Continuous
 62
     7
370
    18
100
AcDbLine
 10
152.2534941601
 20
148.8056009503
 30
0.0
 11
169.253495084
 21
148.8056009503
 31
0.0
  0
LINE
  5
B3
330
1F
100
AcDbEntity
  8
0
  6
Continuous
 62
     7
370
    18
100
AcDbLine
 10
148.5534948575
 20
158.5556009186
 30
0.0
 11
148.2534953671
 21
158.2556009626
 31
0.0
  0
LINE
  5
B4
330
1F
100
AcDbEntity
  8
0
  6
Continuous
 62
     7
370
    18
100
AcDbLine
 10
148.2534953671
 20
151.3556010423
 30
0.0
 11
148.5534948575
 21
151.0556008534
 31
0.0
  0
LINE
  5
B5
330
1F
100
AcDbEntity
  8
0
  6
Continuous
 62
     7
370
    18
100
AcDbLine
 10
150.2534938323
 20
158.5556009186
 30
0.0
 11
149.6533793676
 21
158.5556009186
 31
0.0
  0
LINE
  5
B6
330
1F
100
AcDbEntity
  8
0
  6
Continuous
 62
     7
370
    18
100
AcDbLine
 10
149.1446723509
 20
158.5556009186
 30
0.0
 11
148.5534948575
 21
158.5556009186
 31
0.0
  0
LINE
  5
B7
330
1F
100
AcDbEntity
  8
0
  6
Continuous
 62
     7
370
    18
100
AcDbLine
 10
148.5534948575
 20
151.0556008534
 30
0.0
 11
150.2534938323
 21
151.0556008534
 31
0.0
  0
LWPOLYLINE
  5
B8
330
1F
100
AcDbEntity
  8
0
  6
Continuous
 62
     7
370
    18
100
AcDbPolyline
 90
       23
 70
   128
 43
0.0
 10
134.087408455
 20
158.8113823773
 10
134.0874866861
 20
158.7888555469
 10
134.1201621386
 20
158.674007641
 10
134.1629573422
 20
158.4974794051
 10
134.2111504915
 20
158.2682704421
 10
134.2610311973
 20
157.9969424156
 10
134.3102311063
 20
157.6955207957
 10
134.3575953784
 20
157.3757444376
 10
134.4462926778
 20
156.7107858237
 10
134.5267589482
 20
156.0493811367
 10
134.5988088566
 20
155.4253789464
 10
134.6697318646
 20
154.7964714655
 10
134.7483867126
 20
154.0991780449
 10
134.8348395246
 20
153.3550656268
 10
134.9267703759
 20
152.6150008531
 10
135.0194891262
 20
151.9483247639
 10
135.1134353596
 20
151.3809330163
 10
135.2133485767
 20
150.9191062169
 10
135.2801216113
 20
150.7037383372
 10
135.3728124219
 20
150.5099035667
 10
135.5028660315
 20
150.3640910478
 10
135.6727932858
 20
150.3065963143
 10
135.6727932858
 20
150.3065963143
  0
LWPOLYLINE
  5
B9
330
1F
100
AcDbEntity
  8
0
  6
Continuous
 62
     7
370
    18
100
AcDbPolyline
 90
       30
 70
   128
 43
0.0
 10
137.0639433431
 20
158.8312628547
 10
137.0610357541
 20
158.8322523849
 10
137.0719322282
 20
158.7964788878
 10
137.0976460445
 20
158.7241663465
 10
137.1291415113
 20
158.6198959367
 10
137.1671282965
 20
158.4700198246
 10
137.2116250264
 20
158.2632843738
 10
137.2625199425
 20
157.9883674959
 10
137.3197124618
 20
157.6342218423
 10
137.3831131774
 20
157.1929763405
 10
137.4463313538
 20
156.710578488
 10
137.5033227074
 20
156.2465862471
 10
137.5695341545
 20
155.6816036564
 10
137.6244728732
 20
155.1988560923
 10
137.6680606323
 20
154.8114857006
 10
137.7100930828
 20
154.4376027114
 10
137.7635100203
 20
153.9666596901
 10
137.828438105
 20
153.408729947
 10
137.8847365546
 20
152.9452485366
 10
137.9475132841
 20
152.4582243392
 10
138.0095077026
 20
152.0156246943
 10
138.0660967248
 20
151.6513043417
 10
138.1332096922
 20
151.2760262804
 10
138.1908790487
 20
151.0069618335
 10
138.2449590879
 20
150.801457824
 10
138.3083039242
 20
150.6209069731
 10
138.4061971026
 20
150.4466011057
 10
138.5293011832
 20
150.3407283554
 10
138.6728198546
 20
150.3061860667
 10
138.6728198546
 20
150.3061860667
  0
SPLINE
  5
BA
330
1F
100
AcDbEntity
  8
0
  6
Continuous
 62
     7
370
    18
100
AcDbSpline
210
0.0
220
0.0
230
1.0
 70
     8
 71
     3
 72
    27
 73
    23
 74
     0
 42
0.000000001
 43
0.00000001
 40
0.0
 40
0.0
 40
0.0
 40
0.0
 40
0.0329284394279416
 40
0.0746849442719762
 40
0.1215753039414039
 40
0.1738933918077739
 40
0.2315949672415647
 40
0.2941169585210378
 40
0.3513007560763483
 40
0.3992755746658248
 40
0.4379708104212859
 40
0.4589964879073851
 40
0.4866885907443154
 40
0.5256887980394596
 40
0.5623969207190429
 40
0.6055088882391774
 40
0.6550270261298693
 40
0.7109706076626451
 40
0.7734223878928347
 40
0.8424143764713524
 40
0.9179097243150204
 40
1.0
 40
1.0
 40
1.0
 40
1.0
 10
140.0750228482181
 20
158.814127916271
 30
0.0
 10
140.0726302245348
 20
158.8111634922903
 30
0.0
 10
140.0672035183335
 20
158.8044398866883
 30
0.0
 10
140.1185712154753
 20
158.6732785778719
 30
0.0
 10
140.1660462964928
 20
158.4824893016453
 30
0.0
 10
140.2276288407213
 20
158.1930752326318
 30
0.0
 10
140.2957418124661
 20
157.7996740550475
 30
0.0
 10
140.3674106410851
 20
157.3165261666618
 30
0.0
 10
140.4350900715353
 20
156.8047136270249
 30
0.0
 10
140.4932892316148
 20
156.3327410353168
 30
0.0
 10
140.5369232670565
 20
155.9636249888311
 30
0.0
 10
140.5723761784435
 20
155.6573545130676
 30
0.0
 10
140.6079354296646
 20
155.3458096879955
 30
0.0
 10
140.6498655297149
 20
154.9738752506557
 30
0.0
 10
140.6980450565156
 20
154.5446472733109
 30
0.0
 10
140.7505402555278
 20
154.0794175419466
 30
0.0
 10
140.8109429916736
 20
153.5542967465586
 30
0.0
 10
140.8793607845626
 20
152.9833897466701
 30
0.0
 10
140.9557931729124
 20
152.3879895790498
 30
0.0
 10
141.0403201407957
 20
151.799905631682
 30
0.0
 10
141.1331902110841
 20
151.2463972936844
 30
0.0
 10
141.1979680551985
 20
150.9839591771367
 30
0.0
 10
141.2317124473744
 20
150.8472486266737
 30
0.0
  0
SPLINE
  5
BB
330
1F
100
AcDbEntity
  8
0
  6
Continuous
 62
     7
370
    18
100
AcDbSpline
210
0.0
220
0.0
230
1.0
 70
     8
 71
     3
 72
    15
 73
    11
 74
     0
 42
0.000000001
 43
0.00000001
 40
0.0
 40
0.0
 40
0.0
 40
0.0
 40
0.1026244520267283
 40
0.1927648210700367
 40
0.3413438154899771
 40
0.5018408427858304
 40
0.6931818395074275
 40
0.8005020094262056
 40
0.9154879771655943
 40
1.0
 40
1.0
 40
1.0
 40
1.0
 10
140.1738082337075
 20
159.3043630810326
 30
0.0
 10
140.1161402667288
 20
159.2944824891729
 30
0.0
 10
140.0078195389043
 20
159.2759232619685
 30
0.0
 10
139.8679066272045
 20
159.1312698579636
 30
0.0
 10
139.7840532057422
 20
158.9470370555713
 30
0.0
 10
139.6961584231688
 20
158.6464717222012
 30
0.0
 10
139.6187436384021
 20
158.271527401608
 30
0.0
 10
139.5509088549616
 20
157.8708197069316
 30
0.0
 10
139.500964247256
 20
157.5443894270786
 30
0.0
 10
139.4686777491426
 20
157.3064131922275
 30
0.0
 10
139.4550004321032
 20
157.2056008836126
 30
0.0
  0
SPLINE
  5
BC
330
1F
100
AcDbEntity
  8
0
  6
Continuous
 62
     7
370
    18
100
AcDbSpline
210
0.0
220
0.0
230
1.0
 70
     8
 71
     3
 72
    12
 73
     8
 74
     0
 42
0.000000001
 43
0.00000001
 40
0.0
 40
0.0
 40
0.0
 40
0.0
 40
0.179597496370503
 40
0.4538727036876301
 40
0.7127084363752465
 40
0.9559164819897435
 40
1.0
 40
1.0
 40
1.0
 40
1.0
 10
138.8807245808536
 20
152.4056008884554
 30
0.0
 10
138.8676278081336
 20
152.3098639795941
 30
0.0
 10
138.8345300881537
 20
152.0679209094193
 30
0.0
 10
138.7831145153305
 20
151.7383249141013
 30
0.0
 10
138.7281858113797
 20
151.4261488304976
 30
0.0
 10
138.6899428347454
 20
151.2313146175627
 30
0.0
 10
138.6710315590195
 20
151.1552233485381
 30
0.0
 10
138.6681297141009
 20
151.1435475068038
 30
0.0
  0
SPLINE
  5
BD
330
1F
100
AcDbEntity
  8
0
  6
Continuous
 62
     7
370
    18
100
AcDbSpline
210
0.0
220
0.0
230
1.0
 70
     8
 71
     3
 72
    18
 73
    14
 74
     0
 42
0.000000001
 43
0.00000001
 40
0.0
 40
0.0
 40
0.0
 40
0.0
 40
0.0735311756814406
 40
0.1307355728447466
 40
0.16637041067419
 40
0.2245869303704561
 40
0.3052438198493941
 40
0.4080987580029504
 40
0.5266837714575844
 40
0.6546383108347913
 40
0.7919766968000092
 40
0.9386532852039586
 40
1.0
 40
1.0
 40
1.0
 40
1.0
 10
137.173543246358
 20
159.3047267624979
 30
0.0
 10
137.121234574714
 20
159.2969072716957
 30
0.0
 10
137.0282317893139
 20
159.2830045209247
 30
0.0
 10
136.942900902566
 20
159.2104309217169
 30
0.0
 10
136.8993629348906
 20
159.1605776507069
 30
0.0
 10
136.8589669097543
 20
159.100031476069
 30
0.0
 10
136.809256545944
 20
158.9985161342536
 30
0.0
 10
136.7521499747911
 20
158.8388909692999
 30
0.0
 10
136.6897314539929
 20
158.6061657258714
 30
0.0
 10
136.6241215105014
 20
158.2962051874338
 30
0.0
 10
136.5556811257201
 20
157.902681598257
 30
0.0
 10
136.4991521333531
 20
157.5355195373973
 30
0.0
 10
136.4654356925622
 20
157.2807370316895
 30
0.0
 10
136.4554926100069
 20
157.2056008836126
 30
0.0
  0
SPLINE
  5
BE
330
1F
100
AcDbEntity
  8
0
  6
Continuous
 62
     7
370
    18
100
AcDbSpline
210
0.0
220
0.0
230
1.0
 70
     8
 71
     3
 72
    11
 73
     7
 74
     0
 42
0.000000001
 43
0.00000001
 40
0.0
 40
0.0
 40
0.0
 40
0.0
 40
0.2543296573190774
 40
0.5260762361287517
 40
0.7781291666762833
 40
1.0
 40
1.0
 40
1.0
 40
1.0
 10
135.8811767118865
 20
152.4056008884554
 30
0.0
 10
135.8626695438454
 20
152.2732179140683
 30
0.0
 10
135.8243878058558
 20
151.9993861571776
 30
0.0
 10
135.768358454645
 20
151.6515464428465
 30
0.0
 10
135.7153327585592
 20
151.3575604592095
 30
0.0
 10
135.6829357119215
 20
151.2108401108209
 30
0.0
 10
135.6677688005262
 20
151.1421519199257
 30
0.0
  0
SPLINE
  5
BF
330
1F
100
AcDbEntity
  8
0
  6
Continuous
 62
     7
370
    18
100
AcDbSpline
210
0.0
220
0.0
230
1.0
 70
     8
 71
     3
 72
    16
 73
    12
 74
     0
 42
0.000000001
 43
0.00000001
 40
0.0
 40
0.0
 40
0.0
 40
0.0
 40
0.1019366433543891
 40
0.2022892522491772
 40
0.3126703509344819
 40
0.4040617663265209
 40
0.4760434173633517
 40
0.6693128884192866
 40
0.7787170626375799
 40
0.8965299248219267
 40
1.0
 40
1.0
 40
1.0
 40
1.0
 10
134.1737392636829
 20
159.3051398040598
 30
0.0
 10
134.1113387151789
 20
159.292218215052
 30
0.0
 10
133.9875072853669
 20
159.2665758307998
 30
0.0
 10
133.8873143419677
 20
159.1467284540751
 30
0.0
 10
133.8097240145455
 20
159.0059286847692
 30
0.0
 10
133.7526176415404
 20
158.8414507000035
 30
0.0
 10
133.6906712166956
 20
158.6174014286913
 30
0.0
 10
133.6295432365931
 20
158.3300870168971
 30
0.0
 10
133.5609259585263
 20
157.9336950872896
 30
0.0
 10
133.5074123059771
 20
157.58894741672
 30
0.0
 10
133.4716829278747
 20
157.3277395338119
 30
0.0
 10
133.4549761655622
 20
157.2056008836126
 30
0.0
  0
SPLINE
  5
C0
330
1F
100
AcDbEntity
  8
0
  6
Continuous
 62
     7
370
    18
100
AcDbSpline
210
0.0
220
0.0
230
1.0
 70
     8
 71
     3
 72
     9
 73
     5
 74
     0
 42
0.000000001
 43
0.00000001
 40
0.0
 40
0.0
 40
0.0
 40
0.0
 40
0.4823741508609927
 40
1.0
 40
1.0
 40
1.0
 40
1.0
 10
132.8813401329213
 20
152.4056008884554
 30
0.0
 10
132.8616993802189
 20
152.2651741361927
 30
0.0
 10
132.8209825369398
 20
151.9740583041937
 30
0.0
 10
132.7803068910404
 20
151.7312866756086
 30
0.0
 10
132.7592521252924
 20
151.6056218052154
 30
0.0
  0
SPLINE
  5
C1
330
1F
100
AcDbEntity
  8
0
  6
Continuous
 62
     7
370
    18
100
AcDbSpline
210
0.0
220
0.0
230
1.0
 70
     8
 71
     3
 72
     9
 73
     5
 74
     0
 42
0.000000001
 43
0.00000001
 40
0.0
 40
0.0
 40
0.0
 40
0.0
 40
0.5673024191957774
 40
1.0
 40
1.0
 40
1.0
 40
1.0
 10
133.2529760244184
 20
151.554873106802
 30
0.0
 10
133.2770752294702
 20
151.7011638167801
 30
0.0
 10
133.3195555789916
 20
151.9590345838138
 30
0.0
 10
133.3620302185295
 20
152.2707307230583
 30
0.0
 10
133.3804088923031
 20
152.4056008884554
 30
0.0
  0
SPLINE
  5
C2
330
1F
100
AcDbEntity
  8
0
  6
Continuous
 62
     7
370
    18
100
AcDbSpline
210
0.0
220
0.0
230
1.0
 70
     8
 71
     3
 72
    12
 73
     8
 74
     0
 42
0.000000001
 43
0.00000001
 40
0.0
 40
0.0
 40
0.0
 40
0.0
 40
0.1226509544839296
 40
0.3976817775740109
 40
0.6825679464958422
 40
0.9601677524834921
 40
1.0
 40
1.0
 40
1.0
 40
1.0
 10
133.9546093064242
 20
157.2056008836126
 30
0.0
 10
133.9635436776421
 20
157.2714639827559
 30
0.0
 10
133.992512360702
 20
157.4850175947442
 30
0.0
 10
134.0421387431986
 20
157.8099380975424
 30
0.0
 10
134.1023284240152
 20
158.1582151890597
 30
0.0
 10
134.1453450970246
 20
158.3791054294784
 30
0.0
 10
134.1660620702066
 20
158.4601787682967
 30
0.0
 10
134.1686616930061
 20
158.4703520739322
 30
0.0
  0
SPLINE
  5
C3
330
1F
100
AcDbEntity
  8
0
  6
Continuous
 62
     7
370
    18
100
AcDbSpline
210
0.0
220
0.0
230
1.0
 70
     8
 71
     3
 72
    16
 73
    12
 74
     0
 42
0.000000001
 43
0.00000001
 40
0.0
 40
0.0
 40
0.0
 40
0.0
 40
0.1200843897218054
 40
0.2231396642353659
 40
0.3106254720223218
 40
0.3971852151397474
 40
0.5254881989822908
 40
0.668628094787848
 40
0.8266101200090465
 40
0.9542511604216737
 40
1.0
 40
1.0
 40
1.0
 40
1.0
 10
135.6612346413427
 20
150.3065953830128
 30
0.0
 10
135.7283421353471
 20
150.3203788965527
 30
0.0
 10
135.8530406387455
 20
150.3459912895574
 30
0.0
 10
135.9675599926576
 20
150.4901818910328
 30
0.0
 10
136.0298934900209
 20
150.6195757841527
 30
0.0
 10
136.0850033591875
 20
150.7759734166563
 30
0.0
 10
136.1486562299526
 20
151.0126301746702
 30
0.0
 10
136.220679175004
 20
151.3605960660083
 30
0.0
 10
136.2910998022969
 20
151.779238333057
 30
0.0
 10
136.3448562694832
 20
152.1386193125992
 30
0.0
 10
136.3729281306581
 20
152.3498640597096
 30
0.0
 10
136.3803348782354
 20
152.4056008884554
 30
0.0
  0
SPLINE
  5
C4
330
1F
100
AcDbEntity
  8
0
  6
Continuous
 62
     7
370
    18
100
AcDbSpline
210
0.0
220
0.0
230
1.0
 70
     8
 71
     3
 72
    11
 73
     7
 74
     0
 42
0.000000001
 43
0.00000001
 40
0.0
 40
0.0
 40
0.0
 40
0.0
 40
0.2630522964379554
 40
0.5685139360979682
 40
0.8524282056552526
 40
1.0
 40
1.0
 40
1.0
 40
1.0
 10
136.9545669573241
 20
157.2056008836126
 30
0.0
 10
136.973856344167
 20
157.3445400607816
 30
0.0
 10
137.015544956612
 20
157.6448182167232
 30
0.0
 10
137.076856097887
 20
158.0189177099697
 30
0.0
 10
137.1291197207665
 20
158.3034845044039
 30
0.0
 10
137.1578554933695
 20
158.4256595955359
 30
0.0
 10
137.1676833647185
 20
158.4674444848543
 30
0.0
  0
SPLINE
  5
C5
330
1F
100
AcDbEntity
  8
0
  6
Continuous
 62
     7
370
    18
100
AcDbSpline
210
0.0
220
0.0
230
1.0
 70
     8
 71
     3
 72
    14
 73
    10
 74
     0
 42
0.000000001
 43
0.00000001
 40
0.0
 40
0.0
 40
0.0
 40
0.0
 40
0.0947461753826142
 40
0.2165056291932159
 40
0.3487594839038126
 40
0.4737935902157701
 40
0.7037014767218274
 40
0.9102988641412382
 40
1.0
 40
1.0
 40
1.0
 40
1.0
 10
138.6612938064033
 20
150.3061814101284
 30
0.0
 10
138.7196597378542
 20
150.3179015294599
 30
0.0
 10
138.8530324324376
 20
150.3446833156359
 30
0.0
 10
138.9453262403798
 20
150.4659423395197
 30
0.0
 10
139.0342912246527
 20
150.635062184078
 30
0.0
 10
139.1338864155724
 20
150.9403866194332
 30
0.0
 10
139.2321673733131
 20
151.4116026747706
 30
0.0
 10
139.3169007528429
 20
151.9358500670677
 30
0.0
 10
139.3648884149615
 20
152.2964371074737
 30
0.0
 10
139.3794161545926
 20
152.4056008884554
 30
0.0
  0
SPLINE
  5
C6
330
1F
100
AcDbEntity
  8
0
  6
Continuous
 62
     7
370
    18
100
AcDbSpline
210
0.0
220
0.0
230
1.0
 70
     8
 71
     3
 72
    11
 73
     7
 74
     0
 42
0.000000001
 43
0.00000001
 40
0.0
 40
0.0
 40
0.0
 40
0.0
 40
0.1902243442787233
 40
0.6150865822048283
 40
0.8283845904827399
 40
1.0
 40
1.0
 40
1.0
 40
1.0
 10
139.9555118101531
 20
157.2056008836126
 30
0.0
 10
139.9692881390291
 20
157.3083965984463
 30
0.0
 10
140.0138336207117
 20
157.6407844699468
 30
0.0
 10
140.0728211191089
 20
157.996600304366
 30
0.0
 10
140.1304251994427
 20
158.3030838983915
 30
0.0
 10
140.1562911170567
 20
158.4168978980815
 30
0.0
 10
140.167823554843
 20
158.4676423909014
 30
0.0
  0
SPLINE
  5
C7
330
1F
100
AcDbEntity
  8
0
  6
Continuous
 62
     7
370
    18
100
AcDbSpline
210
0.0
220
0.0
230
1.0
 70
     8
 71
     3
 72
    28
 73
    24
 74
     0
 42
0.000000001
 43
0.00000001
 40
0.0
 40
0.0
 40
0.0
 40
0.0
 40
0.061120613372403
 40
0.1177197520034517
 40
0.1698144715228662
 40
0.2173430452952108
 40
0.2602417884542481
 40
0.2984836219019357
 40
0.3320669370176876
 40
0.3609758201114248
 40
0.3922039036070082
 40
0.4200090801100988
 40
0.4494239868336694
 40
0.4965458828598844
 40
0.5473231875904709
 40
0.6015971872606043
 40
0.6567321881960104
 40
0.7119361501106458
 40
0.7673022520825644
 40
0.8229141571356287
 40
0.8795357584201915
 40
0.9383834236703209
 40
1.0
 40
1.0
 40
1.0
 40
1.0
 10
141.7134614008361
 20
150.9661580303555
 30
0.0
 10
141.6870772459841
 20
151.0683039016289
 30
0.0
 10
141.6362607375326
 20
151.265039274051
 30
0.0
 10
141.5625342560658
 20
151.6717140880096
 30
0.0
 10
141.4945737849077
 20
152.109319367678
 30
0.0
 10
141.432415681452
 20
152.5593431659584
 30
0.0
 10
141.376139257611
 20
152.99925646054
 30
0.0
 10
141.3258391518961
 20
153.4140372230582
 30
0.0
 10
141.2816237219235
 20
153.7917947317837
 30
0.0
 10
141.2404638196409
 20
154.1510171845362
 30
0.0
 10
141.2018158198428
 20
154.4929511880055
 30
0.0
 10
141.1629477029167
 20
154.8390145620761
 30
0.0
 10
141.1170809583709
 20
155.2472916793883
 30
0.0
 10
141.0610425624192
 20
155.7417444020005
 30
0.0
 10
140.9940358956612
 20
156.3155833578133
 30
0.0
 10
140.923573796423
 20
156.8883071207861
 30
0.0
 10
140.8508382097791
 20
157.433079143733
 30
0.0
 10
140.7770928522212
 20
157.9245723162872
 30
0.0
 10
140.7014539640653
 20
158.3497368144344
 30
0.0
 10
140.6257947212094
 20
158.69578487584
 30
0.0
 10
140.5366397763669
 20
158.9879394128409
 30
0.0
 10
140.3984334850908
 20
159.2408952110504
 30
0.0
 10
140.2421864812377
 20
159.2828801674329
 30
0.0
 10
140.1622672843629
 20
159.3043551647907
 30
0.0
  0
SPLINE
  5
C8
330
1F
100
AcDbEntity
  8
0
  6
Continuous
 62
     7
370
    18
100
AcDbSpline
210
0.0
220
0.0
230
1.0
 70
     8
 71
     3
 72
    35
 73
    31
 74
     0
 42
0.000000001
 43
0.00000001
 40
0.0
 40
0.0
 40
0.0
 40
0.0
 40
0.0133067899830339
 40
0.0530941340016442
 40
0.0841033615250841
 40
0.1094757625261747
 40
0.1382722961359154
 40
0.1709448834680402
 40
0.2075133187409937
 40
0.2480062395587808
 40
0.2919497175276573
 40
0.3333049650636112
 40
0.3702296659535691
 40
0.4125637057432479
 40
0.4470073228721637
 40
0.4748843997812673
 40
0.5079785540183385
 40
0.5490081737379888
 40
0.5980125391418083
 40
0.640067085611752
 40
0.6858099267077529
 40
0.7287997921374654
 40
0.7677143556499654
 40
0.8132733106933551
 40
0.8515915409314699
 40
0.8845207408402154
 40
0.9127872363677955
 40
0.944880221122557
 40
0.9744699079932085
 40
0.9999999999999999
 40
0.9999999999999999
 40
0.9999999999999999
 40
0.9999999999999999
 10
138.758210958808
 20
150.7932235354429
 30
0.0
 10
138.7613182221432
 20
150.793080972352
 30
0.0
 10
138.7737162126506
 20
150.7925121451694
 30
0.0
 10
138.7448984521808
 20
150.8570256176592
 30
0.0
 10
138.7121458821905
 20
150.9678533932456
 30
0.0
 10
138.6716629472606
 20
151.1222821864594
 30
0.0
 10
138.6317832948502
 20
151.3036850395961
 30
0.0
 10
138.5855536279683
 20
151.5445806618138
 30
0.0
 10
138.5336284679987
 20
151.8547277449031
 30
0.0
 10
138.4760559555422
 20
152.2407219723207
 30
0.0
 10
138.4160420511774
 20
152.6845008954361
 30
0.0
 10
138.3576547987631
 20
153.1494534209745
 30
0.0
 10
138.2999669295708
 20
153.6326268953151
 30
0.0
 10
138.245534241781
 20
154.1056241814554
 30
0.0
 10
138.1954594896612
 20
154.5492489303716
 30
0.0
 10
138.1498123845728
 20
154.9559643640092
 30
0.0
 10
138.1009925708901
 20
155.3899627679325
 30
0.0
 10
138.0419886611037
 20
155.9072099523065
 30
0.0
 10
137.9785886961278
 20
156.4436541859797
 30
0.0
 10
137.9129496490351
 20
156.9686495130686
 30
0.0
 10
137.8501373793989
 20
157.4351472960232
 30
0.0
 10
137.7886023912518
 20
157.848021448544
 30
0.0
 10
137.7267600437751
 20
158.2140040689242
 30
0.0
 10
137.6667285157987
 20
158.5161395581495
 30
0.0
 10
137.6082309308217
 20
158.754178235199
 30
0.0
 10
137.5578158506422
 20
158.9195977030259
 30
0.0
 10
137.4965057202663
 20
159.0699738771911
 30
0.0
 10
137.4213124609021
 20
159.1850359644691
 30
0.0
 10
137.3195650431362
 20
159.2805122339479
 30
0.0
 10
137.2118884287749
 20
159.2970427637925
 30
0.0
 10
137.1620153355294
 20
159.304699288482
 30
0.0
  0
LWPOLYLINE
  5
C9
330
1F
100
AcDbEntity
  8
0
  6
Continuous
 62
     7
370
    18
100
AcDbPolyline
 90
       27
 70
   128
 43
0.0
 10
135.7657858449
 20
150.790029099
 10
135.7681765499
 20
150.7896686772
 10
135.759775089
 20
150.8220023343
 10
135.7346088904
 20
150.8931157978
 10
135.6664826441
 20
151.1469438074
 10
135.5779837164
 20
151.5930978449
 10
135.5268196481
 20
151.904415
 10
135.4713463503
 20
152.2806823587
 10
135.4161571058
 20
152.6893637011
 10
135.366342524
 20
153.0828536589
 10
135.3083825949
 20
153.5641712936
 10
135.260181995
 20
153.9791046626
 10
135.221286239
 20
154.3206492889
 10
135.1780030223
 20
154.7047248851
 10
135.1242563966
 20
155.1828367911
 10
135.0599914136
 20
155.7481442097
 10
135.0048505979
 20
156.2201768493
 10
134.9437223094
 20
156.7214065099
 10
134.878286654
 20
157.2240187188
 10
134.8149231913
 20
157.6687499283
 10
134.7539969998
 20
158.0497833302
 10
134.6951644215
 20
158.3681173025
 10
134.582004072
 20
158.8336568193
 10
134.4511076155
 20
159.1348307075
 10
134.3342443275
 20
159.2531184533
 10
134.1621862071
 20
159.3051202463
 10
134.1621862071
 20
159.3051202463
  0
LWPOLYLINE
  5
CA
330
1F
100
AcDbEntity
  8
0
  6
Continuous
 62
     7
370
    18
100
AcDbPolyline
 90
       23
 70
   128
 43
0.0
 10
125.0873459781
 20
158.8114037977
 10
125.0875229294
 20
158.788557058
 10
125.1203741691
 20
158.6733186951
 10
125.163452262
 20
158.4956605321
 10
125.212037498
 20
158.2640592342
 10
125.2624206523
 20
157.9888289662
 10
125.3122207987
 20
157.6824906615
 10
125.3601466584
 20
157.3576819019
 10
125.449716607
 20
156.6837752571
 10
125.5307160596
 20
156.0157695886
 10
125.6029587517
 20
155.3887646979
 10
125.6738854851
 20
154.7594213508
 10
125.752544524
 20
154.0627069872
 10
125.8390043209
 20
153.3203121608
 10
125.9309524017
 20
152.5829044504
 10
126.0237265657
 20
151.920115236
 10
126.1178041155
 20
151.357832724
 10
126.2178649473
 20
150.9017435701
 10
126.2844205181
 20
150.6911342831
 10
126.3764673191
 20
150.5028874481
 10
126.5051523502
 20
150.3622097762
 10
126.67287237
 20
150.3068156408
 10
126.67287237
 20
150.3068156408
  0
LWPOLYLINE
  5
CB
330
1F
100
AcDbEntity
  8
0
  6
Continuous
 62
     7
370
    18
100
AcDbPolyline
 90
       30
 70
   128
 43
0.0
 10
128.0656894947
 20
158.8296311775
 10
128.061769558
 20
158.8307604061
 10
128.0743140074
 20
158.7903642895
 10
128.1010466906
 20
158.713631924
 10
128.1328099127
 20
158.6064606773
 10
128.1709689925
 20
158.45355474
 10
128.2155853975
 20
158.2435037808
 10
128.2665608729
 20
157.9648578873
 10
128.3238050806
 20
157.6070167458
 10
128.3872369955
 20
157.1626026517
 10
128.4504733327
 20
156.6777706712
 10
128.5074767935
 20
156.2120021654
 10
128.5736966225
 20
155.645373171
 10
128.6286399978
 20
155.1618544718
 10
128.6722291539
 20
154.7742844441
 10
128.7142667266
 20
154.4005074348
 10
128.7676915805
 20
153.9301622061
 10
128.832628047
 20
153.3736211814
 10
128.8889381382
 20
152.911665743
 10
128.9517311658
 20
152.4267442392
 10
129.013745142
 20
151.9867995622
 10
129.0703672263
 20
151.6255062407
 10
129.1375500428
 20
151.2542743103
 10
129.195331158
 20
150.9884259531
 10
129.2493972274
 20
150.7864863479
 10
129.3119215685
 20
150.6117748896
 10
129.4080275389
 20
150.443890957
 10
129.5297718885
 20
150.3406575749
 10
129.6730046439
 20
150.3064556846
 10
129.6730046439
 20
150.3064556846
  0
SPLINE
  5
CC
330
1F
100
AcDbEntity
  8
0
  6
Continuous
 62
     7
370
    18
100
AcDbSpline
210
0.0
220
0.0
230
1.0
 70
     8
 71
     3
 72
    35
 73
    31
 74
     0
 42
0.000000001
 43
0.00000001
 40
0.0
 40
0.0
 40
0.0
 40
0.0
 40
0.0134279153635567
 40
0.0421228501157892
 40
0.0716531580936374
 40
0.1042748858604837
 40
0.1399802779254497
 40
0.178752226890317
 40
0.2205915305335561
 40
0.264022271011279
 40
0.3033762594146915
 40
0.3380629950667612
 40
0.3680563891735035
 40
0.401001829842428
 40
0.4379557433623636
 40
0.48541978629527
 40
0.5279378011233284
 40
0.5763729201842428
 40
0.6303162039401045
 40
0.6831774427462786
 40
0.7327691806405078
 40
0.7790992115173746
 40
0.8222189822904539
 40
0.8621448858123564
 40
0.8969735135741437
 40
0.9247890256871312
 40
0.9455243408555404
 40
0.9591371753107427
 40
0.9793477967511895
 40
1.0
 40
1.0
 40
1.0
 40
1.0
 10
131.0745659562641
 20
158.8165782259648
 30
0.0
 10
131.0711432771629
 20
158.8170155903459
 30
0.0
 10
131.0604064654636
 20
158.8183875854598
 30
0.0
 10
131.0908012970029
 20
158.7554967255558
 30
0.0
 10
131.1251675116452
 20
158.6403552903492
 30
0.0
 10
131.1677242435105
 20
158.4755035363785
 30
0.0
 10
131.2156768080329
 20
158.2500700599339
 30
0.0
 10
131.2694882164267
 20
157.9555288190923
 30
0.0
 10
131.3277563918298
 20
157.588446819514
 30
0.0
 10
131.3867759236948
 20
157.172002754656
 30
0.0
 10
131.4424228208289
 20
156.7451553882904
 30
0.0
 10
131.4918051594968
 20
156.3444217518905
 30
0.0
 10
131.5382077196856
 20
155.9534472343871
 30
0.0
 10
131.5857598785102
 20
155.5414377686663
 30
0.0
 10
131.6415975062933
 20
155.0478008973787
 30
0.0
 10
131.7020012745554
 20
154.5086671747471
 30
0.0
 10
131.767864779714
 20
153.926124959545
 30
0.0
 10
131.8369351364699
 20
153.3317142334571
 30
0.0
 10
131.9109272936093
 20
152.7292050020709
 30
0.0
 10
131.9856903715393
 20
152.1708019402085
 30
0.0
 10
132.0574918465673
 20
151.6941765836447
 30
0.0
 10
132.1257952884672
 20
151.3057345863059
 30
0.0
 10
132.1911117886705
 20
151.0000507266746
 30
0.0
 10
132.253253189086
 20
150.7700807034404
 30
0.0
 10
132.3105377573596
 20
150.6096049873214
 30
0.0
 10
132.3609013317873
 20
150.5066754748905
 30
0.0
 10
132.403176059239
 20
150.4436704580967
 30
0.0
 10
132.4473661093294
 20
150.3960573254402
 30
0.0
 10
132.5202422199128
 20
150.3308622549444
 30
0.0
 10
132.6221052889585
 20
150.314399981835
 30
0.0
 10
132.6735872122341
 20
150.3060798959678
 30
0.0
  0
SPLINE
  5
CD
330
1F
100
AcDbEntity
  8
0
  6
Continuous
 62
     7
370
    18
100
AcDbSpline
210
0.0
220
0.0
230
1.0
 70
     8
 71
     3
 72
     9
 73
     5
 74
     0
 42
0.000000001
 43
0.00000001
 40
0.0
 40
0.0
 40
0.0
 40
0.0
 40
0.795764149574352
 40
1.0
 40
1.0
 40
1.0
 40
1.0
 10
132.7593182491952
 20
151.605565227369
 30
0.0
 10
132.733924230899
 20
151.4635899493515
 30
0.0
 10
132.702012742665
 20
151.2851761843013
 30
0.0
 10
132.6732675167426
 20
151.1694096032985
 30
0.0
 10
132.6673967110806
 20
151.1457659171765
 30
0.0
  0
SPLINE
  5
CE
330
1F
100
AcDbEntity
  8
0
  6
Continuous
 62
     7
370
    18
100
AcDbSpline
210
0.0
220
0.0
230
1.0
 70
     8
 71
     3
 72
    14
 73
    10
 74
     0
 42
0.000000001
 43
0.00000001
 40
0.0
 40
0.0
 40
0.0
 40
0.0
 40
0.1026618662457212
 40
0.1928611985281295
 40
0.3415478315340412
 40
0.5014901341370125
 40
0.6914097034623062
 40
0.9112060356915052
 40
1.0
 40
1.0
 40
1.0
 40
1.0
 10
131.1740461083942
 20
159.3045749569183
 30
0.0
 10
131.11636447023
 20
159.2946952594891
 30
0.0
 10
131.0080033983322
 20
159.2761352005598
 30
0.0
 10
130.8680603927935
 20
159.1313551313586
 30
0.0
 10
130.7843103595783
 20
158.9472625393989
 30
0.0
 10
130.6966265265334
 20
158.6490015734298
 30
0.0
 10
130.6006315657357
 20
158.1824896190755
 30
0.0
 10
130.5192854939968
 20
157.6773117998095
 30
0.0
 10
130.469323032611
 20
157.3110028493762
 30
0.0
 10
130.4549468028241
 20
157.2056008836126
 30
0.0
  0
SPLINE
  5
CF
330
1F
100
AcDbEntity
  8
0
  6
Continuous
 62
     7
370
    18
100
AcDbSpline
210
0.0
220
0.0
230
1.0
 70
     8
 71
     3
 72
    12
 73
     8
 74
     0
 42
0.000000001
 43
0.00000001
 40
0.0
 40
0.0
 40
0.0
 40
0.0
 40
0.161110398275232
 40
0.4363554981288112
 40
0.6968745068978021
 40
0.9424384469387534
 40
1.0
 40
1.0
 40
1.0
 40
1.0
 10
129.8807072731548
 20
152.4056008884554
 30
0.0
 10
129.8689489102199
 20
152.3191925570901
 30
0.0
 10
129.8371022611485
 20
152.0851620359131
 30
0.0
 10
129.786780392697
 20
151.7609165241465
 30
0.0
 10
129.7314202334644
 20
151.4432365472736
 30
0.0
 10
129.6919515696716
 20
151.2408548065502
 30
0.0
 10
129.6719677410232
 20
151.1596969309214
 30
0.0
 10
129.6681729423696
 20
151.1442855799442
 30
0.0
  0
SPLINE
  5
D0
330
1F
100
AcDbEntity
  8
0
  6
Continuous
 62
     7
370
    18
100
AcDbSpline
210
0.0
220
0.0
230
1.0
 70
     8
 71
     3
 72
    15
 73
    11
 74
     0
 42
0.000000001
 43
0.00000001
 40
0.0
 40
0.0
 40
0.0
 40
0.0
 40
0.1351293693018736
 40
0.2399952219605352
 40
0.3047575401677602
 40
0.4099390430606306
 40
0.5552993952861118
 40
0.7404069164604503
 40
0.9541688526106002
 40
1.0
 40
1.0
 40
1.0
 40
1.0
 10
128.1735687794977
 20
159.3049912581091
 30
0.0
 10
128.1212190654443
 20
159.2971565251208
 30
0.0
 10
128.0282438572514
 20
159.2832417226448
 30
0.0
 10
127.9429147400505
 20
159.2105686431708
 30
0.0
 10
127.8994111017106
 20
159.1606424283029
 30
0.0
 10
127.859386770092
 20
159.1005120073089
 30
0.0
 10
127.8102560231313
 20
159.0011128125484
 30
0.0
 10
127.7540527553959
 20
158.8419560140241
 30
0.0
 10
127.7101432764898
 20
158.6909510642135
 30
0.0
 10
127.6858716144442
 20
158.5759112013231
 30
0.0
 10
127.6815864535862
 20
158.5556009186303
 30
0.0
  0
SPLINE
  5
D1
330
1F
100
AcDbEntity
  8
0
  6
Continuous
 62
     7
370
    18
100
AcDbSpline
210
0.0
220
0.0
230
1.0
 70
     8
 71
     3
 72
    14
 73
    10
 74
     0
 42
0.000000001
 43
0.00000001
 40
0.0
 40
0.0
 40
0.0
 40
0.0
 40
0.1280257991268304
 40
0.2581254171528087
 40
0.3517233050210091
 40
0.4796119627370216
 40
0.6459195810927557
 40
0.8502458415697173
 40
1.0
 40
1.0
 40
1.0
 40
1.0
 10
125.1732884253257
 20
159.3053740316873
 30
0.0
 10
125.1250514135432
 20
159.2980731515741
 30
0.0
 10
125.0277960253833
 20
159.2833531284409
 30
0.0
 10
124.9476384344949
 20
159.2146636985275
 30
0.0
 10
124.8928227911964
 20
159.1496890616282
 30
0.0
 10
124.8439599422894
 20
159.067016326808
 30
0.0
 10
124.787932048948
 20
158.9350257649112
 30
0.0
 10
124.7339236639937
 20
158.7694571495465
 30
0.0
 10
124.6994722791737
 20
158.6191651544459
 30
0.0
 10
124.6849014702135
 20
158.5556009186303
 30
0.0
  0
SPLINE
  5
D2
330
1F
100
AcDbEntity
  8
0
  6
Continuous
 62
     7
370
    18
100
AcDbSpline
210
0.0
220
0.0
230
1.0
 70
     8
 71
     3
 72
    13
 73
     9
 74
     0
 42
0.000000001
 43
0.00000001
 40
0.0
 40
0.0
 40
0.0
 40
0.0
 40
0.2211012921677311
 40
0.4106685591793365
 40
0.5714208931620164
 40
0.7307720105074756
 40
0.9679485566953001
 40
1.0
 40
1.0
 40
1.0
 40
1.0
 10
126.6613165194982
 20
150.3068175034469
 30
0.0
 10
126.7284234887686
 20
150.3205353072442
 30
0.0
 10
126.8530664617291
 20
150.3460144469876
 30
0.0
 10
126.9675854763793
 20
150.4902315925622
 30
0.0
 10
127.0299622412185
 20
150.6188336176119
 30
0.0
 10
127.0849895405064
 20
150.7786498116361
 30
0.0
 10
127.1269341539205
 20
150.9214992535429
 30
0.0
 10
127.1515630703698
 20
151.0413345300243
 30
0.0
 10
127.1544951292568
 20
151.0556008534377
 30
0.0
  0
SPLINE
  5
D3
330
1F
100
AcDbEntity
  8
0
  6
Continuous
 62
     7
370
    18
100
AcDbSpline
210
0.0
220
0.0
230
1.0
 70
     8
 71
     3
 72
    18
 73
    14
 74
     0
 42
0.000000001
 43
0.00000001
 40
0.0
 40
0.0
 40
0.0
 40
0.0
 40
0.0731407590726133
 40
0.130304359611962
 40
0.1643721627254481
 40
0.217648346225958
 40
0.2900310051929768
 40
0.3813326455659916
 40
0.4879774932325713
 40
0.6064961070873651
 40
0.7369109773634643
 40
0.8791765668808685
 40
1.0
 40
1.0
 40
1.0
 40
1.0
 10
129.6614785957032
 20
150.3064435774332
 30
0.0
 10
129.713799046049
 20
150.3142431386684
 30
0.0
 10
129.8070108593164
 20
150.3281384939381
 30
0.0
 10
129.8909628332424
 20
150.3993515340876
 30
0.0
 10
129.9339326214023
 20
150.4479538669661
 30
0.0
 10
129.9719634003971
 20
150.5036703386544
 30
0.0
 10
130.0176117364745
 20
150.5929275467955
 30
0.0
 10
130.0696280671505
 20
150.7297262647845
 30
0.0
 10
130.1267975861809
 20
150.927815841411
 30
0.0
 10
130.1879889617878
 20
151.1973175746627
 30
0.0
 10
130.2532957483027
 20
151.5485628302844
 30
0.0
 10
130.3178440263665
 20
151.950182714123
 30
0.0
 10
130.3605518088289
 20
152.2622734540293
 30
0.0
 10
130.3801653253728
 20
152.4056008884554
 30
0.0
  0
SPLINE
  5
D4
330
1F
100
AcDbEntity
  8
0
  6
Continuous
 62
     7
370
    18
100
AcDbSpline
210
0.0
220
0.0
230
1.0
 70
     8
 71
     3
 72
    11
 73
     7
 74
     0
 42
0.000000001
 43
0.00000001
 40
0.0
 40
0.0
 40
0.0
 40
0.0
 40
0.1923679163645431
 40
0.4874314406017755
 40
0.7575773245082393
 40
1.0
 40
1.0
 40
1.0
 40
1.0
 10
130.9547513070398
 20
157.2056008836126
 30
0.0
 10
130.9687158933247
 20
157.3077529837762
 30
0.0
 10
131.0041000599721
 20
157.5665910805037
 30
0.0
 10
131.0585551865499
 20
157.9098822135821
 30
0.0
 10
131.1159454489649
 20
158.2339356219956
 30
0.0
 10
131.150996651003
 20
158.3938669991809
 30
0.0
 10
131.1675743478232
 20
158.4695075971877
 30
0.0
  0
SPLINE
  5
D5
330
1F
100
AcDbEntity
  8
0
  6
Continuous
 62
     7
370
    18
100
AcDbSpline
210
0.0
220
0.0
230
1.0
 70
     8
 71
     3
 72
    14
 73
    10
 74
     0
 42
0.000000001
 43
0.00000001
 40
0.0
 40
0.0
 40
0.0
 40
0.0
 40
0.1057705271562354
 40
0.2075545715851342
 40
0.3102100516965903
 40
0.4227193630209956
 40
0.5754663631988203
 40
0.7679757572365384
 40
0.9999999999999999
 40
0.9999999999999999
 40
0.9999999999999999
 40
0.9999999999999999
 10
132.662071408599
 20
150.3060435743874
 30
0.0
 10
132.7077708634425
 20
150.3123676207771
 30
0.0
 10
132.7974473643236
 20
150.3247773607526
 30
0.0
 10
132.8981963030497
 20
150.4048505509339
 30
0.0
 10
132.9729101471418
 20
150.5035838660083
 30
0.0
 10
133.0321889841159
 20
150.626711575493
 30
0.0
 10
133.0976597749869
 20
150.8157531537227
 30
0.0
 10
133.1725054421217
 20
151.1108066418669
 30
0.0
 10
133.2245923243612
 20
151.3979761317287
 30
0.0
 10
133.2530598434502
 20
151.5549254936969
 30
0.0
  0
SPLINE
  5
D6
330
1F
100
AcDbEntity
  8
0
  6
Continuous
 62
     7
370
    18
100
AcDbSpline
210
0.0
220
0.0
230
1.0
 70
     8
 71
     3
 72
    33
 73
    29
 74
     0
 42
0.000000001
 43
0.00000001
 40
0.0
 40
0.0
 40
0.0
 40
0.0
 40
0.0138012077179613
 40
0.0359030783150333
 40
0.0652018597325274
 40
0.1012182270270972
 40
0.1410039545239641
 40
0.1841132831843769
 40
0.2305668469332998
 40
0.2803665118684027
 40
0.3331795037726383
 40
0.382866209033928
 40
0.4269206873387474
 40
0.4653151673158855
 40
0.5076182156107865
 40
0.5400891563718146
 40
0.574682181865366
 40
0.605900557441682
 40
0.6416598337577696
 40
0.6819696695847564
 40
0.7246574078838262
 40
0.7773971216147194
 40
0.8251555951278999
 40
0.8679271890889906
 40
0.8967208068106785
 40
0.9257890032154529
 40
0.9600443959008386
 40
1.0
 40
1.0
 40
1.0
 40
1.0
 10
132.7906786742502
 20
150.7576707618182
 30
0.0
 10
132.7894575212131
 20
150.759346218941
 30
0.0
 10
132.7862807591483
 20
150.7637048279498
 30
0.0
 10
132.7655127277378
 20
150.8030681663463
 30
0.0
 10
132.734185016721
 20
150.8866372760687
 30
0.0
 10
132.6907605644328
 20
151.0363165584727
 30
0.0
 10
132.6383620739417
 20
151.2640748538611
 30
0.0
 10
132.5786589942145
 20
151.5781095336834
 30
0.0
 10
132.5127323981724
 20
151.9865253806147
 30
0.0
 10
132.4412798312868
 20
152.4902925619718
 30
0.0
 10
132.3677096921216
 20
153.0643145816348
 30
0.0
 10
132.2968147388174
 20
153.6584276144094
 30
0.0
 10
132.2329173082663
 20
154.2165420500103
 30
0.0
 10
132.1726179209201
 20
154.7525810629115
 30
0.0
 10
132.117872154822
 20
155.2405971370349
 30
0.0
 10
132.064967771755
 20
155.7064156778444
 30
0.0
 10
132.0173784167336
 20
156.1164432785704
 30
0.0
 10
131.9681779178142
 20
156.5269234532216
 30
0.0
 10
131.9161646989461
 20
156.9426213768992
 30
0.0
 10
131.8584952171929
 20
157.3748319576195
 30
0.0
 10
131.79242800241
 20
157.8267557164683
 30
0.0
 10
131.7217445560601
 20
158.2450630839512
 30
0.0
 10
131.6496244135673
 20
158.5932228090847
 30
0.0
 10
131.5860082908076
 20
158.8305460777644
 30
0.0
 10
131.5309697798113
 20
158.9890527607127
 30
0.0
 10
131.4687091720713
 20
159.1203312026176
 30
0.0
 10
131.3541792118091
 20
159.2654029906595
 30
0.0
 10
131.229587139447
 20
159.2908629730439
 30
0.0
 10
131.1625060903722
 20
159.3045707659667
 30
0.0
  0
LWPOLYLINE
  5
D7
330
1F
100
AcDbEntity
  8
0
  6
Continuous
 62
     7
370
    18
100
AcDbPolyline
 90
       30
 70
   128
 43
0.0
 10
129.7596586215
 20
150.7917278314
 10
129.7667981404
 20
150.7929012978
 10
129.744730452
 20
150.8641875217
 10
129.7116200718
 20
150.972482642
 10
129.6773427444
 20
151.1034082023
 10
129.6373564097
 20
151.281657988
 10
129.5913956406
 20
151.518470967
 10
129.5395191106
 20
151.8241391851
 10
129.4817845615
 20
152.2072785402
 10
129.4189258757
 20
152.6681751812
 10
129.3596714082
 20
153.1369758405
 10
129.3067015055
 20
153.578334498
 10
129.2459252569
 20
154.1037289526
 10
129.1964850667
 20
154.5404419112
 10
129.1564745176
 20
154.896434312
 10
129.1089575085
 20
155.3184476898
 10
129.0499787125
 20
155.8350093065
 10
128.9794547762
 20
156.4315791575
 10
128.9189229998
 20
156.9164338389
 10
128.8530044536
 20
157.4070317538
 10
128.7908326181
 20
157.8259383196
 10
128.7342375423
 20
158.163835421
 10
128.6673341225
 20
158.5035462731
 10
128.6100456769
 20
158.7404779957
 10
128.557499526
 20
158.9128555598
 10
128.5004942025
 20
159.0512323992
 10
128.4155003074
 20
159.1829297932
 10
128.3026077132
 20
159.2724131288
 10
128.1620580981
 20
159.3049642498
 10
128.1620580981
 20
159.3049642498
  0
SPLINE
  5
D8
330
1F
100
AcDbEntity
  8
0
  6
Continuous
 62
     7
370
    18
100
AcDbSpline
210
0.0
220
0.0
230
1.0
 70
     8
 71
     3
 72
    35
 73
    31
 74
     0
 42
0.000000001
 43
0.00000001
 40
0.0
 40
0.0
 40
0.0
 40
0.0
 40
0.013269523643727
 40
0.0418056512195414
 40
0.0716086830955776
 40
0.1051730419637979
 40
0.1424980296337347
 40
0.1835668577953858
 40
0.2283783788423289
 40
0.2751890430995646
 40
0.317281638387154
 40
0.3539557084363819
 40
0.3851831280619299
 40
0.4186218714335526
 40
0.4556146152264536
 40
0.5031269649795957
 40
0.5456862780379048
 40
0.5941732419121988
 40
0.6481537957547784
 40
0.7005222502998566
 40
0.7489184810908583
 40
0.7933501232622057
 40
0.8338581025115643
 40
0.8704446081852855
 40
0.9017980674984053
 40
0.926597454120539
 40
0.9447860189074481
 40
0.9563361430157872
 40
0.9755269166833043
 40
0.9999999999999999
 40
0.9999999999999999
 40
0.9999999999999999
 40
0.9999999999999999
 10
126.760820420354
 20
150.7947862947231
 30
0.0
 10
126.76420967715
 20
150.7943269910453
 30
0.0
 10
126.7748875350229
 20
150.7928799542206
 30
0.0
 10
126.7446692236087
 20
150.8552972351289
 30
0.0
 10
126.7098121573474
 20
150.9720038265903
 30
0.0
 10
126.6658875503432
 20
151.1428311817348
 30
0.0
 10
126.6156440175483
 20
151.3813164578724
 30
0.0
 10
126.5585675129075
 20
151.6983445958542
 30
0.0
 10
126.4961886376338
 20
152.0988700792103
 30
0.0
 10
126.4328602869967
 20
152.5557150705714
 30
0.0
 10
126.3733754698017
 20
153.0220401944391
 30
0.0
 10
126.3211713118292
 20
153.4539216124671
 30
0.0
 10
126.2730137802931
 20
153.8661154309987
 30
0.0
 10
126.2246487193825
 20
154.2898807462599
 30
0.0
 10
126.1685736724008
 20
154.7883289456193
 30
0.0
 10
126.1081394303057
 20
155.3270723464304
 30
0.0
 10
126.0422246894146
 20
155.905195807859
 30
0.0
 10
125.9730968623038
 20
156.4905046514562
 30
0.0
 10
125.8993128370017
 20
157.0762379457252
 30
0.0
 10
125.8253042550811
 20
157.6094971866262
 30
0.0
 10
125.755135574806
 20
158.0540804446297
 30
0.0
 10
125.6894738199909
 20
158.4070574668964
 30
0.0
 10
125.6278692008659
 20
158.6781077118328
 30
0.0
 10
125.570237308688
 20
158.8785772974812
 30
0.0
 10
125.5177638248177
 20
159.0178440397432
 30
0.0
 10
125.4717620493448
 20
159.1085749349586
 30
0.0
 10
125.433552587433
 20
159.1648290014119
 30
0.0
 10
125.3907310621673
 20
159.2132962312369
 30
0.0
 10
125.3070131928419
 20
159.2842264910364
 30
0.0
 10
125.2139235835178
 20
159.2977583711653
 30
0.0
 10
125.1617479416424
 20
159.3053428323811
 30
0.0
  0
SPLINE
  5
D9
330
1F
100
AcDbEntity
  8
0
  6
Continuous
 62
     7
370
    18
100
AcDbSpline
210
0.0
220
0.0
230
1.0
 70
     8
 71
     3
 72
    16
 73
    12
 74
     0
 42
0.000000001
 43
0.00000001
 40
0.0
 40
0.0
 40
0.0
 40
0.0
 40
0.096483399899788
 40
0.1864369335764696
 40
0.3456726987800849
 40
0.4414862419724547
 40
0.5546756094198969
 40
0.6893651134277481
 40
0.8044569853973613
 40
0.9314934408127948
 40
1.0
 40
1.0
 40
1.0
 40
1.0
 10
141.6583382802897
 20
150.3069273995107
 30
0.0
 10
141.7105517870584
 20
150.3143553154862
 30
0.0
 10
141.8114450609618
 20
150.3287084361141
 30
0.0
 10
141.9549294735602
 20
150.4587289809618
 30
0.0
 10
142.0432235415581
 20
150.6431886237254
 30
0.0
 10
142.1060397612748
 20
150.8480257749133
 30
0.0
 10
142.1645728145566
 20
151.0844981288562
 30
0.0
 10
142.2245998852267
 20
151.3860388784495
 30
0.0
 10
142.2864397109513
 20
151.7518188566024
 30
0.0
 10
142.3371432710988
 20
152.0841969538988
 30
0.0
 10
142.3689607492284
 20
152.3222139798925
 30
0.0
 10
142.3801076876813
 20
152.4056008884554
 30
0.0
  0
SPLINE
  5
DA
330
1F
100
AcDbEntity
  8
0
  6
Continuous
 62
     7
370
    18
100
AcDbSpline
210
0.0
220
0.0
230
1.0
 70
     8
 71
     3
 72
    12
 73
     8
 74
     0
 42
0.000000001
 43
0.00000001
 40
0.0
 40
0.0
 40
0.0
 40
0.0
 40
0.096988996646461
 40
0.3650554464739245
 40
0.6073335498007569
 40
0.8237534175975386
 40
1.0
 40
1.0
 40
1.0
 40
1.0
 10
142.9546238201552
 20
157.2056008836126
 30
0.0
 10
142.9616207069317
 20
157.2578274320117
 30
0.0
 10
142.9879561853307
 20
157.4544021631965
 30
0.0
 10
143.0315821838631
 20
157.7413081405978
 30
0.0
 10
143.0835350441632
 20
158.053799784221
 30
0.0
 10
143.1286646205457
 20
158.2936348611287
 30
0.0
 10
143.1561606012721
 20
158.4158398927235
 30
0.0
 10
143.1685020494157
 20
158.4706910753494
 30
0.0
  0
SPLINE
  5
DB
330
1F
100
AcDbEntity
  8
0
  6
Continuous
 62
     7
370
    18
100
AcDbSpline
210
0.0
220
0.0
230
1.0
 70
     8
 71
     3
 72
    16
 73
    12
 74
     0
 42
0.000000001
 43
0.00000001
 40
0.0
 40
0.0
 40
0.0
 40
0.0
 40
0.1200521980138242
 40
0.223183272673248
 40
0.3108380800275457
 40
0.3974024102890765
 40
0.5251703422129027
 40
0.6671709463700503
 40
0.8234567043417932
 40
0.9494853546824368
 40
1.0
 40
1.0
 40
1.0
 40
1.0
 10
144.6613022404605
 20
150.3063350783532
 30
0.0
 10
144.7284079566151
 20
150.3201911124853
 30
0.0
 10
144.8531609690069
 20
150.345950199741
 30
0.0
 10
144.9676620545981
 20
150.4904799875352
 30
0.0
 10
145.0299870125281
 20
150.620084388647
 30
0.0
 10
145.0850212217549
 20
150.7763448175056
 30
0.0
 10
145.1484016481987
 20
151.0113906067097
 30
0.0
 10
145.2198898586571
 20
151.3564149734606
 30
0.0
 10
145.2895826448149
 20
151.7697367806777
 30
0.0
 10
145.3435573080549
 20
152.1299629505248
 30
0.0
 10
145.3721343952555
 20
152.3442784233137
 30
0.0
 10
145.3803112077409
 20
152.4056008884554
 30
0.0
  0
SPLINE
  5
DC
330
1F
100
AcDbEntity
  8
0
  6
Continuous
 62
     7
370
    18
100
AcDbSpline
210
0.0
220
0.0
230
1.0
 70
     8
 71
     3
 72
    11
 73
     7
 74
     0
 42
0.000000001
 43
0.00000001
 40
0.0
 40
0.0
 40
0.0
 40
0.0
 40
0.2452094176235735
 40
0.5527869147911773
 40
0.8396887631138226
 40
1.0
 40
1.0
 40
1.0
 40
1.0
 10
145.9546839165383
 20
157.2056008836126
 30
0.0
 10
145.972655316948
 20
157.3357852182985
 30
0.0
 10
146.0131690748748
 20
157.6292657763561
 30
0.0
 10
146.0735600266059
 20
157.9999592762686
 30
0.0
 10
146.127054745419
 20
158.2933205464794
 30
0.0
 10
146.1568510898953
 20
158.4210878579354
 30
0.0
 10
146.1675321030312
 20
158.4668882524466
 30
0.0
  0
SPLINE
  5
DD
330
1F
100
AcDbEntity
  8
0
  6
Continuous
 62
     7
370
    18
100
AcDbSpline
210
0.0
220
0.0
230
1.0
 70
     8
 71
     3
 72
    13
 73
     9
 74
     0
 42
0.000000001
 43
0.00000001
 40
0.0
 40
0.0
 40
0.0
 40
0.0
 40
0.1279903471707813
 40
0.2919200560949643
 40
0.4696282465183161
 40
0.6373148086511394
 40
0.9445602340354722
 40
1.0
 40
1.0
 40
1.0
 40
1.0
 10
147.6611965614253
 20
150.3059369379526
 30
0.0
 10
147.7196046990286
 20
150.3176218802023
 30
0.0
 10
147.8528218297143
 20
150.3442728665649
 30
0.0
 10
147.9453162611355
 20
150.466114643394
 30
0.0
 10
148.034126682178
 20
150.6340386733509
 30
0.0
 10
148.1330958549963
 20
150.9424097582913
 30
0.0
 10
148.2029776707699
 20
151.2483717658171
 30
0.0
 10
148.2467971559588
 20
151.5264342340818
 30
0.0
 10
148.253495367139
 20
151.5689386388158
 30
0.0
  0
SPLINE
  5
DE
330
1F
100
AcDbEntity
  8
0
  6
Continuous
 62
     7
370
    18
100
AcDbSpline
210
0.0
220
0.0
230
1.0
 70
     8
 71
     3
 72
    18
 73
    14
 74
     0
 42
0.000000001
 43
0.00000001
 40
0.0
 40
0.0
 40
0.0
 40
0.0
 40
0.0831757723804467
 40
0.1631636418376934
 40
0.2400307107207485
 40
0.3137826141629169
 40
0.4515639735254755
 40
0.5762288361422907
 40
0.6875831697975487
 40
0.7855965139648876
 40
0.8791593336686833
 40
0.9356373495439558
 40
1.0
 40
1.0
 40
1.0
 40
1.0
 10
150.1884707528048
 20
154.6121237288799
 30
0.0
 10
150.1665614037346
 20
154.8072504544857
 30
0.0
 10
150.1235824318262
 20
155.1900252248127
 30
0.0
 10
150.0602976468158
 20
155.7479243412143
 30
0.0
 10
149.9994991135489
 20
156.2683525838954
 30
0.0
 10
149.9234814871505
 20
156.8911460627124
 30
0.0
 10
149.8345045531465
 20
157.5592395157044
 30
0.0
 10
149.7348427176921
 20
158.1812220971839
 30
0.0
 10
149.643156550755
 20
158.6286112665164
 30
0.0
 10
149.5552845485172
 20
158.935095600819
 30
0.0
 10
149.4735301702565
 20
159.1234123592445
 30
0.0
 10
149.3323487277026
 20
159.2744685310572
 30
0.0
 10
149.2212067481154
 20
159.2938676574548
 30
0.0
 10
149.1620098519021
 20
159.304200099582
 30
0.0
  0
SPLINE
  5
DF
330
1F
100
AcDbEntity
  8
0
  6
Continuous
 62
     7
370
    18
100
AcDbSpline
210
0.0
220
0.0
230
1.0
 70
     8
 71
     3
 72
    35
 73
    31
 74
     0
 42
0.000000001
 43
0.00000001
 40
0.0
 40
0.0
 40
0.0
 40
0.0
 40
0.0146613545359962
 40
0.055539368193099
 40
0.0870345574990808
 40
0.1124315382749451
 40
0.1412272836053674
 40
0.1739004093175038
 40
0.2104777773543371
 40
0.2509791178962575
 40
0.2949214831326136
 40
0.3362686934831192
 40
0.3731916461019199
 40
0.415533085146248
 40
0.4499794308357079
 40
0.4778541041693962
 40
0.5109414611028346
 40
0.5519642227169662
 40
0.6009764815971176
 40
0.6430365178945637
 40
0.6887755959461747
 40
0.7317589441149808
 40
0.7706796614945669
 40
0.8162558847445933
 40
0.854588098385823
 40
0.8873830848581711
 40
0.914910079240143
 40
0.9457204047478429
 40
0.9745155673031947
 40
1.0
 40
1.0
 40
1.0
 40
1.0
 10
147.7567446696454
 20
150.7948333265131
 30
0.0
 10
147.7599968539263
 20
150.7949281669203
 30
0.0
 10
147.7723166064953
 20
150.795287436337
 30
0.0
 10
147.7423217631332
 20
150.8643349006806
 30
0.0
 10
147.7085976923777
 20
150.980214901996
 30
0.0
 10
147.6678000174977
 20
151.1385334432434
 30
0.0
 10
147.6278012385015
 20
151.3229899627068
 30
0.0
 10
147.5815095779658
 20
151.5674716624178
 30
0.0
 10
147.5295450954093
 20
151.8810259182791
 30
0.0
 10
147.4719513551407
 20
152.2699668572307
 30
0.0
 10
147.4119197357387
 20
152.7162332840032
 30
0.0
 10
147.3535092540198
 20
153.1832435325673
 30
0.0
 10
147.2958083727126
 20
153.6682418367957
 30
0.0
 10
147.2413793788244
 20
154.1422440953081
 30
0.0
 10
147.1913024252718
 20
154.5863425149143
 30
0.0
 10
147.1456492017237
 20
154.9931172829554
 30
0.0
 10
147.0968233781265
 20
155.4268399247065
 30
0.0
 10
147.0377987514259
 20
155.9432072280679
 30
0.0
 10
146.9744049127625
 20
156.4780567860372
 30
0.0
 10
146.9087544239237
 20
157.001088653968
 30
0.0
 10
146.8459182529688
 20
157.465175116899
 30
0.0
 10
146.784338745789
 20
157.8749862193837
 30
0.0
 10
146.722434624222
 20
158.2371723504972
 30
0.0
 10
146.662315181019
 20
158.5360877298321
 30
0.0
 10
146.6036652388134
 20
158.770879191339
 30
0.0
 10
146.5534615109222
 20
158.9321488102282
 30
0.0
 10
146.4929853473805
 20
159.0767116976027
 30
0.0
 10
146.4190680961228
 20
159.1874043973516
 30
0.0
 10
146.3175997989295
 20
159.2807889566761
 30
0.0
 10
146.2117417135644
 20
159.2968993297524
 30
0.0
 10
146.1620410251313
 20
159.3044631982093
 30
0.0
  0
LWPOLYLINE
  5
E0
330
1F
100
AcDbEntity
  8
0
  6
Continuous
 62
     7
370
    18
100
AcDbPolyline
 90
       27
 70
   128
 43
0.0
 10
144.7657724189
 20
150.7900458628
 10
144.7682329732
 20
150.7896966169
 10
144.7598380315
 20
150.8220875503
 10
144.7346550691
 20
150.8931740055
 10
144.6662028598
 20
151.1480341533
 10
144.5769653934
 20
151.598772859
 10
144.5252769905
 20
151.9144576842
 10
144.4691759813
 20
152.2962736299
 10
144.4133562314
 20
152.7109163681
 10
144.3630312848
 20
153.1096171921
 10
144.3045777547
 20
153.5963855086
 10
144.2560986894
 20
154.0147177393
 10
144.2171358782
 20
154.3573930203
 10
144.1738517302
 20
154.7417521679
 10
144.1201032418
 20
155.2197520605
 10
144.0558326709
 20
155.7842470457
 10
144.000685336
 20
156.2550127374
 10
143.9395477342
 20
156.7545235257
 10
143.8741185981
 20
157.2547146452
 10
143.8108743447
 20
157.6957573516
 10
143.750193091
 20
158.0719704607
 10
143.6917321104
 20
158.3850080015
 10
143.5797331202
 20
158.8412890078
 10
143.4503668266
 20
159.1363068538
 10
143.3340967911
 20
159.2531608285
 10
143.1624596286
 20
159.3048636669
 10
143.1624596286
 20
159.3048636669
  0
SPLINE
  5
E1
330
1F
100
AcDbEntity
  8
0
  6
Continuous
 62
     7
370
    18
100
AcDbSpline
210
0.0
220
0.0
230
1.0
 70
     8
 71
     3
 72
    10
 73
     6
 74
     0
 42
0.000000001
 43
0.00000001
 40
0.0
 40
0.0
 40
0.0
 40
0.0
 40
0.1474575635685366
 40
0.5259334701113216
 40
1.0
 40
1.0
 40
1.0
 40
1.0
 10
141.7675377148086
 20
150.7813012095039
 30
0.0
 10
141.7686079782595
 20
150.7818646624063
 30
0.0
 10
141.7724252620738
 20
150.7838743167978
 30
0.0
 10
141.7534722539267
 20
150.8319601264392
 30
0.0
 10
141.7277557730376
 20
150.9180417232077
 30
0.0
 10
141.7134558129006
 20
150.9659084359055
 30
0.0
  0
SPLINE
  5
E2
330
1F
100
AcDbEntity
  8
0
  6
Continuous
 62
     7
370
    18
100
AcDbSpline
210
0.0
220
0.0
230
1.0
 70
     8
 71
     3
 72
    18
 73
    14
 74
     0
 42
0.000000001
 43
0.00000001
 40
0.0
 40
0.0
 40
0.0
 40
0.0
 40
0.3044866471259816
 40
0.5547080756179861
 40
0.7489934683088252
 40
0.9329604404818431
 40
0.9589866667917802
 40
0.9774899963383098
 40
0.9842731214704913
 40
0.9898184573735349
 40
0.9923284557028917
 40
0.9947917437386748
 40
1.0
 40
1.0
 40
1.0
 40
1.0
 10
141.2315727489882
 20
150.8474837856238
 30
0.0
 10
141.258279468913
 20
150.7615711347448
 30
0.0
 10
141.3069332714865
 20
150.6050570751294
 30
0.0
 10
141.3890952895761
 20
150.4583831618602
 30
0.0
 10
141.4764161664437
 20
150.3682306399767
 30
0.0
 10
141.541898801392
 20
150.329466852935
 30
0.0
 10
141.6078486968027
 20
150.3131465225033
 30
0.0
 10
141.6270864924603
 20
150.3097445127424
 30
0.0
 10
141.6423618354465
 20
150.3079484894911
 30
0.0
 10
141.6511801373747
 20
150.3072305045964
 30
0.0
 10
141.6577984780823
 20
150.306895385784
 30
0.0
 10
141.6642200776438
 20
150.3066905646026
 30
0.0
 10
141.6684029258136
 20
150.3067395461229
 30
0.0
 10
141.6712426858836
 20
150.3067727999633
 30
0.0
  0
SPLINE
  5
E3
330
1F
100
AcDbEntity
  8
0
  6
Continuous
 62
     7
370
    18
100
AcDbSpline
210
0.0
220
0.0
230
1.0
 70
     8
 71
     3
 72
    28
 73
    24
 74
     0
 42
0.000000001
 43
0.00000001
 40
0.0
 40
0.0
 40
0.0
 40
0.0
 40
0.0265889923570326
 40
0.0686296433567747
 40
0.1089093545820719
 40
0.1472721528455308
 40
0.1835734680373365
 40
0.2177627827814921
 40
0.2503996123964017
 40
0.3114520839220287
 40
0.3668741456089213
 40
0.4166365070171454
 40
0.4657630382464616
 40
0.5202306321281364
 40
0.5800299337372037
 40
0.6435529250401092
 40
0.7072946156817492
 40
0.7711424658787077
 40
0.8363269196553881
 40
0.8723354709598781
 40
0.9115021952786408
 40
0.9540671344891086
 40
1.0
 40
1.0
 40
1.0
 40
1.0
 10
143.0874229687148
 20
158.8113074058538
 30
0.0
 10
143.0860974222778
 20
158.8068112423056
 30
0.0
 10
143.0826760147269
 20
158.7952060601068
 30
0.0
 10
143.1193481933638
 20
158.6855159230424
 30
0.0
 10
143.1600261173505
 20
158.5135085009161
 30
0.0
 10
143.2088213155355
 20
158.2857560207362
 30
0.0
 10
143.2582705399989
 20
158.0185164434736
 30
0.0
 10
143.3075108937297
 20
157.7182916492462
 30
0.0
 10
143.36861319533
 20
157.3065641629499
 30
0.0
 10
143.4401409305453
 20
156.7692763346635
 30
0.0
 10
143.5200575172529
 20
156.1116754511224
 30
0.0
 10
143.5943624505983
 20
155.467128069181
 30
0.0
 10
143.6681457779366
 20
154.8109236630381
 30
0.0
 10
143.7467766218202
 20
154.1100849007981
 30
0.0
 10
143.8324594451762
 20
153.3666665231441
 30
0.0
 10
143.9226723169394
 20
152.63390348396
 30
0.0
 10
144.0149672340179
 20
151.9602366325616
 30
0.0
 10
144.1101165939628
 20
151.3787443463321
 30
0.0
 10
144.1895703166539
 20
150.9932890283874
 30
0.0
 10
144.2746466388005
 20
150.7037242917517
 30
0.0
 10
144.3673848153248
 20
150.503052403731
 30
0.0
 10
144.4986721673003
 20
150.3410592239089
 30
0.0
 10
144.6133439271836
 20
150.3182037630444
 30
0.0
 10
144.6728618162566
 20
150.3063411319499
 30
0.0
  0
LWPOLYLINE
  5
E4
330
1F
100
AcDbEntity
  8
0
  6
Continuous
 62
     7
370
    18
100
AcDbPolyline
 90
       30
 70
   128
 43
0.0
 10
146.0620784479
 20
158.8328433091
 10
146.0603536385
 20
158.8335054794
 10
146.0696202981
 20
158.8022791648
 10
146.094302209
 20
158.7343717793
 10
146.1255071032
 20
158.6330699602
 10
146.1633094865
 20
158.4862511473
 10
146.2076776939
 20
158.282786967
 10
146.2584869283
 20
158.0114596391
 10
146.3156254309
 20
157.6611319424
 10
146.3789944815
 20
157.223184021
 10
146.4421940314
 20
156.7432766415
 10
146.4991742092
 20
156.2810405258
 10
146.5653744805
 20
155.7176776796
 10
146.6203076112
 20
155.2357644933
 10
146.6638935077
 20
154.8486538195
 10
146.7059222328
 20
154.4747144899
 10
146.7593335825
 20
154.0032360454
 10
146.8242504912
 20
153.4439486086
 10
146.8805396276
 20
152.9788781291
 10
146.9433033186
 20
152.489768002
 10
147.005277248
 20
152.0446132736
 10
147.0618346053
 20
151.6774128059
 10
147.1288823801
 20
151.2980364596
 10
147.1864474284
 20
151.025630893
 10
147.2405479568
 20
150.8165405931
 10
147.3046825546
 20
150.6302066946
 10
147.4042986798
 20
150.4495673681
 10
147.5287811178
 20
150.3409402313
 10
147.6727263349
 20
150.3059332127
 10
147.6727263349
 20
150.3059332127
  0
SPLINE
  5
E5
330
1F
100
AcDbEntity
  8
0
  6
Continuous
 62
     7
370
    18
100
AcDbSpline
210
0.0
220
0.0
230
1.0
 70
     8
 71
     3
 72
    18
 73
    14
 74
     0
 42
0.000000001
 43
0.00000001
 40
0.0
 40
0.0
 40
0.0
 40
0.0
 40
0.0050677697164196
 40
0.0589732858855413
 40
0.1085344246033156
 40
0.2184674002501051
 40
0.3440293443928917
 40
0.4850109260804208
 40
0.6413470967846285
 40
0.7253505751223296
 40
0.8131096127917379
 40
0.9046332720444464
 40
1.0
 40
1.0
 40
1.0
 40
1.0
 10
149.0685981976682
 20
158.8222271630412
 30
0.0
 10
149.0677907937834
 20
158.8224055949449
 30
0.0
 10
149.0583950905871
 20
158.824481994675
 30
0.0
 10
149.0737909335844
 20
158.7985311089128
 30
0.0
 10
149.1109310053446
 20
158.6917058257558
 30
0.0
 10
149.1688065486282
 20
158.4807334312835
 30
0.0
 10
149.2501986851188
 20
158.0770937109039
 30
0.0
 10
149.3449749700961
 20
157.4851211167613
 30
0.0
 10
149.4310839314518
 20
156.8397445060243
 30
0.0
 10
149.5050584249807
 20
156.2352362440223
 30
0.0
 10
149.5645607797061
 20
155.7271698034025
 30
0.0
 10
149.6266894005039
 20
155.1804427895046
 30
0.0
 10
149.6689488442165
 20
154.8040630849293
 30
0.0
 10
149.6905130612546
 20
154.6120034427486
 30
0.0
  0
SPLINE
  5
E6
330
1F
100
AcDbEntity
  8
0
  6
Continuous
 62
     7
370
    18
100
AcDbSpline
210
0.0
220
0.0
230
1.0
 70
     8
 71
     3
 72
    12
 73
     8
 74
     0
 42
0.000000001
 43
0.00000001
 40
0.0
 40
0.0
 40
0.0
 40
0.0
 40
0.1900348356056412
 40
0.3569018591616598
 40
0.6319228169333915
 40
0.9302059507091347
 40
1.0
 40
1.0
 40
1.0
 40
1.0
 10
149.1735582518273
 20
159.304209878469
 30
0.0
 10
149.1159028805212
 20
159.2942711226047
 30
0.0
 10
149.0076211060548
 20
159.2756052793953
 30
0.0
 10
148.8676819072539
 20
159.131967628198
 30
0.0
 10
148.7839083194428
 20
158.9412023331469
 30
0.0
 10
148.7223730233424
 20
158.7515376324836
 30
0.0
 10
148.6889399015305
 20
158.5868320561292
 30
0.0
 10
148.6826003807479
 20
158.5556009186303
 30
0.0
  0
SPLINE
  5
E7
330
1F
100
AcDbEntity
  8
0
  6
Continuous
 62
     7
370
    18
100
AcDbSpline
210
0.0
220
0.0
230
1.0
 70
     8
 71
     3
 72
    12
 73
     8
 74
     0
 42
0.000000001
 43
0.00000001
 40
0.0
 40
0.0
 40
0.0
 40
0.0
 40
0.1981618881646665
 40
0.4714361919071138
 40
0.7285853511205179
 40
0.9694809328304983
 40
1.0
 40
1.0
 40
1.0
 40
1.0
 10
147.8807633089715
 20
152.4056008884554
 30
0.0
 10
147.8663238605725
 20
152.3005780845843
 30
0.0
 10
147.8319717526597
 20
152.0507240325314
 30
0.0
 10
147.7794417841074
 20
151.7158020028777
 30
0.0
 10
147.7249302606834
 20
151.4090898700866
 30
0.0
 10
147.6879081710467
 20
151.2217885274013
 30
0.0
 10
147.6700615716697
 20
151.1506426814576
 30
0.0
 10
147.6680548208648
 20
151.1426427269226
 30
0.0
  0
SPLINE
  5
E8
330
1F
100
AcDbEntity
  8
0
  6
Continuous
 62
     7
370
    18
100
AcDbSpline
210
0.0
220
0.0
230
1.0
 70
     8
 71
     3
 72
    18
 73
    14
 74
     0
 42
0.000000001
 43
0.00000001
 40
0.0
 40
0.0
 40
0.0
 40
0.0
 40
0.0731928835638602
 40
0.1302742682318581
 40
0.1661465425109362
 40
0.2250981573994076
 40
0.3069791205955515
 40
0.4115456474350532
 40
0.5319172939045381
 40
0.6612769158996433
 40
0.7996111492249395
 40
0.946877303608081
 40
1.0
 40
1.0
 40
1.0
 40
1.0
 10
146.1735912877017
 20
159.3044841529673
 30
0.0
 10
146.1213251795568
 20
159.2967099397164
 30
0.0
 10
146.0282979799117
 20
159.2828728029207
 30
0.0
 10
145.9429591769305
 20
159.2104408119033
 30
0.0
 10
145.8993881596198
 20
159.1607134961454
 30
0.0
 10
145.8586158346814
 20
159.0996753436447
 30
0.0
 10
145.8082867252216
 20
158.9965555001746
 30
0.0
 10
145.7503917845848
 20
158.8333900467631
 30
0.0
 10
145.6871814151333
 20
158.595039306851
 30
0.0
 10
145.6209043208603
 20
158.2791932222148
 30
0.0
 10
145.5519833692087
 20
157.8796084525011
 30
0.0
 10
145.4965133312103
 20
157.5175857062923
 30
0.0
 10
145.4640299338471
 20
157.2709765053517
 30
0.0
 10
145.4554186480933
 20
157.2056008836126
 30
0.0
  0
SPLINE
  5
E9
330
1F
100
AcDbEntity
  8
0
  6
Continuous
 62
     7
370
    18
100
AcDbSpline
210
0.0
220
0.0
230
1.0
 70
     8
 71
     3
 72
    11
 73
     7
 74
     0
 42
0.000000001
 43
0.00000001
 40
0.0
 40
0.0
 40
0.0
 40
0.0
 40
0.2628192448135128
 40
0.5311854373937785
 40
0.7806068918918291
 40
1.0
 40
1.0
 40
1.0
 40
1.0
 10
144.8812675940686
 20
152.4056008884554
 30
0.0
 10
144.8621398521475
 20
152.2692441456314
 30
0.0
 10
144.8234806665696
 20
151.9936527743452
 30
0.0
 10
144.7672657315761
 20
151.6451876202803
 30
0.0
 10
144.7148368901901
 20
151.3549854773185
 30
0.0
 10
144.6827866537997
 20
151.2099872992373
 30
0.0
 10
144.6677879708701
 20
151.1421318964904
 30
0.0
  0
SPLINE
  5
EA
330
1F
100
AcDbEntity
  8
0
  6
Continuous
 62
     7
370
    18
100
AcDbSpline
210
0.0
220
0.0
230
1.0
 70
     8
 71
     3
 72
    16
 73
    12
 74
     0
 42
0.000000001
 43
0.00000001
 40
0.0
 40
0.0
 40
0.0
 40
0.0
 40
0.0829280359492932
 40
0.1917989577622879
 40
0.3165130022404092
 40
0.4183973991220246
 40
0.5225090565230169
 40
0.6388078640217975
 40
0.7757439186218547
 40
0.8919456694432257
 40
1.0
 40
1.0
 40
1.0
 40
1.0
 10
143.1740192043477
 20
159.3048734458035
 30
0.0
 10
143.1222280362327
 20
159.2960831070294
 30
0.0
 10
143.0024435513833
 20
159.2757524939148
 30
0.0
 10
142.8951964368907
 20
159.1600491400581
 30
0.0
 10
142.8085650801439
 20
159.0060291457893
 30
0.0
 10
142.7401765110062
 20
158.8034959978534
 30
0.0
 10
142.6865402977716
 20
158.5941874570189
 30
0.0
 10
142.6274683616113
 20
158.3152011292352
 30
0.0
 10
142.5672446009025
 20
157.9734989072999
 30
0.0
 10
142.5086396532682
 20
157.5974215481161
 30
0.0
 10
142.4723616907173
 20
157.333005617502
 30
0.0
 10
142.454881714552
 20
157.2056008836126
 30
0.0
  0
SPLINE
  5
EB
330
1F
100
AcDbEntity
  8
0
  6
Continuous
 62
     7
370
    18
100
AcDbSpline
210
0.0
220
0.0
230
1.0
 70
     8
 71
     3
 72
    12
 73
     8
 74
     0
 42
0.000000001
 43
0.00000001
 40
0.0
 40
0.0
 40
0.0
 40
0.0
 40
0.0020977232010403
 40
0.2972723462129712
 40
0.5652158953209743
 40
0.8058283839077267
 40
1.0
 40
1.0
 40
1.0
 40
1.0
 10
141.8814515042001
 20
152.4056008884554
 30
0.0
 10
141.8813006278269
 20
152.4044547222182
 30
0.0
 10
141.8599196499136
 20
152.2420293239028
 30
0.0
 10
141.8195095270633
 20
151.9708935889839
 30
0.0
 10
141.7623184052291
 20
151.615676187301
 30
0.0
 10
141.7126963750581
 20
151.3461284148373
 30
0.0
 10
141.6825865859768
 20
151.2108443570961
 30
0.0
 10
141.6691397595101
 20
151.1504274194931
 30
0.0
  0
LINE
  5
EC
330
1F
100
AcDbEntity
  8
0
  6
Continuous
 62
     7
370
    18
100
AcDbLine
 10
170.9534940588
 20
156.8862778468
 30
0.0
 11
170.3534950781
 21
156.8862778468
 31
0.0
  0
LINE
  5
ED
330
1F
100
AcDbEntity
  8
0
  6
Continuous
 62
     7
370
    18
100
AcDbLine
 10
170.9534940588
 20
151.3056008944
 30
0.0
 11
170.9534940588
 21
156.8862778468
 31
0.0
  0
LINE
  5
EE
330
1F
100
AcDbEntity
  8
0
  6
Continuous
 62
     7
370
    18
100
AcDbLine
 10
170.3534950781
 20
151.3056008944
 30
0.0
 11
170.3534950781
 21
156.8862778468
 31
0.0
  0
LINE
  5
EF
330
1F
100
AcDbEntity
  8
0
  6
Continuous
 62
     7
370
    18
100
AcDbLine
 10
170.9534940588
 20
156.9673820732
 30
0.0
 11
170.9534940588
 21
156.8862778468
 31
0.0
  0
LINE
  5
F0
330
1F
100
AcDbEntity
  8
0
  6
Continuous
 62
     7
370
    18
100
AcDbLine
 10
170.3534950781
 20
156.8862778468
 30
0.0
 11
170.3534950781
 21
156.9673820732
 31
0.0
  0
LINE
  5
F1
330
1F
100
AcDbEntity
  8
0
  6
Continuous
 62
     7
370
    18
100
AcDbLine
 10
170.9534940588
 20
157.5934038365
 30
0.0
 11
170.3534950781
 21
157.5934038365
 31
0.0
  0
LINE
  5
F2
330
1F
100
AcDbEntity
  8
0
  6
Continuous
 62
     7
370
    18
100
AcDbLine
 10
170.9534940588
 20
157.0056009905
 30
0.0
 11
170.9534940588
 21
157.5934038365
 31
0.0
  0
LINE
  5
F3
330
1F
100
AcDbEntity
  8
0
  6
Continuous
 62
     7
370
    18
100
AcDbLine
 10
170.3534950781
 20
156.9673820732
 30
0.0
 11
170.3534950781
 21
157.5934038365
 31
0.0
  0
LINE
  5
F4
330
1F
100
AcDbEntity
  8
0
  6
Continuous
 62
     7
370
    18
100
AcDbLine
 10
170.9534940588
 20
157.7408065887
 30
0.0
 11
170.9534940588
 21
157.5934038365
 31
0.0
  0
LINE
  5
F5
330
1F
100
AcDbEntity
  8
0
  6
Continuous
 62
     7
370
    18
100
AcDbLine
 10
170.3534950781
 20
157.5934038365
 30
0.0
 11
170.3534950781
 21
157.7408065887
 31
0.0
  0
LINE
  5
F6
330
1F
100
AcDbEntity
  8
0
  6
Continuous
 62
     7
370
    18
100
AcDbLine
 10
124.2534946929
 20
160.5056010986
 30
0.0
 11
124.2534946929
 21
149.1056009063
 31
0.0
  0
SPLINE
  5
F7
330
1F
100
AcDbEntity
  8
0
  6
Continuous
 62
     7
370
    18
100
AcDbSpline
210
0.0
220
0.0
230
1.0
 70
     8
 71
     3
 72
    14
 73
    10
 74
     0
 42
0.000000001
 43
0.00000001
 40
0.0
 40
0.0
 40
0.0
 40
0.0
 40
0.1250000000000001
 40
0.1250000000000001
 40
0.2500000000000002
 40
0.2500000000000002
 40
0.4999999999999999
 40
0.4999999999999999
 40
1.0
 40
1.0
 40
1.0
 40
1.0
 10
122.2534946667843
 20
149.3854994871483
 30
0.0
 10
122.2534946667843
 20
149.336742774307
 30
0.0
 10
122.2615268972383
 20
149.2939914320081
 30
0.0
 10
122.282797108452
 20
149.2161197204231
 30
0.0
 10
122.2963461140207
 20
149.181592621808
 30
0.0
 10
122.3397788951941
 20
149.088897472734
 30
0.0
 10
122.3723806983733
 20
149.0412226298009
 30
0.0
 10
122.4637543623069
 20
148.9263294287914
 30
0.0
 10
122.5163961871565
 20
148.8857323337198
 30
0.0
 10
122.5534946667845
 20
148.8596997271942
 30
0.0
  0
LINE
  5
F8
330
1F
100
AcDbEntity
  8
0
  6
Continuous
 62
     7
370
    18
100
AcDbLine
 10
122.2534947143
 20
149.3854996616
 30
0.0
 11
122.2534947143
 21
160.5056010986
 31
0.0
  0
LINE
  5
F9
330
1F
100
AcDbEntity
  8
0
  6
Continuous
 62
     7
370
    18
100
AcDbLine
 10
128.2534948829
 20
158.0529109442
 30
0.0
 11
128.2534948829
 21
151.3556010423
 31
0.0
  0
LINE
  5
FA
330
1F
100
AcDbEntity
  8
0
  6
Continuous
 62
     7
370
    18
100
AcDbLine
 10
118.2534946407
 20
151.7840119878
 30
0.0
 11
118.2534946407
 21
153.7556009235
 31
0.0
  0
SPLINE
  5
FB
330
1F
100
AcDbEntity
  8
0
  6
Continuous
 62
     7
370
    18
100
AcDbSpline
210
0.0
220
0.0
230
1.0
 70
     8
 71
     3
 72
    12
 73
     8
 74
     0
 42
0.000000001
 43
0.00000001
 40
0.0
 40
0.0
 40
0.0
 40
0.0
 40
0.25
 40
0.25
 40
0.5
 40
0.5
 40
1.0
 40
1.0
 40
1.0
 40
1.0
 10
117.9534946667844
 20
151.3357306476336
 30
0.0
 10
118.003647389209
 20
151.3357306476336
 30
0.0
 10
118.0519061122912
 20
151.354473089678
 30
0.0
 10
118.1319087675934
 20
151.4148696428503
 30
0.0
 10
118.1630092047811
 20
151.4548438074484
 30
0.0
 10
118.233970380511
 20
151.5843995499185
 30
0.0
 10
118.2534946667843
 20
151.6851303289519
 30
0.0
 10
118.2534946667843
 20
151.7840119762655
 30
0.0
  0
LINE
  5
FC
330
1F
100
AcDbEntity
  8
0
  6
Continuous
 62
     7
370
    18
100
AcDbLine
 10
116.5534947346
 20
151.3357305767
 30
0.0
 11
117.9534946847
 21
151.3357305767
 31
0.0
  0
SPLINE
  5
FD
330
1F
100
AcDbEntity
  8
0
  6
Continuous
 62
     7
370
    18
100
AcDbSpline
210
0.0
220
0.0
230
1.0
 70
     8
 71
     3
 72
    12
 73
     8
 74
     0
 42
0.000000001
 43
0.00000001
 40
0.0
 40
0.0
 40
0.0
 40
0.0
 40
0.500000000000002
 40
0.500000000000002
 40
0.750000000000001
 40
0.750000000000001
 40
1.0
 40
1.0
 40
1.0
 40
1.0
 10
116.2534946667843
 20
151.7840119762655
 30
0.0
 10
116.2534946667843
 20
151.684902269816
 30
0.0
 10
116.2725892057503
 20
151.5854811088679
 30
0.0
 10
116.3437358131915
 20
151.455142813602
 30
0.0
 10
116.3749292907342
 20
151.4150749814509
 30
0.0
 10
116.4545855694286
 20
151.3547583860024
 30
0.0
 10
116.5033620470682
 20
151.3357306476336
 30
0.0
 10
116.5534946667844
 20
151.3357306476336
 30
0.0
  0
LINE
  5
FE
330
1F
100
AcDbEntity
  8
0
  6
Continuous
 62
     7
370
    18
100
AcDbLine
 10
116.2534947785
 20
151.7840119878
 30
0.0
 11
116.2534947785
 21
157.8271900171
 31
0.0
  0
SPLINE
  5
FF
330
1F
100
AcDbEntity
  8
0
  6
Continuous
 62
     7
370
    18
100
AcDbSpline
210
0.0
220
0.0
230
1.0
 70
     8
 71
     3
 72
    12
 73
     8
 74
     0
 42
0.000000001
 43
0.00000001
 40
0.0
 40
0.0
 40
0.0
 40
0.0
 40
0.25
 40
0.25
 40
0.5
 40
0.5
 40
1.0
 40
1.0
 40
1.0
 40
1.0
 10
116.5534946667844
 20
158.2754712767934
 30
0.0
 10
116.5040491875058
 20
158.2754712767934
 30
0.0
 10
116.4547438423767
 20
158.2564791951791
 30
0.0
 10
116.3753727584892
 20
158.1965462947337
 30
0.0
 10
116.3442027270264
 20
158.1568145639443
 30
0.0
 10
116.2722653532488
 20
158.0253260978588
 30
0.0
 10
116.2534946667844
 20
157.9253990817982
 30
0.0
 10
116.2534946667844
 20
157.8271899481608
 30
0.0
  0
LINE
  5
100
330
1F
100
AcDbEntity
  8
0
  6
Continuous
 62
     7
370
    18
100
AcDbLine
 10
117.9534946847
 20
158.2754711954
 30
0.0
 11
116.5534947346
 21
158.2754711954
 31
0.0
  0
SPLINE
  5
101
330
1F
100
AcDbEntity
  8
0
  6
Continuous
 62
     7
370
    18
100
AcDbSpline
210
0.0
220
0.0
230
1.0
 70
     8
 71
     3
 72
    12
 73
     8
 74
     0
 42
0.000000001
 43
0.00000001
 40
0.0
 40
0.0
 40
0.0
 40
0.0
 40
0.4999999999999984
 40
0.4999999999999984
 40
0.7499999999999992
 40
0.7499999999999992
 40
1.0
 40
1.0
 40
1.0
 40
1.0
 10
118.2534946667844
 20
157.8271899481608
 30
0.0
 10
118.2534946667844
 20
157.9257872106514
 30
0.0
 10
118.234115458195
 20
158.0266227905942
 30
0.0
 10
118.1628040175321
 20
158.1566899696056
 30
0.0
 10
118.1314116510474
 20
158.1967459335324
 30
0.0
 10
118.052126798278
 20
158.256523735021
 30
0.0
 10
118.0029634311478
 20
158.2754712767951
 30
0.0
 10
117.9534946667757
 20
158.2754712767931
 30
0.0
  0
LINE
  5
102
330
1F
100
AcDbEntity
  8
0
  6
Continuous
 62
     7
370
    18
100
AcDbLine
 10
118.2534946407
 20
155.855600965
 30
0.0
 11
118.2534946407
 21
157.8271900171
 31
0.0
  0
LINE
  5
103
330
1F
100
AcDbEntity
  8
0
  6
Continuous
 62
     7
370
    18
100
AcDbLine
 10
122.2534947143
 20
155.855600965
 30
0.0
 11
118.2534946407
 21
155.855600965
 31
0.0
  0
LINE
  5
104
330
1F
100
AcDbEntity
  8
0
  6
Continuous
 62
     7
370
    18
100
AcDbLine
 10
118.2534946407
 20
153.7556009235
 30
0.0
 11
122.2534947143
 21
153.7556009235
 31
0.0
  0
SPLINE
  5
105
330
1F
100
AcDbEntity
  8
0
  6
Continuous
 62
     7
370
    18
100
AcDbSpline
210
0.0
220
0.0
230
1.0
 70
     8
 71
     3
 72
    14
 73
    10
 74
     0
 42
0.000000001
 43
0.00000001
 40
0.0
 40
0.0
 40
0.0
 40
0.0
 40
0.2499999999999999
 40
0.2499999999999999
 40
0.4999999999999999
 40
0.4999999999999999
 40
0.7499999999999998
 40
0.7499999999999998
 40
1.0
 40
1.0
 40
1.0
 40
1.0
 10
121.7453314014782
 20
151.3901102444711
 30
0.0
 10
121.7875746008411
 20
151.3716590285819
 30
0.0
 10
121.84257621955
 20
151.3595231590771
 30
0.0
 10
121.9626195447355
 20
151.3507275336888
 30
0.0
 10
122.0260132408673
 20
151.354348088676
 30
0.0
 10
122.1347161207144
 20
151.3763547458902
 30
0.0
 10
122.179670228841
 20
151.3947169071885
 30
0.0
 10
122.2386663430762
 20
151.4403108008258
 30
0.0
 10
122.2534946667843
 20
151.4676328676913
 30
0.0
 10
122.2534946667843
 20
151.4965225406583
 30
0.0
  0
SPLINE
  5
106
330
1F
100
AcDbEntity
  8
0
  6
Continuous
 62
     7
370
    18
100
AcDbSpline
210
0.0
220
0.0
230
1.0
 70
     8
 71
     3
 72
    20
 73
    16
 74
     0
 42
0.000000001
 43
0.00000001
 40
0.0
 40
0.0
 40
0.0
 40
0.0
 40
0.1250000000000001
 40
0.1250000000000001
 40
0.2500000000000001
 40
0.2500000000000001
 40
0.3750000000000002
 40
0.3750000000000002
 40
0.5000000000000002
 40
0.5000000000000002
 40
0.6250000000000001
 40
0.6250000000000001
 40
0.7500000000000001
 40
0.7500000000000001
 40
1.0
 40
1.0
 40
1.0
 40
1.0
 10
121.7453314014782
 20
151.3901102444711
 30
0.0
 10
121.6489121104111
 20
151.432224790296
 30
0.0
 10
121.5428704774638
 20
151.4752371983508
 30
0.0
 10
121.3165626343378
 20
151.5561477278796
 30
0.0
 10
121.1973557353583
 20
151.5937367419986
 30
0.0
 10
120.9455539567976
 20
151.6585159437845
 30
0.0
 10
120.8110352710107
 20
151.6859181449616
 30
0.0
 10
120.5369849535844
 20
151.7230799002245
 30
0.0
 10
120.3976076216837
 20
151.7330401271412
 30
0.0
 10
120.1137874750799
 20
151.7332436195751
 30
0.0
 10
119.9730476724175
 20
151.7233451404194
 30
0.0
 10
119.6996408936518
 20
151.6865619377146
 30
0.0
 10
119.5648361110581
 20
151.6593000032897
 30
0.0
 10
119.184171436202
 20
151.5616390878299
 30
0.0
 10
118.9547272496196
 20
151.47444011799
 30
0.0
 10
118.7616579320905
 20
151.3901102444711
 30
0.0
  0
SPLINE
  5
107
330
1F
100
AcDbEntity
  8
0
  6
Continuous
 62
     7
370
    18
100
AcDbSpline
210
0.0
220
0.0
230
1.0
 70
     8
 71
     3
 72
    14
 73
    10
 74
     0
 42
0.000000001
 43
0.00000001
 40
0.0
 40
0.0
 40
0.0
 40
0.0
 40
0.25
 40
0.25
 40
0.5
 40
0.5
 40
0.75
 40
0.75
 40
1.0
 40
1.0
 40
1.0
 40
1.0
 10
118.2534946667843
 20
151.4965225406583
 30
0.0
 10
118.2534946667843
 20
151.4676125485879
 30
0.0
 10
118.268313878719
 20
151.440407598974
 30
0.0
 10
118.3268213125873
 20
151.3950126321995
 30
0.0
 10
118.3711721598208
 20
151.3766645948193
 30
0.0
 10
118.4805162827725
 20
151.3543554643302
 30
0.0
 10
118.5431984517708
 20
151.3507162441805
 30
0.0
 10
118.663939655501
 20
151.3594149424887
 30
0.0
 10
118.7193302331964
 20
151.3716221204141
 30
0.0
 10
118.7616579320905
 20
151.3901102444711
 30
0.0
  0
LINE
  5
108
330
1F
100
AcDbEntity
  8
0
  6
Continuous
 62
     7
370
    18
100
AcDbLine
 10
118.2534946407
 20
159.5056009346
 30
0.0
 11
118.2534946407
 21
157.8271900171
 31
0.0
  0
LINE
  5
109
330
1F
100
AcDbEntity
  8
0
  6
Continuous
 62
     7
370
    18
100
AcDbLine
 10
116.2534947785
 20
157.8271900171
 30
0.0
 11
116.2534947785
 21
159.5056009346
 31
0.0
  0
SPLINE
  5
10A
330
1F
100
AcDbEntity
  8
0
  6
Continuous
 62
     7
370
    18
100
AcDbSpline
210
0.0
220
0.0
230
1.0
 70
     8
 71
     3
 72
    14
 73
    10
 74
     0
 42
0.000000001
 43
0.00000001
 40
0.0
 40
0.0
 40
0.0
 40
0.0
 40
0.4999999999999996
 40
0.4999999999999996
 40
0.7499999999999998
 40
0.7499999999999998
 40
0.8749999999999999
 40
0.8749999999999999
 40
1.0
 40
1.0
 40
1.0
 40
1.0
 10
117.9534946667844
 20
149.8694205019291
 30
0.0
 10
117.9916651211937
 20
149.9010784237843
 30
0.0
 10
118.0466542662912
 20
149.9505345323443
 30
0.0
 10
118.1392639125426
 20
150.0824168290346
 30
0.0
 10
118.1716920689513
 20
150.1362958814184
 30
0.0
 10
118.2135269161509
 20
150.2368379954668
 30
0.0
 10
118.2263678860816
 20
150.273844924662
 30
0.0
 10
118.2461746475821
 20
150.3554243727142
 30
0.0
 10
118.2534946667843
 20
150.4000573941539
 30
0.0
 10
118.2534946667843
 20
150.4492837102215
 30
0.0
  0
LINE
  5
10B
330
1F
100
AcDbEntity
  8
0
  6
Continuous
 62
     7
370
    18
100
AcDbLine
 10
117.9534946847
 20
149.8694204593
 30
0.0
 11
117.9534946847
 21
151.3357305767
 31
0.0
  0
LINE
  5
10C
330
1F
100
AcDbEntity
  8
0
  6
Continuous
 62
     7
370
    18
100
AcDbLine
 10
118.2534946407
 20
151.7840119878
 30
0.0
 11
118.2534946407
 21
150.4492837803
 31
0.0
  0
LINE
  5
10D
330
1F
100
AcDbEntity
  8
0
  6
Continuous
 62
     7
370
    18
100
AcDbLine
 10
116.2534947785
 20
150.1056010702
 30
0.0
 11
116.2534947785
 21
151.7840119878
 31
0.0
  0
LINE
  5
10E
330
1F
100
AcDbEntity
  8
0
  6
Continuous
 62
     7
370
    18
100
AcDbLine
 10
112.7534942048
 20
158.0056009216
 30
0.0
 11
112.7534942048
 21
151.6056008505
 31
0.0
  0
LINE
  5
10F
330
1F
100
AcDbEntity
  8
0
  6
Continuous
 62
     7
370
    18
100
AcDbLine
 10
110.7534948083
 20
154.8056009624
 30
0.0
 11
110.7534948083
 21
158.0056009216
 31
0.0
  0
LINE
  5
110
330
1F
100
AcDbEntity
  8
0
  6
Continuous
 62
     7
370
    18
100
AcDbLine
 10
110.7534948083
 20
151.6056008505
 30
0.0
 11
110.7534948083
 21
154.8056009624
 31
0.0
  0
LINE
  5
111
330
1F
100
AcDbEntity
  8
0
  6
Continuous
 62
     7
370
    18
100
AcDbLine
 10
171.7534964251
 20
152.4056008885
 30
0.0
 11
171.2534954118
 21
152.4056008885
 31
0.0
  0
LINE
  5
112
330
1F
100
AcDbEntity
  8
0
  6
Continuous
 62
     7
370
    18
100
AcDbLine
 10
171.2534954118
 20
157.2056008836
 30
0.0
 11
171.2534954118
 21
152.4056008885
 31
0.0
  0
LINE
  5
113
330
1F
100
AcDbEntity
  8
0
  6
Continuous
 62
     7
370
    18
100
AcDbLine
 10
171.7534964251
 20
157.2056008836
 30
0.0
 11
171.2534954118
 21
157.2056008836
 31
0.0
  0
LINE
  5
114
330
1F
100
AcDbEntity
  8
0
  6
Continuous
 62
     7
370
    18
100
AcDbLine
 10
171.7534964251
 20
152.4056008885
 30
0.0
 11
171.7534964251
 21
157.2056008836
 31
0.0
  0
LINE
  5
115
330
1F
100
AcDbEntity
  8
0
  6
Continuous
 62
     7
370
    18
100
AcDbLine
 10
117.7534945588
 20
143.0056010241
 30
0.0
 11
122.7534946798
 21
143.0056010241
 31
0.0
  0
LINE
  5
116
330
1F
100
AcDbEntity
  8
0
  6
Continuous
 62
     7
370
    18
100
AcDbLine
 10
118.2534946407
 20
140.5056006143
 30
0.0
 11
122.2534947143
 21
140.5056006143
 31
0.0
  0
SPLINE
  5
117
330
1F
100
AcDbEntity
  8
0
  6
Continuous
 62
     7
370
    18
100
AcDbSpline
210
0.0
220
0.0
230
1.0
 70
    24
 71
     3
 72
    13
 73
     9
 74
     0
 42
0.000000001
 43
0.00000001
 40
0.0
 40
0.0
 40
0.0
 40
0.0
 40
0.538068181219387
 40
0.808451762972017
 40
0.8895237193162239
 40
0.9426022550266905
 40
0.9829554280466071
 40
0.9999999999999999
 40
0.9999999999999999
 40
0.9999999999999999
 40
0.9999999999999999
 10
171.0299109387093
 20
152.4056008884554
 30
0.0
 10
171.0347886288104
 20
152.4056008884554
 30
0.0
 10
171.0421173973552
 20
152.4056008884554
 30
0.0
 10
171.1087819923868
 20
152.4056008884554
 30
0.0
 10
171.1706265805535
 20
152.4056008884554
 30
0.0
 10
171.2066869739124
 20
152.4056008884554
 30
0.0
 10
171.234199971384
 20
152.4056008884554
 30
0.0
 10
171.2490774606442
 20
152.4056008884554
 30
0.0
 10
171.2534954118424
 20
152.4056008884554
 30
0.0
  0
SPLINE
  5
118
330
1F
100
AcDbEntity
  8
0
  6
Continuous
 62
     7
370
    18
100
AcDbSpline
210
0.0
220
0.0
230
1.0
 70
    24
 71
     3
 72
    14
 73
    10
 74
     0
 42
0.000000001
 43
0.00000001
 40
0.0
 40
0.0
 40
0.0
 40
0.0
 40
0.125
 40
0.125
 40
0.2500000000000001
 40
0.2500000000000001
 40
0.5000000000000001
 40
0.5000000000000001
 40
1.0
 40
1.0
 40
1.0
 40
1.0
 10
171.2534946667877
 20
157.2056009622131
 30
0.0
 10
171.2202226841789
 20
157.2056009622131
 30
0.0
 10
171.1907387686505
 20
157.2056009622131
 30
0.0
 10
171.1471535830777
 20
157.2056009622131
 30
0.0
 10
171.1307921532119
 20
157.2056009622131
 30
0.0
 10
171.0903612249581
 20
157.2056009622131
 30
0.0
 10
171.0740151402909
 20
157.2056009622131
 30
0.0
 10
171.0376485801696
 20
157.2056009622131
 30
0.0
 10
171.0298860989879
 20
157.2056009622131
 30
0.0
 10
171.0298878692815
 20
157.2056009622131
 30
0.0
  0
LINE
  5
119
330
1F
100
AcDbEntity
  8
0
  6
Continuous
 62
     7
370
    18
100
AcDbLine
 10
170.9534940588
 20
156.9673820732
 30
0.0
 11
170.9534940588
 21
157.0056009905
 31
0.0
  0
LINE
  5
11A
330
1F
100
AcDbEntity
  8
0
  6
Continuous
 62
     7
370
    18
100
AcDbLine
 10
117.7534945588
 20
145.5056005025
 30
0.0
 11
122.7534946798
 21
145.5056005025
 31
0.0
  0
SPLINE
  5
11B
330
1F
100
AcDbEntity
  8
0
  6
Continuous
 62
     7
370
    18
100
AcDbSpline
210
0.0
220
0.0
230
1.0
 70
    24
 71
     3
 72
     9
 73
     5
 74
     0
 42
0.000000001
 43
0.00000001
 40
0.0
 40
0.0
 40
0.0
 40
0.0
 40
0.6607276282071889
 40
1.0
 40
1.0
 40
1.0
 40
1.0
 10
171.7534964251214
 20
152.4056008884554
 30
0.0
 10
171.795042618492
 20
152.4056008884554
 30
0.0
 10
171.8579220738031
 20
152.4056008884554
 30
0.0
 10
171.8367026778679
 20
152.4056008884554
 30
0.0
 10
171.8295035230809
 20
152.4056008884554
 30
0.0
  0
SPLINE
  5
11C
330
1F
100
AcDbEntity
  8
0
  6
Continuous
 62
     7
370
    18
100
AcDbSpline
210
0.0
220
0.0
230
1.0
 70
    24
 71
     3
 72
     9
 73
     5
 74
     0
 42
0.000000001
 43
0.00000001
 40
0.0
 40
0.0
 40
0.0
 40
0.0
 40
0.339272371792811
 40
1.0
 40
1.0
 40
1.0
 40
1.0
 10
171.8295035230809
 20
157.2056008836126
 30
0.0
 10
171.8367026778679
 20
157.2056008836126
 30
0.0
 10
171.8579220738031
 20
157.2056008836126
 30
0.0
 10
171.795042618492
 20
157.2056008836126
 30
0.0
 10
171.7534964251214
 20
157.2056008836126
 30
0.0
  0
LINE
  5
11D
330
1F
100
AcDbEntity
  8
0
  6
Continuous
 62
     7
370
    18
100
AcDbLine
 10
172.2534937131
 20
156.8056008646
 30
0.0
 11
172.2534937131
 21
152.8056009075
 31
0.0
  0
LINE
  5
11E
330
1F
100
AcDbEntity
  8
0
  6
Continuous
 62
     7
370
    18
100
AcDbLine
 10
148.2534953671
 20
152.4056008885
 30
0.0
 11
147.4546497035
 21
152.4056008885
 31
0.0
  0
LINE
  5
11F
330
1F
100
AcDbEntity
  8
0
  6
Continuous
 62
     7
370
    18
100
AcDbLine
 10
146.9550212192
 20
152.4056008885
 30
0.0
 11
144.4544573593
 21
152.4056008885
 31
0.0
  0
LINE
  5
120
330
1F
100
AcDbEntity
  8
0
  6
Continuous
 62
     7
370
    18
100
AcDbLine
 10
143.955983715
 20
152.4056008885
 30
0.0
 11
141.4546077418
 21
152.4056008885
 31
0.0
  0
LINE
  5
121
330
1F
100
AcDbEntity
  8
0
  6
Continuous
 62
     7
370
    18
100
AcDbLine
 10
140.9550332743
 20
152.4056008885
 30
0.0
 11
138.4547059703
 21
152.4056008885
 31
0.0
  0
LINE
  5
122
330
1F
100
AcDbEntity
  8
0
  6
Continuous
 62
     7
370
    18
100
AcDbLine
 10
137.9548856336
 20
152.4056008885
 30
0.0
 11
135.4544773045
 21
152.4056008885
 31
0.0
  0
LINE
  5
123
330
1F
100
AcDbEntity
  8
0
  6
Continuous
 62
     7
370
    18
100
AcDbLine
 10
134.9558928328
 20
152.4056008885
 30
0.0
 11
132.4545764643
 21
152.4056008885
 31
0.0
  0
LINE
  5
124
330
1F
100
AcDbEntity
  8
0
  6
Continuous
 62
     7
370
    18
100
AcDbLine
 10
131.9555756914
 20
152.4056008885
 30
0.0
 11
129.45473616
 21
152.4056008885
 31
0.0
  0
LINE
  5
125
330
1F
100
AcDbEntity
  8
0
  6
Continuous
 62
     7
370
    18
100
AcDbLine
 10
128.954711398
 20
152.4056008885
 30
0.0
 11
128.2534948829
 21
152.4056008885
 31
0.0
  0
LINE
  5
126
330
1F
100
AcDbEntity
  8
0
  6
Continuous
 62
     7
370
    18
100
AcDbLine
 10
148.2534953671
 20
157.2056008836
 30
0.0
 11
146.8800590652
 21
157.2056008836
 31
0.0
  0
LINE
  5
127
330
1F
100
AcDbEntity
  8
0
  6
Continuous
 62
     7
370
    18
100
AcDbLine
 10
146.3813097495
 20
157.2056008836
 30
0.0
 11
143.8805428612
 21
157.2056008836
 31
0.0
  0
LINE
  5
128
330
1F
100
AcDbEntity
  8
0
  6
Continuous
 62
     7
370
    18
100
AcDbLine
 10
143.3802363741
 20
157.2056008836
 30
0.0
 11
140.8799835759
 21
157.2056008836
 31
0.0
  0
LINE
  5
129
330
1F
100
AcDbEntity
  8
0
  6
Continuous
 62
     7
370
    18
100
AcDbLine
 10
140.3809287864
 20
157.2056008836
 30
0.0
 11
137.8800501394
 21
157.2056008836
 31
0.0
  0
LINE
  5
12A
330
1F
100
AcDbEntity
  8
0
  6
Continuous
 62
     7
370
    18
100
AcDbLine
 10
137.381298961
 20
157.2056008836
 30
0.0
 11
134.8806848097
 21
157.2056008836
 31
0.0
  0
LINE
  5
12B
330
1F
100
AcDbEntity
  8
0
  6
Continuous
 62
     7
370
    18
100
AcDbLine
 10
134.3802907782
 20
157.2056008836
 30
0.0
 11
131.8802950251
 21
157.2056008836
 31
0.0
  0
LINE
  5
12C
330
1F
100
AcDbEntity
  8
0
  6
Continuous
 62
     7
370
    18
100
AcDbLine
 10
131.3810530397
 20
157.2056008836
 30
0.0
 11
128.8800696189
 21
157.2056008836
 31
0.0
  0
LINE
  5
12D
330
1F
100
AcDbEntity
  8
0
  6
Continuous
 62
     7
370
    18
100
AcDbLine
 10
128.3810995798
 20
157.2056008836
 30
0.0
 11
128.2534948829
 21
157.2056008836
 31
0.0
  0
SPLINE
  5
12E
330
1F
100
AcDbEntity
  8
0
  6
Continuous
 62
     7
370
    18
100
AcDbSpline
210
0.0
220
0.0
230
1.0
 70
     8
 71
     3
 72
    14
 73
    10
 74
     0
 42
0.000000001
 43
0.00000001
 40
0.0
 40
0.0
 40
0.0
 40
0.0
 40
0.25
 40
0.25
 40
0.5
 40
0.5
 40
0.75
 40
0.75
 40
1.0
 40
1.0
 40
1.0
 40
1.0
 10
118.7616579320905
 20
150.4492837102215
 30
0.0
 10
118.7616579320905
 20
150.329412486517
 30
0.0
 10
118.7350692278662
 20
150.2119598682168
 30
0.0
 10
118.6557765255932
 20
150.0049375810112
 30
0.0
 10
118.6022537493055
 20
149.91387748555
 30
0.0
 10
118.4904661708522
 20
149.7665091369922
 30
0.0
 10
118.4311252358622
 20
149.7085044228253
 30
0.0
 10
118.3240905939028
 20
149.6225779479769
 30
0.0
 10
118.2748760890303
 20
149.5931601782387
 30
0.0
 10
118.2351273198456
 20
149.5732496743121
 30
0.0
  0
LINE
  5
12F
330
1F
100
AcDbEntity
  8
0
  6
Continuous
 62
     7
370
    18
100
AcDbLine
 10
118.7616579979
 20
151.390110269
 30
0.0
 11
118.7616579979
 21
150.4492837803
 31
0.0
  0
LINE
  5
130
330
1F
100
AcDbEntity
  8
0
  6
Continuous
 62
     7
370
    18
100
AcDbLine
 10
121.7453314153
 20
149.3854996616
 30
0.0
 11
121.7453314153
 21
151.390110269
 31
0.0
  0
SPLINE
  5
131
330
1F
100
AcDbEntity
  8
0
  6
Continuous
 62
     7
370
    18
100
AcDbSpline
210
0.0
220
0.0
230
1.0
 70
     8
 71
     3
 72
    14
 73
    10
 74
     0
 42
0.000000001
 43
0.00000001
 40
0.0
 40
0.0
 40
0.0
 40
0.0
 40
0.25
 40
0.25
 40
0.5
 40
0.5
 40
0.75
 40
0.75
 40
1.0
 40
1.0
 40
1.0
 40
1.0
 10
122.2718620137233
 20
148.5624046654432
 30
0.0
 10
122.2326277580255
 20
148.5788754349053
 30
0.0
 10
122.1855979625483
 20
148.6029743136166
 30
0.0
 10
122.0788272059734
 20
148.6793165604035
 30
0.0
 10
122.020957318139
 20
148.7303557609917
 30
0.0
 10
121.907553019765
 20
148.8681184494848
 30
0.0
 10
121.8534375283334
 20
148.9537286811165
 30
0.0
 10
121.7720547131844
 20
149.1545112301792
 30
0.0
 10
121.7453314014782
 20
149.2680963496198
 30
0.0
 10
121.7453314014782
 20
149.3854994871483
 30
0.0
  0
LINE
  5
132
330
1F
100
AcDbEntity
  8
0
  6
Continuous
 62
     7
370
    18
100
AcDbLine
 10
118.7616579979
 20
150.4492837803
 30
0.0
 11
118.2534946407
 21
150.4492837803
 31
0.0
  0
LINE
  5
133
330
1F
100
AcDbEntity
  8
0
  6
Continuous
 62
     7
370
    18
100
AcDbLine
 10
122.2534947143
 20
149.3854996616
 30
0.0
 11
121.7453314153
 21
149.3854996616
 31
0.0
  0
ARC
  5
134
330
1F
100
AcDbEntity
  8
0
  6
Continuous
 62
     7
370
    18
100
AcDbCircle
 10
122.5782323147
 20
148.5542200059
 30
0.0
 40
0.3064795967280372
100
AcDbArc
 50
94.6296920782
 51
178.4697075775
  0
ARC
  5
135
330
1F
100
AcDbEntity
  8
0
  6
Continuous
 62
     7
370
    18
100
AcDbCircle
 10
117.9261373209
 20
149.5614165264
 30
0.0
 40
0.3092165067226675
100
AcDbArc
 50
2.1931326852
 51
84.9242243901
  0
LINE
  5
136
330
1F
100
AcDbEntity
  8
0
  6
Continuous
 62
     7
370
    18
100
AcDbLine
 10
151.9534946698
 20
162.8056009168
 30
0.0
 11
151.9534946698
 21
146.8056010881
 31
0.0
  0
LINE
  5
137
330
1F
100
AcDbEntity
  8
0
  6
Continuous
 62
     7
370
    18
100
AcDbLine
 10
150.5534951853
 20
162.8056009168
 30
0.0
 11
150.5534951853
 21
146.8056010881
 31
0.0
  0
LINE
  5
138
330
1F
100
AcDbEntity
  8
0
  6
Continuous
 62
     7
370
    18
100
AcDbLine
 10
150.2534938323
 20
162.5056009607
 30
0.0
 11
150.2534938323
 21
147.1056010442
 31
0.0
  0
LINE
  5
139
330
1F
100
AcDbEntity
  8
0
  6
Continuous
 62
     7
370
    18
100
AcDbLine
 10
152.2534941601
 20
162.5056009607
 30
0.0
 11
152.2534941601
 21
147.1056010442
 31
0.0
  0
LINE
  5
13A
330
1F
100
AcDbEntity
  8
0
  6
Continuous
 62
     7
370
    18
100
AcDbLine
 10
170.2534933853
 20
159.8056008907
 30
0.0
 11
170.2534933853
 21
149.8056011142
 31
0.0
  0
LINE
  5
13B
330
1F
100
AcDbEntity
  8
0
  6
Continuous
 62
     7
370
    18
100
AcDbLine
 10
169.253495084
 20
160.8056010546
 30
0.0
 11
169.253495084
 21
148.8056009503
 31
0.0
  0
LINE
  5
13C
330
1F
100
AcDbEntity
  8
0
  6
Continuous
 62
     7
370
    18
100
AcDbLine
 10
148.5534948575
 20
158.5556009186
 30
0.0
 11
148.5534948575
 21
151.0556008534
 31
0.0
  0
LINE
  5
13D
330
1F
100
AcDbEntity
  8
0
  6
Continuous
 62
     7
370
    18
100
AcDbLine
 10
148.2534953671
 20
158.2556009626
 30
0.0
 11
148.2534953671
 21
151.3556010423
 31
0.0
  0
SPLINE
  5
13E
330
1F
100
AcDbEntity
  8
0
  6
Continuous
 62
     7
370
    18
100
AcDbSpline
210
0.0
220
0.0
230
1.0
 70
     8
 71
     3
 72
    31
 73
    27
 74
     0
 42
0.000000001
 43
0.00000001
 40
0.0
 40
0.0
 40
0.0
 40
0.0
 40
0.0201684929723627
 40
0.0643090702225917
 40
0.1084741756371805
 40
0.1526495968870599
 40
0.1968051285862908
 40
0.2409441276459943
 40
0.2851051337211183
 40
0.3292811259847978
 40
0.3734410909043313
 40
0.4175799213077794
 40
0.4617365717970986
 40
0.5059122125303472
 40
0.5500763545814337
 40
0.5942163957776885
 40
0.6383685985238703
 40
0.6825430231513825
 40
0.7267109109365248
 40
0.7708534265594078
 40
0.8150013752491349
 40
0.8591737266483919
 40
0.9033447768622825
 40
0.9474907566949156
 40
0.9916348890364194
 40
1.0
 40
1.0
 40
1.0
 40
1.0
 10
134.1665298956328
 20
159.2944002577906
 30
0.0
 10
134.1766011856999
 20
159.2971603357764
 30
0.0
 10
134.2087144080929
 20
159.3059610949235
 30
0.0
 10
134.262915414051
 20
159.2271743134618
 30
0.0
 10
134.3290447799207
 20
159.0641666761671
 30
0.0
 10
134.395167642791
 20
158.8159465910668
 30
0.0
 10
134.4613133863671
 20
158.4931675642174
 30
0.0
 10
134.5274953555457
 20
158.097968081324
 30
0.0
 10
134.5936321633595
 20
157.6391272539991
 30
0.0
 10
134.6597540919245
 20
157.1268266447751
 30
0.0
 10
134.7258926742577
 20
156.5706560753281
 30
0.0
 10
134.7920744408322
 20
155.9801188057996
 30
0.0
 10
134.8582205361775
 20
155.3667620656746
 30
0.0
 10
134.9243402028515
 20
154.7428786454554
 30
0.0
 10
134.9904751347257
 20
154.1201373546255
 30
0.0
 10
135.0566520791982
 20
153.5104918431988
 30
0.0
 10
135.1228068067601
 20
152.9262918622898
 30
0.0
 10
135.188927366376
 20
152.3777921625177
 30
0.0
 10
135.2550574596504
 20
151.8750417076145
 30
0.0
 10
135.3212292292274
 20
151.4283837120879
 30
0.0
 10
135.3873917456277
 20
151.0480152686568
 30
0.0
 10
135.4535162777833
 20
150.7397018592884
 30
0.0
 10
135.5196409294267
 20
150.5060044187263
 30
0.0
 10
135.5858054140005
 20
150.3618046942516
 30
0.0
 10
135.6340950939679
 20
150.2996876659628
 30
0.0
 10
135.6603056899682
 20
150.3113133419195
 30
0.0
 10
135.6644812318378
 20
150.3131653981154
 30
0.0
  0
SPLINE
  5
13F
330
1F
100
AcDbEntity
  8
0
  6
Continuous
 62
     7
370
    18
100
AcDbSpline
210
0.0
220
0.0
230
1.0
 70
     8
 71
     3
 72
    12
 73
     8
 74
     0
 42
0.000000001
 43
0.00000001
 40
0.0
 40
0.0
 40
0.0
 40
0.0
 40
0.2123976074552264
 40
0.4241477669726395
 40
0.6504112172089915
 40
0.8615470195267456
 40
1.0
 40
1.0
 40
1.0
 40
1.0
 10
149.9394537228042
 20
154.600679302389
 30
0.0
 10
149.9672512267256
 20
154.6008155027709
 30
0.0
 10
150.0227614999202
 20
154.6010874883575
 30
0.0
 10
150.0983956691462
 20
154.6030599807432
 30
0.0
 10
150.1562099943235
 20
154.6059455040234
 30
0.0
 10
150.1860939344915
 20
154.6092141044556
 30
0.0
 10
150.1858578353493
 20
154.611302902329
 30
0.0
 10
150.185764329403
 20
154.6121301608264
 30
0.0
  0
SPLINE
  5
140
330
1F
100
AcDbEntity
  8
0
  6
Continuous
 62
     7
370
    18
100
AcDbSpline
210
0.0
220
0.0
230
1.0
 70
     8
 71
     3
 72
    12
 73
     8
 74
     0
 42
0.000000001
 43
0.00000001
 40
0.0
 40
0.0
 40
0.0
 40
0.0
 40
0.2128369676565771
 40
0.4250308530498364
 40
0.6517474655794462
 40
0.8632693321536145
 40
1.0
 40
1.0
 40
1.0
 40
1.0
 10
149.9394537228042
 20
154.600679302389
 30
0.0
 10
149.9116552325051
 20
154.6008159384419
 30
0.0
 10
149.8561422444402
 20
154.601088797705
 30
0.0
 10
149.7805129520392
 20
154.603062544582
 30
0.0
 10
149.7227382827789
 20
154.6059491516166
 30
0.0
 10
149.6929401965669
 20
154.6092064873974
 30
0.0
 10
149.6931688330913
 20
154.6112830512746
 30
0.0
 10
149.6932586002046
 20
154.6120983503397
 30
0.0
  0
LINE
  5
141
330
1F
100
AcDbEntity
  8
0
  6
Continuous
 62
     8
370
    18
100
AcDbLine
 10
123.9534947368
 20
148.8056009503
 30
0.0
 11
123.9534947368
 21
160.8056010546
 31
0.0
  0
SPLINE
  5
142
330
1F
100
AcDbEntity
  8
0
  6
Continuous
 62
     8
370
    18
100
AcDbSpline
210
0.0
220
0.0
230
1.0
 70
     8
 71
     3
 72
    12
 73
     8
 74
     0
 42
0.000000001
 43
0.00000001
 40
0.0
 40
0.0
 40
0.0
 40
0.0
 40
0.2212126936754847
 40
0.4440055747307708
 40
0.6719443980705364
 40
0.901728128859127
 40
1.0
 40
1.0
 40
1.0
 40
1.0
 10
122.5534946703234
 20
148.8596996160095
 30
0.0
 10
122.5738941426672
 20
148.8524892133766
 30
0.0
 10
122.61483880679
 20
148.8380169020824
 30
0.0
 10
122.6592491239993
 20
148.8218829335536
 30
0.0
 10
122.6892465614954
 20
148.8108792103417
 30
0.0
 10
122.7034474988166
 20
148.8056181338132
 30
0.0
 10
122.7020645535303
 20
148.806130570574
 30
0.0
 10
122.7016502804005
 20
148.8062840754037
 30
0.0
  0
LINE
  5
143
330
1F
100
AcDbEntity
  8
0
  6
Continuous
 62
     8
370
    18
100
AcDbLine
 10
122.5534946703
 20
160.8056010546
 30
0.0
 11
122.5534946703
 21
148.859699616
 31
0.0
  0
LINE
  5
144
330
1F
100
AcDbEntity
  8
0
  6
Continuous
 62
     8
370
    18
100
AcDbLine
 10
127.9534944611
 20
151.0556008534
 30
0.0
 11
127.9534944611
 21
158.5556009186
 31
0.0
  0
LINE
  5
145
330
1F
100
AcDbEntity
  8
0
  6
Continuous
 62
     8
370
    18
100
AcDbLine
 10
117.9534946847
 20
158.2754711954
 30
0.0
 11
117.9534946847
 21
159.8056008907
 31
0.0
  0
LINE
  5
146
330
1F
100
AcDbEntity
  8
0
  6
Continuous
 62
     8
370
    18
100
AcDbLine
 10
116.5534947346
 20
159.8056008907
 30
0.0
 11
116.5534947346
 21
158.2754711954
 31
0.0
  0
LINE
  5
147
330
1F
100
AcDbEntity
  8
0
  6
Continuous
 62
     8
370
    18
100
AcDbLine
 10
116.5534947346
 20
151.3357305767
 30
0.0
 11
116.5534947346
 21
149.8056011142
 31
0.0
  0
SPLINE
  5
148
330
1F
100
AcDbEntity
  8
0
  6
Continuous
 62
     8
370
    18
100
AcDbSpline
210
0.0
220
0.0
230
1.0
 70
     8
 71
     3
 72
     9
 73
     5
 74
     0
 42
0.000000001
 43
0.00000001
 40
0.0
 40
0.0
 40
0.0
 40
0.0
 40
0.7597089113238417
 40
1.0
 40
1.0
 40
1.0
 40
1.0
 10
117.8173851500147
 20
149.8115839304274
 30
0.0
 10
117.8263731817333
 20
149.8157101800069
 30
0.0
 10
117.8382040706233
 20
149.8211415360409
 30
0.0
 10
117.9311585513053
 20
149.8600670138539
 30
0.0
 10
117.9534946846657
 20
149.8694204592948
 30
0.0
  0
LINE
  5
149
330
1F
100
AcDbEntity
  8
0
  6
Continuous
 62
     8
370
    18
100
AcDbLine
 10
112.4534947145
 20
151.3056008944
 30
0.0
 11
112.4534947145
 21
158.3056008777
 31
0.0
  0
LINE
  5
14A
330
1F
100
AcDbEntity
  8
0
  6
Continuous
 62
     8
370
    18
100
AcDbLine
 10
111.0534942987
 20
154.8056009624
 30
0.0
 11
111.0534942987
 21
151.3056008944
 31
0.0
  0
LINE
  5
14B
330
1F
100
AcDbEntity
  8
0
  6
Continuous
 62
     8
370
    18
100
AcDbLine
 10
111.0534942987
 20
158.3056008777
 30
0.0
 11
111.0534942987
 21
154.8056009624
 31
0.0
  0
SPLINE
  5
14C
330
1F
100
AcDbEntity
  8
0
  6
Continuous
 62
     8
370
    18
100
AcDbSpline
210
0.0
220
0.0
230
1.0
 70
     8
 71
     3
 72
    10
 73
     6
 74
     0
 42
0.000000001
 43
0.00000001
 40
0.0
 40
0.0
 40
0.0
 40
0.0
 40
0.2388506345369688
 40
0.6724754514606304
 40
1.0
 40
1.0
 40
1.0
 40
1.0
 10
118.2351273297214
 20
149.5732496360188
 30
0.0
 10
118.2160931137156
 20
149.5636426388616
 30
0.0
 10
118.1625029567267
 20
149.5365944806559
 30
0.0
 10
118.1112177080593
 20
149.5096594361345
 30
0.0
 10
118.1094876007317
 20
149.5087510725172
 30
0.0
 10
118.1087431310558
 20
149.5083602012938
 30
0.0
  0
SPLINE
  5
14D
330
1F
100
AcDbEntity
  8
0
  6
Continuous
 62
     8
370
    18
100
AcDbSpline
210
0.0
220
0.0
230
1.0
 70
     8
 71
     3
 72
    10
 73
     6
 74
     0
 42
0.000000001
 43
0.00000001
 40
0.0
 40
0.0
 40
0.0
 40
0.0
 40
0.0983221900189204
 40
0.542510949763383
 40
1.0
 40
1.0
 40
1.0
 40
1.0
 10
122.3987703257122
 20
148.507689019466
 30
0.0
 10
122.4002152377509
 20
148.5070495337195
 30
0.0
 10
122.4081878083607
 20
148.5035210523092
 30
0.0
 10
122.3719838994135
 20
148.5197482877657
 30
0.0
 10
122.3055625681897
 20
148.5480467470758
 30
0.0
 10
122.2718620252677
 20
148.5624046863859
 30
0.0
  0
LINE
  5
14E
330
1F
100
AcDbEntity
  8
0
  6
Continuous
 62
     8
370
    18
100
AcDbLine
 10
135.6644812318
 20
150.3131653981
 30
0.0
 11
135.6683397013
 21
150.3145223351
 31
0.0
  0
SPLINE
  5
14F
330
1F
100
AcDbEntity
  8
0
  6
Continuous
 62
     8
370
    18
100
AcDbSpline
210
0.0
220
0.0
230
1.0
 70
     8
 71
     3
 72
    31
 73
    27
 74
     0
 42
0.000000001
 43
0.00000001
 40
0.0
 40
0.0
 40
0.0
 40
0.0
 40
0.0038281871382404
 40
0.0479612538530482
 40
0.0920943121529636
 40
0.1362526606249123
 40
0.1804136371563543
 40
0.2245506505038198
 40
0.2686804743163018
 40
0.3128354843668015
 40
0.356998318384134
 40
0.4011396696685337
 40
0.445267315613246
 40
0.4894184562526469
 40
0.533582297516637
 40
0.5777280886282755
 40
0.6218548688295252
 40
0.6660017661332005
 40
0.7101657041532443
 40
0.7543158140255695
 40
0.7984431171931913
 40
0.8425855717085899
 40
0.8867487288514748
 40
0.9309028277552364
 40
0.9750319941134646
 40
1.0
 40
1.0
 40
1.0
 40
1.0
 10
137.1675734686547
 20
159.3013847114389
 30
0.0
 10
137.1694851269226
 20
159.3025268638468
 30
0.0
 10
137.1934352432974
 20
159.3168362639863
 30
0.0
 10
137.2394568498254
 20
159.263856723378
 30
0.0
 10
137.3056200674272
 20
159.1337975848969
 30
0.0
 10
137.3717478023995
 20
158.9121183976456
 30
0.0
 10
137.4378712949639
 20
158.6154525261669
 30
0.0
 10
137.5040312186756
 20
158.2457098081946
 30
0.0
 10
137.5702070772369
 20
157.8085043869674
 30
0.0
 10
137.636334155846
 20
157.3137197307281
 30
0.0
 10
137.7024571491947
 20
156.7716754219532
 30
0.0
 10
137.7686083993128
 20
156.1923175100586
 30
0.0
 10
137.8347890420021
 20
155.5857424322947
 30
0.0
 10
137.9009213217542
 20
154.9642161045416
 30
0.0
 10
137.9670433685763
 20
154.3397443769333
 30
0.0
 10
138.0331870784228
 20
153.7239993791395
 30
0.0
 10
138.0993685154033
 20
153.1292236324956
 30
0.0
 10
138.1655113957278
 20
152.5671408551582
 30
0.0
 10
138.2316293033683
 20
152.0473854688233
 30
0.0
 10
138.2977672311456
 20
151.5796559922359
 30
0.0
 10
138.3639472612558
 20
151.1741884367548
 30
0.0
 10
138.4300977631613
 20
150.8400743529536
 30
0.0
 10
138.4962167275756
 20
150.5799472178213
 30
0.0
 10
138.5623475402606
 20
150.4035528757649
 30
0.0
 10
138.6189485088058
 20
150.3120971125417
 30
0.0
 10
138.6534622453074
 20
150.3155392992923
 30
0.0
 10
138.66593365547
 20
150.3167831206565
 30
0.0
  0
SPLINE
  5
150
330
1F
100
AcDbEntity
  8
0
  6
Continuous
 62
     8
370
    18
100
AcDbSpline
210
0.0
220
0.0
230
1.0
 70
     8
 71
     3
 72
    27
 73
    23
 74
     0
 42
0.000000001
 43
0.00000001
 40
0.0
 40
0.0
 40
0.0
 40
0.0
 40
0.0379711368236305
 40
0.0885859035961575
 40
0.139212845262971
 40
0.1898659988850348
 40
0.2405130469112146
 40
0.2911308508515842
 40
0.3417528132370471
 40
0.392403243156978
 40
0.443053743626939
 40
0.4936758898126012
 40
0.5442938725520339
 40
0.5949409262539481
 40
0.6455939918598594
 40
0.6962211816710321
 40
0.7468370833703648
 40
0.7974816419093987
 40
0.8481370253976159
 40
0.8987665789667885
 40
0.9493719496715457
 40
1.0
 40
1.0
 40
1.0
 40
1.0
 10
140.1664228456908
 20
159.296362088794
 30
0.0
 10
140.1829523030334
 20
159.2955307203413
 30
0.0
 10
140.221515196777
 20
159.2935911543508
 30
0.0
 10
140.2821717198807
 20
159.1893560123162
 30
0.0
 10
140.3483275942555
 20
159.000227229781
 30
0.0
 10
140.4144501249797
 20
158.7287677440843
 30
0.0
 10
140.4805791999389
 20
158.3840911550877
 30
0.0
 10
140.5467478304762
 20
157.9706624358853
 30
0.0
 10
140.6129129167047
 20
157.4950271963756
 30
0.0
 10
140.6790377388781
 20
156.9682907507795
 30
0.0
 10
140.745162543565
 20
156.4007835437969
 30
0.0
 10
140.8113275583988
 20
155.8027979776176
 30
0.0
 10
140.8774960460428
 20
155.1851751836587
 30
0.0
 10
140.9436252344269
 20
154.5604211810028
 30
0.0
 10
141.0097478106886
 20
153.9403027794328
 30
0.0
 10
141.0759049734652
 20
153.3364905908581
 30
0.0
 10
141.1420792291683
 20
152.7614320102335
 30
0.0
 10
141.2082117552828
 20
152.2259574538859
 30
0.0
 10
141.2743319830318
 20
151.7387641929272
 30
0.0
 10
141.3404773234052
 20
151.3110048693835
 30
0.0
 10
141.4066626841727
 20
150.9458310585865
 30
0.0
 10
141.4507423752621
 20
150.7662605910039
 30
0.0
 10
141.4727871584588
 20
150.6764552423602
 30
0.0
  0
SPLINE
  5
151
330
1F
100
AcDbEntity
  8
0
  6
Continuous
 62
     8
370
    18
100
AcDbSpline
210
0.0
220
0.0
230
1.0
 70
     8
 71
     3
 72
    12
 73
     8
 74
     0
 42
0.000000001
 43
0.00000001
 40
0.0
 40
0.0
 40
0.0
 40
0.0
 40
0.1144305442503802
 40
0.261776409300467
 40
0.4095183653087618
 40
0.7056131404652367
 40
0.9999999999999999
 40
0.9999999999999999
 40
0.9999999999999999
 40
0.9999999999999999
 10
141.2350316810304
 20
150.8520067537075
 30
0.0
 10
141.2366654247211
 20
150.8404519847584
 30
0.0
 10
141.2404028495482
 20
150.8140187807079
 30
0.0
 10
141.2640557925281
 20
150.7776766653574
 30
0.0
 10
141.3053865362513
 20
150.7318289325684
 30
0.0
 10
141.3751362721358
 20
150.6877384482281
 30
0.0
 10
141.4402996894812
 20
150.6802090516128
 30
0.0
 10
141.4727871584588
 20
150.6764552423602
 30
0.0
  0
SPLINE
  5
152
330
1F
100
AcDbEntity
  8
0
  6
Continuous
 62
     8
370
    18
100
AcDbSpline
210
0.0
220
0.0
230
1.0
 70
     8
 71
     3
 72
    14
 73
    10
 74
     0
 42
0.000000001
 43
0.00000001
 40
0.0
 40
0.0
 40
0.0
 40
0.0
 40
0.0158874605158176
 40
0.1977372079267124
 40
0.3795190289049319
 40
0.5613911553405136
 40
0.743324849925191
 40
0.9251927804608102
 40
1.0
 40
1.0
 40
1.0
 40
1.0
 10
140.089501188963
 20
158.7480538392311
 30
0.0
 10
140.0875758669271
 20
158.7464235636314
 30
0.0
 10
140.0636130817259
 20
158.7261329611839
 30
0.0
 10
140.0175923743399
 20
158.6169231454772
 30
0.0
 10
139.951412679994
 20
158.4149525655548
 30
0.0
 10
139.8852767279786
 20
158.1358741185234
 30
0.0
 10
139.8191545492307
 20
157.7932728882657
 30
0.0
 10
139.7659837714707
 20
157.4804958565158
 30
0.0
 10
139.7348491222692
 20
157.2676377533626
 30
0.0
 10
139.7257750200921
 20
157.2056008836126
 30
0.0
  0
SPLINE
  5
153
330
1F
100
AcDbEntity
  8
0
  6
Continuous
 62
     8
370
    18
100
AcDbSpline
210
0.0
220
0.0
230
1.0
 70
     8
 71
     3
 72
    14
 73
    10
 74
     0
 42
0.000000001
 43
0.00000001
 40
0.0
 40
0.0
 40
0.0
 40
0.0
 40
0.0496573842690455
 40
0.2306704400039679
 40
0.411678131801806
 40
0.5925834086413189
 40
0.7734811984604716
 40
0.9544827761139998
 40
1.0
 40
1.0
 40
1.0
 40
1.0
 10
139.1096939611131
 20
152.4056008884554
 30
0.0
 10
139.1036411548858
 20
152.3638383629196
 30
0.0
 10
139.0755244206627
 20
152.1698414320936
 30
0.0
 10
139.0253965468603
 20
151.8704021189455
 30
0.0
 10
138.9592669777676
 20
151.5182724220255
 30
0.0
 10
138.8931019598485
 20
151.230594638863
 30
0.0
 10
138.8269313742676
 20
151.0183253339677
 30
0.0
 10
138.777309034529
 20
150.8967752552969
 30
0.0
 10
138.7497197780724
 20
150.8703977767584
 30
0.0
 10
138.7441759276086
 20
150.8650974238163
 30
0.0
  0
SPLINE
  5
154
330
1F
100
AcDbEntity
  8
0
  6
Continuous
 62
     8
370
    18
100
AcDbSpline
210
0.0
220
0.0
230
1.0
 70
     8
 71
     3
 72
    13
 73
     9
 74
     0
 42
0.000000001
 43
0.00000001
 40
0.0
 40
0.0
 40
0.0
 40
0.0
 40
0.13516343057542
 40
0.3165097768581449
 40
0.497826761820314
 40
0.6792470230542139
 40
0.8606991613532886
 40
1.0
 40
1.0
 40
1.0
 40
1.0
 10
137.090290458768
 20
158.7448528835421
 30
0.0
 10
137.0738672711284
 20
158.7215203465329
 30
0.0
 10
137.0354093877129
 20
158.6668829638408
 30
0.0
 10
136.9748785299893
 20
158.4942305742759
 30
0.0
 10
136.9087034476859
 20
158.2427529433539
 30
0.0
 10
136.8425718713138
 20
157.9213501945675
 30
0.0
 10
136.7815650394554
 20
157.5764472758379
 30
0.0
 10
136.742565531881
 20
157.3178903847431
 30
0.0
 10
136.7256283107096
 20
157.2056008836126
 30
0.0
  0
SPLINE
  5
155
330
1F
100
AcDbEntity
  8
0
  6
Continuous
 62
     8
370
    18
100
AcDbSpline
210
0.0
220
0.0
230
1.0
 70
     8
 71
     3
 72
    13
 73
     9
 74
     0
 42
0.000000001
 43
0.00000001
 40
0.0
 40
0.0
 40
0.0
 40
0.0
 40
0.1675266447388238
 40
0.3482194721160904
 40
0.5288752703042483
 40
0.709429447507708
 40
0.8900199678078274
 40
0.9999999999999999
 40
0.9999999999999999
 40
0.9999999999999999
 40
0.9999999999999999
 10
136.1101842763716
 20
152.4056008884554
 30
0.0
 10
136.0897302742561
 20
152.2719514251268
 30
0.0
 10
136.0472147578115
 20
151.9941487768291
 30
0.0
 10
135.9826908494848
 20
151.6366336211
 30
0.0
 10
135.9165601024882
 20
151.3251115011748
 30
0.0
 10
135.8503842593071
 20
151.0847469716198
 30
0.0
 10
135.7928572163644
 20
150.9285734331257
 30
0.0
 10
135.7574035971336
 20
150.8836321369014
 30
0.0
 10
135.7439845147425
 20
150.8666219988709
 30
0.0
  0
SPLINE
  5
156
330
1F
100
AcDbEntity
  8
0
  6
Continuous
 62
     8
370
    18
100
AcDbSpline
210
0.0
220
0.0
230
1.0
 70
     8
 71
     3
 72
    14
 73
    10
 74
     0
 42
0.000000001
 43
0.00000001
 40
0.0
 40
0.0
 40
0.0
 40
0.0
 40
0.0897503170000449
 40
0.2673753071947695
 40
0.4448981245530672
 40
0.6224354367033725
 40
0.8000722910828584
 40
0.9777093789119697
 40
1.0
 40
1.0
 40
1.0
 40
1.0
 10
134.0978727954322
 20
158.7523504959291
 30
0.0
 10
134.086733125315
 20
158.7404460814864
 30
0.0
 10
134.0535469169632
 20
158.7049816221399
 30
0.0
 10
133.9983322037827
 20
158.5654761976975
 30
0.0
 10
133.932158407058
 20
158.340614489301
 30
0.0
 10
133.8659973126644
 20
158.0435010961532
 30
0.0
 10
133.7998674796719
 20
157.6814734097933
 30
0.0
 10
133.7530208868332
 20
157.3979325201878
 30
0.0
 10
133.7281887531798
 20
157.2248935838774
 30
0.0
 10
133.7254201340371
 20
157.2056008836126
 30
0.0
  0
SPLINE
  5
157
330
1F
100
AcDbEntity
  8
0
  6
Continuous
 62
     8
370
    18
100
AcDbSpline
210
0.0
220
0.0
230
1.0
 70
     8
 71
     3
 72
     9
 73
     5
 74
     0
 42
0.000000001
 43
0.00000001
 40
0.0
 40
0.0
 40
0.0
 40
0.0
 40
0.3607521079703532
 40
1.0
 40
1.0
 40
1.0
 40
1.0
 10
133.1096119525724
 20
152.4056008884554
 30
0.0
 10
133.0971625768626
 20
152.321252108688
 30
0.0
 10
133.0626530745345
 20
152.0874384236011
 30
0.0
 10
133.0281668022792
 20
151.8936685916864
 30
0.0
 10
133.006121525436
 20
151.769801635096
 30
0.0
  0
SPLINE
  5
158
330
1F
100
AcDbEntity
  8
0
  6
Continuous
 62
     8
370
    18
100
AcDbSpline
210
0.0
220
0.0
230
1.0
 70
     8
 71
     3
 72
    12
 73
     8
 74
     0
 42
0.000000001
 43
0.00000001
 40
0.0
 40
0.0
 40
0.0
 40
0.0
 40
0.1796121733103028
 40
0.3161134096388029
 40
0.4529823178448444
 40
0.7272825791995804
 40
0.9999999999999999
 40
0.9999999999999999
 40
0.9999999999999999
 40
0.9999999999999999
 10
132.7633788156205
 20
151.6050488090014
 30
0.0
 10
132.7658083185721
 20
151.6213238599892
 30
0.0
 10
132.7700841894531
 20
151.6499675858847
 30
0.0
 10
132.7970956138685
 20
151.6861525001719
 30
0.0
 10
132.8388112153287
 20
151.7239902073153
 30
0.0
 10
132.9084053502727
 20
151.7604989027493
 30
0.0
 10
132.9736123609938
 20
151.7667067119156
 30
0.0
 10
133.006121525436
 20
151.769801635096
 30
0.0
  0
SPLINE
  5
159
330
1F
100
AcDbEntity
  8
0
  6
Continuous
 62
     8
370
    18
100
AcDbSpline
210
0.0
220
0.0
230
1.0
 70
     8
 71
     3
 72
    13
 73
     9
 74
     0
 42
0.000000001
 43
0.00000001
 40
0.0
 40
0.0
 40
0.0
 40
0.0
 40
0.1450390343927876
 40
0.3588778822029368
 40
0.4655508362976853
 40
0.5725130898751573
 40
0.786874806818812
 40
0.9999999999999999
 40
0.9999999999999999
 40
0.9999999999999999
 40
0.9999999999999999
 10
141.7093449550563
 20
150.9654690844809
 30
0.0
 10
141.7149128815875
 20
150.9457154747444
 30
0.0
 10
141.7286899016163
 20
150.8968380559322
 30
0.0
 10
141.7122737738367
 20
150.8305962240903
 30
0.0
 10
141.6821392329777
 20
150.7775789945626
 30
0.0
 10
141.6398297679773
 20
150.7318844198947
 30
0.0
 10
141.5705505356077
 20
150.6877198781935
 30
0.0
 10
141.5053120491584
 20
150.6802022517399
 30
0.0
 10
141.4727871584588
 20
150.6764543110376
 30
0.0
  0
SPLINE
  5
15A
330
1F
100
AcDbEntity
  8
0
  6
Continuous
 62
     8
370
    18
100
AcDbSpline
210
0.0
220
0.0
230
1.0
 70
     8
 71
     3
 72
    13
 73
     9
 74
     0
 42
0.000000001
 43
0.00000001
 40
0.0
 40
0.0
 40
0.0
 40
0.0
 40
0.0705592829206049
 40
0.3030268255643901
 40
0.4189938667995949
 40
0.5352728970890663
 40
0.7683089909194506
 40
1.0
 40
1.0
 40
1.0
 40
1.0
 10
133.2495953234726
 20
151.5579923389351
 30
0.0
 10
133.2518280290112
 20
151.5653228851888
 30
0.0
 10
133.2614166989039
 20
151.5968049534436
 30
0.0
 10
133.2452938758755
 20
151.6423457699963
 30
0.0
 10
133.2156027705462
 20
151.6861716551056
 30
0.0
 10
133.1731672920154
 20
151.7239773003564
 30
0.0
 10
133.1039195921445
 20
151.7605014641505
 30
0.0
 10
133.0386572960612
 20
151.7667066334438
 30
0.0
 10
133.0061205941134
 20
151.7698002381121
 30
0.0
  0
SPLINE
  5
15B
330
1F
100
AcDbEntity
  8
0
  6
Continuous
 62
     8
370
    18
100
AcDbSpline
210
0.0
220
0.0
230
1.0
 70
     8
 71
     3
 72
    30
 73
    26
 74
     0
 42
0.000000001
 43
0.00000001
 40
0.0
 40
0.0
 40
0.0
 40
0.0
 40
0.0389942637164868
 40
0.0830570964263161
 40
0.1271424553745325
 40
0.1712225725452323
 40
0.2152774072649351
 40
0.2593358708883553
 40
0.3034189765675911
 40
0.3475020514883258
 40
0.3915603422202267
 40
0.4356150149715376
 40
0.4796951294162922
 40
0.5237805541154803
 40
0.5678431717976845
 40
0.611895203879884
 40
0.6559717319002217
 40
0.7000585477625715
 40
0.7441255232960211
 40
0.7881759802096007
 40
0.8322484117961285
 40
0.876335793478029
 40
0.9204071940544412
 40
0.9644574834704164
 40
1.0
 40
1.0
 40
1.0
 40
1.0
 10
132.6677962484652
 20
150.3104473331814
 30
0.0
 10
132.6482789300312
 20
150.3149043999149
 30
0.0
 10
132.6067073847665
 20
150.3243978737281
 30
0.0
 10
132.5430812252754
 20
150.446364653191
 30
0.0
 10
132.4769582055806
 20
150.6476527622592
 30
0.0
 10
132.4108313804769
 20
150.9295408086029
 30
0.0
 10
132.3446593869032
 20
151.2850671606359
 30
0.0
 10
132.2784949113775
 20
151.7100018447993
 30
0.0
 10
132.2123715738263
 20
152.1937198203723
 30
0.0
 10
132.146245738005
 20
152.7266908155039
 30
0.0
 10
132.0800833343366
 20
153.2993371094572
 30
0.0
 10
132.0139105686094
 20
153.9016381860567
 30
0.0
 10
131.9477842099723
 20
154.5211061676318
 30
0.0
 10
131.8816605155407
 20
155.1459218252766
 30
0.0
 10
131.8155065375446
 20
155.7643927409345
 30
0.0
 10
131.7493279375615
 20
156.3641012844952
 30
0.0
 10
131.6831968997483
 20
156.9336816676093
 30
0.0
 10
131.6170750159825
 20
157.4630974423721
 30
0.0
 10
131.5509269977717
 20
157.9423169678707
 30
0.0
 10
131.4847476356012
 20
158.3603847490029
 30
0.0
 10
131.418608175826
 20
158.7092994945376
 30
0.0
 10
131.3524886969064
 20
158.9851915024933
 30
0.0
 10
131.2863485119084
 20
159.1796521530858
 30
0.0
 10
131.2244336972458
 20
159.2910522786275
 30
0.0
 10
131.1846157545995
 20
159.295785888236
 30
0.0
 10
131.166834877699
 20
159.2978997023647
 30
0.0
  0
SPLINE
  5
15C
330
1F
100
AcDbEntity
  8
0
  6
Continuous
 62
     8
370
    18
100
AcDbSpline
210
0.0
220
0.0
230
1.0
 70
     8
 71
     3
 72
    31
 73
    27
 74
     0
 42
0.000000001
 43
0.00000001
 40
0.0
 40
0.0
 40
0.0
 40
0.0
 40
0.0222770920920779
 40
0.0663975825613019
 40
0.1105370896699191
 40
0.1546946461157827
 40
0.1988395176553074
 40
0.2429608792536186
 40
0.2870959453625342
 40
0.3312524962939633
 40
0.3754012341193336
 40
0.4195247786007754
 40
0.4636555121421611
 40
0.5078102093160209
 40
0.5519622701493193
 40
0.5960890585874049
 40
0.640215840738351
 40
0.6843679002596951
 40
0.7285225887484059
 40
0.7726533285673531
 40
0.8167768740351213
 40
0.8609256048331547
 40
0.9050821558015327
 40
0.9492172259890836
 40
0.9933385953002858
 40
1.0
 40
1.0
 40
1.0
 40
1.0
 10
129.6660662907058
 20
150.3171556496864
 30
0.0
 10
129.6549395889374
 20
150.3153000907869
 30
0.0
 10
129.6217760999036
 20
150.3097695383828
 30
0.0
 10
129.5665197043371
 20
150.3948993075954
 30
0.0
 10
129.5003765095151
 20
150.5660114574277
 30
0.0
 10
129.434256729907
 20
150.821680573219
 30
0.0
 10
129.3681204317073
 20
151.1513263239503
 30
0.0
 10
129.3019425173034
 20
151.5519590491481
 30
0.0
 10
129.2357899040415
 20
152.0161657722849
 30
0.0
 10
129.1696696094345
 20
152.5331302404081
 30
0.0
 10
129.1035386800053
 20
153.0929614912804
 30
0.0
 10
129.0373644140559
 20
153.6857841139304
 30
0.0
 10
128.9712047322229
 20
154.3005814192984
 30
0.0
 10
128.9050814627742
 20
154.9248546263828
 30
0.0
 10
128.8389554173928
 20
155.5468875107488
 30
0.0
 10
128.7727879552142
 20
156.1549050137112
 30
0.0
 10
128.70661944667
 20
156.7363653573563
 30
0.0
 10
128.6404936998719
 20
157.280867730797
 30
0.0
 10
128.574370306291
 20
157.7787054595928
 30
0.0
 10
128.5082107604942
 20
158.2201203027401
 30
0.0
 10
128.442036135525
 20
158.5946043142633
 30
0.0
 10
128.3759065190219
 20
158.8957128616761
 30
0.0
 10
128.3097840755446
 20
159.1218789080044
 30
0.0
 10
128.243635951756
 20
159.2581710107413
 30
0.0
 10
128.1961840097938
 20
159.315277449511
 30
0.0
 10
128.1708207722075
 20
159.3013515792469
 30
0.0
 10
128.1674937623435
 20
159.2995248602574
 30
0.0
  0
SPLINE
  5
15D
330
1F
100
AcDbEntity
  8
0
  6
Continuous
 62
     8
370
    18
100
AcDbSpline
210
0.0
220
0.0
230
1.0
 70
     8
 71
     3
 72
    31
 73
    27
 74
     0
 42
0.000000001
 43
0.00000001
 40
0.0
 40
0.0
 40
0.0
 40
0.0
 40
0.0059520772427568
 40
0.0500902451674434
 40
0.0942162613340118
 40
0.1383663592923597
 40
0.1825279635502667
 40
0.2266705729124205
 40
0.2707953728518389
 40
0.3149412987646957
 40
0.3591032553747656
 40
0.403250227382291
 40
0.4473751876933025
 40
0.4915166930367391
 40
0.5356780653258756
 40
0.5798291399793241
 40
0.623955681993945
 40
0.6680928320232722
 40
0.7122528034390478
 40
0.7564074766235828
 40
0.8005366709564273
 40
0.8446694904291008
 40
0.8888270955353971
 40
0.9329847769954956
 40
0.9771177471534986
 40
1.0
 40
1.0
 40
1.0
 40
1.0
 10
126.6650362218612
 20
150.31177074256
 30
0.0
 10
126.6620644462395
 20
150.3102927388679
 30
0.0
 10
126.6370551993152
 20
150.2978544649216
 30
0.0
 10
126.5899846900213
 20
150.3558421292717
 30
0.0
 10
126.5238080041857
 20
150.4935698269507
 30
0.0
 10
126.4576739662202
 20
150.7227290436593
 30
0.0
 10
126.3915531990616
 20
151.0266551065991
 30
0.0
 10
126.3254078750891
 20
151.4026479658853
 30
0.0
 10
126.2592268763298
 20
151.8449084175684
 30
0.0
 10
126.1930872565595
 20
152.3446073104693
 30
0.0
 10
126.1269658892188
 20
152.8907019824016
 30
0.0
 10
126.0608279146221
 20
153.4729936885484
 30
0.0
 10
125.9946472779642
 20
154.081221482661
 30
0.0
 10
125.9285000830056
 20
154.7035144459516
 30
0.0
 10
125.8623789879243
 20
155.3276518190234
 30
0.0
 10
125.7962467189722
 20
155.9419790482259
 30
0.0
 10
125.7300694634406
 20
156.5345511654324
 30
0.0
 10
125.6639141486809
 20
157.0931464862806
 30
0.0
 10
125.5977917410956
 20
157.6082841549824
 30
0.0
 10
125.5316642302919
 20
158.0705675480447
 30
0.0
 10
125.4654920251589
 20
158.4705572441815
 30
0.0
 10
125.3993285756657
 20
158.7981084321339
 30
0.0
 10
125.3332036734237
 20
159.0508005160876
 30
0.0
 10
125.2670801982207
 20
159.2190238515035
 30
0.0
 10
125.2115294617446
 20
159.3036397574805
 30
0.0
 10
125.1780467325048
 20
159.2968117611834
 30
0.0
 10
125.1666141020947
 20
159.294480351532
 30
0.0
  0
SPLINE
  5
15E
330
1F
100
AcDbEntity
  8
0
  6
Continuous
 62
     8
370
    18
100
AcDbSpline
210
0.0
220
0.0
230
1.0
 70
     8
 71
     3
 72
    10
 73
     6
 74
     0
 42
0.000000001
 43
0.00000001
 40
0.0
 40
0.0
 40
0.0
 40
0.0
 40
0.0277897119674607
 40
0.546928002632422
 40
1.0
 40
1.0
 40
1.0
 40
1.0
 10
124.9989324993336
 20
158.5556009186303
 30
0.0
 10
125.000113436217
 20
158.559602855674
 30
0.0
 10
125.023355398986
 20
158.6383647887432
 30
0.0
 10
125.0658086767134
 20
158.7250614251155
 30
0.0
 10
125.1071089562066
 20
158.7664397892441
 30
0.0
 10
125.1263558211618
 20
158.7857230434065
 30
0.0
  0
SPLINE
  5
15F
330
1F
100
AcDbEntity
  8
0
  6
Continuous
 62
     8
370
    18
100
AcDbSpline
210
0.0
220
0.0
230
1.0
 70
     8
 71
     3
 72
     9
 73
     5
 74
     0
 42
0.000000001
 43
0.00000001
 40
0.0
 40
0.0
 40
0.0
 40
0.0
 40
0.4901165952833021
 40
1.0
 40
1.0
 40
1.0
 40
1.0
 10
126.7439229692214
 20
150.8657754266506
 30
0.0
 10
126.7587508091873
 20
150.8842015285458
 30
0.0
 10
126.7890045082225
 20
150.9217968723325
 30
0.0
 10
126.8192841222581
 20
151.0104156230832
 30
0.0
 10
126.8347231949561
 20
151.0556008534377
 30
0.0
  0
SPLINE
  5
160
330
1F
100
AcDbEntity
  8
0
  6
Continuous
 62
     8
370
    18
100
AcDbSpline
210
0.0
220
0.0
230
1.0
 70
     8
 71
     3
 72
     9
 73
     5
 74
     0
 42
0.000000001
 43
0.00000001
 40
0.0
 40
0.0
 40
0.0
 40
0.0
 40
0.5130107602211943
 40
1.0
 40
1.0
 40
1.0
 40
1.0
 10
127.9974892082506
 20
158.5463403126096
 30
0.0
 10
128.0133890188548
 20
158.593279887039
 30
0.0
 10
128.0443821516251
 20
158.6847781129422
 30
0.0
 10
128.0753562640223
 20
158.7246561959955
 30
0.0
 10
128.0904403234714
 20
158.7440763933455
 30
0.0
  0
SPLINE
  5
161
330
1F
100
AcDbEntity
  8
0
  6
Continuous
 62
     8
370
    18
100
AcDbSpline
210
0.0
220
0.0
230
1.0
 70
     8
 71
     3
 72
    14
 73
    10
 74
     0
 42
0.000000001
 43
0.00000001
 40
0.0
 40
0.0
 40
0.0
 40
0.0
 40
0.056971010146835
 40
0.2378669181751267
 40
0.4186696378974696
 40
0.5995342613034641
 40
0.7804835496220331
 40
0.9613956688047339
 40
1.0
 40
1.0
 40
1.0
 40
1.0
 10
129.7441493066841
 20
150.8660855570679
 30
0.0
 10
129.7510909219484
 20
150.8730639420083
 30
0.0
 10
129.7800737436649
 20
150.9022002854806
 30
0.0
 10
129.8311004792824
 20
151.0290960270592
 30
0.0
 10
129.8972812994998
 20
151.2469251873761
 30
0.0
 10
129.9634288363223
 20
151.5386529685772
 30
0.0
 10
130.0295532588681
 20
151.8945560648118
 30
0.0
 10
130.0783490607802
 20
152.1874083914962
 30
0.0
 10
130.1051188420917
 20
152.3729681985744
 30
0.0
 10
130.1098265963489
 20
152.4056008884554
 30
0.0
  0
SPLINE
  5
162
330
1F
100
AcDbEntity
  8
0
  6
Continuous
 62
     8
370
    18
100
AcDbSpline
210
0.0
220
0.0
230
1.0
 70
     8
 71
     3
 72
    14
 73
    10
 74
     0
 42
0.000000001
 43
0.00000001
 40
0.0
 40
0.0
 40
0.0
 40
0.0
 40
0.0860414875465492
 40
0.2677584908830276
 40
0.4495023515453813
 40
0.6311551028815592
 40
0.8127579465543051
 40
0.994459606468124
 40
1.0
 40
1.0
 40
1.0
 40
1.0
 10
130.7258247676187
 20
157.2056008836126
 30
0.0
 10
130.7362717843124
 20
157.276629424764
 30
0.0
 10
130.7687825823458
 20
157.4976680833304
 30
0.0
 10
130.823312027263
 20
157.8165709356144
 30
0.0
 10
130.8894365113005
 20
158.1553883479911
 30
0.0
 10
130.9555882522429
 20
158.4305964312354
 30
0.0
 10
131.0217674577265
 20
158.6266564038298
 30
0.0
 10
131.0665212664145
 20
158.7315395206665
 30
0.0
 10
131.0892355299662
 20
158.7498225344872
 30
0.0
 10
131.0899076330358
 20
158.7503635192161
 30
0.0
  0
SPLINE
  5
163
330
1F
100
AcDbEntity
  8
0
  6
Continuous
 62
     8
370
    18
100
AcDbSpline
210
0.0
220
0.0
230
1.0
 70
     8
 71
     3
 72
    11
 73
     7
 74
     0
 42
0.000000001
 43
0.00000001
 40
0.0
 40
0.0
 40
0.0
 40
0.0
 40
0.2395598867656449
 40
0.4930826064922681
 40
0.7464846104737922
 40
1.0
 40
1.0
 40
1.0
 40
1.0
 10
132.7452124374801
 20
150.8614163713401
 30
0.0
 10
132.7660343640716
 20
150.89530111704
 30
0.0
 10
132.8088918306307
 20
150.9650455928603
 30
0.0
 10
132.873809465842
 20
151.1627546185546
 30
0.0
 10
132.939995027028
 20
151.4251521426496
 30
0.0
 10
132.9840754518322
 20
151.6549004098564
 30
0.0
 10
133.0061205941134
 20
151.7698002381121
 30
0.0
  0
SPLINE
  5
164
330
1F
100
AcDbEntity
  8
0
  6
Continuous
 62
     8
370
    18
100
AcDbSpline
210
0.0
220
0.0
230
1.0
 70
     8
 71
     3
 72
    13
 73
     9
 74
     0
 42
0.000000001
 43
0.00000001
 40
0.0
 40
0.0
 40
0.0
 40
0.0
 40
0.1602017693897854
 40
0.3416025197787499
 40
0.5230435332432891
 40
0.7045769971580539
 40
0.8860889548900676
 40
1.0
 40
1.0
 40
1.0
 40
1.0
 10
141.7451338189536
 20
150.8630825074261
 30
0.0
 10
141.764591797031
 20
150.8932795977911
 30
0.0
 10
141.8060825643699
 20
150.9576696616334
 30
0.0
 10
141.8696723822105
 20
151.1473605654382
 30
0.0
 10
141.9358276367604
 20
151.4089882069913
 30
0.0
 10
142.0019524366835
 20
151.7388390003418
 30
0.0
 10
142.0598775940302
 20
152.0715561898772
 30
0.0
 10
142.0957882091269
 20
152.3126416515709
 30
0.0
 10
142.1096348482066
 20
152.4056008884554
 30
0.0
  0
SPLINE
  5
165
330
1F
100
AcDbEntity
  8
0
  6
Continuous
 62
     8
370
    18
100
AcDbSpline
210
0.0
220
0.0
230
1.0
 70
     8
 71
     3
 72
    14
 73
    10
 74
     0
 42
0.000000001
 43
0.00000001
 40
0.0
 40
0.0
 40
0.0
 40
0.0
 40
0.0108922429018517
 40
0.1775047354145989
 40
0.3441559716505709
 40
0.5107324303641428
 40
0.6772466860445011
 40
0.843843773038834
 40
1.0
 40
1.0
 40
1.0
 40
1.0
 10
142.7252316194468
 20
157.2056008836126
 30
0.0
 10
142.7266739542899
 20
157.2156909235008
 30
0.0
 10
142.7501788712296
 20
157.3801226091339
 30
0.0
 10
142.7957103864468
 20
157.6567108757222
 30
0.0
 10
142.8618360062762
 20
158.0226230899372
 30
0.0
 10
142.9279795360703
 20
158.3233296511595
 30
0.0
 10
142.9941619432481
 20
158.5549913379602
 30
0.0
 10
143.0589097106537
 20
158.7164104305934
 30
0.0
 10
143.1016086455
 20
158.7620724832707
 30
0.0
 10
143.1222674715215
 20
158.7841649407392
 30
0.0
  0
SPLINE
  5
166
330
1F
100
AcDbEntity
  8
0
  6
Continuous
 62
     8
370
    18
100
AcDbSpline
210
0.0
220
0.0
230
1.0
 70
     8
 71
     3
 72
    13
 73
     9
 74
     0
 42
0.000000001
 43
0.00000001
 40
0.0
 40
0.0
 40
0.0
 40
0.0
 40
0.098655178669659
 40
0.279161214986807
 40
0.4595851078138731
 40
0.6400866537149289
 40
0.8206617520854135
 40
0.9999999999999999
 40
0.9999999999999999
 40
0.9999999999999999
 40
0.9999999999999999
 10
144.7439422177964
 20
150.8669614659493
 30
0.0
 10
144.7559872950777
 20
150.8815649146212
 30
0.0
 10
144.7900708419712
 20
150.9228877983178
 30
0.0
 10
144.8462084907023
 20
151.0723676646631
 30
0.0
 10
144.9123862957138
 20
151.3074235214782
 30
0.0
 10
144.9785319464956
 20
151.615074001671
 30
0.0
 10
145.044505067965
 20
151.9778045127268
 30
0.0
 10
145.0884685899177
 20
152.2633291672169
 30
0.0
 10
145.1103748100692
 20
152.4056008884554
 30
0.0
  0
SPLINE
  5
167
330
1F
100
AcDbEntity
  8
0
  6
Continuous
 62
     8
370
    18
100
AcDbSpline
210
0.0
220
0.0
230
1.0
 70
     8
 71
     3
 72
    13
 73
     9
 74
     0
 42
0.000000001
 43
0.00000001
 40
0.0
 40
0.0
 40
0.0
 40
0.0
 40
0.1277270179059234
 40
0.3092980801656271
 40
0.4908800298768862
 40
0.672363733404612
 40
0.8538179534980327
 40
0.9999999999999999
 40
0.9999999999999999
 40
0.9999999999999999
 40
0.9999999999999999
 10
145.7257089483434
 20
157.2056008836126
 30
0.0
 10
145.7412305382825
 20
157.3091101958598
 30
0.0
 10
145.7788169318897
 20
157.5597637543802
 30
0.0
 10
145.8384127600382
 20
157.8990562682778
 30
0.0
 10
145.9045384580663
 20
158.2242010074383
 30
0.0
 10
145.9706972568566
 20
158.4805201063255
 30
0.0
 10
146.0325756837568
 20
158.6608508861893
 30
0.0
 10
146.0723578523323
 20
158.7196695171229
 30
0.0
 10
146.0901075321132
 20
158.745912728632
 30
0.0
  0
SPLINE
  5
168
330
1F
100
AcDbEntity
  8
0
  6
Continuous
 62
     8
370
    18
100
AcDbSpline
210
0.0
220
0.0
230
1.0
 70
     8
 71
     3
 72
    14
 73
    10
 74
     0
 42
0.000000001
 43
0.00000001
 40
0.0
 40
0.0
 40
0.0
 40
0.0
 40
0.0338590574315936
 40
0.2149797115546886
 40
0.3960096144705464
 40
0.5769898318746347
 40
0.7580685031137748
 40
0.939194255890833
 40
1.0
 40
1.0
 40
1.0
 40
1.0
 10
147.7442742603713
 20
150.8638108016794
 30
0.0
 10
147.748397039419
 20
150.8675552097038
 30
0.0
 10
147.7745736053872
 20
150.8913294024335
 30
0.0
 10
147.8227651830969
 20
151.0078391472552
 30
0.0
 10
147.8889226615174
 20
151.2148142800918
 30
0.0
 10
147.9550999646587
 20
151.4980719648583
 30
0.0
 10
148.0212358537301
 20
151.8463982763718
 30
0.0
 10
148.0727176455853
 20
152.1523126372208
 30
0.0
 10
148.1021805055803
 20
152.3547271322575
 30
0.0
 10
148.1095855402642
 20
152.4056008884554
 30
0.0
  0
SPLINE
  5
169
330
1F
100
AcDbEntity
  8
0
  6
Continuous
 62
     8
370
    18
100
AcDbSpline
210
0.0
220
0.0
230
1.0
 70
     8
 71
     3
 72
    10
 73
     6
 74
     0
 42
0.000000001
 43
0.00000001
 40
0.0
 40
0.0
 40
0.0
 40
0.0
 40
0.148250932956732
 40
0.8789470815283114
 40
1.0
 40
1.0
 40
1.0
 40
1.0
 10
148.9999913888865
 20
158.5556009186303
 30
0.0
 10
149.0044647326856
 20
158.5702370228769
 30
0.0
 10
149.0309862013773
 20
158.657011256643
 30
0.0
 10
149.061173410622
 20
158.721063536527
 30
0.0
 10
149.0868597430405
 20
158.7441122036663
 30
0.0
 10
149.0905103552037
 20
158.7473879435902
 30
0.0
  0
SPLINE
  5
16A
330
1F
100
AcDbEntity
  8
0
  6
Continuous
 62
     8
370
    18
100
AcDbSpline
210
0.0
220
0.0
230
1.0
 70
     8
 71
     3
 72
    19
 73
    15
 74
     0
 42
0.000000001
 43
0.00000001
 40
0.0
 40
0.0
 40
0.0
 40
0.0
 40
0.0858700702183092
 40
0.171701569401913
 40
0.2575740730916597
 40
0.3434904321025201
 40
0.4293883694361852
 40
0.5152377681586373
 40
0.6011062756837927
 40
0.6870186795647096
 40
0.7729209012871388
 40
0.8587737927123544
 40
0.9446337637173842
 40
1.0
 40
1.0
 40
1.0
 40
1.0
 10
149.9394537228042
 20
154.600679302389
 30
0.0
 10
149.917408951378
 20
154.8085829978922
 30
0.0
 10
149.8733293105745
 20
155.2242970029186
 30
0.0
 10
149.8071438299841
 20
155.8410824539385
 30
0.0
 10
149.7409987531242
 20
156.4373236382249
 30
0.0
 10
149.6748774914669
 20
157.0027522934149
 30
0.0
 10
149.6087489806777
 20
157.5267843237341
 30
0.0
 10
149.5425706990642
 20
157.9985158657479
 30
0.0
 10
149.4764145901958
 20
158.4076025182086
 30
0.0
 10
149.4102917678059
 20
158.7480683784769
 30
0.0
 10
149.3441624966382
 20
159.0151259873458
 30
0.0
 10
149.2779946416664
 20
159.1982387881365
 30
0.0
 10
149.2196715009901
 20
159.2948238824918
 30
0.0
 10
149.1834287408746
 20
159.29457743451
 30
0.0
 10
149.1692201512748
 20
159.2944808171933
 30
0.0
  0
SPLINE
  5
16B
330
1F
100
AcDbEntity
  8
0
  6
Continuous
 62
     8
370
    18
100
AcDbSpline
210
0.0
220
0.0
230
1.0
 70
     8
 71
     3
 72
    31
 73
    27
 74
     0
 42
0.000000001
 43
0.00000001
 40
0.0
 40
0.0
 40
0.0
 40
0.0
 40
0.0293882239446375
 40
0.0734623308194493
 40
0.1175608040349354
 40
0.1616579810351235
 40
0.2057301076584939
 40
0.249800409298419
 40
0.29389606448929
 40
0.3379956905259028
 40
0.3820718919605182
 40
0.4261392066845069
 40
0.4702313975093073
 40
0.5143326463102561
 40
0.5584132314222912
 40
0.6024786699860551
 40
0.6465668911195879
 40
0.6906689106247551
 40
0.7347539285073307
 40
0.7788188537261697
 40
0.8229027612173878
 40
0.8670046684709138
 40
0.9110939374020477
 40
0.9551597234165612
 40
0.9992391915749474
 40
1.0
 40
1.0
 40
1.0
 40
1.0
 10
147.6684608775073
 20
150.3156045319384
 30
0.0
 10
147.6537572421159
 20
150.315092822464
 30
0.0
 10
147.617002270825
 20
150.3138136920626
 30
0.0
 10
147.558181210185
 20
150.4123853939365
 30
0.0
 10
147.4920609768071
 20
150.5941078895645
 30
0.0
 10
147.4259341738652
 20
150.8586272895889
 30
0.0
 10
147.3597684756105
 20
151.1975101775913
 30
0.0
 10
147.2935975204353
 20
151.6076511612571
 30
0.0
 10
147.2274734344513
 20
152.0787331911076
 30
0.0
 10
147.1613493598874
 20
152.6012356883671
 30
0.0
 10
147.0951915396522
 20
153.1656612405428
 30
0.0
 10
147.0290153012833
 20
153.7623374715193
 30
0.0
 10
146.9628829643906
 20
154.378941049276
 30
0.0
 10
146.8967644026047
 20
155.0035600689726
 30
0.0
 10
146.8306138198938
 20
155.6245250095319
 30
0.0
 10
146.7644337919616
 20
156.2295496976386
 30
0.0
 10
146.6982958735264
 20
156.8069096008269
 30
0.0
 10
146.6321779652012
 20
157.3464566456397
 30
0.0
 10
146.5660350073271
 20
157.8380897134666
 30
0.0
 10
146.4998539337991
 20
158.2707819756557
 30
0.0
 10
146.433708861865
 20
158.6361264520157
 30
0.0
 10
146.3675919469542
 20
158.9283293552411
 30
0.0
 10
146.3014514804218
 20
159.1455134854101
 30
0.0
 10
146.2352874575929
 20
159.2686759603449
 30
0.0
 10
146.1907762680295
 20
159.3183576801559
 30
0.0
 10
146.1683814639734
 20
159.3040557962181
 30
0.0
 10
146.1680014896089
 20
159.3038131350523
 30
0.0
  0
SPLINE
  5
16C
330
1F
100
AcDbEntity
  8
0
  6
Continuous
 62
     8
370
    18
100
AcDbSpline
210
0.0
220
0.0
230
1.0
 70
     8
 71
     3
 72
    31
 73
    27
 74
     0
 42
0.000000001
 43
0.00000001
 40
0.0
 40
0.0
 40
0.0
 40
0.0
 40
0.0138923591259373
 40
0.0580123841871267
 40
0.1021475886130611
 40
0.1463034920950752
 40
0.190450330850026
 40
0.2345722287625817
 40
0.2787030377333694
 40
0.3228572947411832
 40
0.367007608446333
 40
0.4111325141380308
 40
0.4552592496630562
 40
0.499411059753696
 40
0.5435641848685033
 40
0.5876929007768371
 40
0.6318161942829578
 40
0.6759648312008372
 40
0.7201200139862118
 40
0.7642529908435292
 40
0.8083738084888651
 40
0.8525187027046786
 40
0.8966750973020501
 40
0.9408125181175253
 40
0.9849321262164342
 40
0.9999999999999999
 40
0.9999999999999999
 40
0.9999999999999999
 40
0.9999999999999999
 10
144.6686038094455
 20
150.3155756609385
 30
0.0
 10
144.6616653435592
 20
150.3127270804295
 30
0.0
 10
144.6326913626092
 20
150.3008318403641
 30
0.0
 10
144.5816274760038
 20
150.3680300229988
 30
0.0
 10
144.515479364371
 20
150.5187900970384
 30
0.0
 10
144.4493570917386
 20
150.756824785845
 30
0.0
 10
144.3832259910112
 20
151.0695638196958
 30
0.0
 10
144.3170486321052
 20
151.4546364876437
 30
0.0
 10
144.250893922682
 20
151.9053731908138
 30
0.0
 10
144.1847697256871
 20
152.4110893786779
 30
0.0
 10
144.1186429215209
 20
152.9619543121223
 30
0.0
 10
144.0524719490027
 20
153.5481652553688
 30
0.0
 10
143.9863089798385
 20
154.1591142098375
 30
0.0
 10
143.9201824633221
 20
154.7822558059588
 30
0.0
 10
143.85405828932
 20
155.4058336668076
 30
0.0
 10
143.7878963029337
 20
156.0181194504829
 30
0.0
 10
143.7217219952813
 20
156.6065853289336
 30
0.0
 10
143.6555960014466
 20
157.1604190317549
 30
0.0
 10
143.5894726705415
 20
157.6698411859186
 30
0.0
 10
143.5233193492248
 20
158.1250476835064
 30
0.0
 10
143.4571395907216
 20
158.5153387021547
 30
0.0
 10
143.3910089548929
 20
158.8335884115691
 30
0.0
 10
143.3248860269322
 20
159.0774326924012
 30
0.0
 10
143.2587430794108
 20
159.234628577492
 30
0.0
 10
143.2070867271858
 20
159.3071816657755
 30
0.0
 10
143.1775253212124
 20
159.2976526829034
 30
0.0
 10
143.1699996161157
 20
159.2952268065756
 30
0.0
  0
SPLINE
  5
16D
330
1F
100
AcDbEntity
  8
0
  6
Continuous
 62
     8
370
    18
100
AcDbSpline
210
0.0
220
0.0
230
1.0
 70
     8
 71
     3
 72
    10
 73
     6
 74
     0
 42
0.000000001
 43
0.00000001
 40
0.0
 40
0.0
 40
0.0
 40
0.0
 40
0.3125412193379508
 40
0.656193423509281
 40
1.0
 40
1.0
 40
1.0
 40
1.0
 10
141.6652077156001
 20
150.3103081004565
 30
0.0
 10
141.6451681509855
 20
150.3166417206553
 30
0.0
 10
141.6030942429807
 20
150.329939422412
 30
0.0
 10
141.5389132551678
 20
150.4522475590279
 30
0.0
 10
141.4948324902141
 20
150.6017075397048
 30
0.0
 10
141.4727871584588
 20
150.6764543110376
 30
0.0
  0
DIMENSION
  5
16E
330
1F
100
AcDbEntity
  8
0
  6
Continuous
 62
     7
370
    18
100
AcDbDimension
  2
_D
 10
170.2534946668
 20
130.5056009622
 30
0.0
 11
161.2534946668
 21
130.5056009622
 31
0.0
 70
   160
  1
<>
 71
     2
 42
-1.0
  3
SLDDIMSTYLE0
100
AcDbAlignedDimension
 13
152.2534946668
 23
147.1056009622
 33
0.0
 14
170.2534946668
 24
149.8056009622
 34
0.0
100
AcDbRotatedDimension
  0
DIMENSION
  5
179
330
1F
100
AcDbEntity
  8
0
  6
Continuous
 62
     7
370
    18
100
AcDbDimension
  2
_D_1
 10
179.1674833732
 20
157.2056009622
 30
0.0
 11
179.1674833732
 21
164.8300704592
 31
0.0
 70
   160
  1
%%c<>
 71
     2
 42
-1.0
  3
SLDDIMSTYLE1
100
AcDbAlignedDimension
 13
171.7534946668
 23
152.4056009622
 33
0.0
 14
171.7534946668
 24
157.2056009622
 34
0.0
 50
90.0
100
AcDbRotatedDimension
  0
DIMENSION
  5
187
330
1F
100
AcDbEntity
  8
0
  6
Continuous
 62
     7
370
    18
100
AcDbDimension
  2
_D_2
 10
148.2534946668
 20
130.5056009622
 30
0.0
 11
138.2534946668
 21
130.5056009622
 31
0.0
 70
   160
  1
<>st
 71
     2
 42
-1.0
  3
SLDDIMSTYLE0
100
AcDbAlignedDimension
 13
128.2534946668
 23
151.3556009622
 33
0.0
 14
148.2534946668
 24
151.3556009622
 34
0.0
100
AcDbRotatedDimension
  0
DIMENSION
  5
192
330
1F
100
AcDbEntity
  8
0
  6
Continuous
 62
     7
370
    18
100
AcDbDimension
  2
_D_3
 10
110.7534946668
 20
168.8157262769
 30
0.0
 11
125.1560880112
 21
168.8157262769
 31
0.0
 70
   160
  1
<>
 71
     2
 42
-1.0
  3
SLDDIMSTYLE2
100
AcDbAlignedDimension
 13
116.2534946668
 23
159.5056009622
 33
0.0
 14
110.7534946668
 24
158.0056009622
 34
0.0
100
AcDbRotatedDimension
  0
DIMENSION
  5
19F
330
1F
100
AcDbEntity
  8
0
  6
Continuous
 62
     7
370
    18
100
AcDbDimension
  2
_D_4
 10
172.2534946668
 20
178.8056009622
 30
0.0
 11
141.5034946668
 21
178.8056009622
 31
0.0
 70
   160
  1
<>
 71
     2
 42
-1.0
  3
SLDDIMSTYLE0
100
AcDbAlignedDimension
 13
110.7534946668
 23
158.0056009622
 33
0.0
 14
172.2534946668
 24
156.8056009622
 34
0.0
100
AcDbRotatedDimension
  0
DIMENSION
  5
1A9
330
1F
100
AcDbEntity
  8
0
  6
Continuous
 62
     7
370
    18
100
AcDbDimension
  2
_D_5
 10
188.2534946668
 20
148.8056009622
 30
0.0
 11
188.2534946668
 21
154.8056009622
 31
0.0
 70
   160
  1
%%c<>
 71
     2
 42
-1.0
  3
SLDDIMSTYLE0
100
AcDbAlignedDimension
 13
169.2534946668
 23
160.8056009622
 33
0.0
 14
169.2534946668
 24
148.8056009622
 34
0.0
 50
90.0
100
AcDbRotatedDimension
  0
DIMENSION
  5
1B4
330
1F
100
AcDbEntity
  8
0
  6
Continuous
 62
     7
370
    18
100
AcDbDimension
  2
_D_6
 10
102.5814919149
 20
151.3056009622
 30
0.0
 11
102.5814919149
 21
154.8056009622
 31
0.0
 70
   160
  1
%%c<>
 71
     2
 42
-1.0
  3
SLDDIMSTYLE2
100
AcDbAlignedDimension
 13
111.0534946668
 23
158.3056009622
 33
0.0
 14
111.0534946668
 24
151.3056009622
 34
0.0
 50
90.0
100
AcDbRotatedDimension
  0
DIMENSION
  5
1C1
330
1F
100
AcDbEntity
  8
0
  6
Continuous
 62
     7
370
    18
100
AcDbDimension
  2
_D_7
 10
92.9707176009
 20
149.8056009622
 30
0.0
 11
92.9707176009
 21
154.8056009622
 31
0.0
 70
   160
  1
%%c<>
 71
     2
 42
-1.0
  3
SLDDIMSTYLE2
100
AcDbAlignedDimension
 13
116.5534946668
 23
159.8056009622
 33
0.0
 14
116.5534946668
 24
149.8056009622
 34
0.0
 50
90.0
100
AcDbRotatedDimension
  0
LINE
  5
1CE
330
1F
100
AcDbEntity
  8
0
  6
CENTERX2
 62
     7
370
    18
100
AcDbLine
 10
109.7805186901
 20
154.8056009622
 30
0.0
 11
175.21944546
 21
154.8056009622
 31
0.0
  0
LINE
  5
1CF
330
1F
100
AcDbEntity
  8
0
  6
CENTERX2
 62
     7
370
    18
100
AcDbLine
 10
120.2534946668
 20
137.5519234486
 30
0.0
 11
120.2534946668
 21
154.0207231516
 31
0.0
  0
LINE
  5
1D0
330
1F
100
AcDbEntity
  8
0
  6
Continuous
 62
     7
370
    18
100
AcDbLine
 10
62.5376176223
 20
143.0056010241
 30
0.0
 11
63.0376174714
 21
140.5056006143
 31
0.0
  0
LINE
  5
1D1
330
1F
100
AcDbEntity
  8
0
  6
Continuous
 62
     7
370
    18
100
AcDbLine
 10
67.0376176614
 20
140.5056006143
 30
0.0
 11
67.5376175105
 21
143.0056010241
 31
0.0
  0
LINE
  5
1D2
330
1F
100
AcDbEntity
  8
0
  6
Continuous
 62
     7
370
    18
100
AcDbLine
 10
62.5376176223
 20
145.5056005025
 30
0.0
 11
63.0376174714
 21
143.0056010241
 31
0.0
  0
LINE
  5
1D3
330
1F
100
AcDbEntity
  8
0
  6
Continuous
 62
     7
370
    18
100
AcDbLine
 10
67.0376176614
 20
143.0056010241
 30
0.0
 11
67.5376175105
 21
145.5056005025
 31
0.0
  0
LINE
  5
1D4
330
1F
100
AcDbEntity
  8
0
  6
Continuous
 62
     7
370
    18
100
AcDbLine
 10
62.8876174934
 20
150.2914567346
 30
0.0
 11
62.8876174934
 21
145.5056005025
 31
0.0
  0
LINE
  5
1D5
330
1F
100
AcDbEntity
  8
0
  6
Continuous
 62
     7
370
    18
100
AcDbLine
 10
67.1876176394
 20
145.5056005025
 30
0.0
 11
67.1876176394
 21
150.2914567346
 31
0.0
  0
CIRCLE
  5
1D6
330
1F
100
AcDbEntity
  8
0
  6
Continuous
 62
     7
370
    18
100
AcDbCircle
 10
65.0376175664
 20
154.8056009622
 30
0.0
 40
3.500000000000014
  0
CIRCLE
  5
1D7
330
1F
100
AcDbEntity
  8
0
  6
Continuous
 62
     7
370
    18
100
AcDbCircle
 10
65.0376175664
 20
154.8056009622
 30
0.0
 40
3.200000000000017
  0
CIRCLE
  5
1D8
330
1F
100
AcDbEntity
  8
0
  6
Continuous
 62
     7
370
    18
100
AcDbCircle
 10
65.0376175664
 20
154.8056009622
 30
0.0
 40
1.499999999999993
  0
SPLINE
  5
1D9
330
1F
100
AcDbEntity
  8
0
  6
Continuous
 62
     7
370
    18
100
AcDbSpline
210
0.0
220
0.0
230
1.0
 70
     8
 71
     3
 72
    23
 73
    19
 74
     0
 42
0.000000001
 43
0.00000001
 40
0.0
 40
0.0
 40
0.0
 40
0.0
 40
0.0278510668510993
 40
0.1241649901279434
 40
0.1804380608233582
 40
0.2234769687525523
 40
0.2666803897359407
 40
0.3269823834435984
 40
0.424876020441716
 40
0.5064140466386721
 40
0.571120290358337
 40
0.6361189523617494
 40
0.6948995952641394
 40
0.7567747432469135
 40
0.849369172205089
 40
0.9437480837740257
 40
0.9878762403058939
 40
1.0
 40
1.0
 40
1.0
 40
1.0
 10
64.27253863249145
 20
153.5723538936918
 30
0.0
 10
64.23644932189335
 20
153.594708105993
 30
0.0
 10
64.07555678165083
 20
153.6943671447125
 30
0.0
 10
63.91462640156641
 20
153.8694928829757
 30
0.0
 10
63.80781533337414
 20
154.0214129300187
 30
0.0
 10
63.77701246155723
 20
154.0725092957076
 30
0.0
 10
63.79731368450034
 20
154.0346075254874
 30
0.0
 10
63.8971675874275
 20
153.8804271641468
 30
0.0
 10
64.11175435549897
 20
153.6509655042744
 30
0.0
 10
64.43977355867548
 20
153.4528585158398
 30
0.0
 10
64.79724962106494
 20
153.3468279232957
 30
0.0
 10
65.14943875854635
 20
153.3322520673088
 30
0.0
 10
65.47934504949743
 20
153.3982725873592
 30
0.0
 10
65.80437072664033
 20
153.5411693911946
 30
0.0
 10
66.08957057669816
 20
153.7690306218508
 30
0.0
 10
66.24205694184892
 20
153.9741388557639
 30
0.0
 10
66.29392192509766
 20
154.0634374489551
 30
0.0
 10
66.28759097678252
 20
154.0538330210904
 30
0.0
 10
66.2862264917808
 20
154.0517630156001
 30
0.0
  0
CIRCLE
  5
1DA
330
1F
100
AcDbEntity
  8
0
  6
Continuous
 62
     7
370
    18
100
AcDbCircle
 10
65.0376175664
 20
154.8056009622
 30
0.0
 40
1.449821465561918
  0
ARC
  5
1DB
330
1F
100
AcDbEntity
  8
0
  6
Continuous
 62
     7
370
    18
100
AcDbCircle
 10
65.0376175664
 20
154.8056009622
 30
0.0
 40
4.70000000000001
100
AcDbArc
 50
220.0077539135
 51
319.9922460865
  0
SPLINE
  5
1DC
330
1F
100
AcDbEntity
  8
0
  6
Continuous
 62
     7
370
    18
100
AcDbSpline
210
0.0
220
0.0
230
1.0
 70
    24
 71
     3
 72
    12
 73
     8
 74
     0
 42
0.000000001
 43
0.00000001
 40
0.0
 40
0.0
 40
0.0
 40
0.0
 40
0.500000000000002
 40
0.500000000000002
 40
0.750000000000001
 40
0.750000000000001
 40
1.0
 40
1.0
 40
1.0
 40
1.0
 10
68.63761756640099
 20
151.7840119762655
 30
0.0
 10
68.63761756640099
 20
151.684902269816
 30
0.0
 10
68.63761756640099
 20
151.5854811088679
 30
0.0
 10
68.63761756640099
 20
151.455142813602
 30
0.0
 10
68.63761756640099
 20
151.4150749814509
 30
0.0
 10
68.63761756640099
 20
151.3547583860024
 30
0.0
 10
68.63761756640099
 20
151.3357306476336
 30
0.0
 10
68.63761756640099
 20
151.3357306476336
 30
0.0
  0
ARC
  5
1DD
330
1F
100
AcDbEntity
  8
0
  6
Continuous
 62
     7
370
    18
100
AcDbCircle
 10
65.0376175664
 20
154.8056009622
 30
0.0
 40
4.999999999999996
100
AcDbArc
 50
223.9455195623
 51
316.0544804377
  0
SPLINE
  5
1DE
330
1F
100
AcDbEntity
  8
0
  6
Continuous
 62
     7
370
    18
100
AcDbSpline
210
0.0
220
0.0
230
1.0
 70
    24
 71
     3
 72
    12
 73
     8
 74
     0
 42
0.000000001
 43
0.00000001
 40
0.0
 40
0.0
 40
0.0
 40
0.0
 40
0.2499999999999996
 40
0.2499999999999996
 40
0.4999999999999991
 40
0.4999999999999991
 40
1.0
 40
1.0
 40
1.0
 40
1.0
 10
61.43761756640099
 20
151.3357306476336
 30
0.0
 10
61.43761756640099
 20
151.3357306476336
 30
0.0
 10
61.43761756640099
 20
151.3547299725427
 30
0.0
 10
61.43761756640099
 20
151.4144597218885
 30
0.0
 10
61.43761756640099
 20
151.4543230773324
 30
0.0
 10
61.43761756640099
 20
151.5857674357329
 30
0.0
 10
61.43761756640099
 20
151.6857232228532
 30
0.0
 10
61.43761756640099
 20
151.7840119762655
 30
0.0
  0
ARC
  5
1DF
330
1F
100
AcDbEntity
  8
0
  6
Continuous
 62
     7
370
    18
100
AcDbCircle
 10
65.0376175664
 20
154.8056009622
 30
0.0
 40
5.000000000000016
100
AcDbArc
 50
43.9455195623
 51
136.0544804377
  0
ARC
  5
1E0
330
1F
100
AcDbEntity
  8
0
  6
Continuous
 62
     7
370
    18
100
AcDbCircle
 10
65.0376175664
 20
154.8056009622
 30
0.0
 40
4.700000000000028
100
AcDbArc
 50
40.0077539135
 51
139.9922460865
  0
SPLINE
  5
1E1
330
1F
100
AcDbEntity
  8
0
  6
Continuous
 62
     7
370
    18
100
AcDbSpline
210
0.0
220
0.0
230
1.0
 70
    24
 71
     3
 72
    12
 73
     8
 74
     0
 42
0.000000001
 43
0.00000001
 40
0.0
 40
0.0
 40
0.0
 40
0.0
 40
0.5
 40
0.5
 40
0.75
 40
0.75
 40
1.0
 40
1.0
 40
1.0
 40
1.0
 10
61.43761756640099
 20
157.8271899481608
 30
0.0
 10
61.43761756640099
 20
157.9256865011475
 30
0.0
 10
61.43761756640099
 20
158.0265892982605
 30
0.0
 10
61.43761756640099
 20
158.1567052363417
 30
0.0
 10
61.43761756640099
 20
158.1967605025669
 30
0.0
 10
61.43761756640099
 20
158.2564959494319
 30
0.0
 10
61.43761756640099
 20
158.2754712767932
 30
0.0
 10
61.43761756640099
 20
158.2754712767932
 30
0.0
  0
SPLINE
  5
1E2
330
1F
100
AcDbEntity
  8
0
  6
Continuous
 62
     7
370
    18
100
AcDbSpline
210
0.0
220
0.0
230
1.0
 70
    24
 71
     3
 72
    12
 73
     8
 74
     0
 42
0.000000001
 43
0.00000001
 40
0.0
 40
0.0
 40
0.0
 40
0.0
 40
0.25
 40
0.25
 40
0.5
 40
0.5
 40
1.0
 40
1.0
 40
1.0
 40
1.0
 10
68.63761756640099
 20
158.2754712767934
 30
0.0
 10
68.63761756640099
 20
158.2754712767934
 30
0.0
 10
68.63761756640099
 20
158.2564791951791
 30
0.0
 10
68.63761756640099
 20
158.1965462947337
 30
0.0
 10
68.63761756640099
 20
158.1568145639443
 30
0.0
 10
68.63761756640099
 20
158.0253260978588
 30
0.0
 10
68.63761756640099
 20
157.9253990817982
 30
0.0
 10
68.63761756640099
 20
157.8271899481608
 30
0.0
  0
LINE
  5
1E3
330
1F
100
AcDbEntity
  8
0
  6
Continuous
 62
     7
370
    18
100
AcDbLine
 10
61.4376176282
 20
157.8271900171
 30
0.0
 11
61.4376176282
 21
151.7840119878
 31
0.0
  0
LINE
  5
1E4
330
1F
100
AcDbEntity
  8
0
  6
Continuous
 62
     7
370
    18
100
AcDbLine
 10
68.6376175046
 20
151.7840119878
 30
0.0
 11
68.6376175046
 21
157.8271900171
 31
0.0
  0
LWPOLYLINE
  5
1E5
330
1F
100
AcDbEntity
  8
0
  6
Continuous
 62
     7
370
    18
100
AcDbPolyline
 90
        9
 70
   128
 43
0.0
 10
65.8339356206
 20
149.8694204593
 10
65.8157878107
 20
149.8610539229
 10
65.8000000886
 20
149.842384165
 10
65.7871375343
 20
149.8140798749
 10
65.7776607451
 20
149.7771543318
 10
65.7719088386
 20
149.732929548
 10
65.7700877538
 20
149.682988772
 10
65.7722627412
 20
149.6291192116
 10
65.778355861
 20
149.573249636
  0
SPLINE
  5
1E6
330
1F
100
AcDbEntity
  8
0
  6
Continuous
 62
     7
370
    18
100
AcDbSpline
210
0.0
220
0.0
230
1.0
 70
     8
 71
     3
 72
    12
 73
     8
 74
     0
 42
0.000000001
 43
0.00000001
 40
0.0
 40
0.0
 40
0.0
 40
0.0
 40
0.4999999999999998
 40
0.4999999999999998
 40
0.7499999999999998
 40
0.7499999999999998
 40
1.0
 40
1.0
 40
1.0
 40
1.0
 10
65.77835588241503
 20
149.5732496743121
 30
0.0
 10
65.54189157183545
 20
149.5297797616946
 30
0.0
 10
65.2913176098095
 20
149.505589648317
 30
0.0
 10
64.91049461687072
 20
149.5056066252447
 30
0.0
 10
64.78293324808514
 20
149.5116694449775
 30
0.0
 10
64.53592056928673
 20
149.5346335720179
 30
0.0
 10
64.41508186739657
 20
149.5515201481101
 30
0.0
 10
64.29687925038698
 20
149.5732496743121
 30
0.0
  0
LWPOLYLINE
  5
1E7
330
1F
100
AcDbEntity
  8
0
  6
Continuous
 62
     7
370
    18
100
AcDbPolyline
 90
        9
 70
   128
 43
0.0
 10
64.2412995122
 20
149.8694204593
 10
64.2594473221
 20
149.8610539229
 10
64.2752350442
 20
149.842384165
 10
64.2880975985
 20
149.8140798749
 10
64.2975743877
 20
149.7771543318
 10
64.3033262942
 20
149.732929548
 10
64.305147379
 20
149.682988772
 10
64.3029723916
 20
149.6291192116
 10
64.2968792718
 20
149.573249636
  0
LINE
  5
1E8
330
1F
100
AcDbEntity
  8
0
  6
Continuous
 62
     7
370
    18
100
AcDbLine
 10
62.5376176223
 20
143.0056010241
 30
0.0
 11
67.5376175105
 21
143.0056010241
 31
0.0
  0
LINE
  5
1E9
330
1F
100
AcDbEntity
  8
0
  6
Continuous
 62
     7
370
    18
100
AcDbLine
 10
63.0376174714
 20
140.5056006143
 30
0.0
 11
67.0376176614
 21
140.5056006143
 31
0.0
  0
LINE
  5
1EA
330
1F
100
AcDbEntity
  8
0
  6
Continuous
 62
     7
370
    18
100
AcDbLine
 10
62.5376176223
 20
145.5056005025
 30
0.0
 11
67.5376175105
 21
145.5056005025
 31
0.0
  0
ARC
  5
1EB
330
1F
100
AcDbEntity
  8
0
  6
Continuous
 62
     7
370
    18
100
AcDbCircle
 10
65.0376175664
 20
154.8056009622
 30
0.0
 40
5.999999999999988
100
AcDbArc
 50
290.9978755459
 51
249.0021244541
  0
ARC
  5
1EC
330
1F
100
AcDbEntity
  8
0
  6
Continuous
 62
     7
370
    18
100
AcDbCircle
 10
65.0376175664
 20
154.8056009622
 30
0.0
 40
7.699999999999996
100
AcDbArc
 50
286.2137038924
 51
253.7862961076
  0
ARC
  5
1ED
330
1F
100
AcDbEntity
  8
0
  6
Continuous
 62
     7
370
    18
100
AcDbCircle
 10
65.0376175664
 20
154.8056009622
 30
0.0
 40
8.000000000000005
100
AcDbArc
 50
285.5898981071
 51
254.4101018929
  0
SPLINE
  5
1EE
330
1F
100
AcDbEntity
  8
0
  6
Continuous
 62
     8
370
    18
100
AcDbSpline
210
0.0
220
0.0
230
1.0
 70
     8
 71
     3
 72
    11
 73
     7
 74
     0
 42
0.000000001
 43
0.00000001
 40
0.0
 40
0.0
 40
0.0
 40
0.0
 40
0.2647437718047427
 40
0.6614499609533855
 40
0.9724249346292714
 40
1.0
 40
1.0
 40
1.0
 40
1.0
 10
64.29687927184797
 20
149.5732496360188
 30
0.0
 10
64.2174218010248
 20
149.5907499479858
 30
0.0
 10
64.01890101764558
 20
149.6344736608737
 30
0.0
 10
63.77601334630432
 20
149.7797988092817
 30
0.0
 10
63.62545044177446
 20
149.9403191300794
 30
0.0
 10
63.58939063670289
 20
150.0400950255439
 30
0.0
 10
63.58645354803823
 20
150.0482218207663
 30
0.0
  0
SPLINE
  5
1EF
330
1F
100
AcDbEntity
  8
0
  6
Continuous
 62
     8
370
    18
100
AcDbSpline
210
0.0
220
0.0
230
1.0
 70
     8
 71
     3
 72
    11
 73
     7
 74
     0
 42
0.000000001
 43
0.00000001
 40
0.0
 40
0.0
 40
0.0
 40
0.0
 40
0.0962547409432512
 40
0.4285142039073315
 40
0.8326166577618366
 40
1.0
 40
1.0
 40
1.0
 40
1.0
 10
66.47936521504245
 20
150.0401933545118
 30
0.0
 10
66.4677184764685
 20
150.0132027953687
 30
0.0
 10
66.41586863656214
 20
149.8930441636911
 30
0.0
 10
66.23585822363445
 20
149.7296579345556
 30
0.0
 10
65.9979851919936
 20
149.6188322139243
 30
0.0
 10
65.82811066809886
 20
149.5835759087535
 30
0.0
 10
65.778355860954
 20
149.5732496360188
 30
0.0
  0
ARC
  5
1F0
330
1F
100
AcDbEntity
  8
0
  6
Continuous
 62
     8
370
    18
100
AcDbCircle
 10
65.0376175664
 20
154.8056009622
 30
0.0
 40
5.700000000000021
100
AcDbArc
 50
292.1599175499
 51
247.8400824501
  0
DIMENSION
  5
1F1
330
1F
100
AcDbEntity
  8
0
  6
Continuous
 62
     7
370
    18
100
AcDbDimension
  2
_D_8
 10
70.2223238017
 20
148.7130792139
 30
0.0
 11
47.7963852045
 21
171.0698196706
 31
0.0
 70
   163
  1
<>
 71
     1
 42
-1.0
  3
SLDDIMSTYLE3
100
AcDbDiametricDimension
 15
59.8529113311
 25
160.8981227105
 35
0.0
 40
0.0
  0
INSERT
  5
200
330
1F
100
AcDbEntity
  8
0
  6
Continuous
 62
     7
370
     0
100
AcDbBlockReference
  2
SW_NOTE_0
 10
57.2220325027
 20
130.4753696518
 30
0.0
  0
LEADER
  5
202
330
1F
100
AcDbEntity
  8
0
  6
Continuous
 62
     7
370
     0
100
AcDbLeader
  3
SLDDIMSTYLE4
 76
     2
 10
64.4736846468
 20
143.8052458631
 30
0.0
 10
57.2220325027
 20
130.4753696518
 30
0.0
  0
INSERT
  5
20E
330
1F
100
AcDbEntity
  8
0
  6
Continuous
 62
     7
370
    18
100
AcDbBlockReference
  2
SW_CENTERMARKSYMBOL_0
 10
65.0376175664
 20
154.8056009622
 30
0.0
  0
ENDSEC
  0
SECTION
  2
OBJECTS
  0
DICTIONARY
  5
C
330
0
100
AcDbDictionary
281
     1
  3
ACAD_GROUP
350
D
  3
ACAD_LAYOUT
350
1A
  3
ACAD_MLINESTYLE
350
17
  3
ACAD_PLOTSETTINGS
350
19
  3
ACAD_PLOTSTYLENAME
350
E
  3
ACAD_SCALELIST
350
47
  0
DICTIONARY
  5
D
102
{ACAD_REACTORS
330
C
102
}
330
C
100
AcDbDictionary
281
     1
  0
DICTIONARY
  5
1A
102
{ACAD_REACTORS
330
C
102
}
330
C
100
AcDbDictionary
281
     1
  3
Layout1
350
1E
  3
Layout2
350
26
  3
Model
350
22
  0
DICTIONARY
  5
17
102
{ACAD_REACTORS
330
C
102
}
330
C
100
AcDbDictionary
281
     1
  3
Standard
350
18
  0
DICTIONARY
  5
19
102
{ACAD_REACTORS
330
C
102
}
330
C
100
AcDbDictionary
281
     1
  0
ACDBDICTIONARYWDFLT
  5
E
102
{ACAD_REACTORS
330
C
102
}
330
C
100
AcDbDictionary
281
     1
  3
Normal
350
F
100
AcDbDictionaryWithDefault
340
F
  0
DICTIONARY
  5
47
102
{ACAD_REACTORS
330
C
102
}
330
C
100
AcDbDictionary
281
     1
  3
A0
350
48
  3
A1
350
49
  3
A2
350
4A
  3
A3
350
4B
  3
A4
350
4C
  3
A5
350
4D
  3
A6
350
4E
  3
A7
350
4F
  3
A8
350
50
  3
A9
350
51
  3
B0
350
52
  3
B1
350
53
  3
B2
350
54
  3
B3
350
55
  3
B4
350
56
  3
B5
350
57
  3
B6
350
58
  3
B7
350
59
  3
B8
350
5A
  3
B9
350
5B
  3
C0
350
5C
  3
C1
350
5D
  3
C2
350
5E
  3
C3
350
5F
  3
C4
350
60
  3
C5
350
61
  3
C6
350
62
  3
C7
350
63
  3
C8
350
64
  3
C9
350
65
  3
D0
350
66
  3
D1
350
67
  3
D2
350
68
  0
LAYOUT
  5
1E
102
{ACAD_REACTORS
330
1A
102
}
330
1A
100
AcDbPlotSettings
  1

  2
none_device
  4

  6

 40
0.0
 41
0.0
 42
0.0
 43
0.0
 44
0.0
 45
0.0
 46
0.0
 47
0.0
 48
0.0
 49
0.0
140
0.0
141
0.0
142
1.0
143
1.0
 70
   688
 72
     1
 73
     0
 74
     5
  7

 75
    16
147
1.0
148
0.0
149
0.0
100
AcDbLayout
  1
Layout1
 70
     1
 71
     1
 10
0.0
 20
0.0
 11
420.0
 21
297.0
 12
0.0
 22
0.0
 32
0.0
 14
1.0000000000E+20
 24
1.0000000000E+20
 34
1.0000000000E+20
 15
-1.0000000000E+20
 25
-1.0000000000E+20
 35
-1.0000000000E+20
146
0.0
 13
0.0
 23
0.0
 33
0.0
 16
1.0
 26
0.0
 36
0.0
 17
0.0
 27
1.0
 37
0.0
 76
     0
330
1B
  0
LAYOUT
  5
26
102
{ACAD_REACTORS
330
1A
102
}
330
1A
100
AcDbPlotSettings
  1

  2
none_device
  4

  6

 40
0.0
 41
0.0
 42
0.0
 43
0.0
 44
0.0
 45
0.0
 46
0.0
 47
0.0
 48
0.0
 49
0.0
140
0.0
141
0.0
142
1.0
143
1.0
 70
   688
 72
     1
 73
     0
 74
     5
  7

 75
    16
147
1.0
148
0.0
149
0.0
100
AcDbLayout
  1
Layout2
 70
     1
 71
     2
 10
0.0
 20
0.0
 11
0.0
 21
0.0
 12
0.0
 22
0.0
 32
0.0
 14
0.0
 24
0.0
 34
0.0
 15
0.0
 25
0.0
 35
0.0
146
0.0
 13
0.0
 23
0.0
 33
0.0
 16
1.0
 26
0.0
 36
0.0
 17
0.0
 27
1.0
 37
0.0
 76
     0
330
23
  0
LAYOUT
  5
22
102
{ACAD_REACTORS
330
1A
102
}
330
1A
100
AcDbPlotSettings
  1

  2
none_device
  4
Letter_(8.50_x_11.00_Inches)
  6

 40
6.35
 41
6.35
 42
6.35000508
 43
6.35000508
 44
215.9
 45
279.4
 46
0.0
 47
0.0
 48
0.0
 49
0.0
140
0.0
141
0.0
142
1.0
143
1.0
 70
  1712
 72
     1
 73
     0
 74
     0
  7

 75
     0
147
1.0
148
0.0
149
0.0
100
AcDbLayout
  1
Model
 70
     1
 71
     0
 10
0.0
 20
0.0
 11
210.0
 21
297.0
 12
0.0
 22
0.0
 32
0.0
 14
0.0
 24
0.0
 34
0.0
 15
210.0
 25
297.0
 35
0.0
146
0.0
 13
0.0
 23
0.0
 33
0.0
 16
1.0
 26
0.0
 36
0.0
 17
0.0
 27
1.0
 37
0.0
 76
     0
330
1F
331
29
  0
MLINESTYLE
  5
18
102
{ACAD_REACTORS
330
17
102
}
330
17
100
AcDbMlineStyle
  2
Standard
 70
     0
  3

 62
   256
 51
90.0
 52
90.0
 71
     2
 49
0.5
 62
   256
  6
BYLAYER
 49
-0.5
 62
   256
  6
BYLAYER
  0
ACDBPLACEHOLDER
  5
F
102
{ACAD_REACTORS
330
E
102
}
330
E
  0
SCALE
  5
48
102
{ACAD_REACTORS
330
47
102
}
330
47
100
AcDbScale
 70
     0
300
1:1
140
1.0
141
1.0
290
     1
  0
SCALE
  5
49
102
{ACAD_REACTORS
330
47
102
}
330
47
100
AcDbScale
 70
     0
300
1:2
140
1.0
141
2.0
290
     0
  0
SCALE
  5
4A
102
{ACAD_REACTORS
330
47
102
}
330
47
100
AcDbScale
 70
     0
300
1:4
140
1.0
141
4.0
290
     0
  0
SCALE
  5
4B
102
{ACAD_REACTORS
330
47
102
}
330
47
100
AcDbScale
 70
     0
300
1:5
140
1.0
141
5.0
290
     0
  0
SCALE
  5
4C
102
{ACAD_REACTORS
330
47
102
}
330
47
100
AcDbScale
 70
     0
300
1:8
140
1.0
141
8.0
290
     0
  0
SCALE
  5
4D
102
{ACAD_REACTORS
330
47
102
}
330
47
100
AcDbScale
 70
     0
300
1:10
140
1.0
141
10.0
290
     0
  0
SCALE
  5
4E
102
{ACAD_REACTORS
330
47
102
}
330
47
100
AcDbScale
 70
     0
300
1:16
140
1.0
141
16.0
290
     0
  0
SCALE
  5
4F
102
{ACAD_REACTORS
330
47
102
}
330
47
100
AcDbScale
 70
     0
300
1:20
140
1.0
141
20.0
290
     0
  0
SCALE
  5
50
102
{ACAD_REACTORS
330
47
102
}
330
47
100
AcDbScale
 70
     0
300
1:30
140
1.0
141
30.0
290
     0
  0
SCALE
  5
51
102
{ACAD_REACTORS
330
47
102
}
330
47
100
AcDbScale
 70
     0
300
1:40
140
1.0
141
40.0
290
     0
  0
SCALE
  5
52
102
{ACAD_REACTORS
330
47
102
}
330
47
100
AcDbScale
 70
     0
300
1:50
140
1.0
141
50.0
290
     0
  0
SCALE
  5
53
102
{ACAD_REACTORS
330
47
102
}
330
47
100
AcDbScale
 70
     0
300
1:100
140
1.0
141
100.0
290
     0
  0
SCALE
  5
54
102
{ACAD_REACTORS
330
47
102
}
330
47
100
AcDbScale
 70
     0
300
2:1
140
2.0
141
1.0
290
     0
  0
SCALE
  5
55
102
{ACAD_REACTORS
330
47
102
}
330
47
100
AcDbScale
 70
     0
300
4:1
140
4.0
141
1.0
290
     0
  0
SCALE
  5
56
102
{ACAD_REACTORS
330
47
102
}
330
47
100
AcDbScale
 70
     0
300
8:1
140
8.0
141
1.0
290
     0
  0
SCALE
  5
57
102
{ACAD_REACTORS
330
47
102
}
330
47
100
AcDbScale
 70
     0
300
10:1
140
10.0
141
1.0
290
     0
  0
SCALE
  5
58
102
{ACAD_REACTORS
330
47
102
}
330
47
100
AcDbScale
 70
     0
300
100:1
140
100.0
141
1.0
290
     0
  0
SCALE
  5
59
102
{ACAD_REACTORS
330
47
102
}
330
47
100
AcDbScale
 70
     0
300
1/128" = 1'-0"
140
0.0078125
141
12.0
290
     0
  0
SCALE
  5
5A
102
{ACAD_REACTORS
330
47
102
}
330
47
100
AcDbScale
 70
     0
300
1/64" = 1'-0"
140
0.015625
141
12.0
290
     0
  0
SCALE
  5
5B
102
{ACAD_REACTORS
330
47
102
}
330
47
100
AcDbScale
 70
     0
300
1/32" = 1'-0"
140
0.03125
141
12.0
290
     0
  0
SCALE
  5
5C
102
{ACAD_REACTORS
330
47
102
}
330
47
100
AcDbScale
 70
     0
300
1/16" = 1'-0"
140
0.0625
141
12.0
290
     0
  0
SCALE
  5
5D
102
{ACAD_REACTORS
330
47
102
}
330
47
100
AcDbScale
 70
     0
300
3/32" = 1'-0"
140
0.09375
141
12.0
290
     0
  0
SCALE
  5
5E
102
{ACAD_REACTORS
330
47
102
}
330
47
100
AcDbScale
 70
     0
300
1/8" = 1'-0"
140
0.125
141
12.0
290
     0
  0
SCALE
  5
5F
102
{ACAD_REACTORS
330
47
102
}
330
47
100
AcDbScale
 70
     0
300
3/16" = 1'-0"
140
0.1875
141
12.0
290
     0
  0
SCALE
  5
60
102
{ACAD_REACTORS
330
47
102
}
330
47
100
AcDbScale
 70
     0
300
1/4" = 1'-0"
140
0.25
141
12.0
290
     0
  0
SCALE
  5
61
102
{ACAD_REACTORS
330
47
102
}
330
47
100
AcDbScale
 70
     0
300
3/8" = 1'-0"
140
0.375
141
12.0
290
     0
  0
SCALE
  5
62
102
{ACAD_REACTORS
330
47
102
}
330
47
100
AcDbScale
 70
     0
300
1/2" = 1'-0"
140
0.5
141
12.0
290
     0
  0
SCALE
  5
63
102
{ACAD_REACTORS
330
47
102
}
330
47
100
AcDbScale
 70
     0
300
3/4" = 1'-0"
140
0.75
141
12.0
290
     0
  0
SCALE
  5
64
102
{ACAD_REACTORS
330
47
102
}
330
47
100
AcDbScale
 70
     0
300
1" = 1'-0"
140
1.0
141
12.0
290
     0
  0
SCALE
  5
65
102
{ACAD_REACTORS
330
47
102
}
330
47
100
AcDbScale
 70
     0
300
1-1/2" = 1'-0"
140
1.5
141
12.0
290
     0
  0
SCALE
  5
66
102
{ACAD_REACTORS
330
47
102
}
330
47
100
AcDbScale
 70
     0
300
3" = 1'-0"
140
3.0
141
12.0
290
     0
  0
SCALE
  5
67
102
{ACAD_REACTORS
330
47
102
}
330
47
100
AcDbScale
 70
     0
300
6" = 1'-0"
140
6.0
141
12.0
290
     0
  0
SCALE
  5
68
102
{ACAD_REACTORS
330
47
102
}
330
47
100
AcDbScale
 70
     0
300
1'-0" = 1'-0"
140
12.0
141
12.0
290
     0
  0
ENDSEC
  0
EOF
