  0
SECTION
  2
HEADER
  9
$ACADVER
  1
AC1015
  9
$ACADMAINTVER
 70
     6
  9
$DWGCODEPAGE
  3
DOS932
  9
$INSBASE
 10
0.0
 20
0.0
 30
0.0
  9
$EXTMIN
 10
0.0
 20
0.0
 30
0.0
  9
$EXTMAX
 10
210.0
 20
297.0
 30
0.0
  9
$LIMMIN
 10
0.0
 20
0.0
  9
$LIMMAX
 10
210.0
 20
297.0
  9
$ORTHOMODE
 70
     0
  9
$REGENMODE
 70
     1
  9
$FILLMODE
 70
     1
  9
$QTEXTMODE
 70
     0
  9
$MIRRTEXT
 70
     1
  9
$LTSCALE
 40
1.0
  9
$ATTMODE
 70
     1
  9
$TEXTSIZE
 40
3.5
  9
$TRACEWID
 40
1.0
  9
$TEXTSTYLE
  7
Standard
  9
$CLAYER
  8
0
  9
$CELTYPE
  6
ByLayer
  9
$CECOLOR
 62
   256
  9
$CELTSCALE
 40
1.0
  9
$DISPSILH
 70
     0
  9
$DIMSCALE
 40
1.0
  9
$DIMASZ
 40
3.0
  9
$DIMEXO
 40
1.0
  9
$DIMDLI
 40
3.75
  9
$DIMRND
 40
0.0
  9
$DIMDLE
 40
0.0
  9
$DIMEXE
 40
1.0
  9
$DIMTP
 40
0.0
  9
$DIMTM
 40
0.0
  9
$DIMTXT
 40
3.5
  9
$DIMCEN
 40
2.5
  9
$DIMTSZ
 40
0.0
  9
$DIMTOL
 70
     0
  9
$DIMLIM
 70
     0
  9
$DIMTIH
 70
     1
  9
$DIMTOH
 70
     1
  9
$DIMSE1
 70
     0
  9
$DIMSE2
 70
     0
  9
$DIMTAD
 70
     1
  9
$DIMZIN
 70
     0
  9
$DIMBLK
  1

  9
$DIMASO
 70
     1
  9
$DIMSHO
 70
     1
  9
$DIMPOST
  1

  9
$DIMAPOST
  1

  9
$DIMALT
 70
     0
  9
$DIMALTD
 70
     3
  9
$DIMALTF
 40
0.0393700787
  9
$DIMLFAC
 40
1.0
  9
$DIMTOFL
 70
     1
  9
$DIMTVP
 40
0.0
  9
$DIMTIX
 70
     0
  9
$DIMSOXD
 70
     0
  9
$DIMSAH
 70
     0
  9
$DIMBLK1
  1

  9
$DIMBLK2
  1

  9
$DIMSTYLE
  2
ISO-25
  9
$DIMCLRD
 70
     0
  9
$DIMCLRE
 70
     0
  9
$DIMCLRT
 70
     0
  9
$DIMTFAC
 40
1.0
  9
$DIMGAP
 40
1.524
  9
$DIMJUST
 70
     0
  9
$DIMSD1
 70
     0
  9
$DIMSD2
 70
     0
  9
$DIMTOLJ
 70
     0
  9
$DIMTZIN
 70
     0
  9
$DIMALTZ
 70
     0
  9
$DIMALTTZ
 70
     0
  9
$DIMUPT
 70
     0
  9
$DIMDEC
 70
     1
  9
$DIMTDEC
 70
     3
  9
$DIMALTU
 70
     2
  9
$DIMALTTD
 70
     3
  9
$DIMTXSTY
  7
Standard
  9
$DIMAUNIT
 70
     0
  9
$DIMADEC
 70
     2
  9
$DIMALTRND
 40
0.0
  9
$DIMAZIN
 70
     0
  9
$DIMDSEP
 70
    44
  9
$DIMATFIT
 70
     3
  9
$DIMFRAC
 70
     0
  9
$DIMLDRBLK
  1

  9
$DIMLUNIT
 70
     2
  9
$DIMLWD
 70
    -2
  9
$DIMLWE
 70
    -2
  9
$DIMTMOVE
 70
     0
  9
$LUNITS
 70
     2
  9
$LUPREC
 70
     1
  9
$SKETCHINC
 40
1.0
  9
$FILLETRAD
 40
10.0
  9
$AUNITS
 70
     0
  9
$AUPREC
 70
     2
  9
$MENU
  1
.
  9
$ELEVATION
 40
0.0
  9
$PELEVATION
 40
0.0
  9
$THICKNESS
 40
0.0
  9
$LIMCHECK
 70
     0
  9
$CHAMFERA
 40
0.0
  9
$CHAMFERB
 40
0.0
  9
$CHAMFERC
 40
0.0
  9
$CHAMFERD
 40
0.0
  9
$SKPOLY
 70
     0
  9
$TDCREATE
 40
2459019.469410717
  9
$TDUCREATE
 40
2459019.094410717
  9
$TDUPDATE
 40
2459019.46941287
  9
$TDUUPDATE
 40
2459019.09441287
  9
$TDINDWG
 40
0.0000000116
  9
$TDUSRTIMER
 40
0.0000000116
  9
$USRTIMER
 70
     1
  9
$ANGBASE
 50
0.0
  9
$ANGDIR
 70
     0
  9
$PDMODE
 70
     0
  9
$PDSIZE
 40
-1.0
  9
$PLINEWID
 40
0.0
  9
$SPLFRAME
 70
     0
  9
$SPLINETYPE
 70
     6
  9
$SPLINESEGS
 70
     8
  9
$HANDSEED
  5
22A
  9
$SURFTAB1
 70
     6
  9
$SURFTAB2
 70
     6
  9
$SURFTYPE
 70
     6
  9
$SURFU
 70
     6
  9
$SURFV
 70
     6
  9
$UCSBASE
  2

  9
$UCSNAME
  2

  9
$UCSORG
 10
0.0
 20
0.0
 30
0.0
  9
$UCSXDIR
 10
1.0
 20
0.0
 30
0.0
  9
$UCSYDIR
 10
0.0
 20
1.0
 30
0.0
  9
$UCSORTHOREF
  2

  9
$UCSORTHOVIEW
 70
     0
  9
$UCSORGTOP
 10
0.0
 20
0.0
 30
0.0
  9
$UCSORGBOTTOM
 10
0.0
 20
0.0
 30
0.0
  9
$UCSORGLEFT
 10
0.0
 20
0.0
 30
0.0
  9
$UCSORGRIGHT
 10
0.0
 20
0.0
 30
0.0
  9
$UCSORGFRONT
 10
0.0
 20
0.0
 30
0.0
  9
$UCSORGBACK
 10
0.0
 20
0.0
 30
0.0
  9
$PUCSBASE
  2

  9
$PUCSNAME
  2

  9
$PUCSORG
 10
0.0
 20
0.0
 30
0.0
  9
$PUCSXDIR
 10
1.0
 20
0.0
 30
0.0
  9
$PUCSYDIR
 10
0.0
 20
1.0
 30
0.0
  9
$PUCSORTHOREF
  2

  9
$PUCSORTHOVIEW
 70
     0
  9
$PUCSORGTOP
 10
0.0
 20
0.0
 30
0.0
  9
$PUCSORGBOTTOM
 10
0.0
 20
0.0
 30
0.0
  9
$PUCSORGLEFT
 10
0.0
 20
0.0
 30
0.0
  9
$PUCSORGRIGHT
 10
0.0
 20
0.0
 30
0.0
  9
$PUCSORGFRONT
 10
0.0
 20
0.0
 30
0.0
  9
$PUCSORGBACK
 10
0.0
 20
0.0
 30
0.0
  9
$USERI1
 70
     0
  9
$USERI2
 70
     0
  9
$USERI3
 70
     0
  9
$USERI4
 70
     0
  9
$USERI5
 70
     0
  9
$USERR1
 40
0.0
  9
$USERR2
 40
0.0
  9
$USERR3
 40
0.0
  9
$USERR4
 40
0.0
  9
$USERR5
 40
0.0
  9
$WORLDVIEW
 70
     1
  9
$SHADEDGE
 70
     3
  9
$SHADEDIF
 70
    70
  9
$TILEMODE
 70
     1
  9
$MAXACTVP
 70
    64
  9
$PINSBASE
 10
0.0
 20
0.0
 30
0.0
  9
$PLIMCHECK
 70
     0
  9
$PEXTMIN
 10
1.0000000000E+20
 20
1.0000000000E+20
 30
1.0000000000E+20
  9
$PEXTMAX
 10
-1.0000000000E+20
 20
-1.0000000000E+20
 30
-1.0000000000E+20
  9
$PLIMMIN
 10
0.0
 20
0.0
  9
$PLIMMAX
 10
420.0
 20
297.0
  9
$UNITMODE
 70
     0
  9
$VISRETAIN
 70
     1
  9
$PLINEGEN
 70
     0
  9
$PSLTSCALE
 70
     1
  9
$TREEDEPTH
 70
  3020
  9
$CMLSTYLE
  2
Standard
  9
$CMLJUST
 70
     0
  9
$CMLSCALE
 40
20.0
  9
$PROXYGRAPHICS
 70
     1
  9
$MEASUREMENT
 70
     1
  9
$CELWEIGHT
370
    -1
  9
$ENDCAPS
280
     0
  9
$JOINSTYLE
280
     0
  9
$LWDISPLAY
290
     1
  9
$INSUNITS
 70
     4
  9
$HYPERLINKBASE
  1

  9
$STYLESHEET
  1

  9
$XEDIT
290
     1
  9
$CEPSNTYPE
380
     0
  9
$PSTYLEMODE
290
     1
  9
$FINGERPRINTGUID
  2
{08E74A4B-DBAF-44B2-B729-9415ED85ECE5}
  9
$VERSIONGUID
  2
{FAEB1C32-E019-11D5-929B-00C0DF256EC4}
  9
$EXTNAMES
290
     1
  9
$PSVPSCALE
 40
0.0
  9
$OLESTARTUP
290
     0
  0
ENDSEC
  0
SECTION
  2
CLASSES
  0
CLASS
  1
ACDBDICTIONARYWDFLT
  2
AcDbDictionaryWithDefault
  3
ObjectDBX Classes
 90
        0
280
     0
281
     0
  0
CLASS
  1
VISUALSTYLE
  2
AcDbVisualStyle
  3
ObjectDBX Classes
 90
     4095
280
     0
281
     0
  0
CLASS
  1
MATERIAL
  2
AcDbMaterial
  3
ObjectDBX Classes
 90
     1153
280
     0
281
     0
  0
CLASS
  1
SCALE
  2
AcDbScale
  3
ObjectDBX Classes
 90
     1153
280
     0
281
     0
  0
CLASS
  1
TABLESTYLE
  2
AcDbTableStyle
  3
ObjectDBX Classes
 90
     4095
280
     0
281
     0
  0
CLASS
  1
MLEADERSTYLE
  2
AcDbMLeaderStyle
  3
ACDB_MLEADERSTYLE_CLASS
 90
     4095
280
     0
281
     0
  0
CLASS
  1
SUN
  2
AcDbSun
  3
SCENEOE
 90
     1153
280
     0
281
     0
  0
CLASS
  1
ACDBPLACEHOLDER
  2
AcDbPlaceHolder
  3
ObjectDBX Classes
 90
        0
280
     0
281
     0
  0
CLASS
  1
LAYOUT
  2
AcDbLayout
  3
ObjectDBX Classes
 90
        0
280
     0
281
     0
  0
ENDSEC
  0
SECTION
  2
TABLES
  0
TABLE
  2
VPORT
  5
8
330
0
100
AcDbSymbolTable
 70
     1
  0
VPORT
  5
29
330
8
100
AcDbSymbolTableRecord
100
AcDbViewportTableRecord
  2
*Active
 70
     0
 10
0.0
 20
0.0
 11
1.0
 21
1.0
 12
105.0
 22
148.5
 13
0.0
 23
0.0
 14
10.0
 24
10.0
 15
10.0
 25
10.0
 16
0.0
 26
0.0
 36
1.0
 17
0.0
 27
0.0
 37
0.0
 40
297.0
 41
0.7070707071
 42
50.0
 43
0.0
 44
0.0
 50
0.0
 51
0.0
 71
     0
 72
  2000
 73
     1
 74
     3
 75
     0
 76
     0
 77
     0
 78
     0
281
     0
 65
     1
110
0.0
120
0.0
130
0.0
111
1.0
121
0.0
131
0.0
112
0.0
122
1.0
132
0.0
 79
     0
146
0.0
  0
ENDTAB
  0
TABLE
  2
LTYPE
  5
5
330
0
100
AcDbSymbolTable
 70
     6
  0
LTYPE
  5
14
330
5
100
AcDbSymbolTableRecord
100
AcDbLinetypeTableRecord
  2
ByBlock
 70
     0
  3

 72
    65
 73
     0
 40
0.0
  0
LTYPE
  5
15
330
5
100
AcDbSymbolTableRecord
100
AcDbLinetypeTableRecord
  2
ByLayer
 70
     0
  3

 72
    65
 73
     0
 40
0.0
  0
LTYPE
  5
16
330
5
100
AcDbSymbolTableRecord
100
AcDbLinetypeTableRecord
  2
Continuous
 70
     0
  3
Solid line
 72
    65
 73
     0
 40
0.0
  0
LTYPE
  5
6E
330
5
100
AcDbSymbolTableRecord
100
AcDbLinetypeTableRecord
  2
HIDDEN
 70
     0
  3
Hidden __ __ __ __ __ __ __ __ __ __ __ __ __ __
 72
    65
 73
     2
 40
1.905
 49
1.27
 74
     0
 49
-0.635
 74
     0
  0
LTYPE
  5
6F
330
5
100
AcDbSymbolTableRecord
100
AcDbLinetypeTableRecord
  2
PHANTOM
 70
     0
  3
Phantom ______  __  __  ______  __  __  ______
 72
    65
 73
     6
 40
12.7
 49
6.35
 74
     0
 49
-1.27
 74
     0
 49
1.27
 74
     0
 49
-1.27
 74
     0
 49
1.27
 74
     0
 49
-1.27
 74
     0
  0
LTYPE
  5
70
330
5
100
AcDbSymbolTableRecord
100
AcDbLinetypeTableRecord
  2
CENTER
 70
     0
  3
Center ____ _ ____ _ ____ _ ____ _ ____ _ ____
 72
    65
 73
     4
 40
10.16
 49
6.35
 74
     0
 49
-1.27
 74
     0
 49
1.27
 74
     0
 49
-1.27
 74
     0
  0
LTYPE
  5
71
330
5
100
AcDbSymbolTableRecord
100
AcDbLinetypeTableRecord
  2
CENTERX2
 70
     0
  3
Center (2x) ________  __  ________  __  _____
 72
    65
 73
     4
 40
20.32
 49
12.7
 74
     0
 49
-2.54
 74
     0
 49
2.54
 74
     0
 49
-2.54
 74
     0
  0
LTYPE
  5
72
330
5
100
AcDbSymbolTableRecord
100
AcDbLinetypeTableRecord
  2
DOT2
 70
     0
  3
Dot (.5x) ........................................
 72
    65
 73
     2
 40
0.635
 49
0.0
 74
     0
 49
-0.635
 74
     0
  0
ENDTAB
  0
TABLE
  2
LAYER
  5
2
330
0
100
AcDbSymbolTable
 70
     1
  0
LAYER
  5
10
330
2
100
AcDbSymbolTableRecord
100
AcDbLayerTableRecord
  2
0
 70
     0
 62
     7
  6
Continuous
370
    -3
390
F
  0
ENDTAB
  0
TABLE
  2
STYLE
  5
3
330
0
100
AcDbSymbolTable
 70
     2
  0
STYLE
  5
11
330
3
100
AcDbSymbolTableRecord
100
AcDbTextStyleTableRecord
  2
Standard
 70
     0
 40
0.0
 41
1.0
 50
0.0
 71
     0
 42
3.5
  3
txt
  4
bigfont
  0
STYLE
  5
7B
330
3
100
AcDbSymbolTableRecord
100
AcDbTextStyleTableRecord
  2
SLDTEXTSTYLE0
 70
     0
 40
0.0
 41
0.7
 50
0.0
 71
     0
 42
3.5
  3
TXT
  4
bigfont
  0
ENDTAB
  0
TABLE
  2
VIEW
  5
6
330
0
100
AcDbSymbolTable
 70
     0
  0
ENDTAB
  0
TABLE
  2
UCS
  5
7
330
0
100
AcDbSymbolTable
 70
     0
  0
ENDTAB
  0
TABLE
  2
APPID
  5
9
330
0
100
AcDbSymbolTable
 70
     1
  0
APPID
  5
12
330
9
100
AcDbSymbolTableRecord
100
AcDbRegAppTableRecord
  2
ACAD
 70
     0
  0
ENDTAB
  0
TABLE
  2
DIMSTYLE
  5
A
330
0
100
AcDbSymbolTable
 70
     6
100
AcDbDimStyleTable
  0
DIMSTYLE
105
27
330
A
100
AcDbSymbolTableRecord
100
AcDbDimStyleTableRecord
  2
ISO-25
 70
     0
 41
2.5
 42
0.625
 43
3.75
 44
1.25
 73
     0
 74
     0
 77
     1
 78
     8
140
2.5
141
2.5
143
0.0393700787
147
0.625
171
     3
172
     1
178
     0
271
     2
272
     2
274
     3
278
    44
283
     0
284
     8
340
11
  0
DIMSTYLE
105
187
102
{ACAD_REACTORS
330
186
330
1A0
330
1AA
330
1DC
102
}
330
A
100
AcDbSymbolTableRecord
100
AcDbDimStyleTableRecord
  2
SLDDIMSTYLE0
 70
     0
 41
3.0
 44
0.0
 45
0.000000001
 73
     0
 74
     0
 77
     3
 78
    12
 79
     3
140
3.5
147
0.875
173
     1
178
     0
271
     1
272
     3
276
     2
284
    12
340
7B
  0
DIMSTYLE
105
193
102
{ACAD_REACTORS
330
192
102
}
330
A
100
AcDbSymbolTableRecord
100
AcDbDimStyleTableRecord
  2
SLDDIMSTYLE1
 70
     0
 41
3.0
 44
0.0
 45
0.000000001
 73
     0
 74
     0
 77
     3
 78
    12
 79
     3
140
3.5
147
0.875
172
     1
173
     1
178
     0
271
     0
272
     3
276
     2
284
    12
289
     0
340
7B
  0
DIMSTYLE
105
1B6
102
{ACAD_REACTORS
330
1B5
330
1C2
330
1CF
102
}
330
A
100
AcDbSymbolTableRecord
100
AcDbDimStyleTableRecord
  2
SLDDIMSTYLE2
 70
     0
 41
3.0
 44
0.0
 45
0.000000001
 73
     0
 74
     0
 77
     3
 78
    12
 79
     3
140
3.5
147
0.875
172
     1
173
     1
178
     0
271
     1
272
     3
276
     2
284
    12
289
     0
340
7B
  0
DIMSTYLE
105
20D
102
{ACAD_REACTORS
330
20C
102
}
330
A
100
AcDbSymbolTableRecord
100
AcDbDimStyleTableRecord
  2
SLDDIMSTYLE3
 70
     0
 41
3.0
 44
0.0
 45
0.000000001
 78
    12
 79
     3
140
3.5
141
0.0
147
0.875
173
     1
178
     0
271
     1
272
     3
276
     2
284
    12
340
7B
  0
DIMSTYLE
105
21C
330
A
100
AcDbSymbolTableRecord
100
AcDbDimStyleTableRecord
  2
SLDDIMSTYLE4
 70
     0
 41
3.0
 44
0.0
 45
0.000000001
146
3.0
147
0.0
173
     1
178
     0
271
     0
272
     0
276
     2
340
11
  0
ENDTAB
  0
TABLE
  2
BLOCK_RECORD
  5
1
330
0
100
AcDbSymbolTable
 70
    12
  0
BLOCK_RECORD
  5
1F
330
1
100
AcDbSymbolTableRecord
100
AcDbBlockTableRecord
  2
*Model_Space
340
22
  0
BLOCK_RECORD
  5
1B
330
1
100
AcDbSymbolTableRecord
100
AcDbBlockTableRecord
  2
*Paper_Space
340
1E
  0
BLOCK_RECORD
  5
23
330
1
100
AcDbSymbolTableRecord
100
AcDbBlockTableRecord
  2
*Paper_Space0
340
26
  0
BLOCK_RECORD
  5
188
330
1
100
AcDbSymbolTableRecord
100
AcDbBlockTableRecord
  2
_D
340
0
  0
BLOCK_RECORD
  5
194
330
1
100
AcDbSymbolTableRecord
100
AcDbBlockTableRecord
  2
_D_1
340
0
  0
BLOCK_RECORD
  5
1A1
330
1
100
AcDbSymbolTableRecord
100
AcDbBlockTableRecord
  2
_D_2
340
0
  0
BLOCK_RECORD
  5
1AB
330
1
100
AcDbSymbolTableRecord
100
AcDbBlockTableRecord
  2
_D_3
340
0
  0
BLOCK_RECORD
  5
1B7
330
1
100
AcDbSymbolTableRecord
100
AcDbBlockTableRecord
  2
_D_4
340
0
  0
BLOCK_RECORD
  5
1C3
330
1
100
AcDbSymbolTableRecord
100
AcDbBlockTableRecord
  2
_D_5
340
0
  0
BLOCK_RECORD
  5
1D0
330
1
100
AcDbSymbolTableRecord
100
AcDbBlockTableRecord
  2
_D_6
340
0
  0
BLOCK_RECORD
  5
1DD
330
1
100
AcDbSymbolTableRecord
100
AcDbBlockTableRecord
  2
_D_7
340
0
  0
BLOCK_RECORD
  5
20E
330
1
100
AcDbSymbolTableRecord
100
AcDbBlockTableRecord
  2
_D_8
340
0
  0
BLOCK_RECORD
  5
216
330
1
100
AcDbSymbolTableRecord
100
AcDbBlockTableRecord
  2
SW_NOTE_0
340
0
102
{BLKREFS
331
21B
102
}
  0
BLOCK_RECORD
  5
21E
330
1
100
AcDbSymbolTableRecord
100
AcDbBlockTableRecord
  2
SW_CENTERMARKSYMBOL_0
340
0
102
{BLKREFS
331
229
102
}
  0
ENDTAB
  0
ENDSEC
  0
SECTION
  2
BLOCKS
  0
BLOCK
  5
20
330
1F
100
AcDbEntity
  8
0
100
AcDbBlockBegin
  2
*Model_Space
 70
     0
 10
0.0
 20
0.0
 30
0.0
  3
*Model_Space
  1

  0
ENDBLK
  5
21
330
1F
100
AcDbEntity
  8
0
100
AcDbBlockEnd
  0
BLOCK
  5
1C
330
1B
100
AcDbEntity
 67
     1
  8
0
100
AcDbBlockBegin
  2
*Paper_Space
 70
     0
 10
0.0
 20
0.0
 30
0.0
  3
*Paper_Space
  1

  0
ENDBLK
  5
1D
330
1B
100
AcDbEntity
 67
     1
  8
0
100
AcDbBlockEnd
  0
BLOCK
  5
24
330
23
100
AcDbEntity
  8
0
100
AcDbBlockBegin
  2
*Paper_Space0
 70
     0
 10
0.0
 20
0.0
 30
0.0
  3
*Paper_Space0
  1

  0
ENDBLK
  5
25
330
23
100
AcDbEntity
  8
0
100
AcDbBlockEnd
  0
BLOCK
  5
189
330
188
100
AcDbEntity
  8
0
100
AcDbBlockBegin
  2
_D
 70
     0
 10
0.0
 20
0.0
 30
0.0
  3
_D
  1

  0
SOLID
  5
18B
330
188
100
AcDbEntity
  8
0
  6
Continuous
 62
     7
370
    18
100
AcDbTrace
 10
190.1649082068
 20
175.1847044335
 30
0.0
 11
189.4149082068
 21
172.1847044335
 31
0.0
 12
190.9149082068
 22
172.1847044335
 32
0.0
 13
190.9149082068
 23
172.1847044335
 33
0.0
  0
SOLID
  5
18C
330
188
100
AcDbEntity
  8
0
  6
Continuous
 62
     7
370
    18
100
AcDbTrace
 10
190.1649082068
 20
163.1847044335
 30
0.0
 11
190.9149082068
 21
166.1847044335
 31
0.0
 12
189.4149082068
 22
166.1847044335
 32
0.0
 13
189.4149082068
 23
166.1847044335
 33
0.0
  0
LINE
  5
18D
330
188
100
AcDbEntity
  8
0
  6
Continuous
 62
     7
370
    18
100
AcDbLine
 10
172.1649082068
 20
175.1847044335
 30
0.0
 11
191.1649082068
 21
175.1847044335
 31
0.0
  0
LINE
  5
18E
330
188
100
AcDbEntity
  8
0
  6
Continuous
 62
     7
370
    18
100
AcDbLine
 10
172.1649082068
 20
163.1847044335
 30
0.0
 11
191.1649082068
 21
163.1847044335
 31
0.0
  0
LINE
  5
18F
330
188
100
AcDbEntity
  8
0
  6
Continuous
 62
     7
370
    18
100
AcDbLine
 10
190.1649082068
 20
175.1847044335
 30
0.0
 11
190.1649082068
 21
163.1847044335
 31
0.0
  0
MTEXT
  5
190
330
188
100
AcDbEntity
  8
0
  6
Continuous
 62
     7
370
    18
100
AcDbMText
 10
185.6531708848
 20
165.2129335621
 30
0.0
 40
3.5
 41
0.0
 71
     1
 72
     1
  1
%%c
  7
SLDTEXTSTYLE0
 11
-7.044195017643634E-15
 21
1.0
 31
0.0
 73
     1
 44
1.0
  0
MTEXT
  5
191
330
188
100
AcDbEntity
  8
0
  6
Continuous
 62
     7
370
    18
100
AcDbMText
 10
185.6531708848
 20
169.0828640771
 30
0.0
 40
3.5
 41
0.0
 71
     1
 72
     1
  1
12
  7
SLDTEXTSTYLE0
 11
-7.044195017643634E-15
 21
1.0
 31
0.0
 73
     1
 44
1.0
  0
ENDBLK
  5
18A
330
188
100
AcDbEntity
  8
0
100
AcDbBlockEnd
  0
BLOCK
  5
195
330
194
100
AcDbEntity
  8
0
100
AcDbBlockBegin
  2
_D_1
 70
     0
 10
0.0
 20
0.0
 30
0.0
  3
_D_1
  1

  0
SOLID
  5
197
330
194
100
AcDbEntity
  8
0
  6
Continuous
 62
     7
370
    18
100
AcDbTrace
 10
181.145233475
 20
171.5847044335
 30
0.0
 11
181.895233475
 21
174.5847044335
 31
0.0
 12
180.395233475
 22
174.5847044335
 32
0.0
 13
180.395233475
 23
174.5847044335
 33
0.0
  0
SOLID
  5
198
330
194
100
AcDbEntity
  8
0
  6
Continuous
 62
     7
370
    18
100
AcDbTrace
 10
181.145233475
 20
166.7847044335
 30
0.0
 11
180.395233475
 21
163.7847044335
 31
0.0
 12
181.895233475
 22
163.7847044335
 32
0.0
 13
181.895233475
 23
163.7847044335
 33
0.0
  0
LINE
  5
199
330
194
100
AcDbEntity
  8
0
  6
Continuous
 62
     7
370
    18
100
AcDbLine
 10
174.6649082068
 20
171.5847044335
 30
0.0
 11
182.145233475
 21
171.5847044335
 31
0.0
  0
LINE
  5
19A
330
194
100
AcDbEntity
  8
0
  6
Continuous
 62
     7
370
    18
100
AcDbLine
 10
174.6649082068
 20
166.7847044335
 30
0.0
 11
182.145233475
 21
166.7847044335
 31
0.0
  0
LINE
  5
19B
330
194
100
AcDbEntity
  8
0
  6
Continuous
 62
     7
370
    18
100
AcDbLine
 10
181.145233475
 20
171.5847044335
 30
0.0
 11
181.145233475
 21
182.8079994266
 31
0.0
  0
LINE
  5
19C
330
194
100
AcDbEntity
  8
0
  6
Continuous
 62
     7
370
    18
100
AcDbLine
 10
181.145233475
 20
171.5847044335
 30
0.0
 11
181.145233475
 21
166.7847044335
 31
0.0
  0
LINE
  5
19D
330
194
100
AcDbEntity
  8
0
  6
Continuous
 62
     7
370
    18
100
AcDbLine
 10
181.145233475
 20
166.7847044335
 30
0.0
 11
181.145233475
 21
161.7847044335
 31
0.0
  0
MTEXT
  5
19E
330
194
100
AcDbEntity
  8
0
  6
Continuous
 62
     7
370
    18
100
AcDbMText
 10
176.633496153
 20
176.9012634141
 30
0.0
 40
3.5
 41
0.0
 71
     1
 72
     1
  1
%%c
  7
SLDTEXTSTYLE0
 11
-7.044195017643634E-15
 21
1.0
 31
0.0
 73
     1
 44
1.0
  0
MTEXT
  5
19F
330
194
100
AcDbEntity
  8
0
  6
Continuous
 62
     7
370
    18
100
AcDbMText
 10
176.633496153
 20
180.7711939292
 30
0.0
 40
3.5
 41
0.0
 71
     1
 72
     1
  1
5
  7
SLDTEXTSTYLE0
 11
-7.044195017643634E-15
 21
1.0
 31
0.0
 73
     1
 44
1.0
  0
ENDBLK
  5
196
330
194
100
AcDbEntity
  8
0
100
AcDbBlockEnd
  0
BLOCK
  5
1A2
330
1A1
100
AcDbEntity
  8
0
100
AcDbBlockBegin
  2
_D_2
 70
     0
 10
0.0
 20
0.0
 30
0.0
  3
_D_2
  1

  0
SOLID
  5
1A4
330
1A1
100
AcDbEntity
  8
0
  6
Continuous
 62
     7
370
    18
100
AcDbTrace
 10
172.1649082068
 20
144.8847044335
 30
0.0
 11
169.1649082068
 21
145.6347044335
 31
0.0
 12
169.1649082068
 22
144.1347044335
 32
0.0
 13
169.1649082068
 23
144.1347044335
 33
0.0
  0
SOLID
  5
1A5
330
1A1
100
AcDbEntity
  8
0
  6
Continuous
 62
     7
370
    18
100
AcDbTrace
 10
154.1649082068
 20
144.8847044335
 30
0.0
 11
157.1649082068
 21
144.1347044335
 31
0.0
 12
157.1649082068
 22
145.6347044335
 32
0.0
 13
157.1649082068
 23
145.6347044335
 33
0.0
  0
LINE
  5
1A6
330
1A1
100
AcDbEntity
  8
0
  6
Continuous
 62
     7
370
    18
100
AcDbLine
 10
172.1649082068
 20
163.1847044335
 30
0.0
 11
172.1649082068
 21
143.8847044335
 31
0.0
  0
LINE
  5
1A7
330
1A1
100
AcDbEntity
  8
0
  6
Continuous
 62
     7
370
    18
100
AcDbLine
 10
154.1649082068
 20
160.4847044335
 30
0.0
 11
154.1649082068
 21
143.8847044335
 31
0.0
  0
LINE
  5
1A8
330
1A1
100
AcDbEntity
  8
0
  6
Continuous
 62
     7
370
    18
100
AcDbLine
 10
172.1649082068
 20
144.8847044335
 30
0.0
 11
154.1649082068
 21
144.8847044335
 31
0.0
  0
MTEXT
  5
1A9
330
1A1
100
AcDbEntity
  8
0
  6
Continuous
 62
     7
370
    18
100
AcDbMText
 10
161.1281027093
 20
149.3964412899
 30
0.0
 40
3.5
 41
0.0
 71
     1
 72
     1
  1
18
  7
SLDTEXTSTYLE0
 73
     1
 44
1.0
  0
ENDBLK
  5
1A3
330
1A1
100
AcDbEntity
  8
0
100
AcDbBlockEnd
  0
BLOCK
  5
1AC
330
1AB
100
AcDbEntity
  8
0
100
AcDbBlockBegin
  2
_D_3
 70
     0
 10
0.0
 20
0.0
 30
0.0
  3
_D_3
  1

  0
SOLID
  5
1AE
330
1AB
100
AcDbEntity
  8
0
  6
Continuous
 62
     7
370
    18
100
AcDbTrace
 10
120.1649082068
 20
144.8847044335
 30
0.0
 11
123.1649082068
 21
144.1347044335
 31
0.0
 12
123.1649082068
 22
145.6347044335
 32
0.0
 13
123.1649082068
 23
145.6347044335
 33
0.0
  0
SOLID
  5
1AF
330
1AB
100
AcDbEntity
  8
0
  6
Continuous
 62
     7
370
    18
100
AcDbTrace
 10
150.1649082068
 20
144.8847044335
 30
0.0
 11
147.1649082068
 21
145.6347044335
 31
0.0
 12
147.1649082068
 22
144.1347044335
 32
0.0
 13
147.1649082068
 23
144.1347044335
 33
0.0
  0
LINE
  5
1B0
330
1AB
100
AcDbEntity
  8
0
  6
Continuous
 62
     7
370
    18
100
AcDbLine
 10
120.1649082068
 20
164.7347044335
 30
0.0
 11
120.1649082068
 21
143.8847044335
 31
0.0
  0
LINE
  5
1B1
330
1AB
100
AcDbEntity
  8
0
  6
Continuous
 62
     7
370
    18
100
AcDbLine
 10
150.1649082068
 20
164.7347044335
 30
0.0
 11
150.1649082068
 21
143.8847044335
 31
0.0
  0
LINE
  5
1B2
330
1AB
100
AcDbEntity
  8
0
  6
Continuous
 62
     7
370
    18
100
AcDbLine
 10
120.1649082068
 20
144.8847044335
 30
0.0
 11
150.1649082068
 21
144.8847044335
 31
0.0
  0
MTEXT
  5
1B3
330
1AB
100
AcDbEntity
  8
0
  6
Continuous
 62
     7
370
    18
100
AcDbMText
 10
131.0912972118
 20
149.3964412899
 30
0.0
 40
3.5
 41
0.0
 71
     1
 72
     1
  1
30
  7
SLDTEXTSTYLE0
 73
     1
 44
1.0
  0
MTEXT
  5
1B4
330
1AB
100
AcDbEntity
  8
0
  6
Continuous
 62
     7
370
    18
100
AcDbMText
 10
135.1649082068
 20
149.3964412899
 30
0.0
 40
3.5
 41
0.0
 71
     1
 72
     1
  1
st
  7
SLDTEXTSTYLE0
 73
     1
 44
1.0
  0
ENDBLK
  5
1AD
330
1AB
100
AcDbEntity
  8
0
100
AcDbBlockEnd
  0
BLOCK
  5
1B8
330
1B7
100
AcDbEntity
  8
0
100
AcDbBlockBegin
  2
_D_4
 70
     0
 10
0.0
 20
0.0
 30
0.0
  3
_D_4
  1

  0
SOLID
  5
1BA
330
1B7
100
AcDbEntity
  8
0
  6
Continuous
 62
     7
370
    18
100
AcDbTrace
 10
100.6649082068
 20
183.7055906881
 30
0.0
 11
97.6649082068
 21
184.4555906881
 31
0.0
 12
97.6649082068
 22
182.9555906881
 32
0.0
 13
97.6649082068
 23
182.9555906881
 33
0.0
  0
SOLID
  5
1BB
330
1B7
100
AcDbEntity
  8
0
  6
Continuous
 62
     7
370
    18
100
AcDbTrace
 10
106.1649082068
 20
183.7055906881
 30
0.0
 11
109.1649082068
 21
182.9555906881
 31
0.0
 12
109.1649082068
 22
184.4555906881
 32
0.0
 13
109.1649082068
 23
184.4555906881
 33
0.0
  0
LINE
  5
1BC
330
1B7
100
AcDbEntity
  8
0
  6
Continuous
 62
     7
370
    18
100
AcDbLine
 10
100.6649082068
 20
173.3847044335
 30
0.0
 11
100.6649082068
 21
184.7055906881
 31
0.0
  0
LINE
  5
1BD
330
1B7
100
AcDbEntity
  8
0
  6
Continuous
 62
     7
370
    18
100
AcDbLine
 10
106.1649082068
 20
174.8847044335
 30
0.0
 11
106.1649082068
 21
184.7055906881
 31
0.0
  0
LINE
  5
1BE
330
1B7
100
AcDbEntity
  8
0
  6
Continuous
 62
     7
370
    18
100
AcDbLine
 10
100.6649082068
 20
183.7055906881
 30
0.0
 11
95.6649082068
 21
183.7055906881
 31
0.0
  0
LINE
  5
1BF
330
1B7
100
AcDbEntity
  8
0
  6
Continuous
 62
     7
370
    18
100
AcDbLine
 10
100.6649082068
 20
183.7055906881
 30
0.0
 11
106.1649082068
 21
183.7055906881
 31
0.0
  0
LINE
  5
1C0
330
1B7
100
AcDbEntity
  8
0
  6
Continuous
 62
     7
370
    18
100
AcDbLine
 10
106.1649082068
 20
183.7055906881
 30
0.0
 11
116.9028602638
 21
183.7055906881
 31
0.0
  0
MTEXT
  5
1C1
330
1B7
100
AcDbEntity
  8
0
  6
Continuous
 62
     7
370
    18
100
AcDbMText
 10
110.7924435385
 20
188.2173275445
 30
0.0
 40
3.5
 41
0.0
 71
     1
 72
     1
  1
5.5
  7
SLDTEXTSTYLE0
 73
     1
 44
1.0
  0
ENDBLK
  5
1B9
330
1B7
100
AcDbEntity
  8
0
100
AcDbBlockEnd
  0
BLOCK
  5
1C4
330
1C3
100
AcDbEntity
  8
0
100
AcDbBlockBegin
  2
_D_5
 70
     0
 10
0.0
 20
0.0
 30
0.0
  3
_D_5
  1

  0
SOLID
  5
1C6
330
1C3
100
AcDbEntity
  8
0
  6
Continuous
 62
     7
370
    18
100
AcDbTrace
 10
91.4599552955
 20
172.6847044335
 30
0.0
 11
92.2099552955
 21
175.6847044335
 31
0.0
 12
90.7099552955
 22
175.6847044335
 32
0.0
 13
90.7099552955
 23
175.6847044335
 33
0.0
  0
SOLID
  5
1C7
330
1C3
100
AcDbEntity
  8
0
  6
Continuous
 62
     7
370
    18
100
AcDbTrace
 10
91.4599552955
 20
165.6847044335
 30
0.0
 11
90.7099552955
 21
162.6847044335
 31
0.0
 12
92.2099552955
 22
162.6847044335
 32
0.0
 13
92.2099552955
 23
162.6847044335
 33
0.0
  0
LINE
  5
1C8
330
1C3
100
AcDbEntity
  8
0
  6
Continuous
 62
     7
370
    18
100
AcDbLine
 10
99.9649082068
 20
172.6847044335
 30
0.0
 11
90.4599552955
 21
172.6847044335
 31
0.0
  0
LINE
  5
1C9
330
1C3
100
AcDbEntity
  8
0
  6
Continuous
 62
     7
370
    18
100
AcDbLine
 10
99.9649082068
 20
165.6847044335
 30
0.0
 11
90.4599552955
 21
165.6847044335
 31
0.0
  0
LINE
  5
1CA
330
1C3
100
AcDbEntity
  8
0
  6
Continuous
 62
     7
370
    18
100
AcDbLine
 10
91.4599552955
 20
172.6847044335
 30
0.0
 11
91.4599552955
 21
177.6847044335
 31
0.0
  0
LINE
  5
1CB
330
1C3
100
AcDbEntity
  8
0
  6
Continuous
 62
     7
370
    18
100
AcDbLine
 10
91.4599552955
 20
172.6847044335
 30
0.0
 11
91.4599552955
 21
165.6847044335
 31
0.0
  0
LINE
  5
1CC
330
1C3
100
AcDbEntity
  8
0
  6
Continuous
 62
     7
370
    18
100
AcDbLine
 10
91.4599552955
 20
165.6847044335
 30
0.0
 11
91.4599552955
 21
160.6847044335
 31
0.0
  0
MTEXT
  5
1CD
330
1C3
100
AcDbEntity
  8
0
  6
Continuous
 62
     7
370
    18
100
AcDbMText
 10
86.9482179735
 20
166.2313364272
 30
0.0
 40
3.5
 41
0.0
 71
     1
 72
     1
  1
%%c
  7
SLDTEXTSTYLE0
 11
-7.044195017643634E-15
 21
1.0
 31
0.0
 73
     1
 44
1.0
  0
MTEXT
  5
1CE
330
1C3
100
AcDbEntity
  8
0
  6
Continuous
 62
     7
370
    18
100
AcDbMText
 10
86.9482179735
 20
170.1012669423
 30
0.0
 40
3.5
 41
0.0
 71
     1
 72
     1
  1
7
  7
SLDTEXTSTYLE0
 11
-7.044195017643634E-15
 21
1.0
 31
0.0
 73
     1
 44
1.0
  0
ENDBLK
  5
1C5
330
1C3
100
AcDbEntity
  8
0
100
AcDbBlockEnd
  0
BLOCK
  5
1D1
330
1D0
100
AcDbEntity
  8
0
100
AcDbBlockBegin
  2
_D_6
 70
     0
 10
0.0
 20
0.0
 30
0.0
  3
_D_6
  1

  0
SOLID
  5
1D3
330
1D0
100
AcDbEntity
  8
0
  6
Continuous
 62
     7
370
    18
100
AcDbTrace
 10
82.245792525
 20
174.1847044335
 30
0.0
 11
82.995792525
 21
177.1847044335
 31
0.0
 12
81.495792525
 22
177.1847044335
 32
0.0
 13
81.495792525
 23
177.1847044335
 33
0.0
  0
SOLID
  5
1D4
330
1D0
100
AcDbEntity
  8
0
  6
Continuous
 62
     7
370
    18
100
AcDbTrace
 10
82.245792525
 20
164.1847044335
 30
0.0
 11
81.495792525
 21
161.1847044335
 31
0.0
 12
82.995792525
 22
161.1847044335
 32
0.0
 13
82.995792525
 23
161.1847044335
 33
0.0
  0
LINE
  5
1D5
330
1D0
100
AcDbEntity
  8
0
  6
Continuous
 62
     7
370
    18
100
AcDbLine
 10
105.4649082068
 20
174.1847044335
 30
0.0
 11
81.245792525
 21
174.1847044335
 31
0.0
  0
LINE
  5
1D6
330
1D0
100
AcDbEntity
  8
0
  6
Continuous
 62
     7
370
    18
100
AcDbLine
 10
105.4649082068
 20
164.1847044335
 30
0.0
 11
81.245792525
 21
164.1847044335
 31
0.0
  0
LINE
  5
1D7
330
1D0
100
AcDbEntity
  8
0
  6
Continuous
 62
     7
370
    18
100
AcDbLine
 10
82.245792525
 20
174.1847044335
 30
0.0
 11
82.245792525
 21
179.1847044335
 31
0.0
  0
LINE
  5
1D8
330
1D0
100
AcDbEntity
  8
0
  6
Continuous
 62
     7
370
    18
100
AcDbLine
 10
82.245792525
 20
174.1847044335
 30
0.0
 11
82.245792525
 21
164.1847044335
 31
0.0
  0
LINE
  5
1D9
330
1D0
100
AcDbEntity
  8
0
  6
Continuous
 62
     7
370
    18
100
AcDbLine
 10
82.245792525
 20
164.1847044335
 30
0.0
 11
82.245792525
 21
159.1847044335
 31
0.0
  0
MTEXT
  5
1DA
330
1D0
100
AcDbEntity
  8
0
  6
Continuous
 62
     7
370
    18
100
AcDbMText
 10
77.734055203
 20
165.2129335621
 30
0.0
 40
3.5
 41
0.0
 71
     1
 72
     1
  1
%%c
  7
SLDTEXTSTYLE0
 11
-7.044195017643634E-15
 21
1.0
 31
0.0
 73
     1
 44
1.0
  0
MTEXT
  5
1DB
330
1D0
100
AcDbEntity
  8
0
  6
Continuous
 62
     7
370
    18
100
AcDbMText
 10
77.734055203
 20
169.0828640771
 30
0.0
 40
3.5
 41
0.0
 71
     1
 72
     1
  1
10
  7
SLDTEXTSTYLE0
 11
-7.044195017643634E-15
 21
1.0
 31
0.0
 73
     1
 44
1.0
  0
ENDBLK
  5
1D2
330
1D0
100
AcDbEntity
  8
0
100
AcDbBlockEnd
  0
BLOCK
  5
1DE
330
1DD
100
AcDbEntity
  8
0
100
AcDbBlockBegin
  2
_D_7
 70
     0
 10
0.0
 20
0.0
 30
0.0
  3
_D_7
  1

  0
SOLID
  5
1E0
330
1DD
100
AcDbEntity
  8
0
  6
Continuous
 62
     7
370
    18
100
AcDbTrace
 10
100.6649082068
 20
195.5759225252
 30
0.0
 11
103.6649082068
 21
194.8259225252
 31
0.0
 12
103.6649082068
 22
196.3259225252
 32
0.0
 13
103.6649082068
 23
196.3259225252
 33
0.0
  0
SOLID
  5
1E1
330
1DD
100
AcDbEntity
  8
0
  6
Continuous
 62
     7
370
    18
100
AcDbTrace
 10
174.1649082068
 20
195.5759225252
 30
0.0
 11
171.1649082068
 21
196.3259225252
 31
0.0
 12
171.1649082068
 22
194.8259225252
 32
0.0
 13
171.1649082068
 23
194.8259225252
 33
0.0
  0
LINE
  5
1E2
330
1DD
100
AcDbEntity
  8
0
  6
Continuous
 62
     7
370
    18
100
AcDbLine
 10
100.6649082068
 20
173.3847044335
 30
0.0
 11
100.6649082068
 21
196.5759225252
 31
0.0
  0
LINE
  5
1E3
330
1DD
100
AcDbEntity
  8
0
  6
Continuous
 62
     7
370
    18
100
AcDbLine
 10
174.1649082068
 20
172.1847044335
 30
0.0
 11
174.1649082068
 21
196.5759225252
 31
0.0
  0
LINE
  5
1E4
330
1DD
100
AcDbEntity
  8
0
  6
Continuous
 62
     7
370
    18
100
AcDbLine
 10
100.6649082068
 20
195.5759225252
 30
0.0
 11
174.1649082068
 21
195.5759225252
 31
0.0
  0
MTEXT
  5
1E5
330
1DD
100
AcDbEntity
  8
0
  6
Continuous
 62
     7
370
    18
100
AcDbMText
 10
133.3412972118
 20
200.0876593816
 30
0.0
 40
3.5
 41
0.0
 71
     1
 72
     1
  1
73.5
  7
SLDTEXTSTYLE0
 73
     1
 44
1.0
  0
ENDBLK
  5
1DF
330
1DD
100
AcDbEntity
  8
0
100
AcDbBlockEnd
  0
BLOCK
  5
20F
330
20E
100
AcDbEntity
  8
0
100
AcDbBlockBegin
  2
_D_8
 70
     0
 10
0.0
 20
0.0
 30
0.0
  3
_D_8
  1

  0
SOLID
  5
211
330
20E
100
AcDbEntity
  8
0
  6
Continuous
 62
     7
370
    18
100
AcDbTrace
 10
57.8645066699
 20
175.7584005057
 30
0.0
 11
56.7710818219
 21
178.6509637465
 31
0.0
 12
55.5385138084
 22
177.7961093191
 32
0.0
 13
55.5385138084
 23
177.7961093191
 33
0.0
  0
LINE
  5
212
330
20E
100
AcDbEntity
  8
0
  6
Continuous
 62
     7
370
    18
100
AcDbLine
 10
57.8645066699
 20
175.7584005057
 30
0.0
 11
50.4424436677
 21
186.4598686832
 31
0.0
  0
LINE
  5
213
330
20E
100
AcDbEntity
  8
0
  6
Continuous
 62
     7
370
    18
100
AcDbLine
 10
50.4424436677
 20
186.4598686832
 30
0.0
 11
40.9114019249
 21
186.4598686832
 31
0.0
  0
MTEXT
  5
214
330
20E
100
AcDbEntity
  8
0
  6
Continuous
 62
     7
370
    18
100
AcDbMText
 10
40.9114019249
 20
190.9716060052
 30
0.0
 40
3.5
 41
0.0
 71
     1
 72
     1
  1
%%c
  7
SLDTEXTSTYLE0
 73
     1
 44
1.0
  0
MTEXT
  5
215
330
20E
100
AcDbEntity
  8
0
  6
Continuous
 62
     7
370
    18
100
AcDbMText
 10
44.7813324399
 20
190.9716060052
 30
0.0
 40
3.5
 41
0.0
 71
     1
 72
     1
  1
16
  7
SLDTEXTSTYLE0
 73
     1
 44
1.0
  0
ENDBLK
  5
210
330
20E
100
AcDbEntity
  8
0
100
AcDbBlockEnd
  0
BLOCK
  5
217
330
216
100
AcDbEntity
  8
0
100
AcDbBlockBegin
  2
SW_NOTE_0
 70
     0
 10
0.0
 20
0.0
 30
0.0
  3
SW_NOTE_0
  1

  0
LINE
  5
219
330
216
100
AcDbEntity
  8
0
  6
Continuous
 62
     0
370
     0
100
AcDbLine
 10
-34.7488468651
 20
0.0
 30
0.0
 11
0.0
 21
0.0
 31
0.0
  0
MTEXT
  5
21A
330
216
100
AcDbEntity
  8
0
  6
Continuous
 62
     0
370
     0
100
AcDbMText
 10
-35.1948762992
 20
4.5651150709
 30
0.0
 40
3.5
 41
0.0
 71
     1
 72
     1
  1
外径φ6配管用継手
  7
SLDTEXTSTYLE0
 73
     1
 44
1.0
  0
ENDBLK
  5
218
330
216
100
AcDbEntity
  8
0
100
AcDbBlockEnd
  0
BLOCK
  5
21F
330
21E
100
AcDbEntity
  8
0
100
AcDbBlockBegin
  2
SW_CENTERMARKSYMBOL_0
 70
     0
 10
0.0
 20
0.0
 30
0.0
  3
SW_CENTERMARKSYMBOL_0
  1

  0
LINE
  5
221
330
21E
100
AcDbEntity
  8
0
  6
Continuous
 62
     0
370
    18
100
AcDbLine
 10
0.0
 20
0.0
 30
0.0
 11
0.0
 21
2.5
 31
0.0
  0
LINE
  5
222
330
21E
100
AcDbEntity
  8
0
  6
Continuous
 62
     0
370
    18
100
AcDbLine
 10
0.0
 20
0.0
 30
0.0
 11
-2.5
 21
0.0
 31
0.0
  0
LINE
  5
223
330
21E
100
AcDbEntity
  8
0
  6
Continuous
 62
     0
370
    18
100
AcDbLine
 10
0.0
 20
0.0
 30
0.0
 11
0.0
 21
-2.5
 31
0.0
  0
LINE
  5
224
330
21E
100
AcDbEntity
  8
0
  6
Continuous
 62
     0
370
    18
100
AcDbLine
 10
0.0
 20
0.0
 30
0.0
 11
2.5
 21
0.0
 31
0.0
  0
LINE
  5
225
330
21E
100
AcDbEntity
  8
0
  6
Continuous
 62
     0
370
    18
100
AcDbLine
 10
0.0
 20
5.0
 30
0.0
 11
0.0
 21
10.5
 31
0.0
  0
LINE
  5
226
330
21E
100
AcDbEntity
  8
0
  6
Continuous
 62
     0
370
    18
100
AcDbLine
 10
-5.0
 20
0.0
 30
0.0
 11
-10.5
 21
0.0
 31
0.0
  0
LINE
  5
227
330
21E
100
AcDbEntity
  8
0
  6
Continuous
 62
     0
370
    18
100
AcDbLine
 10
0.0
 20
-5.0
 30
0.0
 11
0.0
 21
-16.3965461743
 31
0.0
  0
LINE
  5
228
330
21E
100
AcDbEntity
  8
0
  6
Continuous
 62
     0
370
    18
100
AcDbLine
 10
5.0
 20
0.0
 30
0.0
 11
10.5
 21
0.0
 31
0.0
  0
ENDBLK
  5
220
330
21E
100
AcDbEntity
  8
0
100
AcDbBlockEnd
  0
ENDSEC
  0
SECTION
  2
ENTITIES
  0
LINE
  5
73
330
1F
100
AcDbEntity
  8
0
  6
Continuous
 62
     7
370
    18
100
AcDbLine
 10
20.2604743903
 20
285.0
 30
0.0
 11
196.7604743903
 21
285.0
 31
0.0
  0
LINE
  5
74
330
1F
100
AcDbEntity
  8
0
  6
Continuous
 62
     7
370
    18
100
AcDbLine
 10
20.2604743903
 20
285.0
 30
0.0
 11
20.2604743903
 21
10.0
 31
0.0
  0
LINE
  5
75
330
1F
100
AcDbEntity
  8
0
  6
Continuous
 62
     7
370
    18
100
AcDbLine
 10
20.2604743903
 20
10.0
 30
0.0
 11
196.7604743903
 21
10.0
 31
0.0
  0
LINE
  5
76
330
1F
100
AcDbEntity
  8
0
  6
Continuous
 62
     7
370
    18
100
AcDbLine
 10
196.7604743903
 20
285.0
 30
0.0
 11
196.7604743903
 21
10.0
 31
0.0
  0
LINE
  5
77
330
1F
100
AcDbEntity
  8
0
  6
Continuous
 62
     7
370
    18
100
AcDbLine
 10
127.0104743903
 20
50.75
 30
0.0
 11
196.7604743903
 21
50.75
 31
0.0
  0
LINE
  5
78
330
1F
100
AcDbEntity
  8
0
  6
Continuous
 62
     7
370
    18
100
AcDbLine
 10
127.0104743903
 20
50.75
 30
0.0
 11
127.0104743903
 21
10.0
 31
0.0
  0
LINE
  5
79
330
1F
100
AcDbEntity
  8
0
  6
Continuous
 62
     7
370
    18
100
AcDbLine
 10
127.0104743903
 20
22.75
 30
0.0
 11
196.7604743903
 21
22.75
 31
0.0
  0
LINE
  5
7A
330
1F
100
AcDbEntity
  8
0
  6
Continuous
 62
     7
370
    18
100
AcDbLine
 10
127.0104743903
 20
36.75
 30
0.0
 11
196.7604743903
 21
36.75
 31
0.0
  0
MTEXT
  5
7C
330
1F
100
AcDbEntity
  8
0
  6
Continuous
 62
     7
370
     0
100
AcDbMText
 10
161.94720711
 20
30.4171582345
 30
0.0
 40
4.2333333333
 41
0.0
 71
     2
 72
     1
  1
VFILP-SS-30-P12
  7
SLDTEXTSTYLE0
 73
     1
 44
1.0
  0
MTEXT
  5
7D
330
1F
100
AcDbEntity
  8
0
  6
Continuous
 62
     7
370
     0
100
AcDbMText
 10
161.0903525561
 20
43.9409718514
 30
0.0
 40
4.2333333333
 41
0.0
 71
     2
 72
     1
  1
吸着樹脂具・ミニ用
  7
SLDTEXTSTYLE0
 73
     1
 44
1.0
  0
MTEXT
  5
7E
330
1F
100
AcDbEntity
  8
0
  6
Continuous
 62
     7
370
     0
100
AcDbMText
 10
163.1121112638
 20
16.8228189052
 30
0.0
 40
4.2333333333
 41
0.0
 71
     2
 72
     1
  1
211108
  7
SLDTEXTSTYLE0
 73
     1
 44
1.0
  0
LINE
  5
7F
330
1F
100
AcDbEntity
  8
0
  6
Continuous
 62
     7
370
    18
100
AcDbLine
 10
172.2649086181
 20
165.6847043657
 30
0.0
 11
172.8649075988
 21
165.6847043657
 31
0.0
  0
LINE
  5
80
330
1F
100
AcDbEntity
  8
0
  6
Continuous
 62
     7
370
    18
100
AcDbLine
 10
172.8649075988
 20
171.3464855445
 30
0.0
 11
172.2649086181
 21
171.3464855445
 31
0.0
  0
LINE
  5
81
330
1F
100
AcDbEntity
  8
0
  6
Continuous
 62
     7
370
    18
100
AcDbLine
 10
172.8649075988
 20
172.11991006
 30
0.0
 11
172.2649086181
 21
172.11991006
 31
0.0
  0
LINE
  5
82
330
1F
100
AcDbEntity
  8
0
  6
Continuous
 62
     7
370
    18
100
AcDbLine
 10
113.8649081725
 20
175.1847045259
 30
0.0
 11
112.4649077568
 21
175.1847045259
 31
0.0
  0
LINE
  5
83
330
1F
100
AcDbEntity
  8
0
  6
Continuous
 62
     7
370
    18
100
AcDbLine
 10
112.602845012
 20
163.1847044216
 30
0.0
 11
113.8649081725
 21
163.1847044216
 31
0.0
  0
ARC
  5
84
330
1F
100
AcDbEntity
  8
0
  6
Continuous
 62
     7
370
    18
100
AcDbCircle
 10
113.8649082068
 20
174.8847044335
 30
0.0
 40
0.3000000000000114
100
AcDbArc
 50
0.0
 51
90.0
  0
ARC
  5
85
330
1F
100
AcDbEntity
  8
0
  6
Continuous
 62
     7
370
    18
100
AcDbCircle
 10
113.8649082068
 20
163.4847044335
 30
0.0
 40
0.2999999999999972
100
AcDbArc
 50
270.0
 51
0.0
  0
ARC
  5
86
330
1F
100
AcDbEntity
  8
0
  6
Continuous
 62
     7
370
    18
100
AcDbCircle
 10
112.4649082068
 20
174.8847044335
 30
0.0
 40
0.2999999999999972
100
AcDbArc
 50
90.0
 51
180.0
  0
ARC
  5
87
330
1F
100
AcDbEntity
  8
0
  6
Continuous
 62
     7
370
    18
100
AcDbCircle
 10
119.8649082068
 20
172.6347044335
 30
0.0
 40
0.3000000000000114
100
AcDbArc
 50
0.0
 51
90.0
  0
ARC
  5
88
330
1F
100
AcDbEntity
  8
0
  6
Continuous
 62
     7
370
    18
100
AcDbCircle
 10
119.8649082068
 20
165.7347044335
 30
0.0
 40
0.3000000000000114
100
AcDbArc
 50
270.0
 51
0.0
  0
LINE
  5
89
330
1F
100
AcDbEntity
  8
0
  6
Continuous
 62
     7
370
    18
100
AcDbLine
 10
119.8649082247
 20
172.9347043899
 30
0.0
 11
119.3859858352
 21
172.9347043899
 31
0.0
  0
LINE
  5
8A
330
1F
100
AcDbEntity
  8
0
  6
Continuous
 62
     7
370
    18
100
AcDbLine
 10
118.8795340161
 20
172.9347043899
 30
0.0
 11
115.3872336175
 21
172.9347043899
 31
0.0
  0
LINE
  5
8B
330
1F
100
AcDbEntity
  8
0
  6
Continuous
 62
     7
370
    18
100
AcDbLine
 10
114.8774150673
 20
172.9347043899
 30
0.0
 11
114.1649085942
 21
172.9347043899
 31
0.0
  0
LINE
  5
8C
330
1F
100
AcDbEntity
  8
0
  6
Continuous
 62
     7
370
    18
100
AcDbLine
 10
114.1649085942
 20
165.4347043247
 30
0.0
 11
116.2958230737
 21
165.4347043247
 31
0.0
  0
LINE
  5
8D
330
1F
100
AcDbEntity
  8
0
  6
Continuous
 62
     7
370
    18
100
AcDbLine
 10
116.7658094231
 20
165.4347043247
 30
0.0
 11
119.8649082247
 21
165.4347043247
 31
0.0
  0
ARC
  5
8E
330
1F
100
AcDbEntity
  8
0
  6
Continuous
 62
     7
370
    18
100
AcDbCircle
 10
107.8649082068
 20
173.8847044335
 30
0.0
 40
0.2999999999999972
100
AcDbArc
 50
0.0
 51
90.0
  0
ARC
  5
8F
330
1F
100
AcDbEntity
  8
0
  6
Continuous
 62
     7
370
    18
100
AcDbCircle
 10
106.4649082068
 20
173.8847044335
 30
0.0
 40
0.2999999999999972
100
AcDbArc
 50
90.0
 51
180.0
  0
ARC
  5
90
330
1F
100
AcDbEntity
  8
0
  6
Continuous
 62
     7
370
    18
100
AcDbCircle
 10
106.4649082068
 20
164.4847044335
 30
0.0
 40
0.3000000000000114
100
AcDbArc
 50
180.0
 51
270.0
  0
LINE
  5
91
330
1F
100
AcDbEntity
  8
0
  6
Continuous
 62
     7
370
    18
100
AcDbLine
 10
107.8649081204
 20
174.184704362
 30
0.0
 11
106.4649086359
 21
174.184704362
 31
0.0
  0
LINE
  5
92
330
1F
100
AcDbEntity
  8
0
  6
Continuous
 62
     7
370
    18
100
AcDbLine
 10
106.4649086359
 20
164.1847045855
 30
0.0
 11
107.7287990514
 21
164.1847045855
 31
0.0
  0
LINE
  5
93
330
1F
100
AcDbEntity
  8
0
  6
Continuous
 62
     7
370
    18
100
AcDbLine
 10
112.1649082664
 20
172.9347043899
 30
0.0
 11
108.1649085421
 21
172.9347043899
 31
0.0
  0
ARC
  5
94
330
1F
100
AcDbEntity
  8
0
  6
Continuous
 62
     7
370
    18
100
AcDbCircle
 10
102.3649082068
 20
172.3847044335
 30
0.0
 40
0.2999999999999972
100
AcDbArc
 50
0.0
 51
90.0
  0
ARC
  5
95
330
1F
100
AcDbEntity
  8
0
  6
Continuous
 62
     7
370
    18
100
AcDbCircle
 10
102.3649082068
 20
165.9847044335
 30
0.0
 40
0.3000000000000114
100
AcDbArc
 50
270.0
 51
0.0
  0
LINE
  5
96
330
1F
100
AcDbEntity
  8
0
  6
Continuous
 62
     7
370
    18
100
AcDbLine
 10
102.3649081502
 20
172.6847043489
 30
0.0
 11
100.9649086658
 21
172.6847043489
 31
0.0
  0
LINE
  5
97
330
1F
100
AcDbEntity
  8
0
  6
Continuous
 62
     7
370
    18
100
AcDbLine
 10
100.9649086658
 20
165.6847043657
 30
0.0
 11
102.3649081502
 21
165.6847043657
 31
0.0
  0
ARC
  5
98
330
1F
100
AcDbEntity
  8
0
  6
Continuous
 62
     7
370
    18
100
AcDbCircle
 10
100.9649082068
 20
165.9847044335
 30
0.0
 40
0.3000000000000114
100
AcDbArc
 50
180.0
 51
270.0
  0
ARC
  5
99
330
1F
100
AcDbEntity
  8
0
  6
Continuous
 62
     7
370
    18
100
AcDbCircle
 10
100.9649082068
 20
172.3847044335
 30
0.0
 40
0.3000000000000114
100
AcDbArc
 50
90.0
 51
180.0
  0
LINE
  5
9A
330
1F
100
AcDbEntity
  8
0
  6
Continuous
 62
     7
370
    18
100
AcDbLine
 10
107.6649084601
 20
159.8847039738
 30
0.0
 11
108.1649085421
 21
157.3847044953
 31
0.0
  0
LINE
  5
9B
330
1F
100
AcDbEntity
  8
0
  6
Continuous
 62
     7
370
    18
100
AcDbLine
 10
112.1649082664
 20
157.3847044953
 30
0.0
 11
112.6649083484
 21
159.8847039738
 31
0.0
  0
LINE
  5
9C
330
1F
100
AcDbEntity
  8
0
  6
Continuous
 62
     7
370
    18
100
AcDbLine
 10
107.6649084601
 20
157.3847044953
 30
0.0
 11
108.1649085421
 21
154.8847040856
 31
0.0
  0
LINE
  5
9D
330
1F
100
AcDbEntity
  8
0
  6
Continuous
 62
     7
370
    18
100
AcDbLine
 10
112.1649082664
 20
154.8847040856
 30
0.0
 11
112.6649083484
 21
157.3847044953
 31
0.0
  0
ARC
  5
9E
330
1F
100
AcDbEntity
  8
0
  6
Continuous
 62
     7
370
    18
100
AcDbCircle
 10
173.1649082068
 20
166.9847044335
 30
0.0
 40
0.3000000000000114
100
AcDbArc
 50
180.0
 51
221.8420367925
  0
ARC
  5
9F
330
1F
100
AcDbEntity
  8
0
  6
Continuous
 62
     7
370
    18
100
AcDbCircle
 10
173.1649082068
 20
171.3847044335
 30
0.0
 40
0.3000000000000114
100
AcDbArc
 50
138.1836777598
 51
180.0
  0
LINE
  5
A0
330
1F
100
AcDbEntity
  8
0
  6
Continuous
 62
     7
370
    18
100
AcDbLine
 10
173.7649079326
 20
166.7847043597
 30
0.0
 11
174.1649072531
 21
167.1847043787
 31
0.0
  0
LINE
  5
A1
330
1F
100
AcDbEntity
  8
0
  6
Continuous
 62
     7
370
    18
100
AcDbLine
 10
174.1649072531
 20
171.1847043359
 30
0.0
 11
173.7649079326
 21
171.5847043549
 31
0.0
  0
LINE
  5
A2
330
1F
100
AcDbEntity
  8
0
  6
Continuous
 62
     7
370
    18
100
AcDbLine
 10
106.1649072829
 20
171.6847044179
 30
0.0
 11
102.6649076406
 21
171.6847044179
 31
0.0
  0
LINE
  5
A3
330
1F
100
AcDbEntity
  8
0
  6
Continuous
 62
     7
370
    18
100
AcDbLine
 10
102.6649076406
 20
166.6847045296
 30
0.0
 11
106.1649072829
 21
166.6847045296
 31
0.0
  0
LINE
  5
A4
330
1F
100
AcDbEntity
  8
0
  6
Continuous
 62
     7
370
    18
100
AcDbLine
 10
108.0149078656
 20
163.8909826749
 30
0.0
 11
108.0149078656
 21
159.8847039738
 31
0.0
  0
LINE
  5
A5
330
1F
100
AcDbEntity
  8
0
  6
Continuous
 62
     7
370
    18
100
AcDbLine
 10
112.3149080116
 20
159.8847039738
 30
0.0
 11
112.3149080116
 21
162.8892642209
 31
0.0
  0
LINE
  5
A6
330
1F
100
AcDbEntity
  8
0
  6
Continuous
 62
     7
370
    18
100
AcDbLine
 10
172.2649086181
 20
170.6847044868
 30
0.0
 11
172.1649069253
 21
170.6847044868
 31
0.0
  0
LINE
  5
A7
330
1F
100
AcDbEntity
  8
0
  6
Continuous
 62
     7
370
    18
100
AcDbLine
 10
172.1649069253
 20
167.6847044607
 30
0.0
 11
172.2649086181
 21
167.6847044607
 31
0.0
  0
SPLINE
  5
A8
330
1F
100
AcDbEntity
  8
0
  6
Continuous
 62
     7
370
    18
100
AcDbSpline
210
0.0
220
0.0
230
1.0
 70
     8
 71
     3
 72
    13
 73
     9
 74
     0
 42
0.000000001
 43
0.00000001
 40
0.0
 40
0.0
 40
0.0
 40
0.0
 40
0.2293077617878613
 40
0.4788044844115982
 40
0.6733696525265003
 40
0.8352875056153258
 40
0.9719323213184593
 40
1.0
 40
1.0
 40
1.0
 40
1.0
 10
112.3155040580375
 20
162.8872218304572
 30
0.0
 10
112.319117489912
 20
162.922196134883
 30
0.0
 10
112.3266624913204
 20
162.9952239890981
 30
0.0
 10
112.3837702009221
 20
163.0844268481343
 30
0.0
 10
112.4555927681684
 20
163.1435949778641
 30
0.0
 10
112.5249430615648
 20
163.1729859888394
 30
0.0
 10
112.5739587711974
 20
163.1841938293837
 30
0.0
 10
112.5989608161911
 20
163.183760750132
 30
0.0
 10
112.6032212663038
 20
163.1836869516668
 30
0.0
  0
SPLINE
  5
A9
330
1F
100
AcDbEntity
  8
0
  6
Continuous
 62
     7
370
    18
100
AcDbSpline
210
0.0
220
0.0
230
1.0
 70
     8
 71
     3
 72
    12
 73
     8
 74
     0
 42
0.000000001
 43
0.00000001
 40
0.0
 40
0.0
 40
0.0
 40
0.0
 40
0.2058747143515998
 40
0.433847353966143
 40
0.6719082965027092
 40
0.9363085825819553
 40
1.0
 40
1.0
 40
1.0
 40
1.0
 10
107.7269168484552
 20
164.1819874518809
 30
0.0
 10
107.7579297892079
 20
164.1789403751601
 30
0.0
 10
107.823284499361
 20
164.1725191583689
 30
0.0
 10
107.9125376188723
 20
164.1183253679744
 30
0.0
 10
107.9824632336474
 20
164.033430737439
 30
0.0
 10
108.0156750760922
 20
163.9501578536809
 30
0.0
 10
108.0124900526213
 20
163.9009243849619
 30
0.0
 10
108.0118717539651
 20
163.8913668454883
 30
0.0
  0
LINE
  5
AA
330
1F
100
AcDbEntity
  8
0
  6
Continuous
 62
     7
370
    18
100
AcDbLine
 10
153.8649082098
 20
177.1847043881
 30
0.0
 11
152.4649087254
 21
177.1847043881
 31
0.0
  0
LINE
  5
AB
330
1F
100
AcDbEntity
  8
0
  6
Continuous
 62
     7
370
    18
100
AcDbLine
 10
152.4649087254
 20
161.1847045594
 30
0.0
 11
153.8649082098
 21
161.1847045594
 31
0.0
  0
LINE
  5
AC
330
1F
100
AcDbEntity
  8
0
  6
Continuous
 62
     7
370
    18
100
AcDbLine
 10
152.4649087254
 20
177.1847043881
 30
0.0
 11
152.1649073723
 21
176.884704432
 31
0.0
  0
LINE
  5
AD
330
1F
100
AcDbEntity
  8
0
  6
Continuous
 62
     7
370
    18
100
AcDbLine
 10
152.1649073723
 20
161.4847045155
 30
0.0
 11
152.4649087254
 21
161.1847045594
 31
0.0
  0
LINE
  5
AE
330
1F
100
AcDbEntity
  8
0
  6
Continuous
 62
     7
370
    18
100
AcDbLine
 10
153.8649082098
 20
161.1847045594
 30
0.0
 11
154.1649077002
 21
161.4847045155
 31
0.0
  0
LINE
  5
AF
330
1F
100
AcDbEntity
  8
0
  6
Continuous
 62
     7
370
    18
100
AcDbLine
 10
154.1649077002
 20
176.884704432
 30
0.0
 11
153.8649082098
 21
177.1847043881
 31
0.0
  0
LINE
  5
B0
330
1F
100
AcDbEntity
  8
0
  6
Continuous
 62
     7
370
    18
100
AcDbLine
 10
171.164908624
 20
163.1847044216
 30
0.0
 11
172.1649069253
 21
164.1847045855
 31
0.0
  0
LINE
  5
B1
330
1F
100
AcDbEntity
  8
0
  6
Continuous
 62
     7
370
    18
100
AcDbLine
 10
172.1649069253
 20
174.184704362
 30
0.0
 11
171.164908624
 21
175.1847045259
 31
0.0
  0
LINE
  5
B2
330
1F
100
AcDbEntity
  8
0
  6
Continuous
 62
     7
370
    18
100
AcDbLine
 10
171.164908624
 20
175.1847045259
 30
0.0
 11
154.1649077002
 21
175.1847045259
 31
0.0
  0
LINE
  5
B3
330
1F
100
AcDbEntity
  8
0
  6
Continuous
 62
     7
370
    18
100
AcDbLine
 10
154.1649077002
 20
163.1847044216
 30
0.0
 11
171.164908624
 21
163.1847044216
 31
0.0
  0
LINE
  5
B4
330
1F
100
AcDbEntity
  8
0
  6
Continuous
 62
     7
370
    18
100
AcDbLine
 10
150.4649083975
 20
172.9347043899
 30
0.0
 11
150.1649089071
 21
172.6347044339
 31
0.0
  0
LINE
  5
B5
330
1F
100
AcDbEntity
  8
0
  6
Continuous
 62
     7
370
    18
100
AcDbLine
 10
150.1649089071
 20
165.7347045136
 30
0.0
 11
150.4649083975
 21
165.4347043247
 31
0.0
  0
LINE
  5
B6
330
1F
100
AcDbEntity
  8
0
  6
Continuous
 62
     7
370
    18
100
AcDbLine
 10
152.1649073723
 20
172.9347043899
 30
0.0
 11
151.3862863097
 21
172.9347043899
 31
0.0
  0
LINE
  5
B7
330
1F
100
AcDbEntity
  8
0
  6
Continuous
 62
     7
370
    18
100
AcDbLine
 10
150.8751187387
 20
172.9347043899
 30
0.0
 11
150.4649083975
 21
172.9347043899
 31
0.0
  0
LINE
  5
B8
330
1F
100
AcDbEntity
  8
0
  6
Continuous
 62
     7
370
    18
100
AcDbLine
 10
150.4649083975
 20
165.4347043247
 30
0.0
 11
152.1649073723
 21
165.4347043247
 31
0.0
  0
LWPOLYLINE
  5
B9
330
1F
100
AcDbEntity
  8
0
  6
Continuous
 62
     7
370
    18
100
AcDbPolyline
 90
       22
 70
   128
 43
0.0
 10
114.8233275774
 20
173.1616455824
 10
114.8218560878
 20
173.1264741854
 10
114.8741423998
 20
172.9459114601
 10
114.952231935
 20
172.6784644877
 10
115.0356784377
 20
172.3427681015
 10
115.1281215164
 20
171.9070607093
 10
115.2285767633
 20
171.3666694002
 10
115.3361407954
 20
170.7256391407
 10
115.4407930474
 20
170.0586677641
 10
115.5369958754
 20
169.4238273655
 10
115.6247106295
 20
168.8392440726
 10
115.7039065759
 20
168.3159529809
 10
115.8002388578
 20
167.6984335524
 10
115.8654612403
 20
167.3040400953
 10
115.9441552039
 20
166.8636618876
 10
116.0386700097
 20
166.3928310615
 10
116.1519500341
 20
165.9139983119
 10
116.2867617707
 20
165.4572795839
 10
116.4446973156
 20
165.0638139569
 10
116.6259056802
 20
164.7877340899
 10
116.8104169804
 20
164.6958530643
 10
116.8104169804
 20
164.6958530643
  0
LWPOLYLINE
  5
BA
330
1F
100
AcDbEntity
  8
0
  6
Continuous
 62
     7
370
    18
100
AcDbPolyline
 90
       20
 70
   128
 43
0.0
 10
118.8199684869
 20
173.1610034355
 10
118.8150990668
 20
173.1371825324
 10
118.8855079848
 20
172.9159312551
 10
119.0121394496
 20
172.4454710954
 10
119.0851518798
 20
172.118975245
 10
119.1542043265
 20
171.7740070769
 10
119.274857166
 20
171.0982579268
 10
119.3713289134
 20
170.5055400259
 10
119.4434686943
 20
170.0413472015
 10
119.5187149018
 20
169.5452297451
 10
119.612130747
 20
168.9226715996
 10
119.7238212365
 20
168.1859648549
 10
119.8539144273
 20
167.3656356749
 10
119.9965816371
 20
166.5524536972
 10
120.1511979483
 20
165.8319583391
 10
120.3323574185
 20
165.2414656007
 10
120.5566431775
 20
164.8345074379
 10
120.6869659394
 20
164.7233647988
 10
120.827709968
 20
164.6864783713
 10
120.827709968
 20
164.6864783713
  0
SPLINE
  5
BB
330
1F
100
AcDbEntity
  8
0
  6
Continuous
 62
     7
370
    18
100
AcDbSpline
210
0.0
220
0.0
230
1.0
 70
     8
 71
     3
 72
    26
 73
    22
 74
     0
 42
0.000000001
 43
0.00000001
 40
0.0
 40
0.0
 40
0.0
 40
0.0
 40
0.0245222097496911
 40
0.0861633343769107
 40
0.1514809382668798
 40
0.2197740432448334
 40
0.2844338223386214
 40
0.3432084857700659
 40
0.3960883571874955
 40
0.4429780728152571
 40
0.487853539733504
 40
0.5365000697546186
 40
0.5890282582045191
 40
0.6455689485461354
 40
0.6885011393930491
 40
0.7378599724707388
 40
0.7940360053558683
 40
0.8409481616670055
 40
0.892060549471091
 40
0.9473402920054623
 40
1.0
 40
1.0
 40
1.0
 40
1.0
 10
122.8143731744556
 20
173.1660218672154
 30
0.0
 10
122.8110861816476
 20
173.1635632509547
 30
0.0
 10
122.7995367224715
 20
173.1549244464941
 30
0.0
 10
122.8536644420802
 20
173.0223366641403
 30
0.0
 10
122.9560572491451
 20
172.6864777351222
 30
0.0
 10
123.0825195433095
 20
172.1520269049406
 30
0.0
 10
123.2041449079658
 20
171.5173810142751
 30
0.0
 10
123.3174213426564
 20
170.8499552033286
 30
0.0
 10
123.4194771396574
 20
170.201469033637
 30
0.0
 10
123.5127072345007
 20
169.5866306098874
 30
0.0
 10
123.6032420348755
 20
168.9811355998044
 30
0.0
 10
123.6975094153212
 20
168.3542493900322
 30
0.0
 10
123.7993709397352
 20
167.6962311119873
 30
0.0
 10
123.8971161497601
 20
167.1003661694272
 30
0.0
 10
123.9940737306227
 20
166.5553102775593
 30
0.0
 10
124.0953595579405
 20
166.0524528770385
 30
0.0
 10
124.2088252774902
 20
165.6028261081798
 30
0.0
 10
124.3369648727252
 20
165.2259512325994
 30
0.0
 10
124.4775736785961
 20
164.9377858960306
 30
0.0
 10
124.6360523802102
 20
164.7317750214579
 30
0.0
 10
124.7509996521202
 20
164.7063050117987
 30
0.0
 10
124.8070782197235
 20
164.6938791261313
 30
0.0
  0
SPLINE
  5
BC
330
1F
100
AcDbEntity
  8
0
  6
Continuous
 62
     7
370
    18
100
AcDbSpline
210
0.0
220
0.0
230
1.0
 70
     8
 71
     3
 72
    12
 73
     8
 74
     0
 42
0.000000001
 43
0.00000001
 40
0.0
 40
0.0
 40
0.0
 40
0.0
 40
0.2234016424603226
 40
0.4574971202022474
 40
0.7020899230547415
 40
0.9509090763897119
 40
1.0
 40
1.0
 40
1.0
 40
1.0
 10
126.7837229564382
 20
173.6743973330853
 30
0.0
 10
126.6900913420696
 20
173.627263483345
 30
0.0
 10
126.4983461361627
 20
173.5307395711538
 30
0.0
 10
126.2992723845808
 20
173.1027668193679
 30
0.0
 10
126.136087307579
 20
172.5166454352538
 30
0.0
 10
126.0259367436585
 20
171.9916839140645
 30
0.0
 10
125.9654457392929
 20
171.6422805648158
 30
0.0
 10
125.9554777673973
 20
171.5847043548969
 30
0.0
  0
SPLINE
  5
BD
330
1F
100
AcDbEntity
  8
0
  6
Continuous
 62
     7
370
    18
100
AcDbSpline
210
0.0
220
0.0
230
1.0
 70
     8
 71
     3
 72
    11
 73
     7
 74
     0
 42
0.000000001
 43
0.00000001
 40
0.0
 40
0.0
 40
0.0
 40
0.0
 40
0.1073030302089076
 40
0.4109017372880601
 40
0.7087118453780319
 40
1.0
 40
1.0
 40
1.0
 40
1.0
 10
125.1870064910097
 20
166.7847043597398
 30
0.0
 10
125.1706316992623
 20
166.6922897381211
 30
0.0
 10
125.1079267564134
 20
166.3384010501688
 30
0.0
 10
125.0063149903411
 20
165.8765873095644
 30
0.0
 10
124.8938309693039
 20
165.4343822562426
 30
0.0
 10
124.8576639742861
 20
165.3102686962862
 30
0.0
 10
124.8397806806086
 20
165.2488989518282
 30
0.0
  0
SPLINE
  5
BE
330
1F
100
AcDbEntity
  8
0
  6
Continuous
 62
     7
370
    18
100
AcDbSpline
210
0.0
220
0.0
230
1.0
 70
     8
 71
     3
 72
    12
 73
     8
 74
     0
 42
0.000000001
 43
0.00000001
 40
0.0
 40
0.0
 40
0.0
 40
0.0
 40
0.1916512329759193
 40
0.3921308698938746
 40
0.6013036266562166
 40
0.8200174515784002
 40
1.0
 40
1.0
 40
1.0
 40
1.0
 10
122.8272524925476
 20
173.6832947233019
 30
0.0
 10
122.741877884441
 20
173.6615898158258
 30
0.0
 10
122.5671958914068
 20
173.6171801654551
 30
0.0
 10
122.3752281622707
 20
173.2995206491702
 30
0.0
 10
122.2161033976929
 20
172.8351671969713
 30
0.0
 10
122.0814880455936
 20
172.2692482076069
 30
0.0
 10
121.9944278460529
 20
171.7976133489574
 30
0.0
 10
121.9551264687968
 20
171.5847043548969
 30
0.0
  0
SPLINE
  5
BF
330
1F
100
AcDbEntity
  8
0
  6
Continuous
 62
     7
370
    18
100
AcDbSpline
210
0.0
220
0.0
230
1.0
 70
     8
 71
     3
 72
    14
 73
    10
 74
     0
 42
0.000000001
 43
0.00000001
 40
0.0
 40
0.0
 40
0.0
 40
0.0
 40
0.1552696693661237
 40
0.2780120477159164
 40
0.4101433418919366
 40
0.5510252503348928
 40
0.7003185812938508
 40
0.8580528951719312
 40
1.0
 40
1.0
 40
1.0
 40
1.0
 10
121.187717132975
 20
166.7847043597398
 30
0.0
 10
121.1579742441861
 20
166.6240740985542
 30
0.0
 10
121.1047192752604
 20
166.3364638523315
 30
0.0
 10
121.0327941798583
 20
166.0013634281356
 30
0.0
 10
120.9698635621187
 20
165.7225837621802
 30
0.0
 10
120.9142561899006
 20
165.4890392131497
 30
0.0
 10
120.8705347553713
 20
165.3158661719271
 30
0.0
 10
120.8415457245035
 20
165.2101686090271
 30
0.0
 10
120.8313686271385
 20
165.1975327453717
 30
0.0
 10
120.8265481430633
 20
165.1915476420221
 30
0.0
  0
SPLINE
  5
C0
330
1F
100
AcDbEntity
  8
0
  6
Continuous
 62
     7
370
    18
100
AcDbSpline
210
0.0
220
0.0
230
1.0
 70
     8
 71
     3
 72
    10
 73
     6
 74
     0
 42
0.000000001
 43
0.00000001
 40
0.0
 40
0.0
 40
0.0
 40
0.0
 40
0.3798156884791029
 40
0.7688644612043796
 40
1.0
 40
1.0
 40
1.0
 40
1.0
 10
118.8285208221121
 20
173.6826539733705
 30
0.0
 10
118.7344363210727
 20
173.6556862361706
 30
0.0
 10
118.5439801830206
 20
173.6010951927749
 30
0.0
 10
118.3730320755681
 20
173.3066982707853
 30
0.0
 10
118.2922955048163
 20
173.035701689639
 30
0.0
 10
118.2622059162302
 20
172.9347043899146
 30
0.0
  0
LINE
  5
C1
330
1F
100
AcDbEntity
  8
0
  6
Continuous
 62
     7
370
    18
100
AcDbLine
 10
116.8755518186
 20
165.4347043247
 30
0.0
 11
116.8124807912
 21
165.2417044849
 31
0.0
  0
SPLINE
  5
C2
330
1F
100
AcDbEntity
  8
0
  6
Continuous
 62
     7
370
    18
100
AcDbSpline
210
0.0
220
0.0
230
1.0
 70
     8
 71
     3
 72
    11
 73
     7
 74
     0
 42
0.000000001
 43
0.00000001
 40
0.0
 40
0.0
 40
0.0
 40
0.0
 40
0.3291890593815816
 40
0.6555377371198923
 40
0.9770413957881345
 40
0.9999999999999999
 40
0.9999999999999999
 40
0.9999999999999999
 40
0.9999999999999999
 10
114.8282840761883
 20
173.68244396013
 30
0.0
 10
114.761642154853
 20
173.6679542347669
 30
0.0
 10
114.6289333267057
 20
173.6390998074848
 30
0.0
 10
114.4412923810242
 20
173.3762413271697
 30
0.0
 10
114.3164125334895
 20
173.1324884459469
 30
0.0
 10
114.2651606861164
 20
172.9470630942468
 30
0.0
 10
114.2617447215659
 20
172.9347043899146
 30
0.0
  0
SPLINE
  5
C3
330
1F
100
AcDbEntity
  8
0
  6
Continuous
 62
     7
370
    18
100
AcDbSpline
210
0.0
220
0.0
230
1.0
 70
     8
 71
     3
 72
     9
 73
     5
 74
     0
 42
0.000000001
 43
0.00000001
 40
0.0
 40
0.0
 40
0.0
 40
0.0
 40
0.2397342510745321
 40
1.0
 40
1.0
 40
1.0
 40
1.0
 10
114.7717974993927
 20
172.9347043899146
 30
0.0
 10
114.7781316544598
 20
172.955666494042
 30
0.0
 10
114.8045532235043
 20
173.0431054145691
 30
0.0
 10
114.8310113884149
 20
173.0937895096615
 30
0.0
 10
114.8511266249759
 20
173.1323228911755
 30
0.0
  0
SPLINE
  5
C4
330
1F
100
AcDbEntity
  8
0
  6
Continuous
 62
     7
370
    18
100
AcDbSpline
210
0.0
220
0.0
230
1.0
 70
     8
 71
     3
 72
    12
 73
     8
 74
     0
 42
0.000000001
 43
0.00000001
 40
0.0
 40
0.0
 40
0.0
 40
0.0
 40
0.2624876789457529
 40
0.4991081789340328
 40
0.709487731644083
 40
0.8944773642140925
 40
0.9999999999999999
 40
0.9999999999999999
 40
0.9999999999999999
 40
0.9999999999999999
 10
116.8146288867636
 20
164.6868872219024
 30
0.0
 10
116.8750048418765
 20
164.6972651098141
 30
0.0
 10
116.9898069275548
 20
164.7169981836012
 30
0.0
 10
117.1376342389976
 20
164.8671296330797
 30
0.0
 10
117.2531303733792
 20
165.0622179325244
 30
0.0
 10
117.3339710383478
 20
165.2534615190029
 30
0.0
 10
117.3733502713518
 20
165.3864125747356
 30
0.0
 10
117.3876539717955
 20
165.434704324722
 30
0.0
  0
SPLINE
  5
C5
330
1F
100
AcDbEntity
  8
0
  6
Continuous
 62
     7
370
    18
100
AcDbSpline
210
0.0
220
0.0
230
1.0
 70
     8
 71
     3
 72
     9
 73
     5
 74
     0
 42
0.000000001
 43
0.00000001
 40
0.0
 40
0.0
 40
0.0
 40
0.0
 40
0.5448907775861741
 40
1.0
 40
1.0
 40
1.0
 40
1.0
 10
118.7681725162608
 20
172.9347043899146
 30
0.0
 10
118.7942658378921
 20
173.0106053440485
 30
0.0
 10
118.8421530892545
 20
173.1499010657897
 30
0.0
 10
118.8290963281633
 20
173.1539010223983
 30
0.0
 10
118.8231540757758
 20
173.1557214395401
 30
0.0
  0
SPLINE
  5
C6
330
1F
100
AcDbEntity
  8
0
  6
Continuous
 62
     7
370
    18
100
AcDbSpline
210
0.0
220
0.0
230
1.0
 70
     8
 71
     3
 72
    13
 73
     9
 74
     0
 42
0.000000001
 43
0.00000001
 40
0.0
 40
0.0
 40
0.0
 40
0.0
 40
0.2168085076294143
 40
0.4379686042420097
 40
0.5880894356906652
 40
0.741173046712171
 40
0.8906580403678926
 40
1.0
 40
1.0
 40
1.0
 40
1.0
 10
120.8149166225983
 20
164.6864597448406
 30
0.0
 10
120.9102143154321
 20
164.7141326262621
 30
0.0
 10
121.1027224322688
 20
164.7700338147535
 30
0.0
 10
121.282410705085
 20
165.1063716079902
 30
0.0
 10
121.4147345178284
 20
165.5005277499013
 30
0.0
 10
121.5173350839515
 20
165.9133402317757
 30
0.0
 10
121.6073829583887
 20
166.3342241578133
 30
0.0
 10
121.6639517486909
 20
166.6509168879419
 30
0.0
 10
121.6878493463216
 20
166.7847043597398
 30
0.0
  0
SPLINE
  5
C7
330
1F
100
AcDbEntity
  8
0
  6
Continuous
 62
     7
370
    18
100
AcDbSpline
210
0.0
220
0.0
230
1.0
 70
     8
 71
     3
 72
    12
 73
     8
 74
     0
 42
0.000000001
 43
0.00000001
 40
0.0
 40
0.0
 40
0.0
 40
0.0
 40
0.0043223625365864
 40
0.2492982996700061
 40
0.4976741886885087
 40
0.7477051236123745
 40
1.0
 40
1.0
 40
1.0
 40
1.0
 10
122.4543488964034
 20
171.5847043548969
 30
0.0
 10
122.4551930240056
 20
171.5896344176811
 30
0.0
 10
122.5038792631019
 20
171.873982678378
 30
0.0
 10
122.5968175215443
 20
172.3173518454778
 30
0.0
 10
122.7161672461022
 20
172.8339178444137
 30
0.0
 10
122.7957531467636
 20
173.136853529189
 30
0.0
 10
122.8105302115013
 20
173.1679321147314
 30
0.0
 10
122.817952043383
 20
173.1835414418278
 30
0.0
  0
SPLINE
  5
C8
330
1F
100
AcDbEntity
  8
0
  6
Continuous
 62
     7
370
    18
100
AcDbSpline
210
0.0
220
0.0
230
1.0
 70
     8
 71
     3
 72
    13
 73
     9
 74
     0
 42
0.000000001
 43
0.00000001
 40
0.0
 40
0.0
 40
0.0
 40
0.0
 40
0.1833666679607953
 40
0.3708490575913219
 40
0.5621896447722416
 40
0.7590070013541689
 40
0.9479870375446264
 40
1.0
 40
1.0
 40
1.0
 40
1.0
 10
124.8144762970103
 20
164.6856918693778
 30
0.0
 10
124.8980289683688
 20
164.7064428662154
 30
0.0
 10
125.0670096766791
 20
164.7484106224433
 30
0.0
 10
125.2516537436354
 20
165.033296532356
 30
0.0
 10
125.4003610155689
 20
165.4352060353511
 30
0.0
 10
125.5287475542923
 20
165.957926733341
 30
0.0
 10
125.6247485597734
 20
166.419632300827
 30
0.0
 10
125.6772369303065
 20
166.7198985816513
 30
0.0
 10
125.6885653741253
 20
166.7847043597398
 30
0.0
  0
SPLINE
  5
C9
330
1F
100
AcDbEntity
  8
0
  6
Continuous
 62
     7
370
    18
100
AcDbSpline
210
0.0
220
0.0
230
1.0
 70
     8
 71
     3
 72
    14
 73
    10
 74
     0
 42
0.000000001
 43
0.00000001
 40
0.0
 40
0.0
 40
0.0
 40
0.0
 40
0.0321882822228221
 40
0.1703731459242288
 40
0.3206764531589675
 40
0.4825564613658112
 40
0.6554819345587151
 40
0.8391144521263794
 40
1.0
 40
1.0
 40
1.0
 40
1.0
 10
126.4549805230988
 20
171.5847043548969
 30
0.0
 10
126.4605827787869
 20
171.6169827542041
 30
0.0
 10
126.4902356170229
 20
171.7878328914468
 30
0.0
 10
126.5416833473487
 20
172.0509289268796
 30
0.0
 10
126.6088141420946
 20
172.3919059323702
 30
0.0
 10
126.6690082480674
 20
172.6867028044763
 30
0.0
 10
126.7176759784828
 20
172.9266751195866
 30
0.0
 10
126.7512106220405
 20
173.0952043943618
 30
0.0
 10
126.7644027927757
 20
173.1392424202367
 30
0.0
 10
126.7705633684589
 20
173.1598076173363
 30
0.0
  0
SPLINE
  5
CA
330
1F
100
AcDbEntity
  8
0
  6
Continuous
 62
     7
370
    18
100
AcDbSpline
210
0.0
220
0.0
230
1.0
 70
     8
 71
     3
 72
     9
 73
     5
 74
     0
 42
0.000000001
 43
0.00000001
 40
0.0
 40
0.0
 40
0.0
 40
0.0
 40
0.5069279240809638
 40
1.0
 40
1.0
 40
1.0
 40
1.0
 10
127.030893406604
 20
173.6007902534006
 30
0.0
 10
127.0025026955116
 20
173.6248916397749
 30
0.0
 10
126.9464972759167
 20
173.6724356499377
 30
0.0
 10
126.8829214576443
 20
173.6691018514988
 30
0.0
 10
126.8515739969505
 20
173.6674580485818
 30
0.0
  0
LINE
  5
CB
330
1F
100
AcDbEntity
  8
0
  6
Continuous
 62
     7
370
    18
100
AcDbLine
 10
126.7977472774
 20
173.6718003401
 30
0.0
 11
126.772954772
 21
173.6738003553
 31
0.0
  0
SPLINE
  5
CC
330
1F
100
AcDbEntity
  8
0
  6
Continuous
 62
     7
370
    18
100
AcDbSpline
210
0.0
220
0.0
230
1.0
 70
     8
 71
     3
 72
    24
 73
    20
 74
     0
 42
0.000000001
 43
0.00000001
 40
0.0
 40
0.0
 40
0.0
 40
0.0
 40
0.0332566784459554
 40
0.1026052331202623
 40
0.1755633682022531
 40
0.2476622251136322
 40
0.3084475406079763
 40
0.3570872254381355
 40
0.3937024066169259
 40
0.4320890460201205
 40
0.4797367884616985
 40
0.5367050045650478
 40
0.6029675389734314
 40
0.6753129937077063
 40
0.750741725139671
 40
0.8297578492447079
 40
0.9127944643439256
 40
0.9559571617789356
 40
1.0
 40
1.0
 40
1.0
 40
1.0
 10
124.8239902227713
 20
165.2075505578217
 30
0.0
 10
124.827763672402
 20
165.211527684211
 30
0.0
 10
124.8394057153574
 20
165.2237981212898
 30
0.0
 10
124.7655932701135
 20
165.4171738601679
 30
0.0
 10
124.6426427259489
 20
165.8534530107323
 30
0.0
 10
124.5088651813782
 20
166.4749575405037
 30
0.0
 10
124.3927531506371
 20
167.1229941768535
 30
0.0
 10
124.2982971723174
 20
167.697590066451
 30
0.0
 10
124.2180770269758
 20
168.2096571934023
 30
0.0
 10
124.1383662153798
 20
168.7331819808981
 30
0.0
 10
124.0454723412955
 20
169.35397101644
 30
0.0
 10
123.9345108125348
 20
170.093437899494
 30
0.0
 10
123.8074473444067
 20
170.9094869003574
 30
0.0
 10
123.6676720843084
 20
171.7295457090988
 30
0.0
 10
123.512766238536
 20
172.4895015372303
 30
0.0
 10
123.3295667704462
 20
173.1311799291541
 30
0.0
 10
123.1382961064709
 20
173.4936907885191
 30
0.0
 10
122.9607899425449
 20
173.6601563756653
 30
0.0
 10
122.8632014264806
 20
173.6755311476717
 30
0.0
 10
122.8139147018144
 20
173.6832961202857
 30
0.0
  0
SPLINE
  5
CD
330
1F
100
AcDbEntity
  8
0
  6
Continuous
 62
     7
370
    18
100
AcDbSpline
210
0.0
220
0.0
230
1.0
 70
     8
 71
     3
 72
    25
 73
    21
 74
     0
 42
0.000000001
 43
0.00000001
 40
0.0
 40
0.0
 40
0.0
 40
0.0
 40
0.0279463683971582
 40
0.0961737461167863
 40
0.1686050420592002
 40
0.2413343029363231
 40
0.3077505149234476
 40
0.3675711428882549
 40
0.4205889997371117
 40
0.4733965903294914
 40
0.5328117639290361
 40
0.5988431310180535
 40
0.6681785932271406
 40
0.7323663162540426
 40
0.7910379741674871
 40
0.8476753600913772
 40
0.8802878077512042
 40
0.91648483869403
 40
0.9564152929180141
 40
1.0
 40
1.0
 40
1.0
 40
1.0
 10
120.8292445547474
 20
165.2061973461208
 30
0.0
 10
120.8334857307974
 20
165.2087739000087
 30
0.0
 10
120.8480811795822
 20
165.2176407708646
 30
0.0
 10
120.7745206466129
 20
165.392843394819
 30
0.0
 10
120.6520748215356
 20
165.8175464595982
 30
0.0
 10
120.5151391355842
 20
166.44103050012
 30
0.0
 10
120.3882069879556
 20
167.1462738274338
 30
0.0
 10
120.27263388883
 20
167.8563096855925
 30
0.0
 10
120.1656238267773
 20
168.5521063402389
 30
0.0
 10
120.0587174263146
 20
169.2652822761325
 30
0.0
 10
119.943542125569
 20
170.0337502518837
 30
0.0
 10
119.8177204344924
 20
170.8448757044911
 30
0.0
 10
119.6885507115723
 20
171.6102015395643
 30
0.0
 10
119.5633319322576
 20
172.2559716457491
 30
0.0
 10
119.4437325639266
 20
172.7657864321358
 30
0.0
 10
119.3413305442502
 20
173.1076628765585
 30
0.0
 10
119.2338207952135
 20
173.3548195110228
 30
0.0
 10
119.1241142165315
 20
173.5238990053574
 30
0.0
 10
118.9838856267747
 20
173.6557707766704
 30
0.0
 10
118.872793120903
 20
173.6734502608149
 30
0.0
 10
118.8148164104266
 20
173.6826767907736
 30
0.0
  0
SPLINE
  5
CE
330
1F
100
AcDbEntity
  8
0
  6
Continuous
 62
     7
370
    18
100
AcDbSpline
210
0.0
220
0.0
230
1.0
 70
     8
 71
     3
 72
    27
 73
    23
 74
     0
 42
0.000000001
 43
0.00000001
 40
0.0
 40
0.0
 40
0.0
 40
0.0
 40
0.0171941084250065
 40
0.0736979734510058
 40
0.1348844782280397
 40
0.2006939682390254
 40
0.2700043500677083
 40
0.3331086733077721
 40
0.3869596604786347
 40
0.4314203218447028
 40
0.4663948143101534
 40
0.4932123536808139
 40
0.5331992288490465
 40
0.5937527835863952
 40
0.6318283552571234
 40
0.675087829128139
 40
0.7235284132459983
 40
0.7772059094146616
 40
0.8362011309558881
 40
0.9004980824598385
 40
0.9700603686997407
 40
1.0
 40
1.0
 40
1.0
 40
1.0
 10
116.8298522855682
 20
165.2002601647077
 30
0.0
 10
116.8322225373263
 20
165.2017050195498
 30
0.0
 10
116.8423819911823
 20
165.2078980056104
 30
0.0
 10
116.8059670025846
 20
165.2998634734659
 30
0.0
 10
116.7272420994116
 20
165.5484834202916
 30
0.0
 10
116.6160903380157
 20
165.9717746671203
 30
0.0
 10
116.4964872340802
 20
166.542763960456
 30
0.0
 10
116.3837299356128
 20
167.1741127103724
 30
0.0
 10
116.2859664593816
 20
167.773893546351
 30
0.0
 10
116.2051295366423
 20
168.294486894481
 30
0.0
 10
116.1405906806416
 20
168.7200553390158
 30
0.0
 10
116.0787093047784
 20
169.1320134312311
 30
0.0
 10
116.00124570171
 20
169.6493762820245
 30
0.0
 10
115.9168469092977
 20
170.2066935797548
 30
0.0
 10
115.8305867426254
 20
170.7563885260961
 30
0.0
 10
115.7515806654845
 20
171.2383990113332
 30
0.0
 10
115.6629206001016
 20
171.7431202581355
 30
0.0
 10
115.5645565241229
 20
172.2449445039136
 30
0.0
 10
115.4565371646215
 20
172.7181301837698
 30
0.0
 10
115.3386862121034
 20
173.1162425406452
 30
0.0
 10
115.2382896050424
 20
173.3722466549638
 30
0.0
 10
115.1772690329475
 20
173.4197170265174
 30
0.0
 10
115.1589082467897
 20
173.4340006248352
 30
0.0
  0
SPLINE
  5
CF
330
1F
100
AcDbEntity
  8
0
  6
Continuous
 62
     7
370
    18
100
AcDbSpline
210
0.0
220
0.0
230
1.0
 70
     8
 71
     3
 72
     9
 73
     5
 74
     0
 42
0.000000001
 43
0.00000001
 40
0.0
 40
0.0
 40
0.0
 40
0.0
 40
0.4883508422613489
 40
0.9999999999999999
 40
0.9999999999999999
 40
0.9999999999999999
 40
0.9999999999999999
 10
115.2495650488479
 20
173.2682754979727
 30
0.0
 10
115.2024229381338
 20
173.3838988885894
 30
0.0
 10
115.1058896537929
 20
173.620661847943
 30
0.0
 10
114.9138967377598
 20
173.6615294363367
 30
0.0
 10
114.8156637239797
 20
173.6824393035171
 30
0.0
  0
SPLINE
  5
D0
330
1F
100
AcDbEntity
  8
0
  6
Continuous
 62
     7
370
    18
100
AcDbSpline
210
0.0
220
0.0
230
1.0
 70
     8
 71
     3
 72
    14
 73
    10
 74
     0
 42
0.000000001
 43
0.00000001
 40
0.0
 40
0.0
 40
0.0
 40
0.0
 40
0.191668043665855
 40
0.3721582497784262
 40
0.5418694512264141
 40
0.7026554481500045
 40
0.8489630068014586
 40
0.978564271258011
 40
1.0
 40
1.0
 40
1.0
 40
1.0
 10
128.8146345790071
 20
164.686334016293
 30
0.0
 10
128.9010352963687
 20
164.7082140999152
 30
0.0
 10
129.0687979506842
 20
164.7506982483945
 30
0.0
 10
129.2513459320403
 20
165.0318735340005
 30
0.0
 10
129.3849199233821
 20
165.3911033045926
 30
0.0
 10
129.4910268320541
 20
165.7962331878346
 30
0.0
 10
129.587201726216
 20
166.2392884287457
 30
0.0
 10
129.6522041964773
 20
166.5711424175497
 30
0.0
 10
129.6850057189022
 20
166.7581618676234
 30
0.0
 10
129.6896610322935
 20
166.7847043597398
 30
0.0
  0
SPLINE
  5
D1
330
1F
100
AcDbEntity
  8
0
  6
Continuous
 62
     7
370
    18
100
AcDbSpline
210
0.0
220
0.0
230
1.0
 70
     8
 71
     3
 72
    12
 73
     8
 74
     0
 42
0.000000001
 43
0.00000001
 40
0.0
 40
0.0
 40
0.0
 40
0.0
 40
0.0889877058167827
 40
0.3597295591254733
 40
0.6475832504063481
 40
0.9525035412756455
 40
1.0
 40
1.0
 40
1.0
 40
1.0
 10
130.4552831600947
 20
171.5847043548969
 30
0.0
 10
130.4662014020265
 20
171.6458364057875
 30
0.0
 10
130.5103379973064
 20
171.8929604945981
 30
0.0
 10
130.5898302982546
 20
172.276389677144
 30
0.0
 10
130.6956389659781
 20
172.7022710376191
 30
0.0
 10
130.7739364512478
 20
172.9720745216034
 30
0.0
 10
130.8170227239561
 20
173.0539045625224
 30
0.0
 10
130.8228296141667
 20
173.0649330881683
 30
0.0
  0
SPLINE
  5
D2
330
1F
100
AcDbEntity
  8
0
  6
Continuous
 62
     7
370
    18
100
AcDbSpline
210
0.0
220
0.0
230
1.0
 70
     8
 71
     3
 72
    15
 73
    11
 74
     0
 42
0.000000001
 43
0.00000001
 40
0.0
 40
0.0
 40
0.0
 40
0.0
 40
0.1445064699940353
 40
0.275051682273722
 40
0.3913250062811179
 40
0.4938069519469321
 40
0.6104418658450851
 40
0.7218540795963885
 40
0.840739225130356
 40
1.0
 40
1.0
 40
1.0
 40
1.0
 10
132.8149570066078
 20
164.6855293535886
 30
0.0
 10
132.876977361056
 20
164.6968271889769
 30
0.0
 10
132.9950260742168
 20
164.7183313377513
 30
0.0
 10
133.1435719949516
 20
164.8729953368859
 30
0.0
 10
133.2579758625686
 20
165.0667924629821
 30
0.0
 10
133.3516860845814
 20
165.3003125156811
 30
0.0
 10
133.430465056001
 20
165.5621675375974
 30
0.0
 10
133.5079358670768
 20
165.8739114730382
 30
0.0
 10
133.5939113601843
 20
166.2662776533212
 30
0.0
 10
133.6542385296294
 20
166.5959440141174
 30
0.0
 10
133.688780656789
 20
166.7847043597398
 30
0.0
  0
SPLINE
  5
D3
330
1F
100
AcDbEntity
  8
0
  6
Continuous
 62
     7
370
    18
100
AcDbSpline
210
0.0
220
0.0
230
1.0
 70
     8
 71
     3
 72
    12
 73
     8
 74
     0
 42
0.000000001
 43
0.00000001
 40
0.0
 40
0.0
 40
0.0
 40
0.0
 40
0.1491934143864317
 40
0.4233362569180196
 40
0.6962439235701748
 40
0.9542449337932297
 40
0.9999999999999999
 40
0.9999999999999999
 40
0.9999999999999999
 40
0.9999999999999999
 10
134.4564642671091
 20
171.5847043548969
 30
0.0
 10
134.4808451420128
 20
171.7192544144543
 30
0.0
 10
134.5500258653344
 20
172.1010401575808
 30
0.0
 10
134.6659837811696
 20
172.6022928870255
 30
0.0
 10
134.7813398851039
 20
172.9951930565288
 30
0.0
 10
134.8503144060014
 20
173.146837513833
 30
0.0
 10
134.8386465847383
 20
173.1567353162314
 30
0.0
 10
134.8368890497429
 20
173.1582262316046
 30
0.0
  0
SPLINE
  5
D4
330
1F
100
AcDbEntity
  8
0
  6
Continuous
 62
     7
370
    18
100
AcDbSpline
210
0.0
220
0.0
230
1.0
 70
     8
 71
     3
 72
    13
 73
     9
 74
     0
 42
0.000000001
 43
0.00000001
 40
0.0
 40
0.0
 40
0.0
 40
0.0
 40
0.1070835064896487
 40
0.2147668305470445
 40
0.4304602580820784
 40
0.6476668338800297
 40
0.8628613688686192
 40
1.0
 40
1.0
 40
1.0
 40
1.0
 10
136.8140011939747
 20
164.684891397625
 30
0.0
 10
136.8626092351963
 20
164.6912453155468
 30
0.0
 10
136.9600975907281
 20
164.7039887422271
 30
0.0
 10
137.1294518501039
 20
164.8404136065214
 30
0.0
 10
137.2997860735207
 20
165.1306042752188
 30
0.0
 10
137.456383402738
 20
165.641640488615
 30
0.0
 10
137.581215816149
 20
166.1961194748393
 30
0.0
 10
137.6583322280115
 20
166.619796543042
 30
0.0
 10
137.6883482474429
 20
166.7847043597398
 30
0.0
  0
SPLINE
  5
D5
330
1F
100
AcDbEntity
  8
0
  6
Continuous
 62
     7
370
    18
100
AcDbSpline
210
0.0
220
0.0
230
1.0
 70
     8
 71
     3
 72
    11
 73
     7
 74
     0
 42
0.000000001
 43
0.00000001
 40
0.0
 40
0.0
 40
0.0
 40
0.0
 40
0.2110747501104312
 40
0.4741927857975242
 40
0.7432719117980187
 40
1.0
 40
1.0
 40
1.0
 40
1.0
 10
138.4555689904435
 20
171.5847043548969
 30
0.0
 10
138.4948847868123
 20
171.7963762069447
 30
0.0
 10
138.5832102117922
 20
172.2719104200372
 30
0.0
 10
138.7005763704207
 20
172.7829892401415
 30
0.0
 10
138.7865011642047
 20
173.1226823103208
 30
0.0
 10
138.8070820445294
 20
173.1595743177616
 30
0.0
 10
138.817130765651
 20
173.177587030947
 30
0.0
  0
SPLINE
  5
D6
330
1F
100
AcDbEntity
  8
0
  6
Continuous
 62
     7
370
    18
100
AcDbSpline
210
0.0
220
0.0
230
1.0
 70
     8
 71
     3
 72
    11
 73
     7
 74
     0
 42
0.000000001
 43
0.00000001
 40
0.0
 40
0.0
 40
0.0
 40
0.0
 40
0.2484260627951455
 40
0.5022228876886716
 40
0.7603328760295697
 40
1.0
 40
1.0
 40
1.0
 40
1.0
 10
139.6314885381205
 20
171.9000615873632
 30
0.0
 10
139.5776178626416
 20
172.1551094418913
 30
0.0
 10
139.4687118730834
 20
172.6707190706021
 30
0.0
 10
139.2674143249056
 20
173.2299451567922
 30
0.0
 10
139.0531247383381
 20
173.6046520589615
 30
0.0
 10
138.9051349052907
 20
173.6520701149977
 30
0.0
 10
138.833881533478
 20
173.6749007129369
 30
0.0
  0
SPLINE
  5
D7
330
1F
100
AcDbEntity
  8
0
  6
Continuous
 62
     7
370
    18
100
AcDbSpline
210
0.0
220
0.0
230
1.0
 70
     8
 71
     3
 72
    26
 73
    22
 74
     0
 42
0.000000001
 43
0.00000001
 40
0.0
 40
0.0
 40
0.0
 40
0.0
 40
0.0219438787072428
 40
0.0817066015314281
 40
0.1452317777775951
 40
0.2116452851356424
 40
0.2747155517727456
 40
0.3322671996228203
 40
0.3841392130384431
 40
0.4302963149636979
 40
0.4746538275979179
 40
0.5227916211618864
 40
0.5747208179509486
 40
0.63055225190491
 40
0.6734068762128104
 40
0.7233082205454766
 40
0.7805880090918104
 40
0.8286416907770577
 40
0.8812445721457701
 40
0.9384369028846815
 40
1.0
 40
1.0
 40
1.0
 40
1.0
 10
136.8293233129723
 20
165.2027314291594
 30
0.0
 10
136.8327468395201
 20
165.2050503312459
 30
0.0
 10
136.8454941173924
 20
165.2136846119625
 30
0.0
 10
136.7937477445376
 20
165.3415304757315
 30
0.0
 10
136.6947766960357
 20
165.6584989227465
 30
0.0
 10
136.570756403884
 20
166.1710587728298
 30
0.0
 10
136.4515294944985
 20
166.7871989208781
 30
0.0
 10
136.3403461112992
 20
167.4350630249591
 30
0.0
 10
136.2396101728555
 20
168.0682682732808
 30
0.0
 10
136.1472086986542
 20
168.6743195693492
 30
0.0
 10
136.0573290040327
 20
169.2748364547546
 30
0.0
 10
135.9637604285165
 20
169.8993827326478
 30
0.0
 10
135.8625675639138
 20
170.5589012669014
 30
0.0
 10
135.765007884687
 20
171.1602852336724
 30
0.0
 10
135.6677385135162
 20
171.7155685929577
 30
0.0
 10
135.5652021736001
 20
172.2360955538418
 30
0.0
 10
135.4497311157649
 20
172.7105008865947
 30
0.0
 10
135.3186304150361
 20
173.1100208110604
 30
0.0
 10
135.1744621894077
 20
173.4148898391722
 30
0.0
 10
135.0050297580805
 20
173.6392905906065
 30
0.0
 10
134.87982293876
 20
173.6689074960394
 30
0.0
 10
134.8149154249174
 20
173.684260970473
 30
0.0
  0
SPLINE
  5
D8
330
1F
100
AcDbEntity
  8
0
  6
Continuous
 62
     7
370
    18
100
AcDbSpline
210
0.0
220
0.0
230
1.0
 70
     8
 71
     3
 72
    27
 73
    23
 74
     0
 42
0.000000001
 43
0.00000001
 40
0.0
 40
0.0
 40
0.0
 40
0.0
 40
0.0245709658488147
 40
0.0849029195571069
 40
0.1439531226659993
 40
0.2007180210852204
 40
0.2521089336642238
 40
0.2974859910510786
 40
0.3367486700360501
 40
0.3698036651259517
 40
0.4060182163243367
 40
0.4559908998879483
 40
0.519846782819078
 40
0.5976751064299203
 40
0.6418943933696679
 40
0.6896359507182808
 40
0.7409709431899888
 40
0.795913180804025
 40
0.8544233773785412
 40
0.916512143611586
 40
0.9822981956803445
 40
1.0
 40
1.0
 40
1.0
 40
1.0
 10
132.8297771427376
 20
165.2032902227042
 30
0.0
 10
132.8332077205218
 20
165.2055604196131
 30
0.0
 10
132.8450617954264
 20
165.2134048953544
 30
0.0
 10
132.8015350880141
 20
165.3292263453095
 30
0.0
 10
132.7161677294314
 20
165.5913130379121
 30
0.0
 10
132.615207120052
 20
165.9800321898138
 30
0.0
 10
132.5232701819164
 20
166.4144787736977
 30
0.0
 10
132.4407556284173
 20
166.8539718519093
 30
0.0
 10
132.3690979494283
 20
167.2676511071079
 30
0.0
 10
132.3027188060184
 20
167.671587811655
 30
0.0
 10
132.2296884640188
 20
168.133793726809
 30
0.0
 10
132.1377180506976
 20
168.7363765289177
 30
0.0
 10
132.020259720139
 20
169.5231273853831
 30
0.0
 10
131.9061417570791
 20
170.2788927853601
 30
0.0
 10
131.8019616310355
 20
170.9347638882612
 30
0.0
 10
131.7138611628527
 20
171.4574133875024
 30
0.0
 10
131.619189529827
 20
171.9724504390815
 30
0.0
 10
131.51785385328
 20
172.4588010335589
 30
0.0
 10
131.4097023974363
 20
172.8946012550608
 30
0.0
 10
131.2945599853111
 20
173.2325013353782
 30
0.0
 10
131.2046923047747
 20
173.428206035825
 30
0.0
 10
131.15303781859
 20
173.4557815205575
 30
0.0
 10
131.142085595761
 20
173.4616283090112
 30
0.0
  0
SPLINE
  5
D9
330
1F
100
AcDbEntity
  8
0
  6
Continuous
 62
     7
370
    18
100
AcDbSpline
210
0.0
220
0.0
230
1.0
 70
     8
 71
     3
 72
    26
 73
    22
 74
     0
 42
0.000000001
 43
0.00000001
 40
0.0
 40
0.0
 40
0.0
 40
0.0
 40
0.0506674840970003
 40
0.1155751990857279
 40
0.1677420325390225
 40
0.2145994966363994
 40
0.265021364238671
 40
0.3190364555044727
 40
0.3765654918857773
 40
0.4326682256439989
 40
0.4843011183757094
 40
0.5315058964023973
 40
0.5742760063072248
 40
0.6229838023879102
 40
0.68935433171944
 40
0.7293463308333168
 40
0.773974831927341
 40
0.8233093146185401
 40
0.8773804312773976
 40
0.9362285075215333
 40
1.0
 40
1.0
 40
1.0
 40
1.0
 10
128.8185903716428
 20
165.2074192413387
 30
0.0
 10
128.8212136295337
 20
165.2146583175934
 30
0.0
 10
128.8271974189086
 20
165.2311710316989
 30
0.0
 10
128.7756532344874
 20
165.4017515834711
 30
0.0
 10
128.690090067939
 20
165.6861162946012
 30
0.0
 10
128.6001541301916
 20
166.0499829300945
 30
0.0
 10
128.5087432666742
 20
166.4862089122429
 30
0.0
 10
128.4091231215295
 20
167.0277723851629
 30
0.0
 10
128.3056860233697
 20
167.6488097006872
 30
0.0
 10
128.2036091517561
 20
168.3024625027856
 30
0.0
 10
128.1078299736983
 20
168.9368394834635
 30
0.0
 10
128.0203529263247
 20
169.5219334419629
 30
0.0
 10
127.9348154286034
 20
170.0886912407269
 30
0.0
 10
127.837359554275
 20
170.7183051651049
 30
0.0
 10
127.7402487522483
 20
171.3071194159849
 30
0.0
 10
127.644277938397
 20
171.8322174247761
 30
0.0
 10
127.5578783653853
 20
172.2593790673764
 30
0.0
 10
127.4606910138301
 20
172.6772588055913
 30
0.0
 10
127.3517306897929
 20
173.0585939328181
 30
0.0
 10
127.2300633975889
 20
173.3803826802968
 30
0.0
 10
127.1430355617452
 20
173.4956374802288
 30
0.0
 10
127.0977744746549
 20
173.5555787333546
 30
0.0
  0
SPLINE
  5
DA
330
1F
100
AcDbEntity
  8
0
  6
Continuous
 62
     7
370
    18
100
AcDbSpline
210
0.0
220
0.0
230
1.0
 70
     8
 71
     3
 72
     9
 73
     5
 74
     0
 42
0.000000001
 43
0.00000001
 40
0.0
 40
0.0
 40
0.0
 40
0.0
 40
0.4884900058705624
 40
1.0
 40
1.0
 40
1.0
 40
1.0
 10
131.2439396891339
 20
173.2770136320291
 30
0.0
 10
131.1974513999918
 20
173.3902879512715
 30
0.0
 10
131.1022840709095
 20
173.6221746181042
 30
0.0
 10
130.9114495809186
 20
173.6627127380376
 30
0.0
 10
130.8138358320637
 20
173.6834483915267
 30
0.0
  0
SPLINE
  5
DB
330
1F
100
AcDbEntity
  8
0
  6
Continuous
 62
     7
370
    18
100
AcDbSpline
210
0.0
220
0.0
230
1.0
 70
     8
 71
     3
 72
    25
 73
    21
 74
     0
 42
0.000000001
 43
0.00000001
 40
0.0
 40
0.0
 40
0.0
 40
0.0
 40
0.0622227443432486
 40
0.1287142727660654
 40
0.1996098882801868
 40
0.2747744296368739
 40
0.3130320043484761
 40
0.3484837232843341
 40
0.4101828560669451
 40
0.4594914122185183
 40
0.4979723570401554
 40
0.5437032468736366
 40
0.6016280295671234
 40
0.6718234891204368
 40
0.7114631068435785
 40
0.7506885345994605
 40
0.8236274393725531
 40
0.889506434737202
 40
0.9483579143473895
 40
1.0
 40
1.0
 40
1.0
 40
1.0
 10
126.7425708386643
 20
173.2093972848055
 30
0.0
 10
126.7735630516031
 20
173.1663244255105
 30
0.0
 10
126.8376736946153
 20
173.0772236984592
 30
0.0
 10
126.9509671301942
 20
172.7235737383956
 30
0.0
 10
127.0777338392042
 20
172.1886741658902
 30
0.0
 10
127.1921498568021
 20
171.5893430983065
 30
0.0
 10
127.2856428383686
 20
171.0422525612955
 30
0.0
 10
127.3710374586339
 20
170.5145688638424
 30
0.0
 10
127.4640711961219
 20
169.9099210216371
 30
0.0
 10
127.5594341750048
 20
169.274230450068
 30
0.0
 10
127.6447523732458
 20
168.7045746282054
 30
0.0
 10
127.7356418662732
 20
168.1053419494143
 30
0.0
 10
127.8469838225716
 20
167.3980123687228
 30
0.0
 10
127.9552019355202
 20
166.7659217019435
 30
0.0
 10
128.0514344779218
 20
166.265392795758
 30
0.0
 10
128.1511678145683
 20
165.8036869146357
 30
0.0
 10
128.2731104394781
 20
165.3430463163722
 30
0.0
 10
128.4313250220318
 20
164.9638145373217
 30
0.0
 10
128.6054084669679
 20
164.7311438775143
 30
0.0
 10
128.7570531364872
 20
164.7006232960702
 30
0.0
 10
128.8279282774372
 20
164.6863586963413
 30
0.0
  0
LWPOLYLINE
  5
DC
330
1F
100
AcDbEntity
  8
0
  6
Continuous
 62
     7
370
    18
100
AcDbPolyline
 90
       20
 70
   128
 43
0.0
 10
134.8205145362
 20
173.1615338237
 10
134.8162285897
 20
173.134959931
 10
134.889155804
 20
172.9050482852
 10
135.0194897417
 20
172.4159449102
 10
135.0947173226
 20
172.0736510349
 10
135.1657418448
 20
171.7126815808
 10
135.289309724
 20
171.0117039499
 10
135.3872960347
 20
170.4046110851
 10
135.4595554906
 20
169.9366848795
 10
135.5343965727
 20
169.4412532549
 10
135.6272997249
 20
168.8214293851
 10
135.7383739117
 20
168.0909541198
 10
135.8677541751
 20
167.2824065197
 10
136.0093235883
 20
166.4862785717
 10
136.1621471036
 20
165.7849337668
 10
136.3406835038
 20
165.2175902152
 10
136.5612216208
 20
164.8291490735
 10
136.6891965184
 20
164.7214378924
 10
136.827296755
 20
164.6848695115
 10
136.827296755
 20
164.6848695115
  0
SPLINE
  5
DD
330
1F
100
AcDbEntity
  8
0
  6
Continuous
 62
     7
370
    18
100
AcDbSpline
210
0.0
220
0.0
230
1.0
 70
     8
 71
     3
 72
    11
 73
     7
 74
     0
 42
0.000000001
 43
0.00000001
 40
0.0
 40
0.0
 40
0.0
 40
0.0
 40
0.2444804708568974
 40
0.491529752240207
 40
0.7427775801484364
 40
1.0
 40
1.0
 40
1.0
 40
1.0
 10
138.8251736674054
 20
173.1847442449329
 30
0.0
 10
138.8418089910104
 20
173.1688736783852
 30
0.0
 10
138.8752544292549
 20
173.1369657897274
 30
0.0
 10
138.9361599241136
 20
172.8787186554618
 30
0.0
 10
139.0173840705599
 20
172.473612280139
 30
0.0
 10
139.0968929939936
 20
172.0668109577718
 30
0.0
 10
139.1371145758374
 20
171.8610203122047
 30
0.0
  0
SPLINE
  5
DE
330
1F
100
AcDbEntity
  8
0
  6
Continuous
 62
     7
370
    18
100
AcDbSpline
210
0.0
220
0.0
230
1.0
 70
     8
 71
     3
 72
    12
 73
     8
 74
     0
 42
0.000000001
 43
0.00000001
 40
0.0
 40
0.0
 40
0.0
 40
0.0
 40
0.1932368463673738
 40
0.3943416002429112
 40
0.6027802787127817
 40
0.8197939926456179
 40
1.0
 40
1.0
 40
1.0
 40
1.0
 10
138.8292062941534
 20
173.6846162700353
 30
0.0
 10
138.743399178929
 20
173.6623194735123
 30
0.0
 10
138.568291192197
 20
173.6168180353216
 30
0.0
 10
138.3756228233244
 20
173.2994978814296
 30
0.0
 10
138.2161772150831
 20
172.8379471399136
 30
0.0
 10
138.0815309644809
 20
172.2682421498707
 30
0.0
 10
137.9946075132823
 20
171.7980263646345
 30
0.0
 10
137.9551730963929
 20
171.5847043548969
 30
0.0
  0
SPLINE
  5
DF
330
1F
100
AcDbEntity
  8
0
  6
Continuous
 62
     7
370
    18
100
AcDbSpline
210
0.0
220
0.0
230
1.0
 70
     8
 71
     3
 72
    14
 73
    10
 74
     0
 42
0.000000001
 43
0.00000001
 40
0.0
 40
0.0
 40
0.0
 40
0.0
 40
0.1473709668483097
 40
0.2725432877782998
 40
0.4076809367937977
 40
0.5523141978638451
 40
0.7060687440675685
 40
0.8687181863076331
 40
1.0
 40
1.0
 40
1.0
 40
1.0
 10
137.1874950740082
 20
166.7847043597398
 30
0.0
 10
137.1597371566744
 20
166.6336662994209
 30
0.0
 10
137.1084025267005
 20
166.3543412029021
 30
0.0
 10
137.0379107253746
 20
166.0222827822693
 30
0.0
 10
136.9742570408726
 20
165.7376302598197
 30
0.0
 10
136.9177382841016
 20
165.5004526673851
 30
0.0
 10
136.8729769763643
 20
165.3223125619893
 30
0.0
 10
136.8435797301325
 20
165.212996663344
 30
0.0
 10
136.8329620080347
 20
165.1997761278849
 30
0.0
 10
136.8282196957214
 20
165.1938712918458
 30
0.0
  0
SPLINE
  5
E0
330
1F
100
AcDbEntity
  8
0
  6
Continuous
 62
     7
370
    18
100
AcDbSpline
210
0.0
220
0.0
230
1.0
 70
     8
 71
     3
 72
    12
 73
     8
 74
     0
 42
0.000000001
 43
0.00000001
 40
0.0
 40
0.0
 40
0.0
 40
0.0
 40
0.2012837228355918
 40
0.4071688979362427
 40
0.6179889566666632
 40
0.8306594938572377
 40
1.0
 40
1.0
 40
1.0
 40
1.0
 10
134.8281327548964
 20
173.6842265115378
 30
0.0
 10
134.7351391156201
 20
173.6585254158894
 30
0.0
 10
134.5470259533345
 20
173.6065356839652
 30
0.0
 10
134.3556297092232
 20
173.2618060259848
 30
0.0
 10
134.2041147609231
 20
172.7925315133364
 30
0.0
 10
134.0750223736925
 20
172.2373298334921
 30
0.0
 10
133.9917388840283
 20
171.7851498401267
 30
0.0
 10
133.9548204008086
 20
171.5847043548969
 30
0.0
  0
SPLINE
  5
E1
330
1F
100
AcDbEntity
  8
0
  6
Continuous
 62
     7
370
    18
100
AcDbSpline
210
0.0
220
0.0
230
1.0
 70
     8
 71
     3
 72
    15
 73
    11
 74
     0
 42
0.000000001
 43
0.00000001
 40
0.0
 40
0.0
 40
0.0
 40
0.0
 40
0.1219804495625939
 40
0.3397816118912633
 40
0.4412595503808073
 40
0.5441450875587855
 40
0.6623936138422096
 40
0.7956417832493115
 40
0.9430829957182695
 40
0.9999999999999999
 40
0.9999999999999999
 40
0.9999999999999999
 40
0.9999999999999999
 10
133.187006405328
 20
166.7847043597398
 30
0.0
 10
133.165166870423
 20
166.6637242343598
 30
0.0
 10
133.104331938271
 20
166.326729067054
 30
0.0
 10
133.0269524154427
 20
165.9796609400868
 30
0.0
 10
132.954777450968
 20
165.6946997895273
 30
0.0
 10
132.9021955738247
 20
165.5133837934018
 30
0.0
 10
132.8554855604
 20
165.3674721812962
 30
0.0
 10
132.8223889584053
 20
165.2605967750181
 30
0.0
 10
132.8108418356789
 20
165.2068746036489
 30
0.0
 10
132.8162261982542
 20
165.2005566947633
 30
0.0
 10
132.8177258286221
 20
165.1987970569429
 30
0.0
  0
SPLINE
  5
E2
330
1F
100
AcDbEntity
  8
0
  6
Continuous
 62
     7
370
    18
100
AcDbSpline
210
0.0
220
0.0
230
1.0
 70
     8
 71
     3
 72
     9
 73
     5
 74
     0
 42
0.000000001
 43
0.00000001
 40
0.0
 40
0.0
 40
0.0
 40
0.0
 40
0.5113092737290256
 40
1.0
 40
1.0
 40
1.0
 40
1.0
 10
130.8271700430257
 20
173.6834479258654
 30
0.0
 10
130.7288644326293
 20
173.6624221619937
 30
0.0
 10
130.5366019108104
 20
173.6213007410612
 30
0.0
 10
130.4400821810787
 20
173.3822220664688
 30
0.0
 10
130.3929138842566
 20
173.2653865353463
 30
0.0
  0
SPLINE
  5
E3
330
1F
100
AcDbEntity
  8
0
  6
Continuous
 62
     7
370
    18
100
AcDbSpline
210
0.0
220
0.0
230
1.0
 70
     8
 71
     3
 72
    27
 73
    23
 74
     0
 42
0.000000001
 43
0.00000001
 40
0.0
 40
0.0
 40
0.0
 40
0.0
 40
0.0642041895235566
 40
0.1242133991675908
 40
0.1799584316599455
 40
0.2314920959054242
 40
0.2787593713392076
 40
0.3216801241161062
 40
0.3602248703118816
 40
0.3944046251556337
 40
0.4495421227744117
 40
0.4869707701522423
 40
0.5115008894793622
 40
0.5414742465423077
 40
0.5786524024188375
 40
0.6231050109589371
 40
0.6748764978335005
 40
0.7318889857818501
 40
0.792495804426026
 40
0.8572766273398934
 40
0.9265162842226274
 40
1.0
 40
1.0
 40
1.0
 40
1.0
 10
130.5816366251154
 20
173.3400287800727
 30
0.0
 10
130.6244776014678
 20
173.3299928374985
 30
0.0
 10
130.7073604060929
 20
173.3105766817889
 30
0.0
 10
130.8277404903652
 20
173.0789870632295
 30
0.0
 10
130.9400063968636
 20
172.7400699126366
 30
0.0
 10
131.0437399155096
 20
172.3199766319138
 30
0.0
 10
131.1389394213205
 20
171.8606766602
 30
0.0
 10
131.2255742926721
 20
171.3899836056892
 30
0.0
 10
131.3035612970911
 20
170.9303308654744
 30
0.0
 10
131.3897934024286
 20
170.3932860315545
 30
0.0
 10
131.4754196844042
 20
169.8342649192867
 30
0.0
 10
131.5544916603717
 20
169.3071819709057
 30
0.0
 10
131.6166013925355
 20
168.8923326307645
 30
0.0
 10
131.6786053185535
 20
168.4802657667589
 30
0.0
 10
131.7541621753158
 20
167.9865452826136
 30
0.0
 10
131.844585174059
 20
167.4165087639519
 30
0.0
 10
131.9482754220211
 20
166.8037557816296
 30
0.0
 10
132.0645819389154
 20
166.1888653088783
 30
0.0
 10
132.1986111669657
 20
165.6127395076257
 30
0.0
 10
132.3627589151501
 20
165.1276185643811
 30
0.0
 10
132.5710316956945
 20
164.7599899386238
 30
0.0
 10
132.7408507468948
 20
164.710868420703
 30
0.0
 10
132.8282851639731
 20
164.6855773167012
 30
0.0
  0
SPLINE
  5
E4
330
1F
100
AcDbEntity
  8
0
  6
Continuous
 62
     7
370
    18
100
AcDbSpline
210
0.0
220
0.0
230
1.0
 70
     8
 71
     3
 72
    13
 73
     9
 74
     0
 42
0.000000001
 43
0.00000001
 40
0.0
 40
0.0
 40
0.0
 40
0.0
 40
0.2160431362615333
 40
0.4172006373571661
 40
0.6035321331905599
 40
0.7748899082295116
 40
0.9314447190551903
 40
1.0
 40
1.0
 40
1.0
 40
1.0
 10
130.5787178601665
 20
173.5187365436254
 30
0.0
 10
130.5335971452247
 20
173.4937568014016
 30
0.0
 10
130.4464645875445
 20
173.4455184516113
 30
0.0
 10
130.3207733031812
 20
173.1624740897644
 30
0.0
 10
130.2046533411676
 20
172.7845886691077
 30
0.0
 10
130.0978281228611
 20
172.3317899980104
 30
0.0
 10
130.0154884036259
 20
171.9277110400561
 30
0.0
 10
129.9688634348145
 20
171.6647782139618
 30
0.0
 10
129.9546642142875
 20
171.5847043548969
 30
0.0
  0
SPLINE
  5
E5
330
1F
100
AcDbEntity
  8
0
  6
Continuous
 62
     7
370
    18
100
AcDbSpline
210
0.0
220
0.0
230
1.0
 70
     8
 71
     3
 72
    12
 73
     8
 74
     0
 42
0.000000001
 43
0.00000001
 40
0.0
 40
0.0
 40
0.0
 40
0.0
 40
0.1840075052840424
 40
0.390216661953684
 40
0.6022511888701136
 40
0.8193921273961072
 40
1.0
 40
1.0
 40
1.0
 40
1.0
 10
129.1890043679221
 20
166.7847043597398
 30
0.0
 10
129.1545121205845
 20
166.6021487455344
 30
0.0
 10
129.081365921474
 20
166.215011045438
 30
0.0
 10
128.9772573499413
 20
165.7579720143381
 30
0.0
 10
128.8889964518909
 20
165.4142226484625
 30
0.0
 10
128.8364147978049
 20
165.2262647322928
 30
0.0
 10
128.8301275222676
 20
165.2063805558047
 30
0.0
 10
128.8272726263447
 20
165.1973516443071
 30
0.0
  0
SPLINE
  5
E6
330
1F
100
AcDbEntity
  8
0
  6
Continuous
 62
     7
370
    18
100
AcDbSpline
210
0.0
220
0.0
230
1.0
 70
     8
 71
     3
 72
    12
 73
     8
 74
     0
 42
0.000000001
 43
0.00000001
 40
0.0
 40
0.0
 40
0.0
 40
0.0
 40
0.2061648131190309
 40
0.4176405703012398
 40
0.634721705221557
 40
0.8543850481684355
 40
1.0
 40
1.0
 40
1.0
 40
1.0
 10
140.81530197594
 20
164.685372891396
 30
0.0
 10
140.9092861341874
 20
164.7124873269676
 30
0.0
 10
141.0996755457261
 20
164.7674146841834
 30
0.0
 10
141.2944637006344
 20
165.1208337798521
 30
0.0
 10
141.4502092091586
 20
165.6152756235847
 30
0.0
 10
141.5767181897122
 20
166.1725903574483
 30
0.0
 10
141.6563101455441
 20
166.6102394366849
 30
0.0
 10
141.6880387726767
 20
166.7847043597398
 30
0.0
  0
SPLINE
  5
E7
330
1F
100
AcDbEntity
  8
0
  6
Continuous
 62
     7
370
    18
100
AcDbSpline
210
0.0
220
0.0
230
1.0
 70
     8
 71
     3
 72
    12
 73
     8
 74
     0
 42
0.000000001
 43
0.00000001
 40
0.0
 40
0.0
 40
0.0
 40
0.0
 40
0.187734243243186
 40
0.4299768630279268
 40
0.6556245041661215
 40
0.9170906470190863
 40
1.0
 40
1.0
 40
1.0
 40
1.0
 10
142.456374308799
 20
171.5847043548969
 30
0.0
 10
142.4866641961038
 20
171.7492040668253
 30
0.0
 10
142.5560385973839
 20
172.1259657533567
 30
0.0
 10
142.6596257745987
 20
172.5740386365075
 30
0.0
 10
142.7685423397428
 20
172.9495431508434
 30
0.0
 10
142.8357545133908
 20
173.1196342659015
 30
0.0
 10
142.8281430237724
 20
173.1357077037564
 30
0.0
 10
142.8263105365975
 20
173.1395774283705
 30
0.0
  0
SPLINE
  5
E8
330
1F
100
AcDbEntity
  8
0
  6
Continuous
 62
     7
370
    18
100
AcDbSpline
210
0.0
220
0.0
230
1.0
 70
     8
 71
     3
 72
    14
 73
    10
 74
     0
 42
0.000000001
 43
0.00000001
 40
0.0
 40
0.0
 40
0.0
 40
0.0
 40
0.1918341433773283
 40
0.3737495054696074
 40
0.5458644792764212
 40
0.7097196917183085
 40
0.8588742430607031
 40
0.9907862433541651
 40
1.0
 40
1.0
 40
1.0
 40
1.0
 10
144.8140975001795
 20
164.6848308616576
 30
0.0
 10
144.9006478095677
 20
164.7068014345793
 30
0.0
 10
145.0692733459952
 20
164.7496065923046
 30
0.0
 10
145.2524069425862
 20
165.0360018825007
 30
0.0
 10
145.3873952082501
 20
165.3993893294281
 30
0.0
 10
145.495513264937
 20
165.8127737507499
 30
0.0
 10
145.593625598396
 20
166.2704584268473
 30
0.0
 10
145.6571091140916
 20
166.5973441721164
 30
0.0
 10
145.6877646736286
 20
166.7732217419455
 30
0.0
 10
145.6897661003811
 20
166.7847043597398
 30
0.0
  0
SPLINE
  5
E9
330
1F
100
AcDbEntity
  8
0
  6
Continuous
 62
     7
370
    18
100
AcDbSpline
210
0.0
220
0.0
230
1.0
 70
     8
 71
     3
 72
    11
 73
     7
 74
     0
 42
0.000000001
 43
0.00000001
 40
0.0
 40
0.0
 40
0.0
 40
0.0
 40
0.1259475034713063
 40
0.4008467344912881
 40
0.6927070288603477
 40
0.9999999999999999
 40
0.9999999999999999
 40
0.9999999999999999
 40
0.9999999999999999
 10
146.4554957959397
 20
171.5847043548969
 30
0.0
 10
146.4707929744389
 20
171.6693804652845
 30
0.0
 10
146.5194785289702
 20
171.9388748292283
 30
0.0
 10
146.603520207865
 20
172.3351330990348
 30
0.0
 10
146.7096336852937
 20
172.7665733675726
 30
0.0
 10
146.7821506350271
 20
172.9631550076037
 30
0.0
 10
146.8193430367453
 20
173.0639775512067
 30
0.0
  0
SPLINE
  5
EA
330
1F
100
AcDbEntity
  8
0
  6
Continuous
 62
     7
370
    18
100
AcDbSpline
210
0.0
220
0.0
230
1.0
 70
     8
 71
     3
 72
    16
 73
    12
 74
     0
 42
0.000000001
 43
0.00000001
 40
0.0
 40
0.0
 40
0.0
 40
0.0
 40
0.1464747840500361
 40
0.2786796910383431
 40
0.396324508029209
 40
0.4997003509179939
 40
0.6163865693360236
 40
0.7164003823252864
 40
0.8208825584357449
 40
0.989179480734143
 40
1.0
 40
1.0
 40
1.0
 40
1.0
 10
148.8165251824601
 20
164.684991980463
 30
0.0
 10
148.8772293774659
 20
164.696069347075
 30
0.0
 10
148.9927238389781
 20
164.7171449002836
 30
0.0
 10
149.1410288059211
 20
164.8741982799968
 30
0.0
 10
149.2573900015342
 20
165.072475255324
 30
0.0
 10
149.3536607389375
 20
165.3105477986036
 30
0.0
 10
149.4328083440357
 20
165.5725025022493
 30
0.0
 10
149.5042994426118
 20
165.8580209649859
 30
0.0
 10
149.58680965641
 20
166.2360179514896
 30
0.0
 10
149.6485953038244
 20
166.5446424025926
 30
0.0
 10
149.6873053406459
 20
166.771028341418
 30
0.0
 10
149.6896438214524
 20
166.7847043597398
 30
0.0
  0
SPLINE
  5
EB
330
1F
100
AcDbEntity
  8
0
  6
Continuous
 62
     7
370
    18
100
AcDbSpline
210
0.0
220
0.0
230
1.0
 70
     8
 71
     3
 72
     9
 73
     5
 74
     0
 42
0.000000001
 43
0.00000001
 40
0.0
 40
0.0
 40
0.0
 40
0.0
 40
0.5407017652877337
 40
1.0
 40
1.0
 40
1.0
 40
1.0
 10
150.7681116375668
 20
172.9347043899146
 30
0.0
 10
150.7941777624264
 20
173.0096023920239
 30
0.0
 10
150.842385714634
 20
173.1481223801535
 30
0.0
 10
150.8294793008541
 20
173.1538220887909
 30
0.0
 10
150.8235514077885
 20
173.1564399549065
 30
0.0
  0
SPLINE
  5
EC
330
1F
100
AcDbEntity
  8
0
  6
Continuous
 62
     7
370
    18
100
AcDbSpline
210
0.0
220
0.0
230
1.0
 70
     8
 71
     3
 72
    15
 73
    11
 74
     0
 42
0.000000001
 43
0.00000001
 40
0.0
 40
0.0
 40
0.0
 40
0.0
 40
0.0778648416289617
 40
0.2249272759943334
 40
0.3710120493212233
 40
0.5155858371718892
 40
0.6517821408917442
 40
0.7778657459669591
 40
0.8940861949927139
 40
1.0
 40
1.0
 40
1.0
 40
1.0
 10
152.09987870488
 20
168.9930877207338
 30
0.0
 10
152.0724012821856
 20
169.1760156668055
 30
0.0
 10
151.9930275660297
 20
169.704437529001
 30
0.0
 10
151.8617304794336
 20
170.5705445617839
 30
0.0
 10
151.7063904505941
 20
171.5127853393062
 30
0.0
 10
151.5544981798116
 20
172.3073176273792
 30
0.0
 10
151.4035681939282
 20
172.9213291178772
 30
0.0
 10
151.2414342745719
 20
173.3506717169843
 30
0.0
 10
151.0564459900005
 20
173.6286927584923
 30
0.0
 10
150.8935033224308
 20
173.6661745054814
 30
0.0
 10
150.8158121171934
 20
173.6840458349583
 30
0.0
  0
SPLINE
  5
ED
330
1F
100
AcDbEntity
  8
0
  6
Continuous
 62
     7
370
    18
100
AcDbSpline
210
0.0
220
0.0
230
1.0
 70
     8
 71
     3
 72
    28
 73
    24
 74
     0
 42
0.000000001
 43
0.00000001
 40
0.0
 40
0.0
 40
0.0
 40
0.0
 40
0.0251629593426106
 40
0.0847573295692023
 40
0.1417018520114144
 40
0.1952634929422626
 40
0.2440109926233817
 40
0.2875583331013188
 40
0.3257967337914252
 40
0.3586590873702055
 40
0.3951460852870453
 40
0.4455662924622091
 40
0.5100125778796918
 40
0.5475448238989373
 40
0.588590352534501
 40
0.6331783223106312
 40
0.6813681333619952
 40
0.733172112901709
 40
0.7885583164157582
 40
0.8475248983281276
 40
0.9101784533801799
 40
0.9765335217504019
 40
1.0
 40
1.0
 40
1.0
 40
1.0
 10
148.8308377477867
 20
165.2030401625929
 30
0.0
 10
148.8342325630833
 20
165.2055030425626
 30
0.0
 10
148.8456674454036
 20
165.2137988525444
 30
0.0
 10
148.8048724709057
 20
165.3222679066065
 30
0.0
 10
148.7237089667062
 20
165.5654121803973
 30
0.0
 10
148.6280887610452
 20
165.9270327482066
 30
0.0
 10
148.5412768307615
 20
166.3274207603302
 30
0.0
 10
148.4624848224735
 20
166.7357404701466
 30
0.0
 10
148.3929259215085
 20
167.1275892325554
 30
0.0
 10
148.3272925620455
 20
167.5191252704434
 30
0.0
 10
148.2541079376654
 20
167.9760073533557
 30
0.0
 10
148.1617278200585
 20
168.5770343952339
 30
0.0
 10
148.0686395430114
 20
169.1996788782196
 30
0.0
 10
147.9813626376123
 20
169.781575215727
 30
0.0
 10
147.9060691896255
 20
170.2760828645858
 30
0.0
 10
147.8241936050501
 20
170.796839102496
 30
0.0
 10
147.7357593126428
 20
171.3306959105985
 30
0.0
 10
147.6407069633545
 20
171.8611647598589
 30
0.0
 10
147.5389149631452
 20
172.3661536877479
 30
0.0
 10
147.4302325453151
 20
172.8199757313236
 30
0.0
 10
147.3148129751104
 20
173.1790814666033
 30
0.0
 10
147.2212134961531
 20
173.3994930111427
 30
0.0
 10
147.1658911085153
 20
173.4376179754068
 30
0.0
 10
147.151437765692
 20
173.4475783766506
 30
0.0
  0
LWPOLYLINE
  5
EE
330
1F
100
AcDbEntity
  8
0
  6
Continuous
 62
     7
370
    18
100
AcDbPolyline
 90
       22
 70
   128
 43
0.0
 10
144.8185343209
 20
165.2069070139
 10
144.8193762365
 20
165.2481911467
 10
144.7658847931
 20
165.4351772038
 10
144.6871153924
 20
165.7058982407
 10
144.6034938011
 20
166.0452309759
 10
144.5109575901
 20
166.4863214125
 10
144.4104548458
 20
167.0305770119
 10
144.3028665993
 20
167.6729411581
 10
144.1981971178
 20
168.3407534026
 10
144.1019840452
 20
168.9767282394
 10
144.0142609093
 20
169.5620670677
 10
143.9350631002
 20
170.0853290847
 10
143.8388835553
 20
170.7003702638
 10
143.7738660637
 20
171.0915300525
 10
143.6954654667
 20
171.5277095088
 10
143.6013348315
 20
171.9947351837
 10
143.4885386291
 20
172.4706794364
 10
143.3543182823
 20
172.923257737
 10
143.1970868174
 20
173.3095442639
 10
143.0166952226
 20
173.5818550685
 10
142.8367376241
 20
173.6733793975
 10
142.8367376241
 20
173.6733793975
  0
SPLINE
  5
EF
330
1F
100
AcDbEntity
  8
0
  6
Continuous
 62
     7
370
    18
100
AcDbSpline
210
0.0
220
0.0
230
1.0
 70
     8
 71
     3
 72
    20
 73
    16
 74
     0
 42
0.000000001
 43
0.00000001
 40
0.0
 40
0.0
 40
0.0
 40
0.0
 40
0.0540142770380491
 40
0.1543966581574738
 40
0.252329577587963
 40
0.3036092743009552
 40
0.3600600838716803
 40
0.4217354735240901
 40
0.488629441644104
 40
0.5606998347844104
 40
0.6379737268302331
 40
0.7205779044799899
 40
0.8084799980222268
 40
0.9015747185705713
 40
1.0
 40
1.0
 40
1.0
 40
1.0
 10
140.8245202067835
 20
165.2094718762932
 30
0.0
 10
140.8288931767192
 20
165.2140815827868
 30
0.0
 10
140.8413930560346
 20
165.2272581597351
 30
0.0
 10
140.7643920367205
 20
165.4262713218839
 30
0.0
 10
140.6608620679198
 20
165.7912730759479
 30
0.0
 10
140.5691625296065
 20
166.1917733831279
 30
0.0
 10
140.493942956175
 20
166.5643474668442
 30
0.0
 10
140.4112265547363
 20
167.0174311490394
 30
0.0
 10
140.3213097765863
 20
167.5523822232537
 30
0.0
 10
140.2240347905131
 20
168.1681585061858
 30
0.0
 10
140.1194123849865
 20
168.8584644906008
 30
0.0
 10
140.0076624870092
 20
169.6079875329654
 30
0.0
 10
139.888732657834
 20
170.3916917605096
 30
0.0
 10
139.7623520004934
 20
171.1875474797267
 30
0.0
 10
139.6757984625727
 20
171.6582148821566
 30
0.0
 10
139.6313171747668
 20
171.9000986074356
 30
0.0
  0
SPLINE
  5
F0
330
1F
100
AcDbEntity
  8
0
  6
Continuous
 62
     7
370
    18
100
AcDbSpline
210
0.0
220
0.0
230
1.0
 70
     8
 71
     3
 72
     9
 73
     5
 74
     0
 42
0.000000001
 43
0.00000001
 40
0.0
 40
0.0
 40
0.0
 40
0.0
 40
0.4888954515641462
 40
1.0
 40
1.0
 40
1.0
 40
1.0
 10
147.2511693749173
 20
173.2635709219871
 30
0.0
 10
147.2037407753266
 20
173.3809497346246
 30
0.0
 10
147.1067290329615
 20
173.6210395375918
 30
0.0
 10
146.9138344937675
 20
173.6631039294919
 30
0.0
 10
146.815245217417
 20
173.6846032315192
 30
0.0
  0
SPLINE
  5
F1
330
1F
100
AcDbEntity
  8
0
  6
Continuous
 62
     7
370
    18
100
AcDbSpline
210
0.0
220
0.0
230
1.0
 70
     8
 71
     3
 72
    22
 73
    18
 74
     0
 42
0.000000001
 43
0.00000001
 40
0.0
 40
0.0
 40
0.0
 40
0.0
 40
0.0824196765603774
 40
0.1593568350702432
 40
0.2308900644000107
 40
0.2969283992542925
 40
0.3573778441769727
 40
0.4122283287905074
 40
0.4615112028059544
 40
0.5052037546264072
 40
0.5583744681809013
 40
0.6212524294810569
 40
0.6962025388878902
 40
0.7608671407286315
 40
0.8330817979967057
 40
0.9128739803125459
 40
1.0
 40
1.0
 40
1.0
 40
1.0
 10
139.1369562509997
 20
171.8609758415518
 30
0.0
 10
139.1772944860151
 20
171.6453727108968
 30
0.0
 10
139.2552876756593
 20
171.2285082682506
 30
0.0
 10
139.3684294725384
 20
170.5302318128323
 30
0.0
 10
139.4733545511825
 20
169.8488566656743
 30
0.0
 10
139.5701904823314
 20
169.2023782108285
 30
0.0
 10
139.6589450203067
 20
168.6096340069941
 30
0.0
 10
139.7395586176964
 20
168.0809607019457
 30
0.0
 10
139.8119002188446
 20
167.6212920623742
 30
0.0
 10
139.8833935159942
 20
167.1852530461332
 30
0.0
 10
139.9613987276283
 20
166.7345011950262
 30
0.0
 10
140.0579056807539
 20
166.2261406155234
 30
0.0
 10
140.1684752046309
 20
165.7467774283682
 30
0.0
 10
140.2977563824373
 20
165.3259094010714
 30
0.0
 10
140.4452778722353
 20
164.9902734142301
 30
0.0
 10
140.624126467421
 20
164.7346439842524
 30
0.0
 10
140.7584802760905
 20
164.7023101828844
 30
0.0
 10
140.8286087128861
 20
164.6854329617021
 30
0.0
  0
LWPOLYLINE
  5
F2
330
1F
100
AcDbEntity
  8
0
  6
Continuous
 62
     7
370
    18
100
AcDbPolyline
 90
       21
 70
   128
 43
0.0
 10
142.820912591
 20
173.1561582298
 10
142.8163397971
 20
173.1188482833
 10
142.9084811274
 20
172.8330484354
 10
142.9760467175
 20
172.590261255
 10
143.0477455172
 20
172.2908524559
 10
143.1827686641
 20
171.6200149847
 10
143.3040995065
 20
170.922224456
 10
143.4106074188
 20
170.2552162339
 10
143.5119707051
 20
169.5905134718
 10
143.6208739791
 20
168.8642428951
 10
143.737393609
 20
168.0972105121
 10
143.8606690529
 20
167.3249616749
 10
143.9789954487
 20
166.6460613949
 10
144.0893571738
 20
166.0883849715
 10
144.1927973095
 20
165.6483622962
 10
144.3139474753
 20
165.2537148209
 10
144.400884575
 20
165.0526758046
 10
144.5134684357
 20
164.8717221567
 10
144.6558620695
 20
164.7371358001
 10
144.8273669842
 20
164.6848019907
 10
144.8273669842
 20
164.6848019907
  0
SPLINE
  5
F3
330
1F
100
AcDbEntity
  8
0
  6
Continuous
 62
     7
370
    18
100
AcDbSpline
210
0.0
220
0.0
230
1.0
 70
     8
 71
     3
 72
    19
 73
    15
 74
     0
 42
0.000000001
 43
0.00000001
 40
0.0
 40
0.0
 40
0.0
 40
0.0
 40
0.0645475079751543
 40
0.1741411468024458
 40
0.2641819412113983
 40
0.3528290756604583
 40
0.4106241200086114
 40
0.4777606111660524
 40
0.5543211774910503
 40
0.6403441884813424
 40
0.7357953013787635
 40
0.8406157290637983
 40
0.9549075946456836
 40
1.0
 40
1.0
 40
1.0
 40
1.0
 10
150.8195187810404
 20
173.1641904213724
 30
0.0
 10
150.8161987515333
 20
173.1602651652513
 30
0.0
 10
150.8072417249352
 20
173.1496753125388
 30
0.0
 10
150.8411283610754
 20
173.0395162439141
 30
0.0
 10
150.9100575609677
 20
172.8318826984465
 30
0.0
 10
150.9829743257906
 20
172.5700590560595
 30
0.0
 10
151.0482304187158
 20
172.2939434323708
 30
0.0
 10
151.1109543064734
 20
171.9994895284554
 30
0.0
 10
151.1828031629569
 20
171.6266638777911
 30
0.0
 10
151.2638954912456
 20
171.167788799358
 30
0.0
 10
151.3541540854
 20
170.6186426757186
 30
0.0
 10
151.4536555198346
 20
169.9794907939743
 30
0.0
 10
151.5373344501702
 20
169.4220077311897
 30
0.0
 10
151.5877607600059
 20
169.086500873464
 30
0.0
 10
151.6020271841032
 20
168.991580520666
 30
0.0
  0
SPLINE
  5
F4
330
1F
100
AcDbEntity
  8
0
  6
Continuous
 62
     7
370
    18
100
AcDbSpline
210
0.0
220
0.0
230
1.0
 70
     8
 71
     3
 72
    13
 73
     9
 74
     0
 42
0.000000001
 43
0.00000001
 40
0.0
 40
0.0
 40
0.0
 40
0.0
 40
0.1258402418655173
 40
0.2486908161369635
 40
0.4839613333769452
 40
0.7086957931268897
 40
0.91731637850415
 40
1.0
 40
1.0
 40
1.0
 40
1.0
 10
150.8290462109787
 20
173.6840765686033
 30
0.0
 10
150.7718053124417
 20
173.6747998039901
 30
0.0
 10
150.658683424224
 20
173.6564666688297
 30
0.0
 10
150.471896144611
 20
173.4793259060726
 30
0.0
 10
150.2998323581731
 20
173.130261624
 30
0.0
 10
150.1500417157676
 20
172.5707485274174
 30
0.0
 10
150.0368334525822
 20
172.0450540487303
 30
0.0
 10
149.9735869797993
 20
171.6864814100665
 30
0.0
 10
149.955635136698
 20
171.5847043548969
 30
0.0
  0
SPLINE
  5
F5
330
1F
100
AcDbEntity
  8
0
  6
Continuous
 62
     7
370
    18
100
AcDbSpline
210
0.0
220
0.0
230
1.0
 70
     8
 71
     3
 72
    15
 73
    11
 74
     0
 42
0.000000001
 43
0.00000001
 40
0.0
 40
0.0
 40
0.0
 40
0.0
 40
0.158425255748961
 40
0.2942829138022616
 40
0.4225602917449561
 40
0.5617464041808907
 40
0.686227009429487
 40
0.8268162628386581
 40
0.9827449490773046
 40
1.0
 40
1.0
 40
1.0
 40
1.0
 10
149.1878714326365
 20
166.7847043597398
 30
0.0
 10
149.1608474414622
 20
166.6378916086064
 30
0.0
 10
149.1106490130125
 20
166.3651795086158
 30
0.0
 10
149.0399828570369
 20
166.0386275646275
 30
0.0
 10
148.972842162254
 20
165.7610238316575
 30
0.0
 10
148.9128998881727
 20
165.5476102244167
 30
0.0
 10
148.8645270186417
 20
165.3859005744197
 30
0.0
 10
148.8329491009661
 20
165.2733621357196
 30
0.0
 10
148.8206259120867
 20
165.215204974267
 30
0.0
 10
148.8222002647966
 20
165.2077397482497
 30
0.0
 10
148.8223571244223
 20
165.2069959552286
 30
0.0
  0
SPLINE
  5
F6
330
1F
100
AcDbEntity
  8
0
  6
Continuous
 62
     7
370
    18
100
AcDbSpline
210
0.0
220
0.0
230
1.0
 70
     8
 71
     3
 72
     9
 73
     5
 74
     0
 42
0.000000001
 43
0.00000001
 40
0.0
 40
0.0
 40
0.0
 40
0.0
 40
0.511248194396873
 40
0.9999999999999999
 40
0.9999999999999999
 40
0.9999999999999999
 40
0.9999999999999999
 10
146.8285743061049
 20
173.6846167356966
 30
0.0
 10
146.7310777894774
 20
173.6635423533499
 30
0.0
 10
146.5403748829516
 20
173.6223209220029
 30
0.0
 10
146.4455791992807
 20
173.3895197253248
 30
0.0
 10
146.3992476377232
 20
173.2757377201018
 30
0.0
  0
SPLINE
  5
F7
330
1F
100
AcDbEntity
  8
0
  6
Continuous
 62
     7
370
    18
100
AcDbSpline
210
0.0
220
0.0
230
1.0
 70
     8
 71
     3
 72
    14
 73
    10
 74
     0
 42
0.000000001
 43
0.00000001
 40
0.0
 40
0.0
 40
0.0
 40
0.0
 40
0.1288435436248949
 40
0.2473169750231537
 40
0.4525439765389012
 40
0.6229168393977268
 40
0.7995160363868141
 40
0.9929847476023022
 40
1.0
 40
1.0
 40
1.0
 40
1.0
 10
142.8283035669072
 20
173.6843494461176
 30
0.0
 10
142.7707905147241
 20
173.6752938863622
 30
0.0
 10
142.6603934106854
 20
173.657911613391
 30
0.0
 10
142.4827152690263
 20
173.4903441930812
 30
0.0
 10
142.328777123962
 20
173.193493851833
 30
0.0
 10
142.2014565976741
 20
172.7732001808934
 30
0.0
 10
142.0808922840378
 20
172.2554161158864
 30
0.0
 10
141.9988037928935
 20
171.8488528609633
 30
0.0
 10
141.9554952318587
 20
171.5936348389544
 30
0.0
 10
141.9539797965033
 20
171.5847043548969
 30
0.0
  0
SPLINE
  5
F8
330
1F
100
AcDbEntity
  8
0
  6
Continuous
 62
     7
370
    18
100
AcDbSpline
210
0.0
220
0.0
230
1.0
 70
     8
 71
     3
 72
    12
 73
     8
 74
     0
 42
0.000000001
 43
0.00000001
 40
0.0
 40
0.0
 40
0.0
 40
0.0
 40
0.1117597770797817
 40
0.3800266022074342
 40
0.6464241744417586
 40
0.8976890110266758
 40
1.0
 40
1.0
 40
1.0
 40
1.0
 10
141.1871250632746
 20
166.7847043597398
 30
0.0
 10
141.1678105422837
 20
166.6768980747252
 30
0.0
 10
141.1021336773398
 20
166.3103148794005
 30
0.0
 10
140.9892163978081
 20
165.8101265481166
 30
0.0
 10
140.8671532983257
 20
165.3850469164704
 30
0.0
 10
140.7943269121237
 20
165.2192777942186
 30
0.0
 10
140.8093638900796
 20
165.2090241770824
 30
0.0
 10
140.8137150022728
 20
165.2060571820734
 30
0.0
  0
SPLINE
  5
F9
330
1F
100
AcDbEntity
  8
0
  6
Continuous
 62
     7
370
    18
100
AcDbSpline
210
0.0
220
0.0
230
1.0
 70
     8
 71
     3
 72
    13
 73
     9
 74
     0
 42
0.000000001
 43
0.00000001
 40
0.0
 40
0.0
 40
0.0
 40
0.0
 40
0.2114910885882177
 40
0.4084212455395244
 40
0.5905887732906001
 40
0.7581388517147655
 40
0.9113811198838192
 40
1.0
 40
1.0
 40
1.0
 40
1.0
 10
146.5979974630816
 20
173.5249559157786
 30
0.0
 10
146.5524359649684
 20
173.5065860990744
 30
0.0
 10
146.4644498283786
 20
173.4711112075848
 30
0.0
 10
146.3377409802148
 20
173.2081821034525
 30
0.0
 10
146.2205147886844
 20
172.8454673880393
 30
0.0
 10
146.1127497654586
 20
172.4002069116956
 30
0.0
 10
146.025265775584
 20
171.9771466208149
 30
0.0
 10
145.9736751026837
 20
171.6899385328414
 30
0.0
 10
145.9547720763428
 20
171.5847043548969
 30
0.0
  0
SPLINE
  5
FA
330
1F
100
AcDbEntity
  8
0
  6
Continuous
 62
     7
370
    18
100
AcDbSpline
210
0.0
220
0.0
230
1.0
 70
     8
 71
     3
 72
    12
 73
     8
 74
     0
 42
0.000000001
 43
0.00000001
 40
0.0
 40
0.0
 40
0.0
 40
0.0
 40
0.1651004479830206
 40
0.3692742062389833
 40
0.5802296909625361
 40
0.7970386028686581
 40
1.0
 40
1.0
 40
1.0
 40
1.0
 10
145.1884630981428
 20
166.7847043597398
 30
0.0
 10
145.1568739488461
 20
166.6155496133217
 30
0.0
 10
145.0862196400612
 20
166.2372073042718
 30
0.0
 10
144.9834586862193
 20
165.7801447503797
 30
0.0
 10
144.8930150018983
 20
165.4271610504695
 30
0.0
 10
144.8369470029606
 20
165.2224479421841
 30
0.0
 10
144.8290177865652
 20
165.2008622207555
 30
0.0
 10
144.8251839641077
 20
165.1904253983197
 30
0.0
  0
SPLINE
  5
FB
330
1F
100
AcDbEntity
  8
0
  6
Continuous
 62
     7
370
    18
100
AcDbSpline
210
0.0
220
0.0
230
1.0
 70
     8
 71
     3
 72
    27
 73
    23
 74
     0
 42
0.000000001
 43
0.00000001
 40
0.0
 40
0.0
 40
0.0
 40
0.0
 40
0.0651332791279685
 40
0.126070946457443
 40
0.1826820968464308
 40
0.2349373156666683
 40
0.2828757026496663
 40
0.3264404990174448
 40
0.3655659881493955
 40
0.4002243652040524
 40
0.456088116594443
 40
0.494025047688591
 40
0.5189106057928291
 40
0.5493348001004291
 40
0.5870530094456209
 40
0.6321070573102382
 40
0.6845981543555274
 40
0.741894276011375
 40
0.8017093530172342
 40
0.8645177327508843
 40
0.9306967066353978
 40
1.0
 40
1.0
 40
1.0
 40
1.0
 10
146.5967122379286
 20
173.3471128852365
 30
0.0
 10
146.6400284900802
 20
173.3286917793184
 30
0.0
 10
146.7238707436693
 20
173.2930361776202
 30
0.0
 10
146.8453949855154
 20
173.0328916630662
 30
0.0
 10
146.9586057602079
 20
172.6728625189791
 30
0.0
 10
147.0633752922357
 20
172.2326713637451
 30
0.0
 10
147.1593952662682
 20
171.7542033400668
 30
0.0
 10
147.2466796873194
 20
171.2679888148938
 30
0.0
 10
147.3252036028495
 20
170.79703549025
 30
0.0
 10
147.4120548860898
 20
170.2501604254507
 30
0.0
 10
147.498322511851
 20
169.6830035062409
 30
0.0
 10
147.5778765680584
 20
169.1513643102225
 30
0.0
 10
147.6403618151811
 20
168.7342732353025
 30
0.0
 10
147.7027544196322
 20
168.3211299247511
 30
0.0
 10
147.7788056415499
 20
167.8278857184376
 30
0.0
 10
147.8699677420564
 20
167.2618420305787
 30
0.0
 10
147.9741180711159
 20
166.6612645839237
 30
0.0
 10
148.0898842191245
 20
166.0700682110997
 30
0.0
 10
148.221772388655
 20
165.5252730724132
 30
0.0
 10
148.3818006713964
 20
165.0802756684055
 30
0.0
 10
148.5822573258586
 20
164.7527120113617
 30
0.0
 10
148.7460369202211
 20
164.7079195735856
 30
0.0
 10
148.8298151555998
 20
164.6850068816242
 30
0.0
  0
LINE
  5
FC
330
1F
100
AcDbEntity
  8
0
  6
Continuous
 62
     7
370
    18
100
AcDbLine
 10
172.8649075988
 20
171.2653813181
 30
0.0
 11
172.2649086181
 21
171.2653813181
 31
0.0
  0
LINE
  5
FD
330
1F
100
AcDbEntity
  8
0
  6
Continuous
 62
     7
370
    18
100
AcDbLine
 10
172.8649075988
 20
165.6847043657
 30
0.0
 11
172.8649075988
 21
171.2653813181
 31
0.0
  0
LINE
  5
FE
330
1F
100
AcDbEntity
  8
0
  6
Continuous
 62
     7
370
    18
100
AcDbLine
 10
172.2649086181
 20
165.6847043657
 30
0.0
 11
172.2649086181
 21
171.2653813181
 31
0.0
  0
LINE
  5
FF
330
1F
100
AcDbEntity
  8
0
  6
Continuous
 62
     7
370
    18
100
AcDbLine
 10
172.8649075988
 20
171.3464855445
 30
0.0
 11
172.8649075988
 21
171.2653813181
 31
0.0
  0
LINE
  5
100
330
1F
100
AcDbEntity
  8
0
  6
Continuous
 62
     7
370
    18
100
AcDbLine
 10
172.2649086181
 20
171.2653813181
 30
0.0
 11
172.2649086181
 21
171.3464855445
 31
0.0
  0
LINE
  5
101
330
1F
100
AcDbEntity
  8
0
  6
Continuous
 62
     7
370
    18
100
AcDbLine
 10
172.8649075988
 20
171.9725073078
 30
0.0
 11
172.2649086181
 21
171.9725073078
 31
0.0
  0
LINE
  5
102
330
1F
100
AcDbEntity
  8
0
  6
Continuous
 62
     7
370
    18
100
AcDbLine
 10
172.8649075988
 20
171.3847044618
 30
0.0
 11
172.8649075988
 21
171.9725073078
 31
0.0
  0
LINE
  5
103
330
1F
100
AcDbEntity
  8
0
  6
Continuous
 62
     7
370
    18
100
AcDbLine
 10
172.2649086181
 20
171.3464855445
 30
0.0
 11
172.2649086181
 21
171.9725073078
 31
0.0
  0
LINE
  5
104
330
1F
100
AcDbEntity
  8
0
  6
Continuous
 62
     7
370
    18
100
AcDbLine
 10
172.8649075988
 20
172.11991006
 30
0.0
 11
172.8649075988
 21
171.9725073078
 31
0.0
  0
LINE
  5
105
330
1F
100
AcDbEntity
  8
0
  6
Continuous
 62
     7
370
    18
100
AcDbLine
 10
172.2649086181
 20
171.9725073078
 30
0.0
 11
172.2649086181
 21
172.11991006
 31
0.0
  0
LINE
  5
106
330
1F
100
AcDbEntity
  8
0
  6
Continuous
 62
     7
370
    18
100
AcDbLine
 10
114.1649085942
 20
174.8847045698
 30
0.0
 11
114.1649085942
 21
163.4847043776
 31
0.0
  0
SPLINE
  5
107
330
1F
100
AcDbEntity
  8
0
  6
Continuous
 62
     7
370
    18
100
AcDbSpline
210
0.0
220
0.0
230
1.0
 70
     8
 71
     3
 72
    14
 73
    10
 74
     0
 42
0.000000001
 43
0.00000001
 40
0.0
 40
0.0
 40
0.0
 40
0.0
 40
0.1250000000000001
 40
0.1250000000000001
 40
0.2500000000000002
 40
0.2500000000000002
 40
0.4999999999999996
 40
0.4999999999999996
 40
1.0
 40
1.0
 40
1.0
 40
1.0
 10
112.164908206795
 20
163.7646029584326
 30
0.0
 10
112.164908206795
 20
163.7158462455913
 30
0.0
 10
112.1729404372489
 20
163.6730949032924
 30
0.0
 10
112.1942106484626
 20
163.5952231917075
 30
0.0
 10
112.2077596540314
 20
163.5606960930923
 30
0.0
 10
112.2511924352047
 20
163.4680009440183
 30
0.0
 10
112.2837942383839
 20
163.4203261010852
 30
0.0
 10
112.3751679023175
 20
163.3054329000757
 30
0.0
 10
112.4278097271671
 20
163.2648358050041
 30
0.0
 10
112.4649082067951
 20
163.2388031984785
 30
0.0
  0
LINE
  5
108
330
1F
100
AcDbEntity
  8
0
  6
Continuous
 62
     7
370
    18
100
AcDbLine
 10
112.1649082664
 20
163.7646031329
 30
0.0
 11
112.1649082664
 21
174.8847045698
 31
0.0
  0
LINE
  5
109
330
1F
100
AcDbEntity
  8
0
  6
Continuous
 62
     7
370
    18
100
AcDbLine
 10
120.1649081807
 20
172.6347044339
 30
0.0
 11
120.1649081807
 21
168.5593002937
 31
0.0
  0
LINE
  5
10A
330
1F
100
AcDbEntity
  8
0
  6
Continuous
 62
     7
370
    18
100
AcDbLine
 10
108.1649085421
 20
166.1631154591
 30
0.0
 11
108.1649085421
 21
164.8283872516
 31
0.0
  0
SPLINE
  5
10B
330
1F
100
AcDbEntity
  8
0
  6
Continuous
 62
     7
370
    18
100
AcDbSpline
210
0.0
220
0.0
230
1.0
 70
     8
 71
     3
 72
    14
 73
    10
 74
     0
 42
0.000000001
 43
0.00000001
 40
0.0
 40
0.0
 40
0.0
 40
0.0
 40
0.4999999999999991
 40
0.4999999999999991
 40
0.7499999999999991
 40
0.7499999999999991
 40
0.8749999999999996
 40
0.8749999999999996
 40
1.0
 40
1.0
 40
1.0
 40
1.0
 10
107.864908206795
 20
164.2485239732134
 30
0.0
 10
107.9030786612044
 20
164.2801818950687
 30
0.0
 10
107.9580678063018
 20
164.3296380036286
 30
0.0
 10
108.0506774525532
 20
164.4615203003189
 30
0.0
 10
108.083105608962
 20
164.5153993527027
 30
0.0
 10
108.1249404561615
 20
164.6159414667511
 30
0.0
 10
108.1377814260922
 20
164.6529483959463
 30
0.0
 10
108.1575881875927
 20
164.7345278439985
 30
0.0
 10
108.164908206795
 20
164.7791608654383
 30
0.0
 10
108.164908206795
 20
164.8283871815058
 30
0.0
  0
LINE
  5
10C
330
1F
100
AcDbEntity
  8
0
  6
Continuous
 62
     7
370
    18
100
AcDbLine
 10
107.8649081204
 20
164.2485239306
 30
0.0
 11
107.8649081204
 21
165.714834048
 31
0.0
  0
SPLINE
  5
10D
330
1F
100
AcDbEntity
  8
0
  6
Continuous
 62
     7
370
    18
100
AcDbSpline
210
0.0
220
0.0
230
1.0
 70
     8
 71
     3
 72
    12
 73
     8
 74
     0
 42
0.000000001
 43
0.00000001
 40
0.0
 40
0.0
 40
0.0
 40
0.0
 40
0.2500000000000006
 40
0.2500000000000006
 40
0.5000000000000011
 40
0.5000000000000011
 40
1.0
 40
1.0
 40
1.0
 40
1.0
 10
107.864908206795
 20
165.7148341189179
 30
0.0
 10
107.9150609292196
 20
165.7148341189179
 30
0.0
 10
107.9633196523018
 20
165.7335765609623
 30
0.0
 10
108.0433223076041
 20
165.7939731141346
 30
0.0
 10
108.0744227447917
 20
165.8339472787328
 30
0.0
 10
108.1453839205216
 20
165.9635030212029
 30
0.0
 10
108.164908206795
 20
166.0642338002363
 30
0.0
 10
108.164908206795
 20
166.1631154475498
 30
0.0
  0
LINE
  5
10E
330
1F
100
AcDbEntity
  8
0
  6
Continuous
 62
     7
370
    18
100
AcDbLine
 10
108.1649085421
 20
173.8847044059
 30
0.0
 11
108.1649085421
 21
172.2062934884
 31
0.0
  0
SPLINE
  5
10F
330
1F
100
AcDbEntity
  8
0
  6
Continuous
 62
     7
370
    18
100
AcDbSpline
210
0.0
220
0.0
230
1.0
 70
     8
 71
     3
 72
    12
 73
     8
 74
     0
 42
0.000000001
 43
0.00000001
 40
0.0
 40
0.0
 40
0.0
 40
0.0
 40
0.5
 40
0.5
 40
0.75
 40
0.75
 40
1.0
 40
1.0
 40
1.0
 40
1.0
 10
108.164908206795
 20
172.2062934194451
 30
0.0
 10
108.164908206795
 20
172.3048906819357
 30
0.0
 10
108.1455289982056
 20
172.4057262618785
 30
0.0
 10
108.0742175575428
 20
172.5357934408899
 30
0.0
 10
108.042825191058
 20
172.5758494048167
 30
0.0
 10
107.9635403382886
 20
172.6356272063053
 30
0.0
 10
107.9143769711584
 20
172.6545747480794
 30
0.0
 10
107.8649082067864
 20
172.6545747480774
 30
0.0
  0
LINE
  5
110
330
1F
100
AcDbEntity
  8
0
  6
Continuous
 62
     7
370
    18
100
AcDbLine
 10
108.1649085421
 20
166.1631154591
 30
0.0
 11
108.1649085421
 21
168.1347043948
 31
0.0
  0
LINE
  5
111
330
1F
100
AcDbEntity
  8
0
  6
Continuous
 62
     7
370
    18
100
AcDbLine
 10
106.4649086359
 20
165.714834048
 30
0.0
 11
107.8649081204
 21
165.714834048
 31
0.0
  0
SPLINE
  5
112
330
1F
100
AcDbEntity
  8
0
  6
Continuous
 62
     7
370
    18
100
AcDbSpline
210
0.0
220
0.0
230
1.0
 70
     8
 71
     3
 72
    12
 73
     8
 74
     0
 42
0.000000001
 43
0.00000001
 40
0.0
 40
0.0
 40
0.0
 40
0.0
 40
0.5
 40
0.5
 40
0.75
 40
0.75
 40
1.0
 40
1.0
 40
1.0
 40
1.0
 10
106.164908206795
 20
166.1631154475498
 30
0.0
 10
106.164908206795
 20
166.0646225716075
 30
0.0
 10
106.1841993289636
 20
165.9639221327402
 30
0.0
 10
106.2555204700237
 20
165.833719066249
 30
0.0
 10
106.2867402507889
 20
165.7937595367827
 30
0.0
 10
106.3664494216911
 20
165.7336401232484
 30
0.0
 10
106.4150487803526
 20
165.7148341189179
 30
0.0
 10
106.464908206795
 20
165.7148341189179
 30
0.0
  0
LINE
  5
113
330
1F
100
AcDbEntity
  8
0
  6
Continuous
 62
     7
370
    18
100
AcDbLine
 10
106.1649072829
 20
166.1631154591
 30
0.0
 11
106.1649072829
 21
172.2062934884
 31
0.0
  0
SPLINE
  5
114
330
1F
100
AcDbEntity
  8
0
  6
Continuous
 62
     7
370
    18
100
AcDbSpline
210
0.0
220
0.0
230
1.0
 70
     8
 71
     3
 72
    12
 73
     8
 74
     0
 42
0.000000001
 43
0.00000001
 40
0.0
 40
0.0
 40
0.0
 40
0.0
 40
0.2499999999999979
 40
0.2499999999999979
 40
0.4999999999999958
 40
0.4999999999999958
 40
1.0
 40
1.0
 40
1.0
 40
1.0
 10
106.464908206795
 20
172.6545747480769
 30
0.0
 10
106.4150056256172
 20
172.6545747480769
 30
0.0
 10
106.3663209723916
 20
172.6357349567596
 30
0.0
 10
106.2864173260652
 20
172.5753423179564
 30
0.0
 10
106.2552796235712
 20
172.5353517681564
 30
0.0
 10
106.1840474942718
 20
172.4050048773995
 30
0.0
 10
106.164908206795
 20
172.3049880732025
 30
0.0
 10
106.164908206795
 20
172.2062934194451
 30
0.0
  0
LINE
  5
115
330
1F
100
AcDbEntity
  8
0
  6
Continuous
 62
     7
370
    18
100
AcDbLine
 10
107.8649081204
 20
172.6545746667
 30
0.0
 11
106.4649086359
 21
172.6545746667
 31
0.0
  0
LINE
  5
116
330
1F
100
AcDbEntity
  8
0
  6
Continuous
 62
     7
370
    18
100
AcDbLine
 10
108.1649085421
 20
170.2347044363
 30
0.0
 11
108.1649085421
 21
172.2062934884
 31
0.0
  0
LINE
  5
117
330
1F
100
AcDbEntity
  8
0
  6
Continuous
 62
     7
370
    18
100
AcDbLine
 10
112.1649082664
 20
170.2347044363
 30
0.0
 11
108.1649085421
 21
170.2347044363
 31
0.0
  0
LINE
  5
118
330
1F
100
AcDbEntity
  8
0
  6
Continuous
 62
     7
370
    18
100
AcDbLine
 10
108.1649085421
 20
168.1347043948
 30
0.0
 11
112.1649082664
 21
168.1347043948
 31
0.0
  0
LINE
  5
119
330
1F
100
AcDbEntity
  8
0
  6
Continuous
 62
     7
370
    18
100
AcDbLine
 10
106.1649072829
 20
172.2062934884
 30
0.0
 11
106.1649072829
 21
173.8847044059
 31
0.0
  0
LINE
  5
11A
330
1F
100
AcDbEntity
  8
0
  6
Continuous
 62
     7
370
    18
100
AcDbLine
 10
106.1649072829
 20
164.4847045415
 30
0.0
 11
106.1649072829
 21
166.1631154591
 31
0.0
  0
SPLINE
  5
11B
330
1F
100
AcDbEntity
  8
0
  6
Continuous
 62
     7
370
    18
100
AcDbSpline
210
0.0
220
0.0
230
1.0
 70
     8
 71
     3
 72
    14
 73
    10
 74
     0
 42
0.000000001
 43
0.00000001
 40
0.0
 40
0.0
 40
0.0
 40
0.0
 40
0.25
 40
0.25
 40
0.5
 40
0.5
 40
0.75
 40
0.75
 40
1.0
 40
1.0
 40
1.0
 40
1.0
 10
111.6567449414889
 20
165.7692137157554
 30
0.0
 10
111.6989881408517
 20
165.7507624998662
 30
0.0
 10
111.7539897595606
 20
165.7386266303614
 30
0.0
 10
111.8740330847461
 20
165.7298310049732
 30
0.0
 10
111.9374267808779
 20
165.7334515599603
 30
0.0
 10
112.0461296607251
 20
165.7554582171745
 30
0.0
 10
112.0910837688516
 20
165.7738203784729
 30
0.0
 10
112.1500798830868
 20
165.8194142721101
 30
0.0
 10
112.164908206795
 20
165.8467363389757
 30
0.0
 10
112.164908206795
 20
165.8756260119426
 30
0.0
  0
SPLINE
  5
11C
330
1F
100
AcDbEntity
  8
0
  6
Continuous
 62
     7
370
    18
100
AcDbSpline
210
0.0
220
0.0
230
1.0
 70
     8
 71
     3
 72
    20
 73
    16
 74
     0
 42
0.000000001
 43
0.00000001
 40
0.0
 40
0.0
 40
0.0
 40
0.0
 40
0.125
 40
0.125
 40
0.2499999999999999
 40
0.2499999999999999
 40
0.3749999999999999
 40
0.3749999999999999
 40
0.4999999999999999
 40
0.4999999999999999
 40
0.6249999999999999
 40
0.6249999999999999
 40
0.7499999999999998
 40
0.7499999999999998
 40
1.0
 40
1.0
 40
1.0
 40
1.0
 10
111.6567449414889
 20
165.7692137157554
 30
0.0
 10
111.5603256504217
 20
165.8113282615803
 30
0.0
 10
111.4542840174744
 20
165.8543406696351
 30
0.0
 10
111.2279761743484
 20
165.935251199164
 30
0.0
 10
111.1087692753689
 20
165.972840213283
 30
0.0
 10
110.8569674968082
 20
166.0376194150688
 30
0.0
 10
110.7224488110213
 20
166.065021616246
 30
0.0
 10
110.448398493595
 20
166.1021833715089
 30
0.0
 10
110.3090211616943
 20
166.1121435984256
 30
0.0
 10
110.0252010150905
 20
166.1123470908594
 30
0.0
 10
109.8844612124281
 20
166.1024486117037
 30
0.0
 10
109.6110544336624
 20
166.0656654089989
 30
0.0
 10
109.4762496510687
 20
166.038403474574
 30
0.0
 10
109.0955849762126
 20
165.9407425591142
 30
0.0
 10
108.8661407896302
 20
165.8535435892743
 30
0.0
 10
108.6730714721011
 20
165.7692137157554
 30
0.0
  0
SPLINE
  5
11D
330
1F
100
AcDbEntity
  8
0
  6
Continuous
 62
     7
370
    18
100
AcDbSpline
210
0.0
220
0.0
230
1.0
 70
     8
 71
     3
 72
    14
 73
    10
 74
     0
 42
0.000000001
 43
0.00000001
 40
0.0
 40
0.0
 40
0.0
 40
0.0
 40
0.25
 40
0.25
 40
0.5
 40
0.5
 40
0.75
 40
0.75
 40
1.0
 40
1.0
 40
1.0
 40
1.0
 10
108.164908206795
 20
165.8756260119426
 30
0.0
 10
108.164908206795
 20
165.8467160198722
 30
0.0
 10
108.1797274187296
 20
165.8195110702583
 30
0.0
 10
108.238234852598
 20
165.7741161034838
 30
0.0
 10
108.2825856998315
 20
165.7557680661036
 30
0.0
 10
108.3919298227831
 20
165.7334589356145
 30
0.0
 10
108.4546119917814
 20
165.7298197154649
 30
0.0
 10
108.5753531955116
 20
165.7385184137731
 30
0.0
 10
108.630743773207
 20
165.7507255916984
 30
0.0
 10
108.6730714721011
 20
165.7692137157554
 30
0.0
  0
LINE
  5
11E
330
1F
100
AcDbEntity
  8
0
  6
Continuous
 62
     7
370
    18
100
AcDbLine
 10
102.6649076406
 20
172.3847043929
 30
0.0
 11
102.6649076406
 21
165.9847043217
 31
0.0
  0
LINE
  5
11F
330
1F
100
AcDbEntity
  8
0
  6
Continuous
 62
     7
370
    18
100
AcDbLine
 10
100.6649073127
 20
169.1847044337
 30
0.0
 11
100.6649073127
 21
172.3847043929
 31
0.0
  0
LINE
  5
120
330
1F
100
AcDbEntity
  8
0
  6
Continuous
 62
     7
370
    18
100
AcDbLine
 10
100.6649073127
 20
165.9847043217
 30
0.0
 11
100.6649073127
 21
169.1847044337
 31
0.0
  0
LINE
  5
121
330
1F
100
AcDbEntity
  8
0
  6
Continuous
 62
     7
370
    18
100
AcDbLine
 10
107.6649084601
 20
159.8847039738
 30
0.0
 11
112.6649083484
 21
159.8847039738
 31
0.0
  0
LINE
  5
122
330
1F
100
AcDbEntity
  8
0
  6
Continuous
 62
     7
370
    18
100
AcDbLine
 10
107.6649084601
 20
157.3847044953
 30
0.0
 11
112.6649083484
 21
157.3847044953
 31
0.0
  0
LINE
  5
123
330
1F
100
AcDbEntity
  8
0
  6
Continuous
 62
     7
370
    18
100
AcDbLine
 10
108.1649085421
 20
154.8847040856
 30
0.0
 11
112.1649082664
 21
154.8847040856
 31
0.0
  0
LINE
  5
124
330
1F
100
AcDbEntity
  8
0
  6
Continuous
 62
     7
370
    18
100
AcDbLine
 10
173.6649099651
 20
166.7847043597
 30
0.0
 11
173.1649089519
 21
166.7847043597
 31
0.0
  0
LINE
  5
125
330
1F
100
AcDbEntity
  8
0
  6
Continuous
 62
     7
370
    18
100
AcDbLine
 10
173.1649089519
 20
171.5847043549
 30
0.0
 11
173.1649089519
 21
166.7847043597
 31
0.0
  0
LINE
  5
126
330
1F
100
AcDbEntity
  8
0
  6
Continuous
 62
     7
370
    18
100
AcDbLine
 10
173.6649099651
 20
171.5847043549
 30
0.0
 11
173.1649089519
 21
171.5847043549
 31
0.0
  0
LINE
  5
127
330
1F
100
AcDbEntity
  8
0
  6
Continuous
 62
     7
370
    18
100
AcDbLine
 10
173.6649099651
 20
166.7847043597
 30
0.0
 11
173.6649099651
 21
171.5847043549
 31
0.0
  0
SPLINE
  5
128
330
1F
100
AcDbEntity
  8
0
  6
Continuous
 62
     7
370
    18
100
AcDbSpline
210
0.0
220
0.0
230
1.0
 70
    24
 71
     3
 72
    13
 73
     9
 74
     0
 42
0.000000001
 43
0.00000001
 40
0.0
 40
0.0
 40
0.0
 40
0.0
 40
0.538068181219387
 40
0.808451762972017
 40
0.8895237193162239
 40
0.9426022550266905
 40
0.9829554280466071
 40
0.9999999999999999
 40
0.9999999999999999
 40
0.9999999999999999
 40
0.9999999999999999
 10
172.9413244787199
 20
166.7847043597398
 30
0.0
 10
172.9462021688211
 20
166.7847043597398
 30
0.0
 10
172.9535309373659
 20
166.7847043597398
 30
0.0
 10
173.0201955323974
 20
166.7847043597398
 30
0.0
 10
173.0820401205641
 20
166.7847043597398
 30
0.0
 10
173.1181005139231
 20
166.7847043597398
 30
0.0
 10
173.1456135113946
 20
166.7847043597398
 30
0.0
 10
173.1604910006548
 20
166.7847043597398
 30
0.0
 10
173.164908951853
 20
166.7847043597398
 30
0.0
  0
SPLINE
  5
129
330
1F
100
AcDbEntity
  8
0
  6
Continuous
 62
     7
370
    18
100
AcDbSpline
210
0.0
220
0.0
230
1.0
 70
    24
 71
     3
 72
    14
 73
    10
 74
     0
 42
0.000000001
 43
0.00000001
 40
0.0
 40
0.0
 40
0.0
 40
0.0
 40
0.125
 40
0.125
 40
0.2500000000000001
 40
0.2500000000000001
 40
0.5000000000000001
 40
0.5000000000000001
 40
1.0
 40
1.0
 40
1.0
 40
1.0
 10
173.1649082067983
 20
171.5847044334974
 30
0.0
 10
173.1316362241895
 20
171.5847044334974
 30
0.0
 10
173.1021523086611
 20
171.5847044334974
 30
0.0
 10
173.0585671230884
 20
171.5847044334974
 30
0.0
 10
173.0422056932225
 20
171.5847044334974
 30
0.0
 10
173.0017747649687
 20
171.5847044334974
 30
0.0
 10
172.9854286803015
 20
171.5847044334974
 30
0.0
 10
172.9490621201803
 20
171.5847044334974
 30
0.0
 10
172.9412996389985
 20
171.5847044334974
 30
0.0
 10
172.9413014092922
 20
171.5847044334974
 30
0.0
  0
LINE
  5
12A
330
1F
100
AcDbEntity
  8
0
  6
Continuous
 62
     7
370
    18
100
AcDbLine
 10
172.8649075988
 20
171.3464855445
 30
0.0
 11
172.8649075988
 21
171.3847044618
 31
0.0
  0
SPLINE
  5
12B
330
1F
100
AcDbEntity
  8
0
  6
Continuous
 62
     7
370
    18
100
AcDbSpline
210
0.0
220
0.0
230
1.0
 70
    24
 71
     3
 72
     9
 73
     5
 74
     0
 42
0.000000001
 43
0.00000001
 40
0.0
 40
0.0
 40
0.0
 40
0.0
 40
0.6608309016613587
 40
1.0
 40
1.0
 40
1.0
 40
1.0
 10
173.664909965132
 20
166.7847043597398
 30
0.0
 10
173.7064576504934
 20
166.7847043597398
 30
0.0
 10
173.769329536867
 20
166.7847043597398
 30
0.0
 10
173.748118605977
 20
166.7847043597398
 30
0.0
 10
173.7409245136721
 20
166.7847043597398
 30
0.0
  0
SPLINE
  5
12C
330
1F
100
AcDbEntity
  8
0
  6
Continuous
 62
     7
370
    18
100
AcDbSpline
210
0.0
220
0.0
230
1.0
 70
    24
 71
     3
 72
     9
 73
     5
 74
     0
 42
0.000000001
 43
0.00000001
 40
0.0
 40
0.0
 40
0.0
 40
0.0
 40
0.3391690983386413
 40
1.0
 40
1.0
 40
1.0
 40
1.0
 10
173.7409245136721
 20
171.5847043548969
 30
0.0
 10
173.748118605977
 20
171.5847043548969
 30
0.0
 10
173.769329536867
 20
171.5847043548969
 30
0.0
 10
173.7064576504934
 20
171.5847043548969
 30
0.0
 10
173.664909965132
 20
171.5847043548969
 30
0.0
  0
LINE
  5
12D
330
1F
100
AcDbEntity
  8
0
  6
Continuous
 62
     7
370
    18
100
AcDbLine
 10
174.1649072531
 20
171.1847043359
 30
0.0
 11
174.1649072531
 21
167.1847043787
 31
0.0
  0
LINE
  5
12E
330
1F
100
AcDbEntity
  8
0
  6
Continuous
 62
     7
370
    18
100
AcDbLine
 10
150.1649089071
 20
166.7847043597
 30
0.0
 11
148.4546504829
 21
166.7847043597
 31
0.0
  0
LINE
  5
12F
330
1F
100
AcDbEntity
  8
0
  6
Continuous
 62
     7
370
    18
100
AcDbLine
 10
147.9545935902
 20
166.7847043597
 30
0.0
 11
144.4558586839
 21
166.7847043597
 31
0.0
  0
LINE
  5
130
330
1F
100
AcDbEntity
  8
0
  6
Continuous
 62
     7
370
    18
100
AcDbLine
 10
143.9548313532
 20
166.7847043597
 30
0.0
 11
140.4549695465
 21
166.7847043597
 31
0.0
  0
LINE
  5
131
330
1F
100
AcDbEntity
  8
0
  6
Continuous
 62
     7
370
    18
100
AcDbLine
 10
139.9537857536
 20
166.7847043597
 30
0.0
 11
136.4547956649
 21
166.7847043597
 31
0.0
  0
LINE
  5
132
330
1F
100
AcDbEntity
  8
0
  6
Continuous
 62
     7
370
    18
100
AcDbLine
 10
135.956256828
 20
166.7847043597
 30
0.0
 11
132.455045535
 21
166.7847043597
 31
0.0
  0
LINE
  5
133
330
1F
100
AcDbEntity
  8
0
  6
Continuous
 62
     7
370
    18
100
AcDbLine
 10
131.9543730381
 20
166.7847043597
 30
0.0
 11
128.4556888889
 21
166.7847043597
 31
0.0
  0
LINE
  5
134
330
1F
100
AcDbEntity
  8
0
  6
Continuous
 62
     7
370
    18
100
AcDbLine
 10
127.9550089415
 20
166.7847043597
 30
0.0
 11
124.4559776418
 21
166.7847043597
 31
0.0
  0
LINE
  5
135
330
1F
100
AcDbEntity
  8
0
  6
Continuous
 62
     7
370
    18
100
AcDbLine
 10
123.9546103783
 20
166.7847043597
 30
0.0
 11
120.4564182002
 21
166.7847043597
 31
0.0
  0
LINE
  5
136
330
1F
100
AcDbEntity
  8
0
  6
Continuous
 62
     7
370
    18
100
AcDbLine
 10
150.1649089071
 20
171.5847043549
 30
0.0
 11
147.6887158963
 21
171.5847043549
 31
0.0
  0
LINE
  5
137
330
1F
100
AcDbEntity
  8
0
  6
Continuous
 62
     7
370
    18
100
AcDbLine
 10
147.1884466622
 20
171.5847043549
 30
0.0
 11
143.6839766714
 21
171.5847043549
 31
0.0
  0
LINE
  5
138
330
1F
100
AcDbEntity
  8
0
  6
Continuous
 62
     7
370
    18
100
AcDbLine
 10
143.1889079425
 20
171.5847043549
 30
0.0
 11
139.6877869878
 21
171.5847043549
 31
0.0
  0
LINE
  5
139
330
1F
100
AcDbEntity
  8
0
  6
Continuous
 62
     7
370
    18
100
AcDbLine
 10
139.1873016867
 20
171.5847043549
 30
0.0
 11
135.6892745856
 21
171.5847043549
 31
0.0
  0
LINE
  5
13A
330
1F
100
AcDbEntity
  8
0
  6
Continuous
 62
     7
370
    18
100
AcDbLine
 10
135.1883012715
 20
171.5847043549
 30
0.0
 11
131.688893019
 21
171.5847043549
 31
0.0
  0
LINE
  5
13B
330
1F
100
AcDbEntity
  8
0
  6
Continuous
 62
     7
370
    18
100
AcDbLine
 10
131.1883285556
 20
171.5847043549
 30
0.0
 11
127.6884248394
 21
171.5847043549
 31
0.0
  0
LINE
  5
13C
330
1F
100
AcDbEntity
  8
0
  6
Continuous
 62
     7
370
    18
100
AcDbLine
 10
127.189217313
 20
171.5847043549
 30
0.0
 11
123.6886268046
 21
171.5847043549
 31
0.0
  0
LINE
  5
13D
330
1F
100
AcDbEntity
  8
0
  6
Continuous
 62
     7
370
    18
100
AcDbLine
 10
123.1882707592
 20
171.5847043549
 30
0.0
 11
120.1649081807
 21
171.5847043549
 31
0.0
  0
SPLINE
  5
13E
330
1F
100
AcDbEntity
  8
0
  6
Continuous
 62
     7
370
    18
100
AcDbSpline
210
0.0
220
0.0
230
1.0
 70
     8
 71
     3
 72
    14
 73
    10
 74
     0
 42
0.000000001
 43
0.00000001
 40
0.0
 40
0.0
 40
0.0
 40
0.0
 40
0.2499999999999999
 40
0.2499999999999999
 40
0.4999999999999999
 40
0.4999999999999999
 40
0.7499999999999998
 40
0.7499999999999998
 40
1.0
 40
1.0
 40
1.0
 40
1.0
 10
108.6730714721011
 20
164.8283871815058
 30
0.0
 10
108.6730714721011
 20
164.7085159578013
 30
0.0
 10
108.6464827678769
 20
164.5910633395011
 30
0.0
 10
108.5671900656038
 20
164.3840410522955
 30
0.0
 10
108.5136672893161
 20
164.2929809568343
 30
0.0
 10
108.4018797108628
 20
164.1456126082765
 30
0.0
 10
108.3425387758728
 20
164.0876078941096
 30
0.0
 10
108.2355041339135
 20
164.0016814192612
 30
0.0
 10
108.1862896290409
 20
163.972263649523
 30
0.0
 10
108.1465408598562
 20
163.9523531455964
 30
0.0
  0
LINE
  5
13F
330
1F
100
AcDbEntity
  8
0
  6
Continuous
 62
     7
370
    18
100
AcDbLine
 10
108.6730716664
 20
165.7692137403
 30
0.0
 11
108.6730716664
 21
164.8283872516
 31
0.0
  0
LINE
  5
140
330
1F
100
AcDbEntity
  8
0
  6
Continuous
 62
     7
370
    18
100
AcDbLine
 10
111.6567451421
 20
163.7646031329
 30
0.0
 11
111.6567451421
 21
165.7692137403
 31
0.0
  0
SPLINE
  5
141
330
1F
100
AcDbEntity
  8
0
  6
Continuous
 62
     7
370
    18
100
AcDbSpline
210
0.0
220
0.0
230
1.0
 70
     8
 71
     3
 72
    14
 73
    10
 74
     0
 42
0.000000001
 43
0.00000001
 40
0.0
 40
0.0
 40
0.0
 40
0.0
 40
0.2499999999999998
 40
0.2499999999999998
 40
0.4999999999999999
 40
0.4999999999999999
 40
0.7499999999999999
 40
0.7499999999999999
 40
1.0
 40
1.0
 40
1.0
 40
1.0
 10
112.1832755537339
 20
162.9415081367275
 30
0.0
 10
112.1440412980362
 20
162.9579789061896
 30
0.0
 10
112.0970115025589
 20
162.9820777849009
 30
0.0
 10
111.990240745984
 20
163.0584200316878
 30
0.0
 10
111.9323708581496
 20
163.109459232276
 30
0.0
 10
111.8189665597756
 20
163.2472219207691
 30
0.0
 10
111.764851068344
 20
163.3328321524009
 30
0.0
 10
111.683468253195
 20
163.5336147014635
 30
0.0
 10
111.6567449414889
 20
163.6471998209042
 30
0.0
 10
111.6567449414889
 20
163.7646029584326
 30
0.0
  0
LINE
  5
142
330
1F
100
AcDbEntity
  8
0
  6
Continuous
 62
     7
370
    18
100
AcDbLine
 10
108.6730716664
 20
164.8283872516
 30
0.0
 11
108.1649085421
 21
164.8283872516
 31
0.0
  0
LINE
  5
143
330
1F
100
AcDbEntity
  8
0
  6
Continuous
 62
     7
370
    18
100
AcDbLine
 10
112.1649082664
 20
163.7646031329
 30
0.0
 11
111.6567451421
 21
163.7646031329
 31
0.0
  0
ARC
  5
144
330
1F
100
AcDbEntity
  8
0
  6
Continuous
 62
     7
370
    18
100
AcDbCircle
 10
112.4896465009
 20
162.9333231552
 30
0.0
 40
0.3064800064692382
100
AcDbArc
 50
94.6298921491
 51
178.4696494013
  0
ARC
  5
145
330
1F
100
AcDbEntity
  8
0
  6
Continuous
 62
     7
370
    18
100
AcDbCircle
 10
107.8375509051
 20
163.940519896
 30
0.0
 40
0.3092165948535118
100
AcDbArc
 50
2.1931509124
 51
84.9242534703
  0
LINE
  5
146
330
1F
100
AcDbEntity
  8
0
  6
Continuous
 62
     7
370
    18
100
AcDbLine
 10
153.8649082098
 20
177.1847043881
 30
0.0
 11
153.8649082098
 21
161.1847045594
 31
0.0
  0
LINE
  5
147
330
1F
100
AcDbEntity
  8
0
  6
Continuous
 62
     7
370
    18
100
AcDbLine
 10
152.4649087254
 20
177.1847043881
 30
0.0
 11
152.4649087254
 21
161.1847045594
 31
0.0
  0
LINE
  5
148
330
1F
100
AcDbEntity
  8
0
  6
Continuous
 62
     7
370
    18
100
AcDbLine
 10
152.1649073723
 20
176.884704432
 30
0.0
 11
152.1649073723
 21
161.4847045155
 31
0.0
  0
LINE
  5
149
330
1F
100
AcDbEntity
  8
0
  6
Continuous
 62
     7
370
    18
100
AcDbLine
 10
154.1649077002
 20
176.884704432
 30
0.0
 11
154.1649077002
 21
161.4847045155
 31
0.0
  0
LINE
  5
14A
330
1F
100
AcDbEntity
  8
0
  6
Continuous
 62
     7
370
    18
100
AcDbLine
 10
172.1649069253
 20
174.184704362
 30
0.0
 11
172.1649069253
 21
164.1847045855
 31
0.0
  0
LINE
  5
14B
330
1F
100
AcDbEntity
  8
0
  6
Continuous
 62
     7
370
    18
100
AcDbLine
 10
171.164908624
 20
175.1847045259
 30
0.0
 11
171.164908624
 21
163.1847044216
 31
0.0
  0
LINE
  5
14C
330
1F
100
AcDbEntity
  8
0
  6
Continuous
 62
     7
370
    18
100
AcDbLine
 10
150.4649083975
 20
172.9347043899
 30
0.0
 11
150.4649083975
 21
165.4347043247
 31
0.0
  0
LINE
  5
14D
330
1F
100
AcDbEntity
  8
0
  6
Continuous
 62
     7
370
    18
100
AcDbLine
 10
150.1649089071
 20
172.6347044339
 30
0.0
 11
150.1649089071
 21
165.7347045136
 31
0.0
  0
SPLINE
  5
14E
330
1F
100
AcDbEntity
  8
0
  6
Continuous
 62
     7
370
    18
100
AcDbSpline
210
0.0
220
0.0
230
1.0
 70
     8
 71
     3
 72
    29
 73
    25
 74
     0
 42
0.000000001
 43
0.00000001
 40
0.0
 40
0.0
 40
0.0
 40
0.0
 40
0.0119467605124324
 40
0.0609400375416679
 40
0.109897056706826
 40
0.1588813347008434
 40
0.2078983348646364
 40
0.2568983546856154
 40
0.3058579810446618
 40
0.354835076947682
 40
0.4038497833791484
 40
0.452855729301915
 40
0.5018196816749613
 40
0.5507895843989301
 40
0.5998003546793271
 40
0.6488112624382802
 40
0.6977815504338554
 40
0.7467459715864464
 40
0.7957521090878372
 40
0.8447667242940078
 40
0.8937439574644532
 40
0.9427048173642427
 40
0.9917068463934718
 40
0.9999999999999999
 40
0.9999999999999999
 40
0.9999999999999999
 40
0.9999999999999999
 10
116.8121050025863
 20
164.6968435258863
 30
0.0
 10
116.8041927271825
 20
164.6947882553036
 30
0.0
 10
116.7638324672068
 20
164.6843043867821
 30
0.0
 10
116.6910142837485
 20
164.7678322067621
 30
0.0
 10
116.5935430330423
 20
164.9530225039191
 30
0.0
 10
116.496143918608
 20
165.2477153034837
 30
0.0
 10
116.398802104063
 20
165.6305816935191
 30
0.0
 10
116.3014357452367
 20
166.0954975224224
 30
0.0
 10
116.2039711604136
 20
166.6330031331891
 30
0.0
 10
116.106554421047
 20
167.2318534016757
 30
0.0
 10
116.0092098632373
 20
167.8755616828603
 30
0.0
 10
115.9118534590813
 20
168.5492755970695
 30
0.0
 10
115.8144016826906
 20
169.2380190682015
 30
0.0
 10
115.7169665253068
 20
169.9254452843539
 30
0.0
 10
115.6196170767871
 20
170.5955098643714
 30
0.0
 10
115.5222677238381
 20
171.2332709383869
 30
0.0
 10
115.4248324949922
 20
171.8237679748199
 30
0.0
 10
115.3273819286498
 20
172.3505653701626
 30
0.0
 10
115.2300253378251
 20
172.8035719270557
 30
0.0
 10
115.1326802401127
 20
173.1730070875931
 30
0.0
 10
115.0352629043964
 20
173.4530824321756
 30
0.0
 10
114.9377970890825
 20
173.6210021576207
 30
0.0
 10
114.8674141056409
 20
173.6926008264981
 30
0.0
 10
114.8294649747166
 20
173.6774202527339
 30
0.0
 10
114.8239720526678
 20
173.6752229505477
 30
0.0
  0
LINE
  5
14F
330
1F
100
AcDbEntity
  8
0
  6
Continuous
 62
     7
370
    18
100
AcDbLine
 10
138.8315141115
 20
173.1737090037
 30
0.0
 11
138.8160802338
 21
173.177870153
 31
0.0
  0
LINE
  5
150
330
1F
100
AcDbEntity
  8
0
  6
Continuous
 62
     7
370
    18
100
AcDbLine
 10
128.8289932448
 20
165.1972836578
 30
0.0
 11
128.8155137475
 21
165.1978187026
 31
0.0
  0
LINE
  5
151
330
1F
100
AcDbEntity
  8
0
  6
Continuous
 62
     7
370
    18
100
AcDbLine
 10
144.8175452564
 20
165.192878502
 30
0.0
 11
144.8261953804
 21
165.1901008324
 31
0.0
  0
SPLINE
  5
152
330
1F
100
AcDbEntity
  8
0
  6
Continuous
 62
     7
370
    18
100
AcDbSpline
210
0.0
220
0.0
230
1.0
 70
     8
 71
     3
 72
    13
 73
     9
 74
     0
 42
0.000000001
 43
0.00000001
 40
0.0
 40
0.0
 40
0.0
 40
0.0
 40
0.1968092356169697
 40
0.3930244473478573
 40
0.6028059686462
 40
0.7985866580452412
 40
0.989004012669756
 40
1.0
 40
1.0
 40
1.0
 40
1.0
 10
151.8508691254599
 20
168.9798099712029
 30
0.0
 10
151.8786768351892
 20
168.9799456228237
 30
0.0
 10
151.9342083234047
 20
168.9802165166318
 30
0.0
 10
152.009440612812
 20
168.982185029559
 30
0.0
 10
152.0688422785409
 20
168.9850753543673
 30
0.0
 10
152.0967721515563
 20
168.9886994659801
 30
0.0
 10
152.1056873022304
 20
168.9913424418293
 30
0.0
 10
152.0976572418152
 20
168.9925816472812
 30
0.0
 10
152.0972188476069
 20
168.9926493006318
 30
0.0
  0
SPLINE
  5
153
330
1F
100
AcDbEntity
  8
0
  6
Continuous
 62
     7
370
    18
100
AcDbSpline
210
0.0
220
0.0
230
1.0
 70
     8
 71
     3
 72
    12
 73
     8
 74
     0
 42
0.000000001
 43
0.00000001
 40
0.0
 40
0.0
 40
0.0
 40
0.0
 40
0.2051843163974177
 40
0.4097419059513995
 40
0.6284014169702047
 40
0.8323884972191701
 40
1.0
 40
1.0
 40
1.0
 40
1.0
 10
151.8508691254599
 20
168.9798099712029
 30
0.0
 10
151.8230780109288
 20
168.9799464237649
 30
0.0
 10
151.7675806686542
 20
168.9802189121003
 30
0.0
 10
151.6920329593455
 20
168.9821923319454
 30
0.0
 10
151.634002590127
 20
168.9850766888801
 30
0.0
 10
151.6031253411188
 20
168.988548680868
 30
0.0
 10
151.6037446135869
 20
168.9908482917374
 30
0.0
 10
151.6040239397032
 20
168.9918855433611
 30
0.0
  0
LINE
  5
154
330
1F
100
AcDbEntity
  8
0
  6
Continuous
 62
     8
370
    18
100
AcDbLine
 10
113.8649081725
 20
163.1847044216
 30
0.0
 11
113.8649081725
 21
175.1847045259
 31
0.0
  0
SPLINE
  5
155
330
1F
100
AcDbEntity
  8
0
  6
Continuous
 62
     8
370
    18
100
AcDbSpline
210
0.0
220
0.0
230
1.0
 70
     8
 71
     3
 72
     9
 73
     5
 74
     0
 42
0.000000001
 43
0.00000001
 40
0.0
 40
0.0
 40
0.0
 40
0.0
 40
0.9006771636268384
 40
1.0
 40
1.0
 40
1.0
 40
1.0
 10
112.4649077567799
 20
163.2388030872939
 30
0.0
 10
112.5511198692901
 20
163.2076690763228
 30
0.0
 10
112.6468390858882
 20
163.173101739403
 30
0.0
 10
112.6068198372663
 20
163.1876586240149
 30
0.0
 10
112.6028450119836
 20
163.1891044550834
 30
0.0
  0
LINE
  5
156
330
1F
100
AcDbEntity
  8
0
  6
Continuous
 62
     8
370
    18
100
AcDbLine
 10
112.4649077568
 20
175.1847045259
 30
0.0
 11
112.4649077568
 21
163.2388030873
 31
0.0
  0
LINE
  5
157
330
1F
100
AcDbEntity
  8
0
  6
Continuous
 62
     8
370
    18
100
AcDbLine
 10
119.8649082247
 20
165.4347043247
 30
0.0
 11
119.8649082247
 21
167.3008900131
 31
0.0
  0
LINE
  5
158
330
1F
100
AcDbEntity
  8
0
  6
Continuous
 62
     8
370
    18
100
AcDbLine
 10
119.8649082247
 20
170.5392599567
 30
0.0
 11
119.8649082247
 21
172.9347043899
 31
0.0
  0
LINE
  5
159
330
1F
100
AcDbEntity
  8
0
  6
Continuous
 62
     8
370
    18
100
AcDbLine
 10
107.8649081204
 20
172.6545746667
 30
0.0
 11
107.8649081204
 21
174.184704362
 31
0.0
  0
LINE
  5
15A
330
1F
100
AcDbEntity
  8
0
  6
Continuous
 62
     8
370
    18
100
AcDbLine
 10
106.4649086359
 20
174.184704362
 30
0.0
 11
106.4649086359
 21
172.6545746667
 31
0.0
  0
LINE
  5
15B
330
1F
100
AcDbEntity
  8
0
  6
Continuous
 62
     8
370
    18
100
AcDbLine
 10
106.4649086359
 20
165.714834048
 30
0.0
 11
106.4649086359
 21
164.1847045855
 31
0.0
  0
SPLINE
  5
15C
330
1F
100
AcDbEntity
  8
0
  6
Continuous
 62
     8
370
    18
100
AcDbSpline
210
0.0
220
0.0
230
1.0
 70
     8
 71
     3
 72
     9
 73
     5
 74
     0
 42
0.000000001
 43
0.00000001
 40
0.0
 40
0.0
 40
0.0
 40
0.0
 40
0.7597089723765308
 40
0.9999999999999999
 40
0.9999999999999999
 40
0.9999999999999999
 40
0.9999999999999999
 10
107.7287990513785
 20
164.1906874017117
 30
0.0
 10
107.7377870596143
 20
164.1948136472755
 30
0.0
 10
107.7496179166433
 20
164.2002449975871
 30
0.0
 10
107.8425720710774
 20
164.2391704851677
 30
0.0
 10
107.8649081203682
 20
164.2485239305792
 30
0.0
  0
LINE
  5
15D
330
1F
100
AcDbEntity
  8
0
  6
Continuous
 62
     8
370
    18
100
AcDbLine
 10
102.3649081502
 20
165.6847043657
 30
0.0
 11
102.3649081502
 21
172.6847043489
 31
0.0
  0
LINE
  5
15E
330
1F
100
AcDbEntity
  8
0
  6
Continuous
 62
     8
370
    18
100
AcDbLine
 10
100.9649086658
 20
169.1847044337
 30
0.0
 11
100.9649086658
 21
165.6847043657
 31
0.0
  0
LINE
  5
15F
330
1F
100
AcDbEntity
  8
0
  6
Continuous
 62
     8
370
    18
100
AcDbLine
 10
100.9649086658
 20
172.6847043489
 30
0.0
 11
100.9649086658
 21
169.1847044337
 31
0.0
  0
SPLINE
  5
160
330
1F
100
AcDbEntity
  8
0
  6
Continuous
 62
     8
370
    18
100
AcDbSpline
210
0.0
220
0.0
230
1.0
 70
     8
 71
     3
 72
     9
 73
     5
 74
     0
 42
0.000000001
 43
0.00000001
 40
0.0
 40
0.0
 40
0.0
 40
0.0
 40
0.239482363134441
 40
1.0
 40
1.0
 40
1.0
 40
1.0
 10
108.1465409982545
 20
163.9523531073031
 30
0.0
 10
108.1269424167404
 20
163.9424397424974
 30
0.0
 10
108.0451051521603
 20
163.9010447743
 30
0.0
 10
108.0348069650686
 20
163.8953293533562
 30
0.0
 10
108.0269750121577
 20
163.8909826749263
 30
0.0
  0
SPLINE
  5
161
330
1F
100
AcDbEntity
  8
0
  6
Continuous
 62
     8
370
    18
100
AcDbSpline
210
0.0
220
0.0
230
1.0
 70
     8
 71
     3
 72
     9
 73
     5
 74
     0
 42
0.000000001
 43
0.00000001
 40
0.0
 40
0.0
 40
0.0
 40
0.0
 40
0.0980442057144039
 40
1.0
 40
1.0
 40
1.0
 40
1.0
 10
112.3044604349477
 20
162.8892642208633
 30
0.0
 10
112.3078918741536
 20
162.8877708469941
 30
0.0
 10
112.342890772669
 20
162.8725392087921
 30
0.0
 10
112.2589692835722
 20
162.9088013285982
 30
0.0
 10
112.1832758102162
 20
162.9415081576703
 30
0.0
  0
SPLINE
  5
162
330
1F
100
AcDbEntity
  8
0
  6
Continuous
 62
     8
370
    18
100
AcDbSpline
210
0.0
220
0.0
230
1.0
 70
     8
 71
     3
 72
     9
 73
     5
 74
     0
 42
0.000000001
 43
0.00000001
 40
0.0
 40
0.0
 40
0.0
 40
0.0
 40
0.7295647638889534
 40
1.0
 40
1.0
 40
1.0
 40
1.0
 10
126.9175351511283
 20
173.6322368257937
 30
0.0
 10
126.8850777345384
 20
173.6624812247535
 30
0.0
 10
126.840588995229
 20
173.7039366245435
 30
0.0
 10
126.7960559125011
 20
173.6726335940339
 30
0.0
 10
126.7840125977589
 20
173.664168151587
 30
0.0
  0
SPLINE
  5
163
330
1F
100
AcDbEntity
  8
0
  6
Continuous
 62
     8
370
    18
100
AcDbSpline
210
0.0
220
0.0
230
1.0
 70
     8
 71
     3
 72
    29
 73
    25
 74
     0
 42
0.000000001
 43
0.00000001
 40
0.0
 40
0.0
 40
0.0
 40
0.0
 40
0.0259079126643948
 40
0.0743645266680764
 40
0.1228570425244058
 40
0.1713739367909761
 40
0.2198647472216811
 40
0.2683210997061491
 40
0.316806488089169
 40
0.3653228285580907
 40
0.4138204324717882
 40
0.4622787683376865
 40
0.5107569171696994
 40
0.5592712688485827
 40
0.6077749791755153
 40
0.6562373484016222
 40
0.7047085459399086
 40
0.7532195512211708
 40
0.8017284083123931
 40
0.85019640403574
 40
0.8986614053284063
 40
0.9471678108989485
 40
0.9956806625813972
 40
1.0
 40
1.0
 40
1.0
 40
1.0
 10
124.8268713855712
 20
164.6989548341629
 30
0.0
 10
124.8095254589444
 20
164.6955123317989
 30
0.0
 10
124.7597367461317
 20
164.6856311784165
 30
0.0
 10
124.6773847501695
 20
164.786274119793
 30
0.0
 10
124.5800090276533
 20
164.9901698617329
 30
0.0
 10
124.4826672441568
 20
165.2954050061738
 30
0.0
 10
124.3852847225393
 20
165.6885024311787
 30
0.0
 10
124.2878120979835
 20
166.1650792505652
 30
0.0
 10
124.1904173436158
 20
166.7135364343801
 30
0.0
 10
124.0930757412177
 20
167.3186698295859
 30
0.0
 10
123.995706703734
 20
167.9666087657994
 30
0.0
 10
123.8982397127002
 20
168.6434288673139
 30
0.0
 10
123.8008273928057
 20
169.3331532599145
 30
0.0
 10
123.7034836101842
 20
170.0192895398417
 30
0.0
 10
123.6061250213751
 20
170.6863499792633
 30
0.0
 10
123.5086697526403
 20
171.3185292307795
 30
0.0
 10
123.4112391145534
 20
171.8992226993813
 30
0.0
 10
123.3138911576614
 20
172.4168923861527
 30
0.0
 10
123.2165403983725
 20
172.860775061489
 30
0.0
 10
123.1191004863236
 20
173.2186871010102
 30
0.0
 10
123.0216545702723
 20
173.4822136176773
 30
0.0
 10
122.9242929728581
 20
173.6344986948883
 30
0.0
 10
122.8565091131429
 20
173.6985623855026
 30
0.0
 10
122.8211241342678
 20
173.6805369434593
 30
0.0
 10
122.8182312073247
 20
173.6790632591841
 30
0.0
  0
SPLINE
  5
164
330
1F
100
AcDbEntity
  8
0
  6
Continuous
 62
     8
370
    18
100
AcDbSpline
210
0.0
220
0.0
230
1.0
 70
     8
 71
     3
 72
    29
 73
    25
 74
     0
 42
0.000000001
 43
0.00000001
 40
0.0
 40
0.0
 40
0.0
 40
0.0
 40
0.022928593222717
 40
0.0713963879866868
 40
0.1198641879589032
 40
0.1683731862112134
 40
0.2168864706237876
 40
0.2653607002345628
 40
0.3138232217404501
 40
0.3623267937231164
 40
0.4108431235013439
 40
0.4593244150458864
 40
0.5077833754913029
 40
0.5562806545101318
 40
0.6047986010206986
 40
0.6532871427167487
 40
0.7017446890106591
 40
0.7502350257206613
 40
0.7987531709427271
 40
0.8472487344063445
 40
0.8957071389162543
 40
0.9441902546183196
 40
0.9927071223724373
 40
1.0
 40
1.0
 40
1.0
 40
1.0
 10
120.8276326682014
 20
164.6996086226103
 30
0.0
 10
120.8122895772885
 20
164.6957294000497
 30
0.0
 10
120.7645133678587
 20
164.6836500510755
 30
0.0
 10
120.6841987514315
 20
164.7753052095613
 30
0.0
 10
120.5867579935217
 20
164.9717016342593
 30
0.0
 10
120.4894046535166
 20
165.2716255833769
 30
0.0
 10
120.3920581062932
 20
165.6596110344686
 30
0.0
 10
120.2946320242911
 20
166.1295869217092
 30
0.0
 10
120.197173356264
 20
166.6731238566868
 30
0.0
 10
120.0998123154107
 20
167.275299395556
 30
0.0
 10
120.0024693686733
 20
167.9211549098052
 30
0.0
 10
119.905061457696
 20
168.5962490293762
 30
0.0
 10
119.8075928520167
 20
169.285569884848
 30
0.0
 10
119.7102204471121
 20
169.9723119986676
 30
0.0
 10
119.6128792897616
 20
170.6409318557023
 30
0.0
 10
119.5154886787407
 20
171.2762347917387
 30
0.0
 10
119.4180155355461
 20
171.8618490084127
 30
0.0
 10
119.3206289612448
 20
172.383601927084
 30
0.0
 10
119.2232877650092
 20
172.8320649632864
 30
0.0
 10
119.1259117823085
 20
173.1962699268477
 30
0.0
 10
119.0284425197292
 20
173.4683563156179
 30
0.0
 10
118.9310340847699
 20
173.6279267207294
 30
0.0
 10
118.8612747537985
 20
173.6954651528124
 30
0.0
 10
118.8239169871188
 20
173.6783172864302
 30
0.0
 10
118.8190353016896
 20
173.6760765076873
 30
0.0
  0
LINE
  5
165
330
1F
100
AcDbEntity
  8
0
  6
Continuous
 62
     8
370
    18
100
AcDbLine
 10
116.8271630916
 20
164.699370204
 30
0.0
 11
116.8121050026
 21
164.6968435259
 31
0.0
  0
LINE
  5
166
330
1F
100
AcDbEntity
  8
0
  6
Continuous
 62
     8
370
    18
100
AcDbLine
 10
114.8239720527
 20
173.6752229505
 30
0.0
 11
114.8149540562
 21
173.6722315424
 31
0.0
  0
SPLINE
  5
167
330
1F
100
AcDbEntity
  8
0
  6
Continuous
 62
     8
370
    18
100
AcDbSpline
210
0.0
220
0.0
230
1.0
 70
     8
 71
     3
 72
    11
 73
     7
 74
     0
 42
0.000000001
 43
0.00000001
 40
0.1249730953024581
 40
0.1249730953024581
 40
0.1249730953024581
 40
0.1249730953024581
 40
0.1666666666667
 40
0.3333333333333
 40
0.5
 40
0.5000526073562885
 40
0.5000526073562885
 40
0.5000526073562885
 40
0.5000526073562885
 10
126.7408939582486
 20
173.2110042460146
 30
0.0
 10
126.7253198934066
 20
173.226068222172
 30
0.0
 10
126.6576441824941
 20
173.3110097088622
 30
0.0
 10
126.6576441824945
 20
173.5334022566937
 30
0.0
 10
126.8308765988349
 20
173.6322518963232
 30
0.0
 10
126.9175064747995
 20
173.6322362932069
 30
0.0
 10
126.9175338103823
 20
173.6322362833608
 30
0.0
  0
SPLINE
  5
168
330
1F
100
AcDbEntity
  8
0
  6
Continuous
 62
     8
370
    18
100
AcDbSpline
210
0.0
220
0.0
230
1.0
 70
     8
 71
     3
 72
    10
 73
     6
 74
     0
 42
0.000000001
 43
0.00000001
 40
0.0
 40
0.0
 40
0.0
 40
0.0
 40
0.1986662196707048
 40
0.6306796402131267
 40
1.0
 40
1.0
 40
1.0
 40
1.0
 10
114.600840202306
 20
172.9347043899146
 30
0.0
 10
114.6157814584575
 20
172.9689107702663
 30
0.0
 10
114.6632135084033
 20
173.077501288015
 30
0.0
 10
114.7383595096656
 20
173.1648993095442
 30
0.0
 10
114.7985259999218
 20
173.1731475903648
 30
0.0
 10
114.8262556556208
 20
173.1769490749834
 30
0.0
  0
SPLINE
  5
169
330
1F
100
AcDbEntity
  8
0
  6
Continuous
 62
     8
370
    18
100
AcDbSpline
210
0.0
220
0.0
230
1.0
 70
     8
 71
     3
 72
     9
 73
     5
 74
     0
 42
0.000000001
 43
0.00000001
 40
0.0
 40
0.0
 40
0.0
 40
0.0
 40
0.6187054103939577
 40
1.0
 40
1.0
 40
1.0
 40
1.0
 10
116.885763770674
 20
165.2064809338448
 30
0.0
 10
116.9182219067808
 20
165.2324833541985
 30
0.0
 10
116.9706832810657
 20
165.2745104965458
 30
0.0
 10
117.0232006743952
 20
165.3904841848391
 30
0.0
 10
117.0432252723319
 20
165.434704324722
 30
0.0
  0
SPLINE
  5
16A
330
1F
100
AcDbEntity
  8
0
  6
Continuous
 62
     8
370
    18
100
AcDbSpline
210
0.0
220
0.0
230
1.0
 70
     8
 71
     3
 72
    10
 73
     6
 74
     0
 42
0.000000001
 43
0.00000001
 40
0.0
 40
0.0
 40
0.0
 40
0.0
 40
0.1750770198596796
 40
0.620739913826293
 40
1.0
 40
1.0
 40
1.0
 40
1.0
 10
118.6006387609584
 20
172.9347043899146
 30
0.0
 10
118.6133876643311
 20
172.9646735839482
 30
0.0
 10
118.6585892172663
 20
173.0709301042887
 30
0.0
 10
118.7314723161089
 20
173.1599365524606
 30
0.0
 10
118.7915011702138
 20
173.1716652709243
 30
0.0
 10
118.8190995629473
 20
173.1770575740633
 30
0.0
  0
SPLINE
  5
16B
330
1F
100
AcDbEntity
  8
0
  6
Continuous
 62
     8
370
    18
100
AcDbSpline
210
0.0
220
0.0
230
1.0
 70
     8
 71
     3
 72
    14
 73
    10
 74
     0
 42
0.000000001
 43
0.00000001
 40
0.0
 40
0.0
 40
0.0
 40
0.0
 40
0.0872757823310045
 40
0.2545493717549773
 40
0.4216889323297164
 40
0.5887882985424837
 40
0.7560285815321865
 40
0.9233125501958191
 40
1.0
 40
1.0
 40
1.0
 40
1.0
 10
120.8281714383108
 20
165.1980021731255
 30
0.0
 10
120.845112759652
 20
165.1971909220202
 30
0.0
 10
120.89452397762
 20
165.1948248193777
 30
0.0
 10
120.9763421196356
 20
165.2910400451974
 30
0.0
 10
121.0737709427805
 20
165.4783755610996
 30
0.0
 10
121.1712276932801
 20
165.7588551253818
 30
0.0
 10
121.2685925522342
 20
166.1213474216936
 30
0.0
 10
121.3483691607778
 20
166.4665229274383
 30
0.0
 10
121.3957573201272
 20
166.7086094032842
 30
0.0
 10
121.4106528235195
 20
166.7847043597398
 30
0.0
  0
SPLINE
  5
16C
330
1F
100
AcDbEntity
  8
0
  6
Continuous
 62
     8
370
    18
100
AcDbSpline
210
0.0
220
0.0
230
1.0
 70
     8
 71
     3
 72
    14
 73
    10
 74
     0
 42
0.000000001
 43
0.00000001
 40
0.0
 40
0.0
 40
0.0
 40
0.0
 40
0.0177636574746517
 40
0.1824853514819614
 40
0.3472906547002141
 40
0.5122100289506215
 40
0.6770794191084432
 40
0.8418113769618338
 40
0.9999999999999999
 40
0.9999999999999999
 40
0.9999999999999999
 40
0.9999999999999999
 10
122.2320391128367
 20
171.5847043548969
 30
0.0
 10
122.2355373451249
 20
171.6031282251662
 30
0.0
 10
122.2714745472234
 20
171.7923959166054
 30
0.0
 10
122.339966329335
 20
172.1004652941727
 30
0.0
 10
122.437361583958
 20
172.4892379195582
 30
0.0
 10
122.5347068864745
 20
172.7970221976415
 30
0.0
 10
122.6320681989645
 20
173.0215851535062
 30
0.0
 10
122.7282364920322
 20
173.1612653014142
 30
0.0
 10
122.7918502828561
 20
173.1749724689013
 30
0.0
 10
122.8230126756305
 20
173.1816871785817
 30
0.0
  0
SPLINE
  5
16D
330
1F
100
AcDbEntity
  8
0
  6
Continuous
 62
     8
370
    18
100
AcDbSpline
210
0.0
220
0.0
230
1.0
 70
     8
 71
     3
 72
    14
 73
    10
 74
     0
 42
0.000000001
 43
0.00000001
 40
0.0
 40
0.0
 40
0.0
 40
0.0
 40
0.0747256141758216
 40
0.2422123396305721
 40
0.4096413782668363
 40
0.5769331561204081
 40
0.7442842564805722
 40
0.911763230291692
 40
1.0
 40
1.0
 40
1.0
 40
1.0
 10
124.8287386873333
 20
165.1974270814357
 30
0.0
 10
124.8432346900892
 20
165.1960066809517
 30
0.0
 10
124.8902213998208
 20
165.1914026569068
 30
0.0
 10
124.969596305422
 20
165.2822197769742
 30
0.0
 10
125.0669669732059
 20
165.4630888563028
 30
0.0
 10
125.1644292940853
 20
165.7361193511321
 30
0.0
 10
125.2618492806539
 20
166.0934069690082
 30
0.0
 10
125.3438326207538
 20
166.4458404993161
 30
0.0
 10
125.3934143901241
 20
166.6977730210672
 30
0.0
 10
125.4105229775948
 20
166.7847043597398
 30
0.0
  0
SPLINE
  5
16E
330
1F
100
AcDbEntity
  8
0
  6
Continuous
 62
     8
370
    18
100
AcDbSpline
210
0.0
220
0.0
230
1.0
 70
     8
 71
     3
 72
    14
 73
    10
 74
     0
 42
0.000000001
 43
0.00000001
 40
0.0
 40
0.0
 40
0.0
 40
0.0
 40
0.0074518934967506
 40
0.1887502389492234
 40
0.369988264199894
 40
0.5513779288121459
 40
0.7328257930669952
 40
0.9141381310528128
 40
1.0
 40
1.0
 40
1.0
 40
1.0
 10
126.2317629910601
 20
171.5847043548969
 30
0.0
 10
126.2330963144378
 20
171.5917528952466
 30
0.0
 10
126.2668682820916
 20
171.7702865358335
 30
0.0
 10
126.3331439658899
 20
172.0711294979713
 30
0.0
 10
126.4306015887129
 20
172.4658435146399
 30
0.0
 10
126.527967716142
 20
172.7787934465662
 30
0.0
 10
126.6253068007047
 20
173.0058038232447
 30
0.0
 10
126.7056336555662
 20
173.1363114298132
 30
0.0
 10
126.7535109041418
 20
173.1534700548206
 30
0.0
 10
126.7688972323729
 20
173.1589843281803
 30
0.0
  0
SPLINE
  5
16F
330
1F
100
AcDbEntity
  8
0
  6
Continuous
 62
     8
370
    18
100
AcDbSpline
210
0.0
220
0.0
230
1.0
 70
     8
 71
     3
 72
    10
 73
     6
 74
     0
 42
0.000000001
 43
0.00000001
 40
0.0
 40
0.0
 40
0.0
 40
0.0
 40
0.4816089906369474
 40
0.9660007843344934
 40
1.0
 40
1.0
 40
1.0
 40
1.0
 10
126.9175351511283
 20
173.6322368257937
 30
0.0
 10
126.9497734967509
 20
173.6279867880116
 30
0.0
 10
127.0144364655959
 20
173.6194621551438
 30
0.0
 10
127.0749376739559
 20
173.5824385361383
 30
0.0
 10
127.0971257705219
 20
173.5558409630799
 30
0.0
 10
127.0985810000045
 20
173.5540965334771
 30
0.0
  0
SPLINE
  5
170
330
1F
100
AcDbEntity
  8
0
  6
Continuous
 62
     8
370
    18
100
AcDbSpline
210
0.0
220
0.0
230
1.0
 70
     8
 71
     3
 72
    14
 73
    10
 74
     0
 42
0.000000001
 43
0.00000001
 40
0.0
 40
0.0
 40
0.0
 40
0.0
 40
0.0278363993396215
 40
0.194689733896629
 40
0.361669797531447
 40
0.5286211303701008
 40
0.6954310934894471
 40
0.8622609197342789
 40
1.0
 40
1.0
 40
1.0
 40
1.0
 10
138.8160802337868
 20
173.1778701530096
 30
0.0
 10
138.8106617034042
 20
173.1796704790359
 30
0.0
 10
138.7727641209823
 20
173.1922620858275
 30
0.0
 10
138.702388891802
 20
173.1230452205886
 30
0.0
 10
138.6050429204878
 20
172.969191422111
 30
0.0
 10
138.5076863144858
 20
172.7202765811212
 30
0.0
 10
138.4102358886052
 20
172.3895897156074
 30
0.0
 10
138.3184874742126
 20
172.0104509119462
 30
0.0
 10
138.2592776732932
 20
171.7172860421996
 30
0.0
 10
138.2325004700167
 20
171.5847043548969
 30
0.0
  0
SPLINE
  5
171
330
1F
100
AcDbEntity
  8
0
  6
Continuous
 62
     8
370
    18
100
AcDbSpline
210
0.0
220
0.0
230
1.0
 70
     8
 71
     3
 72
    14
 73
    10
 74
     0
 42
0.000000001
 43
0.00000001
 40
0.0
 40
0.0
 40
0.0
 40
0.0
 40
0.1236539270264437
 40
0.2909989732166253
 40
0.4582513996591936
 40
0.6256270371907529
 40
0.7930864215993161
 40
0.9604562091047679
 40
0.9999999999999999
 40
0.9999999999999999
 40
0.9999999999999999
 40
0.9999999999999999
 10
137.4108076009495
 20
166.7847043597398
 30
0.0
 10
137.3868370458757
 20
166.6650847239033
 30
0.0
 10
137.3304263270117
 20
166.3835797847395
 30
0.0
 10
137.2415248675506
 20
166.0114636164872
 30
0.0
 10
137.1440533241435
 20
165.6730405476412
 30
0.0
 10
137.0466744435393
 20
165.4177084332747
 30
0.0
 10
136.9493318352835
 20
165.256072517176
 30
0.0
 10
136.87672313257
 20
165.1811039704221
 30
0.0
 10
136.8365579402099
 20
165.1917215352133
 30
0.0
 10
136.8288818660719
 20
165.1937506855724
 30
0.0
  0
SPLINE
  5
172
330
1F
100
AcDbEntity
  8
0
  6
Continuous
 62
     8
370
    18
100
AcDbSpline
210
0.0
220
0.0
230
1.0
 70
     8
 71
     3
 72
    14
 73
    10
 74
     0
 42
0.000000001
 43
0.00000001
 40
0.0
 40
0.0
 40
0.0
 40
0.0
 40
0.0195147479021535
 40
0.1856719650844145
 40
0.3519560278729686
 40
0.5183170388058421
 40
0.6845832861991089
 40
0.8507376055505015
 40
1.0
 40
1.0
 40
1.0
 40
1.0
 10
134.818029767607
 20
173.1794561953542
 30
0.0
 10
134.8142189521562
 20
173.1809356874658
 30
0.0
 10
134.7779611641043
 20
173.1950122314755
 30
0.0
 10
134.7091510559318
 20
173.1314372784916
 30
0.0
 10
134.6117823980431
 20
172.9834124351506
 30
0.0
 10
134.5144388445432
 20
172.7392069637335
 30
0.0
 10
134.4170543045736
 20
172.4145701215227
 30
0.0
 10
134.3228980820938
 20
172.0309993458997
 30
0.0
 10
134.261319724791
 20
171.7280614755532
 30
0.0
 10
134.2321794393999
 20
171.5847043548969
 30
0.0
  0
SPLINE
  5
173
330
1F
100
AcDbEntity
  8
0
  6
Continuous
 62
     8
370
    18
100
AcDbSpline
210
0.0
220
0.0
230
1.0
 70
     8
 71
     3
 72
    14
 73
    10
 74
     0
 42
0.000000001
 43
0.00000001
 40
0.0
 40
0.0
 40
0.0
 40
0.0
 40
0.1113316143850928
 40
0.2780134099157838
 40
0.444554479814671
 40
0.6110954466970937
 40
0.7777772402158243
 40
0.9444737885581757
 40
1.0
 40
1.0
 40
1.0
 40
1.0
 10
133.4107072937829
 20
166.7847043597398
 30
0.0
 10
133.3890239353182
 20
166.6759098558445
 30
0.0
 10
133.334877011657
 20
166.4042320294239
 30
0.0
 10
133.2483123797284
 20
166.0387133722755
 30
0.0
 10
133.1508668233
 20
165.6929783151162
 30
0.0
 10
133.0534246337846
 20
165.431967550527
 30
0.0
 10
132.9560687696662
 20
165.264198699837
 30
0.0
 10
132.8803553598651
 20
165.1846166837662
 30
0.0
 10
132.8370361067693
 20
165.1937290103243
 30
0.0
 10
132.826212039922
 20
165.1960058831868
 30
0.0
  0
SPLINE
  5
174
330
1F
100
AcDbEntity
  8
0
  6
Continuous
 62
     8
370
    18
100
AcDbSpline
210
0.0
220
0.0
230
1.0
 70
     8
 71
     3
 72
    14
 73
    10
 74
     0
 42
0.000000001
 43
0.00000001
 40
0.0
 40
0.0
 40
0.0
 40
0.0
 40
0.0114660621588299
 40
0.1769535438760051
 40
0.3424512577231154
 40
0.5080876932909939
 40
0.6737314600394533
 40
0.8392399816726219
 40
1.0
 40
1.0
 40
1.0
 40
1.0
 10
130.8201106179101
 20
173.1806669147012
 30
0.0
 10
130.8178630901259
 20
173.1816400919223
 30
0.0
 10
130.7831774237769
 20
173.1966589498101
 30
0.0
 10
130.7159630754169
 20
173.1390878806363
 30
0.0
 10
130.6185305134006
 20
172.9978593249591
 30
0.0
 10
130.5211778518009
 20
172.7583971709964
 30
0.0
 10
130.4238318484501
 20
172.4386664284393
 30
0.0
 10
130.3273199834401
 20
172.0508681233758
 30
0.0
 10
130.2633097258404
 20
171.7385772534958
 30
0.0
 10
130.2317703987999
 20
171.5847043548969
 30
0.0
  0
SPLINE
  5
175
330
1F
100
AcDbEntity
  8
0
  6
Continuous
 62
     8
370
    18
100
AcDbSpline
210
0.0
220
0.0
230
1.0
 70
     8
 71
     3
 72
    14
 73
    10
 74
     0
 42
0.000000001
 43
0.00000001
 40
0.0
 40
0.0
 40
0.0
 40
0.0
 40
0.1001965098456836
 40
0.2677029317431839
 40
0.435125583346927
 40
0.6024249532853917
 40
0.7698170070564583
 40
0.9373202184160284
 40
1.0
 40
1.0
 40
1.0
 40
1.0
 10
129.4107206079705
 20
166.7847043597398
 30
0.0
 10
129.3912881545541
 20
166.6866625896023
 30
0.0
 10
129.3393689334303
 20
166.4247166461807
 30
0.0
 10
129.2550636281609
 20
166.0661144309889
 30
0.0
 10
129.1576809001431
 20
165.7146397912257
 30
0.0
 10
129.0602113713163
 20
165.4461922353522
 30
0.0
 10
128.9628079078661
 20
165.2725342461313
 30
0.0
 10
128.885779862822
 20
165.1886349001474
 30
0.0
 10
128.8411469670358
 20
165.195432612542
 30
0.0
 10
128.8289932448013
 20
165.1972836577592
 30
0.0
  0
SPLINE
  5
176
330
1F
100
AcDbEntity
  8
0
  6
Continuous
 62
     8
370
    18
100
AcDbSpline
210
0.0
220
0.0
230
1.0
 70
     8
 71
     3
 72
    12
 73
     8
 74
     0
 42
0.000000001
 43
0.00000001
 40
0.0
 40
0.0
 40
0.0
 40
0.0
 40
0.1867036465925505
 40
0.322015550764817
 40
0.4576960875556531
 40
0.7296264432455797
 40
1.0
 40
1.0
 40
1.0
 40
1.0
 10
139.6274093452437
 20
171.8995710131971
 30
0.0
 10
139.6248939252482
 20
171.9138370565674
 30
0.0
 10
139.6205554756782
 20
171.9384422953881
 30
0.0
 10
139.5931516793866
 20
171.9692836327335
 30
0.0
 10
139.5514264280288
 20
172.0008991160745
 30
0.0
 10
139.4818825493323
 20
172.0314171943613
 30
0.0
 10
139.4166985034252
 20
172.0366226751458
 30
0.0
 10
139.3842000428183
 20
172.0392179438171
 30
0.0
  0
SPLINE
  5
177
330
1F
100
AcDbEntity
  8
0
  6
Continuous
 62
     8
370
    18
100
AcDbSpline
210
0.0
220
0.0
230
1.0
 70
     8
 71
     3
 72
    27
 73
    23
 74
     0
 42
0.000000001
 43
0.00000001
 40
0.0
 40
0.0
 40
0.0
 40
0.0
 40
0.0509937288901233
 40
0.1019536085258886
 40
0.1529494456447324
 40
0.2039836047095822
 40
0.255001310710284
 40
0.3059761451439221
 40
0.3569680413122784
 40
0.4079988511714447
 40
0.4590208316337213
 40
0.509999392223536
 40
0.5609840482968175
 40
0.6120109863461208
 40
0.6630378032347138
 40
0.7140220440245139
 40
0.7650000995111929
 40
0.8160218916598025
 40
0.8670527984095788
 40
0.9180445445248661
 40
0.9690180992643742
 40
1.0
 40
1.0
 40
1.0
 40
1.0
 10
126.9175337541444
 20
173.6322363601325
 30
0.0
 10
126.9499920972537
 20
173.5883495083517
 30
0.0
 10
127.0148872378678
 20
173.5006049365529
 30
0.0
 10
127.1123669334151
 20
173.2393258079584
 30
0.0
 10
127.2097609290062
 20
172.8885195774729
 30
0.0
 10
127.3071003328818
 20
172.4507261516667
 30
0.0
 10
127.4044645488359
 20
171.9386143057557
 30
0.0
 10
127.5019288985514
 20
171.3614719506245
 30
0.0
 10
127.599346592981
 20
170.732069750132
 30
0.0
 10
127.6966916452993
 20
170.0671391896118
 30
0.0
 10
127.7940480688902
 20
169.3819779156068
 30
0.0
 10
127.8914994036029
 20
168.6920027293245
 30
0.0
 10
127.9889344208116
 20
168.0139467555873
 30
0.0
 10
128.0862838734791
 20
167.3632153721756
 30
0.0
 10
128.183633242477
 20
166.7541842519008
 30
0.0
 10
128.2810684411633
 20
166.2013149435186
 30
0.0
 10
128.3785202702911
 20
165.7203272879925
 30
0.0
 10
128.4758764581083
 20
165.3205893759366
 30
0.0
 10
128.5732217364041
 20
165.0081338296316
 30
0.0
 10
128.6706358127614
 20
164.7964358525966
 30
0.0
 10
128.7553454952667
 20
164.6895118545508
 30
0.0
 10
128.8074909747665
 20
164.6963505040311
 30
0.0
 10
128.8272037084741
 20
164.6989357420502
 30
0.0
  0
SPLINE
  5
178
330
1F
100
AcDbEntity
  8
0
  6
Continuous
 62
     8
370
    18
100
AcDbSpline
210
0.0
220
0.0
230
1.0
 70
     8
 71
     3
 72
    28
 73
    24
 74
     0
 42
0.000000001
 43
0.00000001
 40
0.0
 40
0.0
 40
0.0
 40
0.0
 40
0.0447176769299129
 40
0.0932752552133571
 40
0.1417945846904524
 40
0.190299359511535
 40
0.2388448155681742
 40
0.2874050781158028
 40
0.3359315546305179
 40
0.3844332952867671
 40
0.4329722458158842
 40
0.4815337811572731
 40
0.5300674991193788
 40
0.5785683782318671
 40
0.6271002931130317
 40
0.6756616317159185
 40
0.7242022999362312
 40
0.7727045953797342
 40
0.8212292499381489
 40
0.8697889622217073
 40
0.9183359325853768
 40
0.9668417813732312
 40
1.0
 40
1.0
 40
1.0
 40
1.0
 10
130.8210577729685
 20
173.6797305518088
 30
0.0
 10
130.8509618967019
 20
173.6725279253214
 30
0.0
 10
130.9133380075524
 20
173.6575041837064
 30
0.0
 10
131.0081147901593
 20
173.5071652011274
 30
0.0
 10
131.1055379312223
 20
173.2619999767258
 30
0.0
 10
131.2029993242821
 20
172.9162045895678
 30
0.0
 10
131.3003629706311
 20
172.4836640970701
 30
0.0
 10
131.3977053237255
 20
171.9754274062171
 30
0.0
 10
131.4951086622596
 20
171.4029352982687
 30
0.0
 10
131.5925792942436
 20
170.7771899642811
 30
0.0
 10
131.6899549650329
 20
170.1139740183281
 30
0.0
 10
131.7872959111419
 20
169.4295417836384
 30
0.0
 10
131.8846825097131
 20
168.7393787564691
 30
0.0
 10
131.9821556847977
 20
168.0596406938275
 30
0.0
 10
132.0795462558381
 20
167.4068675703264
 30
0.0
 10
132.1768874840242
 20
166.7950137574963
 30
0.0
 10
132.2742597161133
 20
166.2378753625433
 30
0.0
 10
132.3717288096612
 20
165.7500422896989
 30
0.0
 10
132.4691364330224
 20
165.3449628821012
 30
0.0
 10
132.5664799943749
 20
165.0272772846957
 30
0.0
 10
132.6638389939769
 20
164.8087730459635
 30
0.0
 10
132.7510211869079
 20
164.6915873582818
 30
0.0
 10
132.8056616641271
 20
164.6955965691901
 30
0.0
 10
132.827847442363
 20
164.6972244368193
 30
0.0
  0
SPLINE
  5
179
330
1F
100
AcDbEntity
  8
0
  6
Continuous
 62
     8
370
    18
100
AcDbSpline
210
0.0
220
0.0
230
1.0
 70
     8
 71
     3
 72
    28
 73
    24
 74
     0
 42
0.000000001
 43
0.00000001
 40
0.0
 40
0.0
 40
0.0
 40
0.0
 40
0.0424949694136963
 40
0.0910480136902242
 40
0.1395862365622363
 40
0.1880838095402433
 40
0.2365959098915958
 40
0.2851462720997776
 40
0.3336901692700617
 40
0.3821926447646743
 40
0.4306981151154123
 40
0.479244477490619
 40
0.5277929754792141
 40
0.5763016508326448
 40
0.6248014902208615
 40
0.673342689219482
 40
0.721894552488437
 40
0.770410177927036
 40
0.8189059674709341
 40
0.8674410729336066
 40
0.9159949273352496
 40
0.9645177893064211
 40
0.9999999999999999
 40
0.9999999999999999
 40
0.9999999999999999
 40
0.9999999999999999
 10
134.8186900753124
 20
173.6785459094939
 30
0.0
 10
134.8471293755699
 20
173.6736188570437
 30
0.0
 10
134.9080622773914
 20
173.6630623524708
 30
0.0
 10
135.001371378776
 20
173.5197647925125
 30
0.0
 10
135.098736626136
 20
173.2812383343114
 30
0.0
 10
135.1961979638662
 20
172.9437988536793
 30
0.0
 10
135.2936195475264
 20
172.5166247634663
 30
0.0
 10
135.3909650821028
 20
172.0124693170011
 30
0.0
 10
135.4883195388474
 20
171.4436025933233
 30
0.0
 10
135.5857673459924
 20
170.82195375502
 30
0.0
 10
135.6832067706293
 20
170.1608016075645
 30
0.0
 10
135.7805576386878
 20
169.4772047470665
 30
0.0
 10
135.8779056286741
 20
168.7869175457666
 30
0.0
 10
135.9753362338388
 20
168.1056364376359
 30
0.0
 10
136.0727915346275
 20
167.4503390025602
 30
0.0
 10
136.1701501513289
 20
166.8357528588483
 30
0.0
 10
136.2674938991068
 20
166.2750045278349
 30
0.0
 10
136.364906247347
 20
165.7810873270052
 30
0.0
 10
136.4623731592453
 20
165.3691325415474
 30
0.0
 10
136.5597425894482
 20
165.0461457018089
 30
0.0
 10
136.6570829643469
 20
164.8216877342886
 30
0.0
 10
136.7457759708119
 20
164.6959940680086
 30
0.0
 10
136.8020202702517
 20
164.6956585665685
 30
0.0
 10
136.8257768366082
 20
164.6955168568788
 30
0.0
  0
SPLINE
  5
17A
330
1F
100
AcDbEntity
  8
0
  6
Continuous
 62
     8
370
    18
100
AcDbSpline
210
0.0
220
0.0
230
1.0
 70
     8
 71
     3
 72
    13
 73
     9
 74
     0
 42
0.000000001
 43
0.00000001
 40
0.0
 40
0.0
 40
0.0
 40
0.0
 40
0.1398194668263587
 40
0.3119144030728296
 40
0.4840648108320309
 40
0.6560860055211174
 40
0.8279859264474104
 40
1.0
 40
1.0
 40
1.0
 40
1.0
 10
138.8180266979678
 20
173.6764257536528
 30
0.0
 10
138.8444298952029
 20
173.673905877906
 30
0.0
 10
138.9033311175558
 20
173.6682844465188
 30
0.0
 10
138.9946354535988
 20
173.5324302497096
 30
0.0
 10
139.0919747131759
 20
173.3001338000309
 30
0.0
 10
139.1893687413622
 20
172.9688679833818
 30
0.0
 10
139.2868484092725
 20
172.5526642695406
 30
0.0
 10
139.3517435600234
 20
172.2104069149484
 30
0.0
 10
139.3842019054634
 20
172.0392214362768
 30
0.0
  0
SPLINE
  5
17B
330
1F
100
AcDbEntity
  8
0
  6
Continuous
 62
     8
370
    18
100
AcDbSpline
210
0.0
220
0.0
230
1.0
 70
     8
 71
     3
 72
    13
 73
     9
 74
     0
 42
0.000000001
 43
0.00000001
 40
0.0
 40
0.0
 40
0.0
 40
0.0
 40
0.087832054051618
 40
0.3159653862592722
 40
0.4297713272794443
 40
0.5438874363482301
 40
0.7725985329925008
 40
1.0
 40
1.0
 40
1.0
 40
1.0
 10
139.1423318449004
 20
171.8572456618098
 30
0.0
 10
139.1394127413172
 20
171.8650100781913
 30
0.0
 10
139.1289116127585
 20
171.8929416442644
 30
0.0
 10
139.1450395201093
 20
171.9326724972255
 30
0.0
 10
139.1748338763271
 20
171.9693016474061
 30
0.0
 10
139.2172161193288
 20
172.0008941874214
 30
0.0
 10
139.2864438139525
 20
172.0314236835834
 30
0.0
 10
139.351678310593
 20
172.0366271656074
 30
0.0
 10
139.3842019054634
 20
172.0392214362768
 30
0.0
  0
SPLINE
  5
17C
330
1F
100
AcDbEntity
  8
0
  6
Continuous
 62
     8
370
    18
100
AcDbSpline
210
0.0
220
0.0
230
1.0
 70
     8
 71
     3
 72
    14
 73
    10
 74
     0
 42
0.000000001
 43
0.00000001
 40
0.0
 40
0.0
 40
0.0
 40
0.0
 40
0.0322201766586015
 40
0.1987913892583594
 40
0.3653922136130673
 40
0.5318659211490369
 40
0.6982804687911337
 40
0.8648316771779199
 40
0.9999999999999999
 40
0.9999999999999999
 40
0.9999999999999999
 40
0.9999999999999999
 10
140.8262841317398
 20
165.1928044618366
 30
0.0
 10
140.8325697545231
 20
165.1908446408663
 30
0.0
 10
140.8713506618617
 20
165.1787529773879
 30
0.0
 10
140.9425408668747
 20
165.2482462542142
 30
0.0
 10
141.0398906553029
 20
165.4023926435123
 30
0.0
 10
141.1373056462463
 20
165.6517012817335
 30
0.0
 10
141.2347713184296
 20
165.9854395628738
 30
0.0
 10
141.3260064390191
 20
166.363295331619
 30
0.0
 10
141.3847966154525
 20
166.6543250163279
 30
0.0
 10
141.4111342195017
 20
166.7847043597398
 30
0.0
  0
SPLINE
  5
17D
330
1F
100
AcDbEntity
  8
0
  6
Continuous
 62
     8
370
    18
100
AcDbSpline
210
0.0
220
0.0
230
1.0
 70
     8
 71
     3
 72
    14
 73
    10
 74
     0
 42
0.000000001
 43
0.00000001
 40
0.0
 40
0.0
 40
0.0
 40
0.0
 40
0.1256372017732473
 40
0.2924676181895974
 40
0.4593659428124324
 40
0.6263882415316017
 40
0.7933740637539028
 40
0.9602183203184558
 40
1.0
 40
1.0
 40
1.0
 40
1.0
 10
142.2327879730208
 20
171.5847043548969
 30
0.0
 10
142.2572122479486
 20
171.7065835830552
 30
0.0
 10
142.3140688908325
 20
171.990303110895
 30
0.0
 10
142.4034971675183
 20
172.3628930790271
 30
0.0
 10
142.5009072267493
 20
172.6990059020749
 30
0.0
 10
142.5982526604169
 20
172.9543037879678
 30
0.0
 10
142.6956080744449
 20
173.1160270141999
 30
0.0
 10
142.7683353073731
 20
173.1897027783754
 30
0.0
 10
142.8085349664682
 20
173.1780186364564
 30
0.0
 10
142.8162746045334
 20
173.1757690892813
 30
0.0
  0
SPLINE
  5
17E
330
1F
100
AcDbEntity
  8
0
  6
Continuous
 62
     8
370
    18
100
AcDbSpline
210
0.0
220
0.0
230
1.0
 70
     8
 71
     3
 72
    14
 73
    10
 74
     0
 42
0.000000001
 43
0.00000001
 40
0.0
 40
0.0
 40
0.0
 40
0.0
 40
0.0207876920527102
 40
0.1871924536326267
 40
0.3537168141528578
 40
0.5201976539464974
 40
0.6865383015194381
 40
0.8529189477882099
 40
1.0
 40
1.0
 40
1.0
 40
1.0
 10
144.8261953804238
 20
165.1901008324025
 30
0.0
 10
144.8302529072958
 20
165.1885995153096
 30
0.0
 10
144.86679079755
 20
165.1750802064043
 30
0.0
 10
144.9358025830787
 20
165.2406613619881
 30
0.0
 10
145.0331459241949
 20
165.388744811833
 30
0.0
 10
145.1305071333063
 20
165.6328685129425
 30
0.0
 10
145.2279653412558
 20
165.9590894891807
 30
0.0
 10
145.3215994906092
 20
166.3428832047234
 30
0.0
 10
145.3827052544051
 20
166.6436023224771
 30
0.0
 10
145.4113770190222
 20
166.7847043597398
 30
0.0
  0
SPLINE
  5
17F
330
1F
100
AcDbEntity
  8
0
  6
Continuous
 62
     8
370
    18
100
AcDbSpline
210
0.0
220
0.0
230
1.0
 70
     8
 71
     3
 72
    14
 73
    10
 74
     0
 42
0.000000001
 43
0.00000001
 40
0.0
 40
0.0
 40
0.0
 40
0.0
 40
0.112635603455372
 40
0.2778779022017029
 40
0.4430444756691113
 40
0.6083409865203142
 40
0.7737076003910955
 40
0.9389744593023512
 40
1.0
 40
1.0
 40
1.0
 40
1.0
 10
146.2329637173159
 20
171.5847043548969
 30
0.0
 10
146.2550750369606
 20
171.6956780878845
 30
0.0
 10
146.3096248145555
 20
171.9694560690564
 30
0.0
 10
146.396674587395
 20
172.3366691400446
 30
0.0
 10
146.4941428176992
 20
172.6794917492556
 30
0.0
 10
146.5915152760215
 20
172.9393188461671
 30
0.0
 10
146.6888569972685
 20
173.1074146339587
 30
0.0
 10
146.7657909196915
 20
173.1873498363024
 30
0.0
 10
146.8102748767148
 20
173.1764397718092
 30
0.0
 10
146.8222711149199
 20
173.1734975935218
 30
0.0
  0
SPLINE
  5
180
330
1F
100
AcDbEntity
  8
0
  6
Continuous
 62
     8
370
    18
100
AcDbSpline
210
0.0
220
0.0
230
1.0
 70
     8
 71
     3
 72
    12
 73
     8
 74
     0
 42
0.000000001
 43
0.00000001
 40
0.0
 40
0.0
 40
0.0
 40
0.0
 40
0.2017850128787984
 40
0.4036475906053454
 40
0.6053820225560623
 40
0.8069962935364737
 40
1.0
 40
1.0
 40
1.0
 40
1.0
 10
148.9289916965706
 20
165.2418041364548
 30
0.0
 10
148.9614613206243
 20
165.2853506366521
 30
0.0
 10
149.0264130498441
 20
165.3724603760384
 30
0.0
 10
149.1237481258266
 20
165.6149867512767
 30
0.0
 10
149.2211436958532
 20
165.9340718538954
 30
0.0
 10
149.3172094920303
 20
166.3224935045792
 30
0.0
 10
149.3806959074938
 20
166.6328917043244
 30
0.0
 10
149.4117464784129
 20
166.7847043597398
 30
0.0
  0
SPLINE
  5
181
330
1F
100
AcDbEntity
  8
0
  6
Continuous
 62
     8
370
    18
100
AcDbSpline
210
0.0
220
0.0
230
1.0
 70
     8
 71
     3
 72
    10
 73
     6
 74
     0
 42
0.000000001
 43
0.00000001
 40
0.0
 40
0.0
 40
0.0
 40
0.0
 40
0.3829838297986557
 40
0.8296717474692569
 40
1.0
 40
1.0
 40
1.0
 40
1.0
 10
150.5986109289868
 20
172.9347043899146
 30
0.0
 10
150.626448453637
 20
172.9895602714937
 30
0.0
 10
150.6867538919474
 20
173.1083965553979
 30
0.0
 10
150.7594032144808
 20
173.1820304403618
 30
0.0
 10
150.8042907108204
 20
173.1748406616265
 30
0.0
 10
150.8166819724781
 20
173.1728559122679
 30
0.0
  0
SPLINE
  5
182
330
1F
100
AcDbEntity
  8
0
  6
Continuous
 62
     8
370
    18
100
AcDbSpline
210
0.0
220
0.0
230
1.0
 70
     8
 71
     3
 72
    18
 73
    14
 74
     0
 42
0.000000001
 43
0.00000001
 40
0.0
 40
0.0
 40
0.0
 40
0.0
 40
0.0941783652956645
 40
0.1882940766790721
 40
0.2824762046490146
 40
0.376729078043363
 40
0.4709515735039792
 40
0.5650948987474683
 40
0.6592697365166414
 40
0.7535164516203063
 40
0.8477468444736438
 40
0.9418970369915289
 40
1.0
 40
1.0
 40
1.0
 40
1.0
 10
151.8508691254599
 20
168.9798099712029
 30
0.0
 10
151.8184107956447
 20
169.2094172524762
 30
0.0
 10
151.7535157295229
 20
169.668479064501
 30
0.0
 10
151.6560359279363
 20
170.3473462396203
 30
0.0
 10
151.5586419743477
 20
170.9980014112339
 30
0.0
 10
151.4613025361008
 20
171.6070329600009
 30
0.0
 10
151.3639383365544
 20
172.1606215856947
 30
0.0
 10
151.2664739468136
 20
172.6445330226175
 30
0.0
 10
151.1690564075049
 20
173.0448132116598
 30
0.0
 10
151.07171076712
 20
173.3571817369935
 30
0.0
 10
150.9743565953112
 20
173.5694821253085
 30
0.0
 10
150.8893348168354
 20
173.6802563805958
 30
0.0
 10
150.8368426101444
 20
173.6738225560288
 30
0.0
 10
150.8168104949934
 20
173.6713672750888
 30
0.0
  0
SPLINE
  5
183
330
1F
100
AcDbEntity
  8
0
  6
Continuous
 62
     8
370
    18
100
AcDbSpline
210
0.0
220
0.0
230
1.0
 70
     8
 71
     3
 72
    28
 73
    24
 74
     0
 42
0.000000001
 43
0.00000001
 40
0.0
 40
0.0
 40
0.0
 40
0.0
 40
0.0456941953380641
 40
0.094388582213604
 40
0.1430722917115599
 40
0.1917145050337012
 40
0.2403655861234721
 40
0.2890565977880972
 40
0.3377454856145796
 40
0.386393351243905
 40
0.4350382076948834
 40
0.4837246111620089
 40
0.5324174957979707
 40
0.5810720220633512
 40
0.629711966889935
 40
0.6783926792414345
 40
0.7270882627743968
 40
0.7757499687311956
 40
0.8243868507661426
 40
0.8730610486145146
 40
0.9217579027573696
 40
0.9704268638710993
 40
1.0
 40
1.0
 40
1.0
 40
1.0
 10
148.8256651822073
 20
164.6880094656048
 30
0.0
 10
148.7951715029607
 20
164.6948960103168
 30
0.0
 10
148.7321819891007
 20
164.709121256804
 30
0.0
 10
148.6368183120177
 20
164.8604002240024
 30
0.0
 10
148.5394585192055
 20
165.104887809793
 30
0.0
 10
148.4420035104928
 20
165.4471773561113
 30
0.0
 10
148.3445728461061
 20
165.8789401289759
 30
0.0
 10
148.2472248381214
 20
166.3872287296117
 30
0.0
 10
148.1498740039497
 20
166.9595283369632
 30
0.0
 10
148.0524345721782
 20
167.5836509593844
 30
0.0
 10
147.9549867508638
 20
168.2464309260827
 30
0.0
 10
147.8576323159475
 20
168.9308426867069
 30
0.0
 10
147.7602867203802
 20
169.6210464023905
 30
0.0
 10
147.6628652941769
 20
170.3013623151647
 30
0.0
 10
147.5654034958885
 20
170.9548596109204
 30
0.0
 10
147.4680399022203
 20
171.5666529718214
 30
0.0
 10
147.3706975493227
 20
172.123824415433
 30
0.0
 10
147.2732942352952
 20
172.6136031343962
 30
0.0
 10
147.1758236062589
 20
173.0209980357582
 30
0.0
 10
147.0784478094282
 20
173.3388277855269
 30
0.0
 10
146.9811073255441
 20
173.5567660027274
 30
0.0
 10
146.8964346450531
 20
173.6741125292048
 30
0.0
 10
146.8442020553111
 20
173.672417664426
 30
0.0
 10
146.8244597229702
 20
173.6717770570216
 30
0.0
  0
SPLINE
  5
184
330
1F
100
AcDbEntity
  8
0
  6
Continuous
 62
     8
370
    18
100
AcDbSpline
210
0.0
220
0.0
230
1.0
 70
     8
 71
     3
 72
    28
 73
    24
 74
     0
 42
0.000000001
 43
0.00000001
 40
0.0
 40
0.0
 40
0.0
 40
0.0
 40
0.0414567184800023
 40
0.089975325956364
 40
0.138514624041388
 40
0.187024502149602
 40
0.2355033483284122
 40
0.284015018805953
 40
0.3325545106667587
 40
0.3810714129534342
 40
0.4295511110212316
 40
0.4780555583313622
 40
0.5265937657465384
 40
0.5751171753258992
 40
0.6235999220851666
 40
0.6720972044003336
 40
0.7206327361971594
 40
0.7691617963948337
 40
0.8176494480162062
 40
0.8661401002643437
 40
0.9146716373380303
 40
0.9632053035190047
 40
1.0
 40
1.0
 40
1.0
 40
1.0
 10
144.8242582294686
 20
164.6914753825662
 30
0.0
 10
144.7964916086019
 20
164.6955782755433
 30
0.0
 10
144.7362284991521
 20
164.7044829632879
 30
0.0
 10
144.6435532823529
 20
164.8471338799278
 30
0.0
 10
144.5462126808372
 20
165.0856118857086
 30
0.0
 10
144.4488219503994
 20
165.4211313205073
 30
0.0
 10
144.3513488087413
 20
165.8456505231441
 30
0.0
 10
144.2539621754882
 20
166.3496838705227
 30
0.0
 10
144.1566212725482
 20
166.9186235934549
 30
0.0
 10
144.0592455985912
 20
167.5395922942598
 30
0.0
 10
143.9617749157049
 20
168.1996336945609
 30
0.0
 10
143.8643716368917
 20
168.8831500197924
 30
0.0
 10
143.76702922838
 20
169.5734513360448
 30
0.0
 10
143.6696657101668
 20
170.2549001176701
 30
0.0
 10
143.5722038695954
 20
170.9114544745699
 30
0.0
 10
143.4747824303409
 20
171.5263707440767
 30
0.0
 10
143.3774368632434
 20
172.0870605239267
 30
0.0
 10
143.2800824317052
 20
172.58137675449
 30
0.0
 10
143.1826345153853
 20
172.996517139285
 30
0.0
 10
143.0851954679729
 20
173.3205742647319
 30
0.0
 10
142.9878432088503
 20
173.5450875930832
 30
0.0
 10
142.8983242779793
 20
173.6717560137282
 30
0.0
 10
142.8411894272116
 20
173.673734272189
 30
0.0
 10
142.8165521386607
 20
173.6745873228905
 30
0.0
  0
SPLINE
  5
185
330
1F
100
AcDbEntity
  8
0
  6
Continuous
 62
     8
370
    18
100
AcDbSpline
210
0.0
220
0.0
230
1.0
 70
     8
 71
     3
 72
    22
 73
    18
 74
     0
 42
0.000000001
 43
0.00000001
 40
0.0
 40
0.0
 40
0.0
 40
0.0
 40
0.054343304090088
 40
0.1218672641289723
 40
0.1894475844457663
 40
0.2570280873173512
 40
0.3245525916536074
 40
0.3920690131386502
 40
0.459642942165449
 40
0.5272285726579697
 40
0.5947626531463
 40
0.6622741607505719
 40
0.7298424261401959
 40
0.7974324778208586
 40
0.8649717943340399
 40
0.9324634813512709
 40
1.0
 40
1.0
 40
1.0
 40
1.0
 10
140.8261351201279
 20
164.6938567743895
 30
0.0
 10
140.8000046686684
 20
164.6954970487078
 30
0.0
 10
140.7414059749906
 20
164.6991754364493
 30
0.0
 10
140.6502979291838
 20
164.8334835845087
 30
0.0
 10
140.5529505762814
 20
165.0661096290054
 30
0.0
 10
140.4556005947377
 20
165.3961926994065
 30
0.0
 10
140.3581657314571
 20
165.8133136720862
 30
0.0
 10
140.2607143480434
 20
166.3120289869375
 30
0.0
 10
140.1633579274864
 20
166.8775019833631
 30
0.0
 10
140.0660128961366
 20
167.4958085662165
 30
0.0
 10
139.9685951623126
 20
168.1532255450149
 30
0.0
 10
139.8711308588974
 20
168.8355729966548
 30
0.0
 10
139.7737666244669
 20
169.5258178313249
 30
0.0
 10
139.6764272004478
 20
170.2085045622832
 30
0.0
 10
139.5790332305642
 20
170.866494038769
 30
0.0
 10
139.4815535241008
 20
171.4890807925277
 30
0.0
 10
139.4166583853377
 20
171.8557983079298
 30
0.0
 10
139.3842000428183
 20
172.0392179438171
 30
0.0
  0
DIMENSION
  5
186
330
1F
100
AcDbEntity
  8
0
  6
Continuous
 62
     7
370
    18
100
AcDbDimension
  2
_D
 10
190.1649082068
 20
163.1847044335
 30
0.0
 11
190.1649082068
 21
169.1847044335
 31
0.0
 70
   160
  1
%%c<>
 71
     2
 42
-1.0
  3
SLDDIMSTYLE0
100
AcDbAlignedDimension
 13
171.1649082068
 23
175.1847044335
 33
0.0
 14
171.1649082068
 24
163.1847044335
 34
0.0
 50
90.0
100
AcDbRotatedDimension
  0
DIMENSION
  5
192
330
1F
100
AcDbEntity
  8
0
  6
Continuous
 62
     7
370
    18
100
AcDbDimension
  2
_D_1
 10
181.145233475
 20
166.7847044335
 30
0.0
 11
181.145233475
 21
179.8546314204
 31
0.0
 70
   160
  1
%%c<>
 71
     2
 42
-1.0
  3
SLDDIMSTYLE1
100
AcDbAlignedDimension
 13
173.6649082068
 23
171.5847044335
 33
0.0
 14
173.6649082068
 24
166.7847044335
 34
0.0
 50
90.0
100
AcDbRotatedDimension
  0
DIMENSION
  5
1A0
330
1F
100
AcDbEntity
  8
0
  6
Continuous
 62
     7
370
    18
100
AcDbDimension
  2
_D_2
 10
154.1649082068
 20
144.8847044335
 30
0.0
 11
163.1649082068
 21
144.8847044335
 31
0.0
 70
   160
  1
<>
 71
     2
 42
-1.0
  3
SLDDIMSTYLE0
100
AcDbAlignedDimension
 13
172.1649082068
 23
164.1847044335
 33
0.0
 14
154.1649082068
 24
161.4847044335
 34
0.0
100
AcDbRotatedDimension
  0
DIMENSION
  5
1AA
330
1F
100
AcDbEntity
  8
0
  6
Continuous
 62
     7
370
    18
100
AcDbDimension
  2
_D_3
 10
150.1649082068
 20
144.8847044335
 30
0.0
 11
135.1649082068
 21
144.8847044335
 31
0.0
 70
   160
  1
<>st
 71
     2
 42
-1.0
  3
SLDDIMSTYLE0
100
AcDbAlignedDimension
 13
120.1649082068
 23
165.7347044335
 33
0.0
 14
150.1649082068
 24
165.7347044335
 34
0.0
100
AcDbRotatedDimension
  0
DIMENSION
  5
1B5
330
1F
100
AcDbEntity
  8
0
  6
Continuous
 62
     7
370
    18
100
AcDbDimension
  2
_D_4
 10
106.1649082068
 20
183.7055906881
 30
0.0
 11
113.8476519011
 21
183.7055906881
 31
0.0
 70
   160
  1
<>
 71
     2
 42
-1.0
  3
SLDDIMSTYLE2
100
AcDbAlignedDimension
 13
100.6649082068
 23
172.3847044335
 33
0.0
 14
106.1649082068
 24
173.8847044335
 34
0.0
100
AcDbRotatedDimension
  0
DIMENSION
  5
1C2
330
1F
100
AcDbEntity
  8
0
  6
Continuous
 62
     7
370
    18
100
AcDbDimension
  2
_D_5
 10
91.4599552955
 20
165.6847044335
 30
0.0
 11
91.4599552955
 21
169.1847044335
 31
0.0
 70
   160
  1
%%c<>
 71
     2
 42
-1.0
  3
SLDDIMSTYLE2
100
AcDbAlignedDimension
 13
100.9649082068
 23
172.6847044335
 33
0.0
 14
100.9649082068
 24
165.6847044335
 34
0.0
 50
90.0
100
AcDbRotatedDimension
  0
DIMENSION
  5
1CF
330
1F
100
AcDbEntity
  8
0
  6
Continuous
 62
     7
370
    18
100
AcDbDimension
  2
_D_6
 10
82.245792525
 20
164.1847044335
 30
0.0
 11
82.245792525
 21
169.1847044335
 31
0.0
 70
   160
  1
%%c<>
 71
     2
 42
-1.0
  3
SLDDIMSTYLE2
100
AcDbAlignedDimension
 13
106.4649082068
 23
174.1847044335
 33
0.0
 14
106.4649082068
 24
164.1847044335
 34
0.0
 50
90.0
100
AcDbRotatedDimension
  0
DIMENSION
  5
1DC
330
1F
100
AcDbEntity
  8
0
  6
Continuous
 62
     7
370
    18
100
AcDbDimension
  2
_D_7
 10
174.1649082068
 20
195.5759225252
 30
0.0
 11
137.4149082068
 21
195.5759225252
 31
0.0
 70
   160
  1
<>
 71
     2
 42
-1.0
  3
SLDDIMSTYLE0
100
AcDbAlignedDimension
 13
100.6649082068
 23
172.3847044335
 33
0.0
 14
174.1649082068
 24
171.1847044335
 34
0.0
100
AcDbRotatedDimension
  0
LINE
  5
1E6
330
1F
100
AcDbEntity
  8
0
  6
CENTERX2
 62
     7
370
    18
100
AcDbLine
 10
110.1649082068
 20
152.8847044335
 30
0.0
 11
110.1649082068
 21
170.0075783052
 31
0.0
  0
LINE
  5
1E7
330
1F
100
AcDbEntity
  8
0
  6
CENTERX2
 62
     7
370
    18
100
AcDbLine
 10
108.4649082068
 20
163.1148966893
 30
0.0
 11
108.4649082068
 21
167.8586524008
 31
0.0
  0
LINE
  5
1E8
330
1F
100
AcDbEntity
  8
0
  6
CENTERX2
 62
     7
370
    18
100
AcDbLine
 10
111.8649082068
 20
162.3857583255
 30
0.0
 11
111.8649082068
 21
167.7207703699
 31
0.0
  0
LINE
  5
1E9
330
1F
100
AcDbEntity
  8
0
  6
CENTERX2
 62
     7
370
    18
100
AcDbLine
 10
98.6649082068
 20
169.1847044335
 30
0.0
 11
176.1649082068
 21
169.1847044335
 31
0.0
  0
LINE
  5
1EA
330
1F
100
AcDbEntity
  8
0
  6
Continuous
 62
     7
370
    18
100
AcDbLine
 10
59.9237303384
 20
157.3847044953
 30
0.0
 11
60.4237301876
 21
154.8847040856
 31
0.0
  0
LINE
  5
1EB
330
1F
100
AcDbEntity
  8
0
  6
Continuous
 62
     7
370
    18
100
AcDbLine
 10
64.4237303776
 20
154.8847040856
 30
0.0
 11
64.9237302267
 21
157.3847044953
 31
0.0
  0
LINE
  5
1EC
330
1F
100
AcDbEntity
  8
0
  6
Continuous
 62
     7
370
    18
100
AcDbLine
 10
59.9237303384
 20
159.8847039738
 30
0.0
 11
60.4237301876
 21
157.3847044953
 31
0.0
  0
LINE
  5
1ED
330
1F
100
AcDbEntity
  8
0
  6
Continuous
 62
     7
370
    18
100
AcDbLine
 10
64.4237303776
 20
157.3847044953
 30
0.0
 11
64.9237302267
 21
159.8847039738
 31
0.0
  0
LINE
  5
1EE
330
1F
100
AcDbEntity
  8
0
  6
Continuous
 62
     7
370
    18
100
AcDbLine
 10
60.2737302095
 20
164.6705602058
 30
0.0
 11
60.2737302095
 21
159.8847039738
 31
0.0
  0
LINE
  5
1EF
330
1F
100
AcDbEntity
  8
0
  6
Continuous
 62
     7
370
    18
100
AcDbLine
 10
64.5737303556
 20
159.8847039738
 30
0.0
 11
64.5737303556
 21
164.6705602058
 31
0.0
  0
CIRCLE
  5
1F0
330
1F
100
AcDbEntity
  8
0
  6
Continuous
 62
     7
370
    18
100
AcDbCircle
 10
62.4237302826
 20
169.1847044335
 30
0.0
 40
3.500000000000007
  0
CIRCLE
  5
1F1
330
1F
100
AcDbEntity
  8
0
  6
Continuous
 62
     7
370
    18
100
AcDbCircle
 10
62.4237302826
 20
169.1847044335
 30
0.0
 40
3.199999999999996
  0
CIRCLE
  5
1F2
330
1F
100
AcDbEntity
  8
0
  6
Continuous
 62
     7
370
    18
100
AcDbCircle
 10
62.4237302826
 20
169.1847044335
 30
0.0
 40
1.5
  0
SPLINE
  5
1F3
330
1F
100
AcDbEntity
  8
0
  6
Continuous
 62
     7
370
    18
100
AcDbSpline
210
0.0
220
0.0
230
1.0
 70
     8
 71
     3
 72
    36
 73
    32
 74
     0
 42
0.000000001
 43
0.00000001
 40
0.0
 40
0.0
 40
0.0
 40
0.0
 40
0.0488791749866683
 40
0.0990691623289197
 40
0.1277388031090077
 40
0.1568943313660391
 40
0.1787465143405697
 40
0.2011701629708769
 40
0.2230539198766311
 40
0.2456320605409198
 40
0.2762283105596967
 40
0.3076391273262876
 40
0.3572928073140363
 40
0.4083429648204216
 40
0.4497461485808064
 40
0.4922165017551106
 40
0.525059158204768
 40
0.5587825808731616
 40
0.591664054958728
 40
0.6257152608099433
 40
0.655548350671831
 40
0.6861726610075283
 40
0.7176440990668348
 40
0.7497659265421242
 40
0.7967186362999719
 40
0.8450187798435728
 40
0.8928501413243475
 40
0.9421839202691559
 40
0.9646132775735952
 40
0.9875653597425532
 40
1.0
 40
1.0
 40
1.0
 40
1.0
 10
61.55290671342657
 20
168.0195690593941
 30
0.0
 10
61.50089828030691
 20
168.0616544968079
 30
0.0
 10
61.39548668314701
 20
168.1469539936177
 30
0.0
 10
61.2970367474472
 20
168.2598429772489
 30
0.0
 10
61.23273959519896
 20
168.344495176919
 30
0.0
 10
61.1977965797201
 20
168.3961993479282
 30
0.0
 10
61.17716587393722
 20
168.4285393819404
 30
0.0
 10
61.16893141171124
 20
168.4414310651478
 30
0.0
 10
61.17188892815886
 20
168.4353783348513
 30
0.0
 10
61.18749826431614
 20
168.4084839844899
 30
0.0
 10
61.21981980150431
 20
168.3573104559213
 30
0.0
 10
61.28146780996821
 20
168.2711344223299
 30
0.0
 10
61.38073055790931
 20
168.154961905356
 30
0.0
 10
61.52081356300145
 20
168.0288629536817
 30
0.0
 10
61.68318715800005
 20
167.9181986207878
 30
0.0
 10
61.84692165179369
 20
167.8355327776363
 30
0.0
 10
62.01774884873544
 20
167.7749737991488
 30
0.0
 10
62.18577830975959
 20
167.7366606411788
 30
0.0
 10
62.36384701695169
 20
167.7182091866323
 30
0.0
 10
62.53725131385733
 20
167.7217546050273
 30
0.0
 10
62.70263099307902
 20
167.7447058831975
 30
0.0
 10
62.85591469123337
 20
167.7833098180853
 30
0.0
 10
63.00188716372573
 20
167.8373922444307
 30
0.0
 10
63.15758721305871
 20
167.9146355614463
 30
0.0
 10
63.3134995876168
 20
168.018301044386
 30
0.0
 10
63.45633322743152
 20
168.1448891472129
 30
0.0
 10
63.56881323820659
 20
168.2730200334636
 30
0.0
 10
63.63380740308448
 20
168.3665039431805
 30
0.0
 10
63.66463523565228
 20
168.4163968671967
 30
0.0
 10
63.67637615153812
 20
168.4368136432651
 30
0.0
 10
63.67578200456018
 20
168.4363635644305
 30
0.0
 10
63.67557322557689
 20
168.4362054099587
 30
0.0
  0
ARC
  5
1F4
330
1F
100
AcDbEntity
  8
0
  6
Continuous
 62
     7
370
    18
100
AcDbCircle
 10
62.4238874828
 20
169.196844984
 30
0.0
 40
1.464440542720793
100
AcDbArc
 50
233.5049562886
 51
328.7491117772
  0
CIRCLE
  5
1F5
330
1F
100
AcDbEntity
  8
0
  6
Continuous
 62
     7
370
    18
100
AcDbCircle
 10
62.4237302826
 20
169.1847044335
 30
0.0
 40
1.449821465561925
  0
ARC
  5
1F6
330
1F
100
AcDbEntity
  8
0
  6
Continuous
 62
     7
370
    18
100
AcDbCircle
 10
62.4237302826
 20
169.1847044335
 30
0.0
 40
5.000000000000012
100
AcDbArc
 50
43.9455195623
 51
136.0544804377
  0
SPLINE
  5
1F7
330
1F
100
AcDbEntity
  8
0
  6
Continuous
 62
     7
370
    18
100
AcDbSpline
210
0.0
220
0.0
230
1.0
 70
    24
 71
     3
 72
    12
 73
     8
 74
     0
 42
0.000000001
 43
0.00000001
 40
0.0
 40
0.0
 40
0.0
 40
0.0
 40
0.2499999999999979
 40
0.2499999999999979
 40
0.4999999999999958
 40
0.4999999999999958
 40
1.0
 40
1.0
 40
1.0
 40
1.0
 10
66.02373028255671
 20
172.6545747480769
 30
0.0
 10
66.02373028255671
 20
172.6545747480769
 30
0.0
 10
66.02373028255671
 20
172.6357349567596
 30
0.0
 10
66.02373028255671
 20
172.5753423179564
 30
0.0
 10
66.02373028255671
 20
172.5353517681564
 30
0.0
 10
66.02373028255671
 20
172.4050048773995
 30
0.0
 10
66.02373028255673
 20
172.3049880732025
 30
0.0
 10
66.02373028255671
 20
172.2062934194451
 30
0.0
  0
ARC
  5
1F8
330
1F
100
AcDbEntity
  8
0
  6
Continuous
 62
     7
370
    18
100
AcDbCircle
 10
62.4237302826
 20
169.1847044335
 30
0.0
 40
4.700000000000022
100
AcDbArc
 50
40.0077539135
 51
139.9922460865
  0
SPLINE
  5
1F9
330
1F
100
AcDbEntity
  8
0
  6
Continuous
 62
     7
370
    18
100
AcDbSpline
210
0.0
220
0.0
230
1.0
 70
    24
 71
     3
 72
    12
 73
     8
 74
     0
 42
0.000000001
 43
0.00000001
 40
0.0
 40
0.0
 40
0.0
 40
0.0
 40
0.4999999999999958
 40
0.4999999999999958
 40
0.7499999999999979
 40
0.7499999999999979
 40
1.0
 40
1.0
 40
1.0
 40
1.0
 10
58.82373028255672
 20
172.2062934194451
 30
0.0
 10
58.82373028255672
 20
172.3052462827575
 30
0.0
 10
58.82373028255672
 20
172.4050522271804
 30
0.0
 10
58.82373028255672
 20
172.5354922711345
 30
0.0
 10
58.82373028255672
 20
172.5754605196227
 30
0.0
 10
58.82373028255672
 20
172.6359447807672
 30
0.0
 10
58.82373028255672
 20
172.654574748077
 30
0.0
 10
58.82373028255672
 20
172.654574748077
 30
0.0
  0
ARC
  5
1FA
330
1F
100
AcDbEntity
  8
0
  6
Continuous
 62
     7
370
    18
100
AcDbCircle
 10
62.4237302826
 20
169.1847044335
 30
0.0
 40
4.699999999999991
100
AcDbArc
 50
220.0077539135
 51
319.9922460865
  0
SPLINE
  5
1FB
330
1F
100
AcDbEntity
  8
0
  6
Continuous
 62
     7
370
    18
100
AcDbSpline
210
0.0
220
0.0
230
1.0
 70
    24
 71
     3
 72
    12
 73
     8
 74
     0
 42
0.000000001
 43
0.00000001
 40
0.0
 40
0.0
 40
0.0
 40
0.0
 40
0.5
 40
0.5
 40
0.75
 40
0.75
 40
1.0
 40
1.0
 40
1.0
 40
1.0
 10
66.02373028255671
 20
166.1631154475498
 30
0.0
 10
66.02373028255671
 20
166.0646225716075
 30
0.0
 10
66.02373028255671
 20
165.9639221327402
 30
0.0
 10
66.02373028255673
 20
165.833719066249
 30
0.0
 10
66.02373028255671
 20
165.7937595367827
 30
0.0
 10
66.02373028255673
 20
165.7336401232484
 30
0.0
 10
66.02373028255671
 20
165.7148341189179
 30
0.0
 10
66.02373028255671
 20
165.7148341189179
 30
0.0
  0
ARC
  5
1FC
330
1F
100
AcDbEntity
  8
0
  6
Continuous
 62
     7
370
    18
100
AcDbCircle
 10
62.4237302826
 20
169.1847044335
 30
0.0
 40
4.999999999999996
100
AcDbArc
 50
223.9455195623
 51
316.0544804377
  0
SPLINE
  5
1FD
330
1F
100
AcDbEntity
  8
0
  6
Continuous
 62
     7
370
    18
100
AcDbSpline
210
0.0
220
0.0
230
1.0
 70
    24
 71
     3
 72
    12
 73
     8
 74
     0
 42
0.000000001
 43
0.00000001
 40
0.0
 40
0.0
 40
0.0
 40
0.0
 40
0.2500000000000021
 40
0.2500000000000021
 40
0.5000000000000042
 40
0.5000000000000042
 40
1.0
 40
1.0
 40
1.0
 40
1.0
 10
58.82373028255672
 20
165.7148341189174
 30
0.0
 10
58.82373028255672
 20
165.7148341189174
 30
0.0
 10
58.82373028255672
 20
165.7337724514419
 30
0.0
 10
58.82373028255672
 20
165.7940938343992
 30
0.0
 10
58.82373028255672
 20
165.8339900469866
 30
0.0
 10
58.82373028255672
 20
165.9642047265633
 30
0.0
 10
58.82373028255672
 20
166.0642255306189
 30
0.0
 10
58.82373028255672
 20
166.1631154475498
 30
0.0
  0
LINE
  5
1FE
330
1F
100
AcDbEntity
  8
0
  6
Continuous
 62
     7
370
    18
100
AcDbLine
 10
66.0237302207
 20
166.1631154591
 30
0.0
 11
66.0237302207
 21
172.2062934884
 31
0.0
  0
LINE
  5
1FF
330
1F
100
AcDbEntity
  8
0
  6
Continuous
 62
     7
370
    18
100
AcDbLine
 10
58.8237303444
 20
172.2062934884
 30
0.0
 11
58.8237303444
 21
166.1631154591
 31
0.0
  0
LWPOLYLINE
  5
200
330
1F
100
AcDbEntity
  8
0
  6
Continuous
 62
     7
370
    18
100
AcDbPolyline
 90
        9
 70
   128
 43
0.0
 10
63.2200483368
 20
164.2485239306
 10
63.2019005269
 20
164.2401573942
 10
63.1861128048
 20
164.2214876362
 10
63.1732502505
 20
164.1931833462
 10
63.1637734612
 20
164.1562578031
 10
63.1580215548
 20
164.1120330193
 10
63.1562004699
 20
164.0620922433
 10
63.1583754574
 20
164.0082226829
 10
63.1644685771
 20
163.9523531073
  0
SPLINE
  5
201
330
1F
100
AcDbEntity
  8
0
  6
Continuous
 62
     7
370
    18
100
AcDbSpline
210
0.0
220
0.0
230
1.0
 70
     8
 71
     3
 72
    12
 73
     8
 74
     0
 42
0.000000001
 43
0.00000001
 40
0.0
 40
0.0
 40
0.0
 40
0.0
 40
0.5
 40
0.5
 40
0.75
 40
0.75
 40
1.0
 40
1.0
 40
1.0
 40
1.0
 10
63.16446859857078
 20
163.9523531455964
 30
0.0
 10
62.92800428799118
 20
163.9088832329789
 30
0.0
 10
62.67743032596522
 20
163.8846931196013
 30
0.0
 10
62.29660733302642
 20
163.884710096529
 30
0.0
 10
62.16904596424084
 20
163.8907729162618
 30
0.0
 10
61.92203328544241
 20
163.9137370433022
 30
0.0
 10
61.80119458355225
 20
163.9306236193945
 30
0.0
 10
61.68299196654265
 20
163.9523531455964
 30
0.0
  0
LWPOLYLINE
  5
202
330
1F
100
AcDbEntity
  8
0
  6
Continuous
 62
     7
370
    18
100
AcDbPolyline
 90
        9
 70
   128
 43
0.0
 10
61.6274122284
 20
164.2485239306
 10
61.6455600383
 20
164.2401573942
 10
61.6613477603
 20
164.2214876362
 10
61.6742103146
 20
164.1931833462
 10
61.6836871039
 20
164.1562578031
 10
61.6894390103
 20
164.1120330193
 10
61.6912600952
 20
164.0620922433
 10
61.6890851077
 20
164.0082226829
 10
61.682991988
 20
163.9523531073
  0
LINE
  5
203
330
1F
100
AcDbEntity
  8
0
  6
Continuous
 62
     7
370
    18
100
AcDbLine
 10
59.9237303384
 20
157.3847044953
 30
0.0
 11
64.9237302267
 21
157.3847044953
 31
0.0
  0
LINE
  5
204
330
1F
100
AcDbEntity
  8
0
  6
Continuous
 62
     7
370
    18
100
AcDbLine
 10
60.4237301876
 20
154.8847040856
 30
0.0
 11
64.4237303776
 21
154.8847040856
 31
0.0
  0
LINE
  5
205
330
1F
100
AcDbEntity
  8
0
  6
Continuous
 62
     7
370
    18
100
AcDbLine
 10
59.9237303384
 20
159.8847039738
 30
0.0
 11
64.9237302267
 21
159.8847039738
 31
0.0
  0
ARC
  5
206
330
1F
100
AcDbEntity
  8
0
  6
Continuous
 62
     7
370
    18
100
AcDbCircle
 10
62.4237302826
 20
169.1847044335
 30
0.0
 40
5.99999999999998
100
AcDbArc
 50
290.9978755459
 51
249.0021244541
  0
ARC
  5
207
330
1F
100
AcDbEntity
  8
0
  6
Continuous
 62
     7
370
    18
100
AcDbCircle
 10
62.4237302826
 20
169.1847044335
 30
0.0
 40
7.700000000000004
100
AcDbArc
 50
286.2137038924
 51
253.7862961076
  0
ARC
  5
208
330
1F
100
AcDbEntity
  8
0
  6
Continuous
 62
     7
370
    18
100
AcDbCircle
 10
62.4237302826
 20
169.1847044335
 30
0.0
 40
7.999999999999988
100
AcDbArc
 50
285.5898981071
 51
254.4101018929
  0
SPLINE
  5
209
330
1F
100
AcDbEntity
  8
0
  6
Continuous
 62
     8
370
    18
100
AcDbSpline
210
0.0
220
0.0
230
1.0
 70
     8
 71
     3
 72
    11
 73
     7
 74
     0
 42
0.000000001
 43
0.00000001
 40
0.0
 40
0.0
 40
0.0
 40
0.0
 40
0.2607921509797984
 40
0.6515768855995717
 40
0.9579100759693037
 40
1.0
 40
1.0
 40
1.0
 40
1.0
 10
61.68299198800371
 20
163.9523531073031
 30
0.0
 10
61.60355788368584
 20
163.9698715680377
 30
0.0
 10
61.40509552158109
 20
164.0136406156989
 30
0.0
 10
61.16165042399352
 20
164.1585327181254
 30
0.0
 10
61.00932530363562
 20
164.3234028464065
 30
0.0
 10
60.97209999148406
 20
164.4279936152155
 30
0.0
 10
60.96760312977851
 20
164.4406283037064
 30
0.0
  0
SPLINE
  5
20A
330
1F
100
AcDbEntity
  8
0
  6
Continuous
 62
     8
370
    18
100
AcDbSpline
210
0.0
220
0.0
230
1.0
 70
     8
 71
     3
 72
    11
 73
     7
 74
     0
 42
0.000000001
 43
0.00000001
 40
0.0
 40
0.0
 40
0.0
 40
0.0
 40
0.0764319704896587
 40
0.4159793411054404
 40
0.8289451738830603
 40
1.0
 40
1.0
 40
1.0
 40
1.0
 10
63.85722792658628
 20
164.4016473316846
 30
0.0
 10
63.84808364146469
 20
164.3807588136867
 30
0.0
 10
63.79831606808683
 20
164.267073507685
 30
0.0
 10
63.6214816583513
 20
164.1091943987331
 30
0.0
 10
63.38414523658108
 20
163.9978936290925
 30
0.0
 10
63.2142341350357
 20
163.9626698586619
 30
0.0
 10
63.16446857710974
 20
163.9523531073031
 30
0.0
  0
ARC
  5
20B
330
1F
100
AcDbEntity
  8
0
  6
Continuous
 62
     8
370
    18
100
AcDbCircle
 10
62.4237302826
 20
169.1847044335
 30
0.0
 40
5.699999999999983
100
AcDbArc
 50
292.1599175499
 51
247.8400824501
  0
DIMENSION
  5
20C
330
1F
100
AcDbEntity
  8
0
  6
Continuous
 62
     7
370
    18
100
AcDbDimension
  2
_D_8
 10
66.9829538952
 20
162.6110083613
 30
0.0
 11
44.8831727963
 21
188.9966742626
 31
0.0
 70
   163
  1
<>
 71
     1
 42
-1.0
  3
SLDDIMSTYLE3
100
AcDbDiametricDimension
 15
57.8645066699
 25
175.7584005057
 35
0.0
 40
0.0
  0
INSERT
  5
21B
330
1F
100
AcDbEntity
  8
0
  6
Continuous
 62
     7
370
     0
100
AcDbBlockReference
  2
SW_NOTE_0
 10
58.2168271606
 20
144.8842366469
 30
0.0
  0
LEADER
  5
21D
330
1F
100
AcDbEntity
  8
0
  6
Continuous
 62
     7
370
     0
100
AcDbLeader
  3
SLDDIMSTYLE4
 76
     2
 10
62.3010591486
 20
158.0997050501
 30
0.0
 10
58.2168271606
 20
144.8842366469
 30
0.0
  0
INSERT
  5
229
330
1F
100
AcDbEntity
  8
0
  6
Continuous
 62
     7
370
    18
100
AcDbBlockReference
  2
SW_CENTERMARKSYMBOL_0
 10
62.4237302826
 20
169.1847044335
 30
0.0
  0
ENDSEC
  0
SECTION
  2
OBJECTS
  0
DICTIONARY
  5
C
330
0
100
AcDbDictionary
281
     1
  3
ACAD_GROUP
350
D
  3
ACAD_LAYOUT
350
1A
  3
ACAD_MLINESTYLE
350
17
  3
ACAD_PLOTSETTINGS
350
19
  3
ACAD_PLOTSTYLENAME
350
E
  3
ACAD_SCALELIST
350
47
  0
DICTIONARY
  5
D
102
{ACAD_REACTORS
330
C
102
}
330
C
100
AcDbDictionary
281
     1
  0
DICTIONARY
  5
1A
102
{ACAD_REACTORS
330
C
102
}
330
C
100
AcDbDictionary
281
     1
  3
Layout1
350
1E
  3
Layout2
350
26
  3
Model
350
22
  0
DICTIONARY
  5
17
102
{ACAD_REACTORS
330
C
102
}
330
C
100
AcDbDictionary
281
     1
  3
Standard
350
18
  0
DICTIONARY
  5
19
102
{ACAD_REACTORS
330
C
102
}
330
C
100
AcDbDictionary
281
     1
  0
ACDBDICTIONARYWDFLT
  5
E
102
{ACAD_REACTORS
330
C
102
}
330
C
100
AcDbDictionary
281
     1
  3
Normal
350
F
100
AcDbDictionaryWithDefault
340
F
  0
DICTIONARY
  5
47
102
{ACAD_REACTORS
330
C
102
}
330
C
100
AcDbDictionary
281
     1
  3
A0
350
48
  3
A1
350
49
  3
A2
350
4A
  3
A3
350
4B
  3
A4
350
4C
  3
A5
350
4D
  3
A6
350
4E
  3
A7
350
4F
  3
A8
350
50
  3
A9
350
51
  3
B0
350
52
  3
B1
350
53
  3
B2
350
54
  3
B3
350
55
  3
B4
350
56
  3
B5
350
57
  3
B6
350
58
  3
B7
350
59
  3
B8
350
5A
  3
B9
350
5B
  3
C0
350
5C
  3
C1
350
5D
  3
C2
350
5E
  3
C3
350
5F
  3
C4
350
60
  3
C5
350
61
  3
C6
350
62
  3
C7
350
63
  3
C8
350
64
  3
C9
350
65
  3
D0
350
66
  3
D1
350
67
  3
D2
350
68
  0
LAYOUT
  5
1E
102
{ACAD_REACTORS
330
1A
102
}
330
1A
100
AcDbPlotSettings
  1

  2
none_device
  4

  6

 40
0.0
 41
0.0
 42
0.0
 43
0.0
 44
0.0
 45
0.0
 46
0.0
 47
0.0
 48
0.0
 49
0.0
140
0.0
141
0.0
142
1.0
143
1.0
 70
   688
 72
     1
 73
     0
 74
     5
  7

 75
    16
147
1.0
148
0.0
149
0.0
100
AcDbLayout
  1
Layout1
 70
     1
 71
     1
 10
0.0
 20
0.0
 11
420.0
 21
297.0
 12
0.0
 22
0.0
 32
0.0
 14
1.0000000000E+20
 24
1.0000000000E+20
 34
1.0000000000E+20
 15
-1.0000000000E+20
 25
-1.0000000000E+20
 35
-1.0000000000E+20
146
0.0
 13
0.0
 23
0.0
 33
0.0
 16
1.0
 26
0.0
 36
0.0
 17
0.0
 27
1.0
 37
0.0
 76
     0
330
1B
  0
LAYOUT
  5
26
102
{ACAD_REACTORS
330
1A
102
}
330
1A
100
AcDbPlotSettings
  1

  2
none_device
  4

  6

 40
0.0
 41
0.0
 42
0.0
 43
0.0
 44
0.0
 45
0.0
 46
0.0
 47
0.0
 48
0.0
 49
0.0
140
0.0
141
0.0
142
1.0
143
1.0
 70
   688
 72
     1
 73
     0
 74
     5
  7

 75
    16
147
1.0
148
0.0
149
0.0
100
AcDbLayout
  1
Layout2
 70
     1
 71
     2
 10
0.0
 20
0.0
 11
0.0
 21
0.0
 12
0.0
 22
0.0
 32
0.0
 14
0.0
 24
0.0
 34
0.0
 15
0.0
 25
0.0
 35
0.0
146
0.0
 13
0.0
 23
0.0
 33
0.0
 16
1.0
 26
0.0
 36
0.0
 17
0.0
 27
1.0
 37
0.0
 76
     0
330
23
  0
LAYOUT
  5
22
102
{ACAD_REACTORS
330
1A
102
}
330
1A
100
AcDbPlotSettings
  1

  2
none_device
  4
Letter_(8.50_x_11.00_Inches)
  6

 40
6.35
 41
6.35
 42
6.35000508
 43
6.35000508
 44
215.9
 45
279.4
 46
0.0
 47
0.0
 48
0.0
 49
0.0
140
0.0
141
0.0
142
1.0
143
1.0
 70
  1712
 72
     1
 73
     0
 74
     0
  7

 75
     0
147
1.0
148
0.0
149
0.0
100
AcDbLayout
  1
Model
 70
     1
 71
     0
 10
0.0
 20
0.0
 11
210.0
 21
297.0
 12
0.0
 22
0.0
 32
0.0
 14
0.0
 24
0.0
 34
0.0
 15
210.0
 25
297.0
 35
0.0
146
0.0
 13
0.0
 23
0.0
 33
0.0
 16
1.0
 26
0.0
 36
0.0
 17
0.0
 27
1.0
 37
0.0
 76
     0
330
1F
331
29
  0
MLINESTYLE
  5
18
102
{ACAD_REACTORS
330
17
102
}
330
17
100
AcDbMlineStyle
  2
Standard
 70
     0
  3

 62
   256
 51
90.0
 52
90.0
 71
     2
 49
0.5
 62
   256
  6
BYLAYER
 49
-0.5
 62
   256
  6
BYLAYER
  0
ACDBPLACEHOLDER
  5
F
102
{ACAD_REACTORS
330
E
102
}
330
E
  0
SCALE
  5
48
102
{ACAD_REACTORS
330
47
102
}
330
47
100
AcDbScale
 70
     0
300
1:1
140
1.0
141
1.0
290
     1
  0
SCALE
  5
49
102
{ACAD_REACTORS
330
47
102
}
330
47
100
AcDbScale
 70
     0
300
1:2
140
1.0
141
2.0
290
     0
  0
SCALE
  5
4A
102
{ACAD_REACTORS
330
47
102
}
330
47
100
AcDbScale
 70
     0
300
1:4
140
1.0
141
4.0
290
     0
  0
SCALE
  5
4B
102
{ACAD_REACTORS
330
47
102
}
330
47
100
AcDbScale
 70
     0
300
1:5
140
1.0
141
5.0
290
     0
  0
SCALE
  5
4C
102
{ACAD_REACTORS
330
47
102
}
330
47
100
AcDbScale
 70
     0
300
1:8
140
1.0
141
8.0
290
     0
  0
SCALE
  5
4D
102
{ACAD_REACTORS
330
47
102
}
330
47
100
AcDbScale
 70
     0
300
1:10
140
1.0
141
10.0
290
     0
  0
SCALE
  5
4E
102
{ACAD_REACTORS
330
47
102
}
330
47
100
AcDbScale
 70
     0
300
1:16
140
1.0
141
16.0
290
     0
  0
SCALE
  5
4F
102
{ACAD_REACTORS
330
47
102
}
330
47
100
AcDbScale
 70
     0
300
1:20
140
1.0
141
20.0
290
     0
  0
SCALE
  5
50
102
{ACAD_REACTORS
330
47
102
}
330
47
100
AcDbScale
 70
     0
300
1:30
140
1.0
141
30.0
290
     0
  0
SCALE
  5
51
102
{ACAD_REACTORS
330
47
102
}
330
47
100
AcDbScale
 70
     0
300
1:40
140
1.0
141
40.0
290
     0
  0
SCALE
  5
52
102
{ACAD_REACTORS
330
47
102
}
330
47
100
AcDbScale
 70
     0
300
1:50
140
1.0
141
50.0
290
     0
  0
SCALE
  5
53
102
{ACAD_REACTORS
330
47
102
}
330
47
100
AcDbScale
 70
     0
300
1:100
140
1.0
141
100.0
290
     0
  0
SCALE
  5
54
102
{ACAD_REACTORS
330
47
102
}
330
47
100
AcDbScale
 70
     0
300
2:1
140
2.0
141
1.0
290
     0
  0
SCALE
  5
55
102
{ACAD_REACTORS
330
47
102
}
330
47
100
AcDbScale
 70
     0
300
4:1
140
4.0
141
1.0
290
     0
  0
SCALE
  5
56
102
{ACAD_REACTORS
330
47
102
}
330
47
100
AcDbScale
 70
     0
300
8:1
140
8.0
141
1.0
290
     0
  0
SCALE
  5
57
102
{ACAD_REACTORS
330
47
102
}
330
47
100
AcDbScale
 70
     0
300
10:1
140
10.0
141
1.0
290
     0
  0
SCALE
  5
58
102
{ACAD_REACTORS
330
47
102
}
330
47
100
AcDbScale
 70
     0
300
100:1
140
100.0
141
1.0
290
     0
  0
SCALE
  5
59
102
{ACAD_REACTORS
330
47
102
}
330
47
100
AcDbScale
 70
     0
300
1/128" = 1'-0"
140
0.0078125
141
12.0
290
     0
  0
SCALE
  5
5A
102
{ACAD_REACTORS
330
47
102
}
330
47
100
AcDbScale
 70
     0
300
1/64" = 1'-0"
140
0.015625
141
12.0
290
     0
  0
SCALE
  5
5B
102
{ACAD_REACTORS
330
47
102
}
330
47
100
AcDbScale
 70
     0
300
1/32" = 1'-0"
140
0.03125
141
12.0
290
     0
  0
SCALE
  5
5C
102
{ACAD_REACTORS
330
47
102
}
330
47
100
AcDbScale
 70
     0
300
1/16" = 1'-0"
140
0.0625
141
12.0
290
     0
  0
SCALE
  5
5D
102
{ACAD_REACTORS
330
47
102
}
330
47
100
AcDbScale
 70
     0
300
3/32" = 1'-0"
140
0.09375
141
12.0
290
     0
  0
SCALE
  5
5E
102
{ACAD_REACTORS
330
47
102
}
330
47
100
AcDbScale
 70
     0
300
1/8" = 1'-0"
140
0.125
141
12.0
290
     0
  0
SCALE
  5
5F
102
{ACAD_REACTORS
330
47
102
}
330
47
100
AcDbScale
 70
     0
300
3/16" = 1'-0"
140
0.1875
141
12.0
290
     0
  0
SCALE
  5
60
102
{ACAD_REACTORS
330
47
102
}
330
47
100
AcDbScale
 70
     0
300
1/4" = 1'-0"
140
0.25
141
12.0
290
     0
  0
SCALE
  5
61
102
{ACAD_REACTORS
330
47
102
}
330
47
100
AcDbScale
 70
     0
300
3/8" = 1'-0"
140
0.375
141
12.0
290
     0
  0
SCALE
  5
62
102
{ACAD_REACTORS
330
47
102
}
330
47
100
AcDbScale
 70
     0
300
1/2" = 1'-0"
140
0.5
141
12.0
290
     0
  0
SCALE
  5
63
102
{ACAD_REACTORS
330
47
102
}
330
47
100
AcDbScale
 70
     0
300
3/4" = 1'-0"
140
0.75
141
12.0
290
     0
  0
SCALE
  5
64
102
{ACAD_REACTORS
330
47
102
}
330
47
100
AcDbScale
 70
     0
300
1" = 1'-0"
140
1.0
141
12.0
290
     0
  0
SCALE
  5
65
102
{ACAD_REACTORS
330
47
102
}
330
47
100
AcDbScale
 70
     0
300
1-1/2" = 1'-0"
140
1.5
141
12.0
290
     0
  0
SCALE
  5
66
102
{ACAD_REACTORS
330
47
102
}
330
47
100
AcDbScale
 70
     0
300
3" = 1'-0"
140
3.0
141
12.0
290
     0
  0
SCALE
  5
67
102
{ACAD_REACTORS
330
47
102
}
330
47
100
AcDbScale
 70
     0
300
6" = 1'-0"
140
6.0
141
12.0
290
     0
  0
SCALE
  5
68
102
{ACAD_REACTORS
330
47
102
}
330
47
100
AcDbScale
 70
     0
300
1'-0" = 1'-0"
140
12.0
141
12.0
290
     0
  0
ENDSEC
  0
EOF
