  0
SECTION
  2
HEADER
  9
$ACADVER
  1
AC1015
  9
$ACADMAINTVER
 70
     6
  9
$DWGCODEPAGE
  3
DOS932
  9
$INSBASE
 10
0.0
 20
0.0
 30
0.0
  9
$EXTMIN
 10
0.0
 20
0.0
 30
0.0
  9
$EXTMAX
 10
210.0
 20
297.0
 30
0.0
  9
$LIMMIN
 10
0.0
 20
0.0
  9
$LIMMAX
 10
210.0
 20
297.0
  9
$ORTHOMODE
 70
     0
  9
$REGENMODE
 70
     1
  9
$FILLMODE
 70
     1
  9
$QTEXTMODE
 70
     0
  9
$MIRRTEXT
 70
     1
  9
$LTSCALE
 40
1.0
  9
$ATTMODE
 70
     1
  9
$TEXTSIZE
 40
3.5
  9
$TRACEWID
 40
1.0
  9
$TEXTSTYLE
  7
Standard
  9
$CLAYER
  8
0
  9
$CELTYPE
  6
ByLayer
  9
$CECOLOR
 62
   256
  9
$CELTSCALE
 40
1.0
  9
$DISPSILH
 70
     0
  9
$DIMSCALE
 40
1.0
  9
$DIMASZ
 40
3.0
  9
$DIMEXO
 40
1.0
  9
$DIMDLI
 40
3.75
  9
$DIMRND
 40
0.0
  9
$DIMDLE
 40
0.0
  9
$DIMEXE
 40
1.0
  9
$DIMTP
 40
0.0
  9
$DIMTM
 40
0.0
  9
$DIMTXT
 40
3.5
  9
$DIMCEN
 40
2.5
  9
$DIMTSZ
 40
0.0
  9
$DIMTOL
 70
     0
  9
$DIMLIM
 70
     0
  9
$DIMTIH
 70
     1
  9
$DIMTOH
 70
     1
  9
$DIMSE1
 70
     0
  9
$DIMSE2
 70
     0
  9
$DIMTAD
 70
     1
  9
$DIMZIN
 70
     0
  9
$DIMBLK
  1

  9
$DIMASO
 70
     1
  9
$DIMSHO
 70
     1
  9
$DIMPOST
  1

  9
$DIMAPOST
  1

  9
$DIMALT
 70
     0
  9
$DIMALTD
 70
     3
  9
$DIMALTF
 40
0.0393700787
  9
$DIMLFAC
 40
1.0
  9
$DIMTOFL
 70
     1
  9
$DIMTVP
 40
0.0
  9
$DIMTIX
 70
     0
  9
$DIMSOXD
 70
     0
  9
$DIMSAH
 70
     0
  9
$DIMBLK1
  1

  9
$DIMBLK2
  1

  9
$DIMSTYLE
  2
ISO-25
  9
$DIMCLRD
 70
     0
  9
$DIMCLRE
 70
     0
  9
$DIMCLRT
 70
     0
  9
$DIMTFAC
 40
1.0
  9
$DIMGAP
 40
1.524
  9
$DIMJUST
 70
     0
  9
$DIMSD1
 70
     0
  9
$DIMSD2
 70
     0
  9
$DIMTOLJ
 70
     0
  9
$DIMTZIN
 70
     0
  9
$DIMALTZ
 70
     0
  9
$DIMALTTZ
 70
     0
  9
$DIMUPT
 70
     0
  9
$DIMDEC
 70
     1
  9
$DIMTDEC
 70
     3
  9
$DIMALTU
 70
     2
  9
$DIMALTTD
 70
     3
  9
$DIMTXSTY
  7
Standard
  9
$DIMAUNIT
 70
     0
  9
$DIMADEC
 70
     2
  9
$DIMALTRND
 40
0.0
  9
$DIMAZIN
 70
     0
  9
$DIMDSEP
 70
    44
  9
$DIMATFIT
 70
     3
  9
$DIMFRAC
 70
     0
  9
$DIMLDRBLK
  1

  9
$DIMLUNIT
 70
     2
  9
$DIMLWD
 70
    -2
  9
$DIMLWE
 70
    -2
  9
$DIMTMOVE
 70
     0
  9
$LUNITS
 70
     2
  9
$LUPREC
 70
     1
  9
$SKETCHINC
 40
1.0
  9
$FILLETRAD
 40
10.0
  9
$AUNITS
 70
     0
  9
$AUPREC
 70
     2
  9
$MENU
  1
.
  9
$ELEVATION
 40
0.0
  9
$PELEVATION
 40
0.0
  9
$THICKNESS
 40
0.0
  9
$LIMCHECK
 70
     0
  9
$CHAMFERA
 40
0.0
  9
$CHAMFERB
 40
0.0
  9
$CHAMFERC
 40
0.0
  9
$CHAMFERD
 40
0.0
  9
$SKPOLY
 70
     0
  9
$TDCREATE
 40
2459019.482382153
  9
$TDUCREATE
 40
2459019.107382153
  9
$TDUPDATE
 40
2459019.482384502
  9
$TDUUPDATE
 40
2459019.107384502
  9
$TDINDWG
 40
0.0000000116
  9
$TDUSRTIMER
 40
0.0000000116
  9
$USRTIMER
 70
     1
  9
$ANGBASE
 50
0.0
  9
$ANGDIR
 70
     0
  9
$PDMODE
 70
     0
  9
$PDSIZE
 40
-1.0
  9
$PLINEWID
 40
0.0
  9
$SPLFRAME
 70
     0
  9
$SPLINETYPE
 70
     6
  9
$SPLINESEGS
 70
     8
  9
$HANDSEED
  5
280
  9
$SURFTAB1
 70
     6
  9
$SURFTAB2
 70
     6
  9
$SURFTYPE
 70
     6
  9
$SURFU
 70
     6
  9
$SURFV
 70
     6
  9
$UCSBASE
  2

  9
$UCSNAME
  2

  9
$UCSORG
 10
0.0
 20
0.0
 30
0.0
  9
$UCSXDIR
 10
1.0
 20
0.0
 30
0.0
  9
$UCSYDIR
 10
0.0
 20
1.0
 30
0.0
  9
$UCSORTHOREF
  2

  9
$UCSORTHOVIEW
 70
     0
  9
$UCSORGTOP
 10
0.0
 20
0.0
 30
0.0
  9
$UCSORGBOTTOM
 10
0.0
 20
0.0
 30
0.0
  9
$UCSORGLEFT
 10
0.0
 20
0.0
 30
0.0
  9
$UCSORGRIGHT
 10
0.0
 20
0.0
 30
0.0
  9
$UCSORGFRONT
 10
0.0
 20
0.0
 30
0.0
  9
$UCSORGBACK
 10
0.0
 20
0.0
 30
0.0
  9
$PUCSBASE
  2

  9
$PUCSNAME
  2

  9
$PUCSORG
 10
0.0
 20
0.0
 30
0.0
  9
$PUCSXDIR
 10
1.0
 20
0.0
 30
0.0
  9
$PUCSYDIR
 10
0.0
 20
1.0
 30
0.0
  9
$PUCSORTHOREF
  2

  9
$PUCSORTHOVIEW
 70
     0
  9
$PUCSORGTOP
 10
0.0
 20
0.0
 30
0.0
  9
$PUCSORGBOTTOM
 10
0.0
 20
0.0
 30
0.0
  9
$PUCSORGLEFT
 10
0.0
 20
0.0
 30
0.0
  9
$PUCSORGRIGHT
 10
0.0
 20
0.0
 30
0.0
  9
$PUCSORGFRONT
 10
0.0
 20
0.0
 30
0.0
  9
$PUCSORGBACK
 10
0.0
 20
0.0
 30
0.0
  9
$USERI1
 70
     0
  9
$USERI2
 70
     0
  9
$USERI3
 70
     0
  9
$USERI4
 70
     0
  9
$USERI5
 70
     0
  9
$USERR1
 40
0.0
  9
$USERR2
 40
0.0
  9
$USERR3
 40
0.0
  9
$USERR4
 40
0.0
  9
$USERR5
 40
0.0
  9
$WORLDVIEW
 70
     1
  9
$SHADEDGE
 70
     3
  9
$SHADEDIF
 70
    70
  9
$TILEMODE
 70
     1
  9
$MAXACTVP
 70
    64
  9
$PINSBASE
 10
0.0
 20
0.0
 30
0.0
  9
$PLIMCHECK
 70
     0
  9
$PEXTMIN
 10
1.0000000000E+20
 20
1.0000000000E+20
 30
1.0000000000E+20
  9
$PEXTMAX
 10
-1.0000000000E+20
 20
-1.0000000000E+20
 30
-1.0000000000E+20
  9
$PLIMMIN
 10
0.0
 20
0.0
  9
$PLIMMAX
 10
420.0
 20
297.0
  9
$UNITMODE
 70
     0
  9
$VISRETAIN
 70
     1
  9
$PLINEGEN
 70
     0
  9
$PSLTSCALE
 70
     1
  9
$TREEDEPTH
 70
  3020
  9
$CMLSTYLE
  2
Standard
  9
$CMLJUST
 70
     0
  9
$CMLSCALE
 40
20.0
  9
$PROXYGRAPHICS
 70
     1
  9
$MEASUREMENT
 70
     1
  9
$CELWEIGHT
370
    -1
  9
$ENDCAPS
280
     0
  9
$JOINSTYLE
280
     0
  9
$LWDISPLAY
290
     1
  9
$INSUNITS
 70
     4
  9
$HYPERLINKBASE
  1

  9
$STYLESHEET
  1

  9
$XEDIT
290
     1
  9
$CEPSNTYPE
380
     0
  9
$PSTYLEMODE
290
     1
  9
$FINGERPRINTGUID
  2
{EAC83B26-6EE0-4800-B527-D0F0D1911151}
  9
$VERSIONGUID
  2
{FAEB1C32-E019-11D5-929B-00C0DF256EC4}
  9
$EXTNAMES
290
     1
  9
$PSVPSCALE
 40
0.0
  9
$OLESTARTUP
290
     0
  0
ENDSEC
  0
SECTION
  2
CLASSES
  0
CLASS
  1
ACDBDICTIONARYWDFLT
  2
AcDbDictionaryWithDefault
  3
ObjectDBX Classes
 90
        0
280
     0
281
     0
  0
CLASS
  1
VISUALSTYLE
  2
AcDbVisualStyle
  3
ObjectDBX Classes
 90
     4095
280
     0
281
     0
  0
CLASS
  1
MATERIAL
  2
AcDbMaterial
  3
ObjectDBX Classes
 90
     1153
280
     0
281
     0
  0
CLASS
  1
SCALE
  2
AcDbScale
  3
ObjectDBX Classes
 90
     1153
280
     0
281
     0
  0
CLASS
  1
TABLESTYLE
  2
AcDbTableStyle
  3
ObjectDBX Classes
 90
     4095
280
     0
281
     0
  0
CLASS
  1
MLEADERSTYLE
  2
AcDbMLeaderStyle
  3
ACDB_MLEADERSTYLE_CLASS
 90
     4095
280
     0
281
     0
  0
CLASS
  1
SUN
  2
AcDbSun
  3
SCENEOE
 90
     1153
280
     0
281
     0
  0
CLASS
  1
ACDBPLACEHOLDER
  2
AcDbPlaceHolder
  3
ObjectDBX Classes
 90
        0
280
     0
281
     0
  0
CLASS
  1
LAYOUT
  2
AcDbLayout
  3
ObjectDBX Classes
 90
        0
280
     0
281
     0
  0
ENDSEC
  0
SECTION
  2
TABLES
  0
TABLE
  2
VPORT
  5
8
330
0
100
AcDbSymbolTable
 70
     1
  0
VPORT
  5
29
330
8
100
AcDbSymbolTableRecord
100
AcDbViewportTableRecord
  2
*Active
 70
     0
 10
0.0
 20
0.0
 11
1.0
 21
1.0
 12
105.0
 22
148.5
 13
0.0
 23
0.0
 14
10.0
 24
10.0
 15
10.0
 25
10.0
 16
0.0
 26
0.0
 36
1.0
 17
0.0
 27
0.0
 37
0.0
 40
297.0
 41
0.7070707071
 42
50.0
 43
0.0
 44
0.0
 50
0.0
 51
0.0
 71
     0
 72
  2000
 73
     1
 74
     3
 75
     0
 76
     0
 77
     0
 78
     0
281
     0
 65
     1
110
0.0
120
0.0
130
0.0
111
1.0
121
0.0
131
0.0
112
0.0
122
1.0
132
0.0
 79
     0
146
0.0
  0
ENDTAB
  0
TABLE
  2
LTYPE
  5
5
330
0
100
AcDbSymbolTable
 70
     6
  0
LTYPE
  5
14
330
5
100
AcDbSymbolTableRecord
100
AcDbLinetypeTableRecord
  2
ByBlock
 70
     0
  3

 72
    65
 73
     0
 40
0.0
  0
LTYPE
  5
15
330
5
100
AcDbSymbolTableRecord
100
AcDbLinetypeTableRecord
  2
ByLayer
 70
     0
  3

 72
    65
 73
     0
 40
0.0
  0
LTYPE
  5
16
330
5
100
AcDbSymbolTableRecord
100
AcDbLinetypeTableRecord
  2
Continuous
 70
     0
  3
Solid line
 72
    65
 73
     0
 40
0.0
  0
LTYPE
  5
6E
330
5
100
AcDbSymbolTableRecord
100
AcDbLinetypeTableRecord
  2
HIDDEN
 70
     0
  3
Hidden __ __ __ __ __ __ __ __ __ __ __ __ __ __
 72
    65
 73
     2
 40
1.905
 49
1.27
 74
     0
 49
-0.635
 74
     0
  0
LTYPE
  5
6F
330
5
100
AcDbSymbolTableRecord
100
AcDbLinetypeTableRecord
  2
PHANTOM
 70
     0
  3
Phantom ______  __  __  ______  __  __  ______
 72
    65
 73
     6
 40
12.7
 49
6.35
 74
     0
 49
-1.27
 74
     0
 49
1.27
 74
     0
 49
-1.27
 74
     0
 49
1.27
 74
     0
 49
-1.27
 74
     0
  0
LTYPE
  5
70
330
5
100
AcDbSymbolTableRecord
100
AcDbLinetypeTableRecord
  2
CENTER
 70
     0
  3
Center ____ _ ____ _ ____ _ ____ _ ____ _ ____
 72
    65
 73
     4
 40
10.16
 49
6.35
 74
     0
 49
-1.27
 74
     0
 49
1.27
 74
     0
 49
-1.27
 74
     0
  0
LTYPE
  5
71
330
5
100
AcDbSymbolTableRecord
100
AcDbLinetypeTableRecord
  2
CENTERX2
 70
     0
  3
Center (2x) ________  __  ________  __  _____
 72
    65
 73
     4
 40
20.32
 49
12.7
 74
     0
 49
-2.54
 74
     0
 49
2.54
 74
     0
 49
-2.54
 74
     0
  0
LTYPE
  5
72
330
5
100
AcDbSymbolTableRecord
100
AcDbLinetypeTableRecord
  2
DOT2
 70
     0
  3
Dot (.5x) ........................................
 72
    65
 73
     2
 40
0.635
 49
0.0
 74
     0
 49
-0.635
 74
     0
  0
ENDTAB
  0
TABLE
  2
LAYER
  5
2
330
0
100
AcDbSymbolTable
 70
     1
  0
LAYER
  5
10
330
2
100
AcDbSymbolTableRecord
100
AcDbLayerTableRecord
  2
0
 70
     0
 62
     7
  6
Continuous
370
    -3
390
F
  0
ENDTAB
  0
TABLE
  2
STYLE
  5
3
330
0
100
AcDbSymbolTable
 70
     2
  0
STYLE
  5
11
330
3
100
AcDbSymbolTableRecord
100
AcDbTextStyleTableRecord
  2
Standard
 70
     0
 40
0.0
 41
1.0
 50
0.0
 71
     0
 42
3.5
  3
txt
  4
bigfont
  0
STYLE
  5
7B
330
3
100
AcDbSymbolTableRecord
100
AcDbTextStyleTableRecord
  2
SLDTEXTSTYLE0
 70
     0
 40
0.0
 41
0.7
 50
0.0
 71
     0
 42
3.5
  3
TXT
  4
bigfont
  0
ENDTAB
  0
TABLE
  2
VIEW
  5
6
330
0
100
AcDbSymbolTable
 70
     0
  0
ENDTAB
  0
TABLE
  2
UCS
  5
7
330
0
100
AcDbSymbolTable
 70
     0
  0
ENDTAB
  0
TABLE
  2
APPID
  5
9
330
0
100
AcDbSymbolTable
 70
     1
  0
APPID
  5
12
330
9
100
AcDbSymbolTableRecord
100
AcDbRegAppTableRecord
  2
ACAD
 70
     0
  0
ENDTAB
  0
TABLE
  2
DIMSTYLE
  5
A
330
0
100
AcDbSymbolTable
 70
     6
100
AcDbDimStyleTable
  0
DIMSTYLE
105
27
330
A
100
AcDbSymbolTableRecord
100
AcDbDimStyleTableRecord
  2
ISO-25
 70
     0
 41
2.5
 42
0.625
 43
3.75
 44
1.25
 73
     0
 74
     0
 77
     1
 78
     8
140
2.5
141
2.5
143
0.0393700787
147
0.625
171
     3
172
     1
178
     0
271
     2
272
     2
274
     3
278
    44
283
     0
284
     8
340
11
  0
DIMSTYLE
105
197
102
{ACAD_REACTORS
330
196
330
1D3
330
1DD
330
263
102
}
330
A
100
AcDbSymbolTableRecord
100
AcDbDimStyleTableRecord
  2
SLDDIMSTYLE0
 70
     0
 41
3.0
 44
0.0
 45
0.000000001
 73
     0
 74
     0
 77
     3
 78
    12
 79
     3
140
3.5
147
0.875
173
     1
178
     0
271
     1
272
     3
276
     2
284
    12
340
7B
  0
DIMSTYLE
105
1A2
102
{ACAD_REACTORS
330
1A1
330
1AE
330
1BB
330
1C7
330
200
330
20D
102
}
330
A
100
AcDbSymbolTableRecord
100
AcDbDimStyleTableRecord
  2
SLDDIMSTYLE1
 70
     0
 41
3.0
 44
0.0
 45
0.000000001
 73
     0
 74
     0
 77
     3
 78
    12
 79
     3
140
3.5
147
0.875
172
     1
173
     1
178
     0
271
     1
272
     3
276
     2
284
    12
289
     0
340
7B
  0
DIMSTYLE
105
1E8
102
{ACAD_REACTORS
330
1E7
102
}
330
A
100
AcDbSymbolTableRecord
100
AcDbDimStyleTableRecord
  2
SLDDIMSTYLE2
 70
     0
 41
3.0
 44
0.0
 45
0.000000001
 73
     0
 74
     0
 77
     3
 78
    12
 79
     3
140
3.5
147
0.875
173
     1
178
     0
271
     0
272
     3
276
     2
284
    12
340
7B
  0
DIMSTYLE
105
1F3
102
{ACAD_REACTORS
330
1F2
102
}
330
A
100
AcDbSymbolTableRecord
100
AcDbDimStyleTableRecord
  2
SLDDIMSTYLE3
 70
     0
 41
3.0
 44
0.0
 45
0.000000001
 73
     0
 74
     0
 77
     3
 78
    12
 79
     3
140
3.5
147
0.875
172
     1
173
     1
178
     0
271
     0
272
     3
276
     2
284
    12
289
     0
340
7B
  0
DIMSTYLE
105
220
330
A
100
AcDbSymbolTableRecord
100
AcDbDimStyleTableRecord
  2
SLDDIMSTYLE4
 70
     0
 41
3.0
 44
0.0
 45
0.000000001
146
3.0
147
0.0
173
     1
178
     0
271
     0
272
     0
276
     2
340
11
  0
ENDTAB
  0
TABLE
  2
BLOCK_RECORD
  5
1
330
0
100
AcDbSymbolTable
 70
    16
  0
BLOCK_RECORD
  5
1F
330
1
100
AcDbSymbolTableRecord
100
AcDbBlockTableRecord
  2
*Model_Space
340
22
  0
BLOCK_RECORD
  5
1B
330
1
100
AcDbSymbolTableRecord
100
AcDbBlockTableRecord
  2
*Paper_Space
340
1E
  0
BLOCK_RECORD
  5
23
330
1
100
AcDbSymbolTableRecord
100
AcDbBlockTableRecord
  2
*Paper_Space0
340
26
  0
BLOCK_RECORD
  5
198
330
1
100
AcDbSymbolTableRecord
100
AcDbBlockTableRecord
  2
_D
340
0
  0
BLOCK_RECORD
  5
1A3
330
1
100
AcDbSymbolTableRecord
100
AcDbBlockTableRecord
  2
_D_1
340
0
  0
BLOCK_RECORD
  5
1AF
330
1
100
AcDbSymbolTableRecord
100
AcDbBlockTableRecord
  2
_D_2
340
0
  0
BLOCK_RECORD
  5
1BC
330
1
100
AcDbSymbolTableRecord
100
AcDbBlockTableRecord
  2
_D_3
340
0
  0
BLOCK_RECORD
  5
1C8
330
1
100
AcDbSymbolTableRecord
100
AcDbBlockTableRecord
  2
_D_4
340
0
  0
BLOCK_RECORD
  5
1D4
330
1
100
AcDbSymbolTableRecord
100
AcDbBlockTableRecord
  2
_D_5
340
0
  0
BLOCK_RECORD
  5
1DE
330
1
100
AcDbSymbolTableRecord
100
AcDbBlockTableRecord
  2
_D_6
340
0
  0
BLOCK_RECORD
  5
1E9
330
1
100
AcDbSymbolTableRecord
100
AcDbBlockTableRecord
  2
_D_7
340
0
  0
BLOCK_RECORD
  5
1F4
330
1
100
AcDbSymbolTableRecord
100
AcDbBlockTableRecord
  2
_D_8
340
0
  0
BLOCK_RECORD
  5
201
330
1
100
AcDbSymbolTableRecord
100
AcDbBlockTableRecord
  2
_D_9
340
0
  0
BLOCK_RECORD
  5
20E
330
1
100
AcDbSymbolTableRecord
100
AcDbBlockTableRecord
  2
_D_10
340
0
  0
BLOCK_RECORD
  5
21A
330
1
100
AcDbSymbolTableRecord
100
AcDbBlockTableRecord
  2
SW_NOTE_0
340
0
102
{BLKREFS
331
21F
102
}
  0
BLOCK_RECORD
  5
264
330
1
100
AcDbSymbolTableRecord
100
AcDbBlockTableRecord
  2
_D_11
340
0
  0
BLOCK_RECORD
  5
26D
330
1
100
AcDbSymbolTableRecord
100
AcDbBlockTableRecord
  2
SW_NOTE_1
340
0
102
{BLKREFS
331
272
102
}
  0
BLOCK_RECORD
  5
274
330
1
100
AcDbSymbolTableRecord
100
AcDbBlockTableRecord
  2
SW_CENTERMARKSYMBOL_0
340
0
102
{BLKREFS
331
27F
102
}
  0
ENDTAB
  0
ENDSEC
  0
SECTION
  2
BLOCKS
  0
BLOCK
  5
20
330
1F
100
AcDbEntity
  8
0
100
AcDbBlockBegin
  2
*Model_Space
 70
     0
 10
0.0
 20
0.0
 30
0.0
  3
*Model_Space
  1

  0
ENDBLK
  5
21
330
1F
100
AcDbEntity
  8
0
100
AcDbBlockEnd
  0
BLOCK
  5
1C
330
1B
100
AcDbEntity
 67
     1
  8
0
100
AcDbBlockBegin
  2
*Paper_Space
 70
     0
 10
0.0
 20
0.0
 30
0.0
  3
*Paper_Space
  1

  0
ENDBLK
  5
1D
330
1B
100
AcDbEntity
 67
     1
  8
0
100
AcDbBlockEnd
  0
BLOCK
  5
24
330
23
100
AcDbEntity
  8
0
100
AcDbBlockBegin
  2
*Paper_Space0
 70
     0
 10
0.0
 20
0.0
 30
0.0
  3
*Paper_Space0
  1

  0
ENDBLK
  5
25
330
23
100
AcDbEntity
  8
0
100
AcDbBlockEnd
  0
BLOCK
  5
199
330
198
100
AcDbEntity
  8
0
100
AcDbBlockBegin
  2
_D
 70
     0
 10
0.0
 20
0.0
 30
0.0
  3
_D
  1

  0
SOLID
  5
19B
330
198
100
AcDbEntity
  8
0
  6
Continuous
 62
     7
370
    18
100
AcDbTrace
 10
116.0827538305
 20
95.682354089
 30
0.0
 11
119.0827538305
 21
94.932354089
 31
0.0
 12
119.0827538305
 22
96.432354089
 32
0.0
 13
119.0827538305
 23
96.432354089
 33
0.0
  0
SOLID
  5
19C
330
198
100
AcDbEntity
  8
0
  6
Continuous
 62
     7
370
    18
100
AcDbTrace
 10
165.5827538305
 20
95.682354089
 30
0.0
 11
162.5827538305
 21
96.432354089
 31
0.0
 12
162.5827538305
 22
94.932354089
 32
0.0
 13
162.5827538305
 23
94.932354089
 33
0.0
  0
LINE
  5
19D
330
198
100
AcDbEntity
  8
0
  6
Continuous
 62
     7
370
    18
100
AcDbLine
 10
116.0827538305
 20
135.8327982293
 30
0.0
 11
116.0827538305
 21
94.682354089
 31
0.0
  0
LINE
  5
19E
330
198
100
AcDbEntity
  8
0
  6
Continuous
 62
     7
370
    18
100
AcDbLine
 10
165.5827538305
 20
137.0327982293
 30
0.0
 11
165.5827538305
 21
94.682354089
 31
0.0
  0
LINE
  5
19F
330
198
100
AcDbEntity
  8
0
  6
Continuous
 62
     7
370
    18
100
AcDbLine
 10
116.0827538305
 20
95.682354089
 30
0.0
 11
165.5827538305
 21
95.682354089
 31
0.0
  0
MTEXT
  5
1A0
330
198
100
AcDbEntity
  8
0
  6
Continuous
 62
     7
370
    18
100
AcDbMText
 10
136.7591428355
 20
100.1940909454
 30
0.0
 40
3.5
 41
0.0
 71
     1
 72
     1
  1
49.5
  7
SLDTEXTSTYLE0
 73
     1
 44
1.0
  0
ENDBLK
  5
19A
330
198
100
AcDbEntity
  8
0
100
AcDbBlockEnd
  0
BLOCK
  5
1A4
330
1A3
100
AcDbEntity
  8
0
100
AcDbBlockBegin
  2
_D_1
 70
     0
 10
0.0
 20
0.0
 30
0.0
  3
_D_1
  1

  0
SOLID
  5
1A6
330
1A3
100
AcDbEntity
  8
0
  6
Continuous
 62
     7
370
    18
100
AcDbTrace
 10
121.5827538305
 20
161.2515450589
 30
0.0
 11
124.5827538305
 21
160.5015450589
 31
0.0
 12
124.5827538305
 22
162.0015450589
 32
0.0
 13
124.5827538305
 23
162.0015450589
 33
0.0
  0
SOLID
  5
1A7
330
1A3
100
AcDbEntity
  8
0
  6
Continuous
 62
     7
370
    18
100
AcDbTrace
 10
116.0827538305
 20
161.2515450589
 30
0.0
 11
113.0827538305
 21
162.0015450589
 31
0.0
 12
113.0827538305
 22
160.5015450589
 32
0.0
 13
113.0827538305
 23
160.5015450589
 33
0.0
  0
LINE
  5
1A8
330
1A3
100
AcDbEntity
  8
0
  6
Continuous
 62
     7
370
    18
100
AcDbLine
 10
121.5827538305
 20
145.7327982293
 30
0.0
 11
121.5827538305
 21
162.2515450589
 31
0.0
  0
LINE
  5
1A9
330
1A3
100
AcDbEntity
  8
0
  6
Continuous
 62
     7
370
    18
100
AcDbLine
 10
116.0827538305
 20
144.2327982293
 30
0.0
 11
116.0827538305
 21
162.2515450589
 31
0.0
  0
LINE
  5
1AA
330
1A3
100
AcDbEntity
  8
0
  6
Continuous
 62
     7
370
    18
100
AcDbLine
 10
121.5827538305
 20
161.2515450589
 30
0.0
 11
131.4986431715
 21
161.2515450589
 31
0.0
  0
LINE
  5
1AB
330
1A3
100
AcDbEntity
  8
0
  6
Continuous
 62
     7
370
    18
100
AcDbLine
 10
121.5827538305
 20
161.2515450589
 30
0.0
 11
116.0827538305
 21
161.2515450589
 31
0.0
  0
LINE
  5
1AC
330
1A3
100
AcDbEntity
  8
0
  6
Continuous
 62
     7
370
    18
100
AcDbLine
 10
116.0827538305
 20
161.2515450589
 30
0.0
 11
111.0827538305
 21
161.2515450589
 31
0.0
  0
MTEXT
  5
1AD
330
1A3
100
AcDbEntity
  8
0
  6
Continuous
 62
     7
370
    18
100
AcDbMText
 10
125.3882264462
 20
165.7632819152
 30
0.0
 40
3.5
 41
0.0
 71
     1
 72
     1
  1
5.5
  7
SLDTEXTSTYLE0
 73
     1
 44
1.0
  0
ENDBLK
  5
1A5
330
1A3
100
AcDbEntity
  8
0
100
AcDbBlockEnd
  0
BLOCK
  5
1B0
330
1AF
100
AcDbEntity
  8
0
100
AcDbBlockBegin
  2
_D_2
 70
     0
 10
0.0
 20
0.0
 30
0.0
  3
_D_2
  1

  0
SOLID
  5
1B2
330
1AF
100
AcDbEntity
  8
0
  6
Continuous
 62
     7
370
    18
100
AcDbTrace
 10
131.5827538305
 20
107.9039743445
 30
0.0
 11
128.5827538305
 21
108.6539743445
 31
0.0
 12
128.5827538305
 22
107.1539743445
 32
0.0
 13
128.5827538305
 23
107.1539743445
 33
0.0
  0
SOLID
  5
1B3
330
1AF
100
AcDbEntity
  8
0
  6
Continuous
 62
     7
370
    18
100
AcDbTrace
 10
141.5827538305
 20
107.9039743445
 30
0.0
 11
144.5827538305
 21
107.1539743445
 31
0.0
 12
144.5827538305
 22
108.6539743445
 32
0.0
 13
144.5827538305
 23
108.6539743445
 33
0.0
  0
LINE
  5
1B4
330
1AF
100
AcDbEntity
  8
0
  6
Continuous
 62
     7
370
    18
100
AcDbLine
 10
131.5827538305
 20
135.5827982293
 30
0.0
 11
131.5827538305
 21
106.9039743445
 31
0.0
  0
LINE
  5
1B5
330
1AF
100
AcDbEntity
  8
0
  6
Continuous
 62
     7
370
    18
100
AcDbLine
 10
141.5827538305
 20
135.7827982293
 30
0.0
 11
141.5827538305
 21
106.9039743445
 31
0.0
  0
LINE
  5
1B6
330
1AF
100
AcDbEntity
  8
0
  6
Continuous
 62
     7
370
    18
100
AcDbLine
 10
131.5827538305
 20
107.9039743445
 30
0.0
 11
126.5827538305
 21
107.9039743445
 31
0.0
  0
LINE
  5
1B7
330
1AF
100
AcDbEntity
  8
0
  6
Continuous
 62
     7
370
    18
100
AcDbLine
 10
131.5827538305
 20
107.9039743445
 30
0.0
 11
141.5827538305
 21
107.9039743445
 31
0.0
  0
LINE
  5
1B8
330
1AF
100
AcDbEntity
  8
0
  6
Continuous
 62
     7
370
    18
100
AcDbLine
 10
141.5827538305
 20
107.9039743445
 30
0.0
 11
152.7727612088
 21
107.9039743445
 31
0.0
  0
MTEXT
  5
1B9
330
1AF
100
AcDbEntity
  8
0
  6
Continuous
 62
     7
370
    18
100
AcDbMText
 10
144.6255392189
 20
112.4157112009
 30
0.0
 40
3.5
 41
0.0
 71
     1
 72
     1
  1
10
  7
SLDTEXTSTYLE0
 73
     1
 44
1.0
  0
MTEXT
  5
1BA
330
1AF
100
AcDbEntity
  8
0
  6
Continuous
 62
     7
370
    18
100
AcDbMText
 10
148.6991502139
 20
112.4157112009
 30
0.0
 40
3.5
 41
0.0
 71
     1
 72
     1
  1
st
  7
SLDTEXTSTYLE0
 73
     1
 44
1.0
  0
ENDBLK
  5
1B1
330
1AF
100
AcDbEntity
  8
0
100
AcDbBlockEnd
  0
BLOCK
  5
1BD
330
1BC
100
AcDbEntity
  8
0
100
AcDbBlockBegin
  2
_D_3
 70
     0
 10
0.0
 20
0.0
 30
0.0
  3
_D_3
  1

  0
SOLID
  5
1BF
330
1BC
100
AcDbEntity
  8
0
  6
Continuous
 62
     7
370
    18
100
AcDbTrace
 10
143.5827538305
 20
119.0780271495
 30
0.0
 11
140.5827538305
 21
119.8280271495
 31
0.0
 12
140.5827538305
 22
118.3280271495
 32
0.0
 13
140.5827538305
 23
118.3280271495
 33
0.0
  0
SOLID
  5
1C0
330
1BC
100
AcDbEntity
  8
0
  6
Continuous
 62
     7
370
    18
100
AcDbTrace
 10
146.5827538305
 20
119.0780271495
 30
0.0
 11
149.5827538305
 21
118.3280271495
 31
0.0
 12
149.5827538305
 22
119.8280271495
 32
0.0
 13
149.5827538305
 23
119.8280271495
 33
0.0
  0
LINE
  5
1C1
330
1BC
100
AcDbEntity
  8
0
  6
Continuous
 62
     7
370
    18
100
AcDbLine
 10
143.5827538305
 20
131.5272467459
 30
0.0
 11
143.5827538305
 21
118.0780271495
 31
0.0
  0
LINE
  5
1C2
330
1BC
100
AcDbEntity
  8
0
  6
Continuous
 62
     7
370
    18
100
AcDbLine
 10
146.5827538305
 20
131.5272467459
 30
0.0
 11
146.5827538305
 21
118.0780271495
 31
0.0
  0
LINE
  5
1C3
330
1BC
100
AcDbEntity
  8
0
  6
Continuous
 62
     7
370
    18
100
AcDbLine
 10
143.5827538305
 20
119.0780271495
 30
0.0
 11
138.5827538305
 21
119.0780271495
 31
0.0
  0
LINE
  5
1C4
330
1BC
100
AcDbEntity
  8
0
  6
Continuous
 62
     7
370
    18
100
AcDbLine
 10
143.5827538305
 20
119.0780271495
 30
0.0
 11
146.5827538305
 21
119.0780271495
 31
0.0
  0
LINE
  5
1C5
330
1BC
100
AcDbEntity
  8
0
  6
Continuous
 62
     7
370
    18
100
AcDbLine
 10
146.5827538305
 20
119.0780271495
 30
0.0
 11
152.7593538672
 21
119.0780271495
 31
0.0
  0
MTEXT
  5
1C6
330
1BC
100
AcDbEntity
  8
0
  6
Continuous
 62
     7
370
    18
100
AcDbMText
 10
150.7225483697
 20
123.5897640059
 30
0.0
 40
3.5
 41
0.0
 71
     1
 72
     1
  1
3
  7
SLDTEXTSTYLE0
 73
     1
 44
1.0
  0
ENDBLK
  5
1BE
330
1BC
100
AcDbEntity
  8
0
100
AcDbBlockEnd
  0
BLOCK
  5
1C9
330
1C8
100
AcDbEntity
  8
0
100
AcDbBlockBegin
  2
_D_4
 70
     0
 10
0.0
 20
0.0
 30
0.0
  3
_D_4
  1

  0
SOLID
  5
1CB
330
1C8
100
AcDbEntity
  8
0
  6
Continuous
 62
     7
370
    18
100
AcDbTrace
 10
146.5827538305
 20
161.2515450589
 30
0.0
 11
149.5827538305
 21
160.5015450589
 31
0.0
 12
149.5827538305
 22
162.0015450589
 32
0.0
 13
149.5827538305
 23
162.0015450589
 33
0.0
  0
SOLID
  5
1CC
330
1C8
100
AcDbEntity
  8
0
  6
Continuous
 62
     7
370
    18
100
AcDbTrace
 10
141.5827538305
 20
161.2515450589
 30
0.0
 11
138.5827538305
 21
162.0015450589
 31
0.0
 12
138.5827538305
 22
160.5015450589
 32
0.0
 13
138.5827538305
 23
160.5015450589
 33
0.0
  0
LINE
  5
1CD
330
1C8
100
AcDbEntity
  8
0
  6
Continuous
 62
     7
370
    18
100
AcDbLine
 10
146.5827538305
 20
148.5383497126
 30
0.0
 11
146.5827538305
 21
162.2515450589
 31
0.0
  0
LINE
  5
1CE
330
1C8
100
AcDbEntity
  8
0
  6
Continuous
 62
     7
370
    18
100
AcDbLine
 10
141.5827538305
 20
144.2827982293
 30
0.0
 11
141.5827538305
 21
162.2515450589
 31
0.0
  0
LINE
  5
1CF
330
1C8
100
AcDbEntity
  8
0
  6
Continuous
 62
     7
370
    18
100
AcDbLine
 10
146.5827538305
 20
161.2515450589
 30
0.0
 11
151.5827538305
 21
161.2515450589
 31
0.0
  0
LINE
  5
1D0
330
1C8
100
AcDbEntity
  8
0
  6
Continuous
 62
     7
370
    18
100
AcDbLine
 10
146.5827538305
 20
161.2515450589
 30
0.0
 11
141.5827538305
 21
161.2515450589
 31
0.0
  0
LINE
  5
1D1
330
1C8
100
AcDbEntity
  8
0
  6
Continuous
 62
     7
370
    18
100
AcDbLine
 10
141.5827538305
 20
161.2515450589
 30
0.0
 11
136.5827538305
 21
161.2515450589
 31
0.0
  0
MTEXT
  5
1D2
330
1C8
100
AcDbEntity
  8
0
  6
Continuous
 62
     7
370
    18
100
AcDbMText
 10
143.0643510817
 20
165.7632819152
 30
0.0
 40
3.5
 41
0.0
 71
     1
 72
     1
  1
5
  7
SLDTEXTSTYLE0
 73
     1
 44
1.0
  0
ENDBLK
  5
1CA
330
1C8
100
AcDbEntity
  8
0
100
AcDbBlockEnd
  0
BLOCK
  5
1D5
330
1D4
100
AcDbEntity
  8
0
100
AcDbBlockBegin
  2
_D_5
 70
     0
 10
0.0
 20
0.0
 30
0.0
  3
_D_5
  1

  0
SOLID
  5
1D7
330
1D4
100
AcDbEntity
  8
0
  6
Continuous
 62
     7
370
    18
100
AcDbTrace
 10
146.5827538305
 20
161.2515450589
 30
0.0
 11
149.5827538305
 21
160.5015450589
 31
0.0
 12
149.5827538305
 22
162.0015450589
 32
0.0
 13
149.5827538305
 23
162.0015450589
 33
0.0
  0
SOLID
  5
1D8
330
1D4
100
AcDbEntity
  8
0
  6
Continuous
 62
     7
370
    18
100
AcDbTrace
 10
163.5827538305
 20
161.2515450589
 30
0.0
 11
160.5827538305
 21
162.0015450589
 31
0.0
 12
160.5827538305
 22
160.5015450589
 32
0.0
 13
160.5827538305
 23
160.5015450589
 33
0.0
  0
LINE
  5
1D9
330
1D4
100
AcDbEntity
  8
0
  6
Continuous
 62
     7
370
    18
100
AcDbLine
 10
146.5827538305
 20
148.5383497126
 30
0.0
 11
146.5827538305
 21
162.2515450589
 31
0.0
  0
LINE
  5
1DA
330
1D4
100
AcDbEntity
  8
0
  6
Continuous
 62
     7
370
    18
100
AcDbLine
 10
163.5827538305
 20
145.0327982293
 30
0.0
 11
163.5827538305
 21
162.2515450589
 31
0.0
  0
LINE
  5
1DB
330
1D4
100
AcDbEntity
  8
0
  6
Continuous
 62
     7
370
    18
100
AcDbLine
 10
146.5827538305
 20
161.2515450589
 30
0.0
 11
163.5827538305
 21
161.2515450589
 31
0.0
  0
MTEXT
  5
1DC
330
1D4
100
AcDbEntity
  8
0
  6
Continuous
 62
     7
370
    18
100
AcDbMText
 10
153.045948333
 20
165.7632819152
 30
0.0
 40
3.5
 41
0.0
 71
     1
 72
     1
  1
17
  7
SLDTEXTSTYLE0
 73
     1
 44
1.0
  0
ENDBLK
  5
1D6
330
1D4
100
AcDbEntity
  8
0
100
AcDbBlockEnd
  0
BLOCK
  5
1DF
330
1DE
100
AcDbEntity
  8
0
100
AcDbBlockBegin
  2
_D_6
 70
     0
 10
0.0
 20
0.0
 30
0.0
  3
_D_6
  1

  0
SOLID
  5
1E1
330
1DE
100
AcDbEntity
  8
0
  6
Continuous
 62
     7
370
    18
100
AcDbTrace
 10
146.5827538305
 20
173.0146549002
 30
0.0
 11
149.5827538305
 21
172.2646549002
 31
0.0
 12
149.5827538305
 22
173.7646549002
 32
0.0
 13
149.5827538305
 23
173.7646549002
 33
0.0
  0
SOLID
  5
1E2
330
1DE
100
AcDbEntity
  8
0
  6
Continuous
 62
     7
370
    18
100
AcDbTrace
 10
165.5827538305
 20
173.0146549002
 30
0.0
 11
162.5827538305
 21
173.7646549002
 31
0.0
 12
162.5827538305
 22
172.2646549002
 32
0.0
 13
162.5827538305
 23
172.2646549002
 33
0.0
  0
LINE
  5
1E3
330
1DE
100
AcDbEntity
  8
0
  6
Continuous
 62
     7
370
    18
100
AcDbLine
 10
146.5827538305
 20
148.5383497126
 30
0.0
 11
146.5827538305
 21
174.0146549002
 31
0.0
  0
LINE
  5
1E4
330
1DE
100
AcDbEntity
  8
0
  6
Continuous
 62
     7
370
    18
100
AcDbLine
 10
165.5827538305
 20
143.0327982293
 30
0.0
 11
165.5827538305
 21
174.0146549002
 31
0.0
  0
LINE
  5
1E5
330
1DE
100
AcDbEntity
  8
0
  6
Continuous
 62
     7
370
    18
100
AcDbLine
 10
146.5827538305
 20
173.0146549002
 30
0.0
 11
165.5827538305
 21
173.0146549002
 31
0.0
  0
MTEXT
  5
1E6
330
1DE
100
AcDbEntity
  8
0
  6
Continuous
 62
     7
370
    18
100
AcDbMText
 10
154.045948333
 20
177.5263917565
 30
0.0
 40
3.5
 41
0.0
 71
     1
 72
     1
  1
19
  7
SLDTEXTSTYLE0
 73
     1
 44
1.0
  0
ENDBLK
  5
1E0
330
1DE
100
AcDbEntity
  8
0
100
AcDbBlockEnd
  0
BLOCK
  5
1EA
330
1E9
100
AcDbEntity
  8
0
100
AcDbBlockBegin
  2
_D_7
 70
     0
 10
0.0
 20
0.0
 30
0.0
  3
_D_7
  1

  0
SOLID
  5
1EC
330
1E9
100
AcDbEntity
  8
0
  6
Continuous
 62
     7
370
    18
100
AcDbTrace
 10
181.5827538305
 20
148.1157019979
 30
0.0
 11
180.8327538305
 21
145.1157019979
 31
0.0
 12
182.3327538305
 22
145.1157019979
 32
0.0
 13
182.3327538305
 23
145.1157019979
 33
0.0
  0
SOLID
  5
1ED
330
1E9
100
AcDbEntity
  8
0
  6
Continuous
 62
     7
370
    18
100
AcDbTrace
 10
181.5827538305
 20
131.9498944606
 30
0.0
 11
182.3327538305
 21
134.9498944606
 31
0.0
 12
180.8327538305
 22
134.9498944606
 32
0.0
 13
180.8327538305
 23
134.9498944606
 33
0.0
  0
LINE
  5
1EE
330
1E9
100
AcDbEntity
  8
0
  6
Continuous
 62
     7
370
    18
100
AcDbLine
 10
159.1298372272
 20
148.1157019979
 30
0.0
 11
182.5827538305
 21
148.1157019979
 31
0.0
  0
LINE
  5
1EF
330
1E9
100
AcDbEntity
  8
0
  6
Continuous
 62
     7
370
    18
100
AcDbLine
 10
159.1298372272
 20
131.9498944606
 30
0.0
 11
182.5827538305
 21
131.9498944606
 31
0.0
  0
LINE
  5
1F0
330
1E9
100
AcDbEntity
  8
0
  6
Continuous
 62
     7
370
    18
100
AcDbLine
 10
181.5827538305
 20
148.1157019979
 30
0.0
 11
181.5827538305
 21
131.9498944606
 31
0.0
  0
MTEXT
  5
1F1
330
1E9
100
AcDbEntity
  8
0
  6
Continuous
 62
     7
370
    18
100
AcDbMText
 10
177.0710169741
 20
137.9959927318
 30
0.0
 40
3.5
 41
0.0
 71
     1
 72
     1
  1
16
  7
SLDTEXTSTYLE0
 11
-7.044195017643634E-15
 21
1.0
 31
0.0
 73
     1
 44
1.0
  0
ENDBLK
  5
1EB
330
1E9
100
AcDbEntity
  8
0
100
AcDbBlockEnd
  0
BLOCK
  5
1F5
330
1F4
100
AcDbEntity
  8
0
100
AcDbBlockBegin
  2
_D_8
 70
     0
 10
0.0
 20
0.0
 30
0.0
  3
_D_8
  1

  0
SOLID
  5
1F7
330
1F4
100
AcDbEntity
  8
0
  6
Continuous
 62
     7
370
    18
100
AcDbTrace
 10
174.1808940425
 20
142.4327982293
 30
0.0
 11
174.9308940425
 21
145.4327982293
 31
0.0
 12
173.4308940425
 22
145.4327982293
 32
0.0
 13
173.4308940425
 23
145.4327982293
 33
0.0
  0
SOLID
  5
1F8
330
1F4
100
AcDbEntity
  8
0
  6
Continuous
 62
     7
370
    18
100
AcDbTrace
 10
174.1808940425
 20
137.6327982293
 30
0.0
 11
173.4308940425
 21
134.6327982293
 31
0.0
 12
174.9308940425
 22
134.6327982293
 32
0.0
 13
174.9308940425
 23
134.6327982293
 33
0.0
  0
LINE
  5
1F9
330
1F4
100
AcDbEntity
  8
0
  6
Continuous
 62
     7
370
    18
100
AcDbLine
 10
166.0827538305
 20
142.4327982293
 30
0.0
 11
175.1808940425
 21
142.4327982293
 31
0.0
  0
LINE
  5
1FA
330
1F4
100
AcDbEntity
  8
0
  6
Continuous
 62
     7
370
    18
100
AcDbLine
 10
166.0827538305
 20
137.6327982293
 30
0.0
 11
175.1808940425
 21
137.6327982293
 31
0.0
  0
LINE
  5
1FB
330
1F4
100
AcDbEntity
  8
0
  6
Continuous
 62
     7
370
    18
100
AcDbLine
 10
174.1808940425
 20
142.4327982293
 30
0.0
 11
174.1808940425
 21
156.393859295
 31
0.0
  0
LINE
  5
1FC
330
1F4
100
AcDbEntity
  8
0
  6
Continuous
 62
     7
370
    18
100
AcDbLine
 10
174.1808940425
 20
142.4327982293
 30
0.0
 11
174.1808940425
 21
137.6327982293
 31
0.0
  0
LINE
  5
1FD
330
1F4
100
AcDbEntity
  8
0
  6
Continuous
 62
     7
370
    18
100
AcDbLine
 10
174.1808940425
 20
137.6327982293
 30
0.0
 11
174.1808940425
 21
132.6327982293
 31
0.0
  0
MTEXT
  5
1FE
330
1F4
100
AcDbEntity
  8
0
  6
Continuous
 62
     7
370
    18
100
AcDbMText
 10
169.6691567205
 20
150.4871232824
 30
0.0
 40
3.5
 41
0.0
 71
     1
 72
     1
  1
%%c
  7
SLDTEXTSTYLE0
 11
-7.044195017643634E-15
 21
1.0
 31
0.0
 73
     1
 44
1.0
  0
MTEXT
  5
1FF
330
1F4
100
AcDbEntity
  8
0
  6
Continuous
 62
     7
370
    18
100
AcDbMText
 10
169.6691567205
 20
154.3570537975
 30
0.0
 40
3.5
 41
0.0
 71
     1
 72
     1
  1
5
  7
SLDTEXTSTYLE0
 11
-7.044195017643634E-15
 21
1.0
 31
0.0
 73
     1
 44
1.0
  0
ENDBLK
  5
1F6
330
1F4
100
AcDbEntity
  8
0
100
AcDbBlockEnd
  0
BLOCK
  5
202
330
201
100
AcDbEntity
  8
0
100
AcDbBlockBegin
  2
_D_9
 70
     0
 10
0.0
 20
0.0
 30
0.0
  3
_D_9
  1

  0
SOLID
  5
204
330
201
100
AcDbEntity
  8
0
  6
Continuous
 62
     7
370
    18
100
AcDbTrace
 10
108.0607096861
 20
143.5327982293
 30
0.0
 11
108.8107096861
 21
146.5327982293
 31
0.0
 12
107.3107096861
 22
146.5327982293
 32
0.0
 13
107.3107096861
 23
146.5327982293
 33
0.0
  0
SOLID
  5
205
330
201
100
AcDbEntity
  8
0
  6
Continuous
 62
     7
370
    18
100
AcDbTrace
 10
108.0607096861
 20
136.5327982293
 30
0.0
 11
107.3107096861
 21
133.5327982293
 31
0.0
 12
108.8107096861
 22
133.5327982293
 32
0.0
 13
108.8107096861
 23
133.5327982293
 33
0.0
  0
LINE
  5
206
330
201
100
AcDbEntity
  8
0
  6
Continuous
 62
     7
370
    18
100
AcDbLine
 10
115.3827538305
 20
143.5327982293
 30
0.0
 11
107.0607096861
 21
143.5327982293
 31
0.0
  0
LINE
  5
207
330
201
100
AcDbEntity
  8
0
  6
Continuous
 62
     7
370
    18
100
AcDbLine
 10
115.3827538305
 20
136.5327982293
 30
0.0
 11
107.0607096861
 21
136.5327982293
 31
0.0
  0
LINE
  5
208
330
201
100
AcDbEntity
  8
0
  6
Continuous
 62
     7
370
    18
100
AcDbLine
 10
108.0607096861
 20
143.5327982293
 30
0.0
 11
108.0607096861
 21
148.5327982293
 31
0.0
  0
LINE
  5
209
330
201
100
AcDbEntity
  8
0
  6
Continuous
 62
     7
370
    18
100
AcDbLine
 10
108.0607096861
 20
143.5327982293
 30
0.0
 11
108.0607096861
 21
136.5327982293
 31
0.0
  0
LINE
  5
20A
330
201
100
AcDbEntity
  8
0
  6
Continuous
 62
     7
370
    18
100
AcDbLine
 10
108.0607096861
 20
136.5327982293
 30
0.0
 11
108.0607096861
 21
131.5327982293
 31
0.0
  0
MTEXT
  5
20B
330
201
100
AcDbEntity
  8
0
  6
Continuous
 62
     7
370
    18
100
AcDbMText
 10
103.5489723641
 20
137.079430223
 30
0.0
 40
3.5
 41
0.0
 71
     1
 72
     1
  1
%%c
  7
SLDTEXTSTYLE0
 11
-7.044195017643634E-15
 21
1.0
 31
0.0
 73
     1
 44
1.0
  0
MTEXT
  5
20C
330
201
100
AcDbEntity
  8
0
  6
Continuous
 62
     7
370
    18
100
AcDbMText
 10
103.5489723641
 20
140.949360738
 30
0.0
 40
3.5
 41
0.0
 71
     1
 72
     1
  1
7
  7
SLDTEXTSTYLE0
 11
-7.044195017643634E-15
 21
1.0
 31
0.0
 73
     1
 44
1.0
  0
ENDBLK
  5
203
330
201
100
AcDbEntity
  8
0
100
AcDbBlockEnd
  0
BLOCK
  5
20F
330
20E
100
AcDbEntity
  8
0
100
AcDbBlockBegin
  2
_D_10
 70
     0
 10
0.0
 20
0.0
 30
0.0
  3
_D_10
  1

  0
SOLID
  5
211
330
20E
100
AcDbEntity
  8
0
  6
Continuous
 62
     7
370
    18
100
AcDbTrace
 10
97.3812873915
 20
145.0327982293
 30
0.0
 11
98.1312873915
 21
148.0327982293
 31
0.0
 12
96.6312873915
 22
148.0327982293
 32
0.0
 13
96.6312873915
 23
148.0327982293
 33
0.0
  0
SOLID
  5
212
330
20E
100
AcDbEntity
  8
0
  6
Continuous
 62
     7
370
    18
100
AcDbTrace
 10
97.3812873915
 20
135.0327982293
 30
0.0
 11
96.6312873915
 21
132.0327982293
 31
0.0
 12
98.1312873915
 22
132.0327982293
 32
0.0
 13
98.1312873915
 23
132.0327982293
 33
0.0
  0
LINE
  5
213
330
20E
100
AcDbEntity
  8
0
  6
Continuous
 62
     7
370
    18
100
AcDbLine
 10
120.8827538305
 20
145.0327982293
 30
0.0
 11
96.3812873915
 21
145.0327982293
 31
0.0
  0
LINE
  5
214
330
20E
100
AcDbEntity
  8
0
  6
Continuous
 62
     7
370
    18
100
AcDbLine
 10
120.8827538305
 20
135.0327982293
 30
0.0
 11
96.3812873915
 21
135.0327982293
 31
0.0
  0
LINE
  5
215
330
20E
100
AcDbEntity
  8
0
  6
Continuous
 62
     7
370
    18
100
AcDbLine
 10
97.3812873915
 20
145.0327982293
 30
0.0
 11
97.3812873915
 21
150.0327982293
 31
0.0
  0
LINE
  5
216
330
20E
100
AcDbEntity
  8
0
  6
Continuous
 62
     7
370
    18
100
AcDbLine
 10
97.3812873915
 20
145.0327982293
 30
0.0
 11
97.3812873915
 21
135.0327982293
 31
0.0
  0
LINE
  5
217
330
20E
100
AcDbEntity
  8
0
  6
Continuous
 62
     7
370
    18
100
AcDbLine
 10
97.3812873915
 20
135.0327982293
 30
0.0
 11
97.3812873915
 21
130.0327982293
 31
0.0
  0
MTEXT
  5
218
330
20E
100
AcDbEntity
  8
0
  6
Continuous
 62
     7
370
    18
100
AcDbMText
 10
92.8695500694
 20
136.0610273578
 30
0.0
 40
3.5
 41
0.0
 71
     1
 72
     1
  1
%%c
  7
SLDTEXTSTYLE0
 11
-7.044195017643634E-15
 21
1.0
 31
0.0
 73
     1
 44
1.0
  0
MTEXT
  5
219
330
20E
100
AcDbEntity
  8
0
  6
Continuous
 62
     7
370
    18
100
AcDbMText
 10
92.8695500694
 20
139.9309578729
 30
0.0
 40
3.5
 41
0.0
 71
     1
 72
     1
  1
10
  7
SLDTEXTSTYLE0
 11
-7.044195017643634E-15
 21
1.0
 31
0.0
 73
     1
 44
1.0
  0
ENDBLK
  5
210
330
20E
100
AcDbEntity
  8
0
100
AcDbBlockEnd
  0
BLOCK
  5
21B
330
21A
100
AcDbEntity
  8
0
100
AcDbBlockBegin
  2
SW_NOTE_0
 70
     0
 10
0.0
 20
0.0
 30
0.0
  3
SW_NOTE_0
  1

  0
LINE
  5
21D
330
21A
100
AcDbEntity
  8
0
  6
Continuous
 62
     0
370
     0
100
AcDbLine
 10
18.2080974665
 20
0.0
 30
0.0
 11
0.0
 21
0.0
 31
0.0
  0
MTEXT
  5
21E
330
21A
100
AcDbEntity
  8
0
  6
Continuous
 62
     0
370
     0
100
AcDbMText
 10
0.4927581831
 20
4.5418875834
 30
0.0
 40
3.5
 41
0.0
 71
     1
 72
     1
  1
M10 P=1.0
  7
SLDTEXTSTYLE0
 73
     1
 44
1.0
  0
ENDBLK
  5
21C
330
21A
100
AcDbEntity
  8
0
100
AcDbBlockEnd
  0
BLOCK
  5
265
330
264
100
AcDbEntity
  8
0
100
AcDbBlockBegin
  2
_D_11
 70
     0
 10
0.0
 20
0.0
 30
0.0
  3
_D_11
  1

  0
SOLID
  5
267
330
264
100
AcDbEntity
  8
0
  6
Continuous
 62
     7
370
    18
100
AcDbTrace
 10
61.8890080976
 20
161.1625817025
 30
0.0
 11
58.8884591776
 21
161.9103825976
 31
0.0
 12
58.8895586293
 22
160.4103830005
 32
0.0
 13
58.8895586293
 23
160.4103830005
 33
0.0
  0
SOLID
  5
268
330
264
100
AcDbEntity
  8
0
  6
Continuous
 62
     7
370
    18
100
AcDbTrace
 10
48.8890115896
 20
161.1530531209
 30
0.0
 11
51.8895605096
 21
160.4052522258
 31
0.0
 12
51.8884610579
 22
161.9052518229
 32
0.0
 13
51.8884610579
 23
161.9052518229
 33
0.0
  0
LINE
  5
269
330
264
100
AcDbEntity
  8
0
  6
Continuous
 62
     7
370
    18
100
AcDbLine
 10
61.9010084286
 20
144.7903379931
 30
0.0
 11
61.8882751298
 21
162.1625814339
 31
0.0
  0
LINE
  5
26A
330
264
100
AcDbEntity
  8
0
  6
Continuous
 62
     7
370
    18
100
AcDbLine
 10
48.9010119207
 20
144.7808094115
 30
0.0
 11
48.8882786218
 21
162.1530528522
 31
0.0
  0
LINE
  5
26B
330
264
100
AcDbEntity
  8
0
  6
Continuous
 62
     7
370
    18
100
AcDbLine
 10
61.8890080976
 20
161.1625817025
 30
0.0
 11
48.8890115896
 21
161.1530531209
 31
0.0
  0
MTEXT
  5
26C
330
264
100
AcDbEntity
  8
0
  6
Continuous
 62
     7
370
    18
100
AcDbMText
 10
53.3488979353
 20
165.6680601432
 30
0.0
 40
3.5
 41
0.0
 71
     1
 72
     1
  1
13
  7
SLDTEXTSTYLE0
 11
0.9999997313790504
 21
0.0007329678212926084
 31
0.0
 73
     1
 44
1.0
  0
ENDBLK
  5
266
330
264
100
AcDbEntity
  8
0
100
AcDbBlockEnd
  0
BLOCK
  5
26E
330
26D
100
AcDbEntity
  8
0
100
AcDbBlockBegin
  2
SW_NOTE_1
 70
     0
 10
0.0
 20
0.0
 30
0.0
  3
SW_NOTE_1
  1

  0
LINE
  5
270
330
26D
100
AcDbEntity
  8
0
  6
Continuous
 62
     0
370
     0
100
AcDbLine
 10
34.5025414463
 20
0.0
 30
0.0
 11
0.0
 21
0.0
 31
0.0
  0
MTEXT
  5
271
330
26D
100
AcDbEntity
  8
0
  6
Continuous
 62
     0
370
     0
100
AcDbMText
 10
0.450033727
 20
4.531163352
 30
0.0
 40
3.5
 41
0.0
 71
     1
 72
     1
  1
外径Φ6配管用継手
  7
SLDTEXTSTYLE0
 73
     1
 44
1.0
  0
ENDBLK
  5
26F
330
26D
100
AcDbEntity
  8
0
100
AcDbBlockEnd
  0
BLOCK
  5
275
330
274
100
AcDbEntity
  8
0
100
AcDbBlockBegin
  2
SW_CENTERMARKSYMBOL_0
 70
     0
 10
0.0
 20
0.0
 30
0.0
  3
SW_CENTERMARKSYMBOL_0
  1

  0
LINE
  5
277
330
274
100
AcDbEntity
  8
0
  6
Continuous
 62
     0
370
    18
100
AcDbLine
 10
0.0
 20
0.0
 30
0.0
 11
0.0
 21
2.5
 31
0.0
  0
LINE
  5
278
330
274
100
AcDbEntity
  8
0
  6
Continuous
 62
     0
370
    18
100
AcDbLine
 10
0.0
 20
0.0
 30
0.0
 11
-2.5
 21
0.0
 31
0.0
  0
LINE
  5
279
330
274
100
AcDbEntity
  8
0
  6
Continuous
 62
     0
370
    18
100
AcDbLine
 10
0.0
 20
0.0
 30
0.0
 11
0.0
 21
-2.5
 31
0.0
  0
LINE
  5
27A
330
274
100
AcDbEntity
  8
0
  6
Continuous
 62
     0
370
    18
100
AcDbLine
 10
0.0
 20
0.0
 30
0.0
 11
2.5
 21
0.0
 31
0.0
  0
LINE
  5
27B
330
274
100
AcDbEntity
  8
0
  6
Continuous
 62
     0
370
    18
100
AcDbLine
 10
0.0
 20
5.0
 30
0.0
 11
0.0
 21
6.0
 31
0.0
  0
LINE
  5
27C
330
274
100
AcDbEntity
  8
0
  6
Continuous
 62
     0
370
    18
100
AcDbLine
 10
-5.0
 20
0.0
 30
0.0
 11
-8.868047958
 21
0.0
 31
0.0
  0
LINE
  5
27D
330
274
100
AcDbEntity
  8
0
  6
Continuous
 62
     0
370
    18
100
AcDbLine
 10
0.0
 20
-5.0
 30
0.0
 11
0.0
 21
-15.1163395614
 31
0.0
  0
LINE
  5
27E
330
274
100
AcDbEntity
  8
0
  6
Continuous
 62
     0
370
    18
100
AcDbLine
 10
5.0
 20
0.0
 30
0.0
 11
9.343984696
 21
0.0
 31
0.0
  0
ENDBLK
  5
276
330
274
100
AcDbEntity
  8
0
100
AcDbBlockEnd
  0
ENDSEC
  0
SECTION
  2
ENTITIES
  0
LINE
  5
73
330
1F
100
AcDbEntity
  8
0
  6
Continuous
 62
     7
370
    18
100
AcDbLine
 10
20.2604743903
 20
285.0
 30
0.0
 11
196.7604743903
 21
285.0
 31
0.0
  0
LINE
  5
74
330
1F
100
AcDbEntity
  8
0
  6
Continuous
 62
     7
370
    18
100
AcDbLine
 10
20.2604743903
 20
285.0
 30
0.0
 11
20.2604743903
 21
10.0
 31
0.0
  0
LINE
  5
75
330
1F
100
AcDbEntity
  8
0
  6
Continuous
 62
     7
370
    18
100
AcDbLine
 10
20.2604743903
 20
10.0
 30
0.0
 11
196.7604743903
 21
10.0
 31
0.0
  0
LINE
  5
76
330
1F
100
AcDbEntity
  8
0
  6
Continuous
 62
     7
370
    18
100
AcDbLine
 10
196.7604743903
 20
285.0
 30
0.0
 11
196.7604743903
 21
10.0
 31
0.0
  0
LINE
  5
77
330
1F
100
AcDbEntity
  8
0
  6
Continuous
 62
     7
370
    18
100
AcDbLine
 10
127.0104743903
 20
50.75
 30
0.0
 11
196.7604743903
 21
50.75
 31
0.0
  0
LINE
  5
78
330
1F
100
AcDbEntity
  8
0
  6
Continuous
 62
     7
370
    18
100
AcDbLine
 10
127.0104743903
 20
50.75
 30
0.0
 11
127.0104743903
 21
10.0
 31
0.0
  0
LINE
  5
79
330
1F
100
AcDbEntity
  8
0
  6
Continuous
 62
     7
370
    18
100
AcDbLine
 10
127.0104743903
 20
22.75
 30
0.0
 11
196.7604743903
 21
22.75
 31
0.0
  0
LINE
  5
7A
330
1F
100
AcDbEntity
  8
0
  6
Continuous
 62
     7
370
    18
100
AcDbLine
 10
127.0104743903
 20
36.75
 30
0.0
 11
196.7604743903
 21
36.75
 31
0.0
  0
MTEXT
  5
7C
330
1F
100
AcDbEntity
  8
0
  6
Continuous
 62
     7
370
     0
100
AcDbMText
 10
162.4425658269
 20
30.4171582345
 30
0.0
 40
4.2333333333
 41
0.0
 71
     2
 72
     1
  1
VFILP-SS-10
  7
SLDTEXTSTYLE0
 73
     1
 44
1.0
  0
MTEXT
  5
7D
330
1F
100
AcDbEntity
  8
0
  6
Continuous
 62
     7
370
     0
100
AcDbMText
 10
161.0903525561
 20
43.9409718514
 30
0.0
 40
4.2333333333
 41
0.0
 71
     2
 72
     1
  1
吸着樹脂具・ミニ用
  7
SLDTEXTSTYLE0
 73
     1
 44
1.0
  0
MTEXT
  5
7E
330
1F
100
AcDbEntity
  8
0
  6
Continuous
 62
     7
370
     0
100
AcDbMText
 10
163.1821765237
 20
16.8228189052
 30
0.0
 40
4.2333333333
 41
0.0
 71
     2
 72
     1
  1
211110
  7
SLDTEXTSTYLE0
 73
     1
 44
1.0
  0
LINE
  5
7F
330
1F
100
AcDbEntity
  8
0
  6
Continuous
 62
     7
370
    18
100
AcDbLine
 10
163.6827538305
 20
136.5327982293
 30
0.0
 11
164.2827538305
 21
136.5327982293
 31
0.0
  0
LINE
  5
80
330
1F
100
AcDbEntity
  8
0
  6
Continuous
 62
     7
370
    18
100
AcDbLine
 10
164.2827538305
 20
142.1945792673
 30
0.0
 11
163.6827538305
 21
142.1945792673
 31
0.0
  0
LINE
  5
81
330
1F
100
AcDbEntity
  8
0
  6
Continuous
 62
     7
370
    18
100
AcDbLine
 10
164.2827538305
 20
142.9680037631
 30
0.0
 11
163.6827538305
 21
142.9680037631
 31
0.0
  0
LINE
  5
82
330
1F
100
AcDbEntity
  8
0
  6
Continuous
 62
     7
370
    18
100
AcDbLine
 10
129.2827538305
 20
146.0327982293
 30
0.0
 11
127.8827538305
 21
146.0327982293
 31
0.0
  0
LINE
  5
83
330
1F
100
AcDbEntity
  8
0
  6
Continuous
 62
     7
370
    18
100
AcDbLine
 10
128.030906212
 20
134.0327982293
 30
0.0
 11
129.2827538305
 21
134.0327982293
 31
0.0
  0
ARC
  5
84
330
1F
100
AcDbEntity
  8
0
  6
Continuous
 62
     7
370
    18
100
AcDbCircle
 10
129.2827538305
 20
145.7327982293
 30
0.0
 40
0.2999999999999829
100
AcDbArc
 50
0.0
 51
90.0
  0
ARC
  5
85
330
1F
100
AcDbEntity
  8
0
  6
Continuous
 62
     7
370
    18
100
AcDbCircle
 10
129.2827538305
 20
134.3327982293
 30
0.0
 40
0.2999999999999829
100
AcDbArc
 50
270.0
 51
0.0
  0
ARC
  5
86
330
1F
100
AcDbEntity
  8
0
  6
Continuous
 62
     7
370
    18
100
AcDbCircle
 10
127.8827538305
 20
145.7327982293
 30
0.0
 40
0.2999999999999972
100
AcDbArc
 50
90.0
 51
180.0
  0
LINE
  5
87
330
1F
100
AcDbEntity
  8
0
  6
Continuous
 62
     7
370
    18
100
AcDbLine
 10
131.2827538305
 20
143.7827982293
 30
0.0
 11
130.7871683116
 21
143.7827982293
 31
0.0
  0
LINE
  5
88
330
1F
100
AcDbEntity
  8
0
  6
Continuous
 62
     7
370
    18
100
AcDbLine
 10
130.2857208194
 20
143.7827982293
 30
0.0
 11
129.5827538305
 21
143.7827982293
 31
0.0
  0
LINE
  5
89
330
1F
100
AcDbEntity
  8
0
  6
Continuous
 62
     7
370
    18
100
AcDbLine
 10
129.5827538305
 20
136.2827982293
 30
0.0
 11
130.9762281588
 21
136.2827982293
 31
0.0
  0
ARC
  5
8A
330
1F
100
AcDbEntity
  8
0
  6
Continuous
 62
     7
370
    18
100
AcDbCircle
 10
131.2827538305
 20
143.4827982293
 30
0.0
 40
0.2999999999999829
100
AcDbArc
 50
0.0
 51
90.0
  0
ARC
  5
8B
330
1F
100
AcDbEntity
  8
0
  6
Continuous
 62
     7
370
    18
100
AcDbCircle
 10
131.2827538305
 20
136.5827982293
 30
0.0
 40
0.3000000000000059
100
AcDbArc
 50
308.4320907427
 51
0.0
  0
ARC
  5
8C
330
1F
100
AcDbEntity
  8
0
  6
Continuous
 62
     7
370
    18
100
AcDbCircle
 10
121.8827538305
 20
144.7327982293
 30
0.0
 40
0.3000000000000114
100
AcDbArc
 50
90.0
 51
180.0
  0
ARC
  5
8D
330
1F
100
AcDbEntity
  8
0
  6
Continuous
 62
     7
370
    18
100
AcDbCircle
 10
121.8827538305
 20
135.3327982293
 30
0.0
 40
0.3000000000000114
100
AcDbArc
 50
180.0
 51
270.0
  0
LINE
  5
8E
330
1F
100
AcDbEntity
  8
0
  6
Continuous
 62
     7
370
    18
100
AcDbLine
 10
121.8827538305
 20
135.0327982293
 30
0.0
 11
123.1331178207
 21
135.0327982293
 31
0.0
  0
ARC
  5
8F
330
1F
100
AcDbEntity
  8
0
  6
Continuous
 62
     7
370
    18
100
AcDbCircle
 10
123.2827538305
 20
144.7327982293
 30
0.0
 40
0.3000000000000114
100
AcDbArc
 50
0.0
 51
90.0
  0
LINE
  5
90
330
1F
100
AcDbEntity
  8
0
  6
Continuous
 62
     7
370
    18
100
AcDbLine
 10
127.5827538305
 20
143.7827982293
 30
0.0
 11
123.5827538305
 21
143.7827982293
 31
0.0
  0
LINE
  5
91
330
1F
100
AcDbEntity
  8
0
  6
Continuous
 62
     7
370
    18
100
AcDbLine
 10
123.2827538305
 20
145.0327982293
 30
0.0
 11
121.8827538305
 21
145.0327982293
 31
0.0
  0
LINE
  5
92
330
1F
100
AcDbEntity
  8
0
  6
Continuous
 62
     7
370
    18
100
AcDbLine
 10
117.7827538305
 20
143.5327982293
 30
0.0
 11
116.3827538305
 21
143.5327982293
 31
0.0
  0
LINE
  5
93
330
1F
100
AcDbEntity
  8
0
  6
Continuous
 62
     7
370
    18
100
AcDbLine
 10
116.3827538305
 20
136.5327982293
 30
0.0
 11
117.7827538305
 21
136.5327982293
 31
0.0
  0
ARC
  5
94
330
1F
100
AcDbEntity
  8
0
  6
Continuous
 62
     7
370
    18
100
AcDbCircle
 10
116.3827538305
 20
136.8327982293
 30
0.0
 40
0.3000000000000114
100
AcDbArc
 50
180.0
 51
270.0
  0
ARC
  5
95
330
1F
100
AcDbEntity
  8
0
  6
Continuous
 62
     7
370
    18
100
AcDbCircle
 10
116.3827538305
 20
143.2327982293
 30
0.0
 40
0.2999999999999829
100
AcDbArc
 50
90.0
 51
180.0
  0
ARC
  5
96
330
1F
100
AcDbEntity
  8
0
  6
Continuous
 62
     7
370
    18
100
AcDbCircle
 10
117.7827538305
 20
143.2327982293
 30
0.0
 40
0.3000000000000114
100
AcDbArc
 50
0.0
 51
90.0
  0
ARC
  5
97
330
1F
100
AcDbEntity
  8
0
  6
Continuous
 62
     7
370
    18
100
AcDbCircle
 10
117.7827538305
 20
136.8327982293
 30
0.0
 40
0.3000000000000114
100
AcDbArc
 50
270.0
 51
0.0
  0
ARC
  5
98
330
1F
100
AcDbEntity
  8
0
  6
Continuous
 62
     7
370
    18
100
AcDbCircle
 10
164.5827538305
 20
137.8327982293
 30
0.0
 40
0.3000000000000114
100
AcDbArc
 50
180.0
 51
221.8399063145
  0
ARC
  5
99
330
1F
100
AcDbEntity
  8
0
  6
Continuous
 62
     7
370
    18
100
AcDbCircle
 10
164.5827538305
 20
142.2327982293
 30
0.0
 40
0.3000000000000114
100
AcDbArc
 50
138.1839398833
 51
180.0
  0
LINE
  5
9A
330
1F
100
AcDbEntity
  8
0
  6
Continuous
 62
     7
370
    18
100
AcDbLine
 10
165.1827538305
 20
137.6327982293
 30
0.0
 11
165.5827538305
 21
138.0327982293
 31
0.0
  0
LINE
  5
9B
330
1F
100
AcDbEntity
  8
0
  6
Continuous
 62
     7
370
    18
100
AcDbLine
 10
165.5827538305
 20
142.0327982293
 30
0.0
 11
165.1827538305
 21
142.4327982293
 31
0.0
  0
LINE
  5
9C
330
1F
100
AcDbEntity
  8
0
  6
Continuous
 62
     7
370
    18
100
AcDbLine
 10
123.0827538305
 20
128.2327982293
 30
0.0
 11
123.5827538305
 21
125.7327982293
 31
0.0
  0
LINE
  5
9D
330
1F
100
AcDbEntity
  8
0
  6
Continuous
 62
     7
370
    18
100
AcDbLine
 10
127.5827538305
 20
125.7327982293
 30
0.0
 11
128.0827538305
 21
128.2327982293
 31
0.0
  0
LINE
  5
9E
330
1F
100
AcDbEntity
  8
0
  6
Continuous
 62
     7
370
    18
100
AcDbLine
 10
123.0827538305
 20
130.7327982293
 30
0.0
 11
123.5827538305
 21
128.2327982293
 31
0.0
  0
LINE
  5
9F
330
1F
100
AcDbEntity
  8
0
  6
Continuous
 62
     7
370
    18
100
AcDbLine
 10
127.5827538305
 20
128.2327982293
 30
0.0
 11
128.0827538305
 21
130.7327982293
 31
0.0
  0
LINE
  5
A0
330
1F
100
AcDbEntity
  8
0
  6
Continuous
 62
     7
370
    18
100
AcDbLine
 10
121.5827538305
 20
142.5327982293
 30
0.0
 11
118.0827538305
 21
142.5327982293
 31
0.0
  0
LINE
  5
A1
330
1F
100
AcDbEntity
  8
0
  6
Continuous
 62
     7
370
    18
100
AcDbLine
 10
118.0827538305
 20
137.5327982293
 30
0.0
 11
121.5827538305
 21
137.5327982293
 31
0.0
  0
LINE
  5
A2
330
1F
100
AcDbEntity
  8
0
  6
Continuous
 62
     7
370
    18
100
AcDbLine
 10
123.4327538305
 20
134.7336852939
 30
0.0
 11
123.4327538305
 21
130.7327982293
 31
0.0
  0
LINE
  5
A3
330
1F
100
AcDbEntity
  8
0
  6
Continuous
 62
     7
370
    18
100
AcDbLine
 10
127.7327538305
 20
130.7327982293
 30
0.0
 11
127.7327538305
 21
133.7328950499
 31
0.0
  0
LINE
  5
A4
330
1F
100
AcDbEntity
  8
0
  6
Continuous
 62
     7
370
    18
100
AcDbLine
 10
163.6827538305
 20
141.5327982293
 30
0.0
 11
163.5827538305
 21
141.5327982293
 31
0.0
  0
LINE
  5
A5
330
1F
100
AcDbEntity
  8
0
  6
Continuous
 62
     7
370
    18
100
AcDbLine
 10
163.5827538305
 20
138.5327982293
 30
0.0
 11
163.6827538305
 21
138.5327982293
 31
0.0
  0
ARC
  5
A6
330
1F
100
AcDbEntity
  8
0
  6
Continuous
 62
     7
370
    18
100
AcDbCircle
 10
128.0327538305
 20
133.7327982293
 30
0.0
 40
0.3000000000000225
100
AcDbArc
 50
90.3896323213
 51
180.0149164704
  0
ARC
  5
A7
330
1F
100
AcDbEntity
  8
0
  6
Continuous
 62
     7
370
    18
100
AcDbCircle
 10
123.1327538305
 20
134.7327982293
 30
0.0
 40
0.3000000000000072
100
AcDbArc
 50
0.2407636824
 51
89.9631309201
  0
LINE
  5
A8
330
1F
100
AcDbEntity
  8
0
  6
Continuous
 62
     7
370
    18
100
AcDbLine
 10
162.5827538305
 20
145.0327982293
 30
0.0
 11
158.6107144422
 21
145.0327982293
 31
0.0
  0
LINE
  5
A9
330
1F
100
AcDbEntity
  8
0
  6
Continuous
 62
     7
370
    18
100
AcDbLine
 10
152.6107144422
 20
145.0327982293
 30
0.0
 11
148.0827538305
 21
145.0327982293
 31
0.0
  0
LINE
  5
AA
330
1F
100
AcDbEntity
  8
0
  6
Continuous
 62
     7
370
    18
100
AcDbLine
 10
148.0827538305
 20
135.0327982293
 30
0.0
 11
152.6107144422
 21
135.0327982293
 31
0.0
  0
LINE
  5
AB
330
1F
100
AcDbEntity
  8
0
  6
Continuous
 62
     7
370
    18
100
AcDbLine
 10
158.6107144422
 20
135.0327982293
 30
0.0
 11
162.5827538305
 21
135.0327982293
 31
0.0
  0
LINE
  5
AC
330
1F
100
AcDbEntity
  8
0
  6
Continuous
 62
     7
370
    18
100
AcDbLine
 10
162.5827538305
 20
135.0327982293
 30
0.0
 11
163.5827538305
 21
136.0327982293
 31
0.0
  0
LINE
  5
AD
330
1F
100
AcDbEntity
  8
0
  6
Continuous
 62
     7
370
    18
100
AcDbLine
 10
163.5827538305
 20
144.0327982293
 30
0.0
 11
162.5827538305
 21
145.0327982293
 31
0.0
  0
LINE
  5
AE
330
1F
100
AcDbEntity
  8
0
  6
Continuous
 62
     7
370
    18
100
AcDbLine
 10
148.0827538305
 20
144.5327982293
 30
0.0
 11
146.5827538305
 21
144.5327982293
 31
0.0
  0
LINE
  5
AF
330
1F
100
AcDbEntity
  8
0
  6
Continuous
 62
     7
370
    18
100
AcDbLine
 10
146.5827538305
 20
135.5327982293
 30
0.0
 11
148.0827538305
 21
135.5327982293
 31
0.0
  0
LINE
  5
B0
330
1F
100
AcDbEntity
  8
0
  6
Continuous
 62
     7
370
    18
100
AcDbLine
 10
143.5827538305
 20
143.7827982293
 30
0.0
 11
142.7851140778
 21
143.7827982293
 31
0.0
  0
LINE
  5
B1
330
1F
100
AcDbEntity
  8
0
  6
Continuous
 62
     7
370
    18
100
AcDbLine
 10
142.2861718942
 20
143.7827982293
 30
0.0
 11
142.0827538305
 21
143.7827982293
 31
0.0
  0
LINE
  5
B2
330
1F
100
AcDbEntity
  8
0
  6
Continuous
 62
     7
370
    18
100
AcDbLine
 10
142.0827538305
 20
136.2827982293
 30
0.0
 11
142.9784311964
 21
136.2827982293
 31
0.0
  0
LINE
  5
B3
330
1F
100
AcDbEntity
  8
0
  6
Continuous
 62
     7
370
    18
100
AcDbLine
 10
143.4797701593
 20
136.2827982293
 30
0.0
 11
143.5827538305
 21
136.2827982293
 31
0.0
  0
LINE
  5
B4
330
1F
100
AcDbEntity
  8
0
  6
Continuous
 62
     7
370
    18
100
AcDbLine
 10
142.0827538305
 20
143.7827982293
 30
0.0
 11
141.5827538305
 21
143.2827982293
 31
0.0
  0
LINE
  5
B5
330
1F
100
AcDbEntity
  8
0
  6
Continuous
 62
     7
370
    18
100
AcDbLine
 10
141.5827538305
 20
136.7827982293
 30
0.0
 11
142.0827538305
 21
136.2827982293
 31
0.0
  0
SPLINE
  5
B6
330
1F
100
AcDbEntity
  8
0
  6
Continuous
 62
     7
370
    18
100
AcDbSpline
210
0.0
220
0.0
230
1.0
 70
     8
 71
     3
 72
    28
 73
    24
 74
     0
 42
0.000000001
 43
0.00000001
 40
0.0
 40
0.0
 40
0.0
 40
0.0
 40
0.0689665206523023
 40
0.1312928679301248
 40
0.1870387057023686
 40
0.236104926364542
 40
0.290939584959567
 40
0.3336372785975732
 40
0.3642692517336057
 40
0.403902002378618
 40
0.4449901444170044
 40
0.4877711219990185
 40
0.5356339311910557
 40
0.5896441246179893
 40
0.6499212089340383
 40
0.7165311688866299
 40
0.7865821576007144
 40
0.8508665924243584
 40
0.9090511310346914
 40
0.9359267908745104
 40
0.9607638162926754
 40
0.9820343829672221
 40
1.0
 40
1.0
 40
1.0
 40
1.0
 10
143.5239597241397
 20
136.0487504443882
 30
0.0
 10
143.5036072147423
 20
136.1458518439925
 30
0.0
 10
143.4648617582064
 20
136.3307056123644
 30
0.0
 10
143.4091221081419
 20
136.7625705796862
 30
0.0
 10
143.3591766053298
 20
137.230464274226
 30
0.0
 10
143.3113045463238
 20
137.7427057086315
 30
0.0
 10
143.2671114761055
 20
138.2615137051473
 30
0.0
 10
143.2283278838408
 20
138.7459860676501
 30
0.0
 10
143.1940894567193
 20
139.188291899175
 30
0.0
 10
143.1603362414882
 20
139.6342103229423
 30
0.0
 10
143.1229386723381
 20
140.1341977186838
 30
0.0
 10
143.0830515780573
 20
140.6663890678171
 30
0.0
 10
143.0391923795632
 20
141.2409711904117
 30
0.0
 10
142.9898777287181
 20
141.8596451903931
 30
0.0
 10
142.9347935787899
 20
142.4993268242051
 30
0.0
 10
142.8745961969291
 20
143.1165868172702
 30
0.0
 10
142.8131027547803
 20
143.6377967442376
 30
0.0
 10
142.7488197953994
 20
144.0323300452419
 30
0.0
 10
142.6867813615459
 20
144.2602078036017
 30
0.0
 10
142.6250053866841
 20
144.3872395126169
 30
0.0
 10
142.574001948446
 20
144.4523015922237
 30
0.0
 10
142.5008888014796
 20
144.5134158195212
 30
0.0
 10
142.4153346690343
 20
144.5255780770949
 30
0.0
 10
142.3761608087387
 20
144.5311469790925
 30
0.0
  0
SPLINE
  5
B7
330
1F
100
AcDbEntity
  8
0
  6
Continuous
 62
     7
370
    18
100
AcDbSpline
210
0.0
220
0.0
230
1.0
 70
     8
 71
     3
 72
    34
 73
    30
 74
     0
 42
0.000000001
 43
0.00000001
 40
0.0
 40
0.0
 40
0.0
 40
0.0
 40
0.0112732547990036
 40
0.0681004653774241
 40
0.1000572274365185
 40
0.1343547170177383
 40
0.1707094194117601
 40
0.207482394202101
 40
0.2812817375660193
 40
0.3183782134563024
 40
0.3555840686171647
 40
0.402029198515869
 40
0.4410422603965178
 40
0.4725536822364739
 40
0.4964443498177031
 40
0.5267652445197291
 40
0.5635283992988177
 40
0.6067893448849866
 40
0.6566030482600549
 40
0.7102619820303765
 40
0.7591102782362289
 40
0.8025223611775351
 40
0.8519938942435554
 40
0.8918241406654063
 40
0.9219147037823661
 40
0.9389833610504231
 40
0.9570064424886363
 40
0.9772811929439961
 40
1.0
 40
1.0
 40
1.0
 40
1.0
 10
141.5434627999039
 20
135.9698324956529
 30
0.0
 10
141.5430534976314
 20
135.9722308976141
 30
0.0
 10
141.5405809486
 20
135.9867193743344
 30
0.0
 10
141.5098476783149
 20
136.0924222529053
 30
0.0
 10
141.4760368598734
 20
136.2844183536393
 30
0.0
 10
141.4444667842506
 20
136.4939967268056
 30
0.0
 10
141.4108431121572
 20
136.759238051918
 30
0.0
 10
141.3646232454923
 20
137.1753049729993
 30
0.0
 10
141.3177017275139
 20
137.6692739996244
 30
0.0
 10
141.2705932569777
 20
138.2205204895673
 30
0.0
 10
141.2321101354693
 20
138.6964694592912
 30
0.0
 10
141.1930255483741
 20
139.2018512656964
 30
0.0
 10
141.1558002378198
 20
139.6954913218501
 30
0.0
 10
141.1257494061048
 20
140.0971358741951
 30
0.0
 10
141.0984575671014
 20
140.461248511746
 30
0.0
 10
141.0694544103869
 20
140.8451905926742
 30
0.0
 10
141.0342131987878
 20
141.302622412525
 30
0.0
 10
140.992705939409
 20
141.8216275822258
 30
0.0
 10
140.9457506857363
 20
142.3733196231212
 30
0.0
 10
140.8969052509028
 20
142.8937662808868
 30
0.0
 10
140.8496532848372
 20
143.3321378199382
 30
0.0
 10
140.8030930480454
 20
143.6950339261277
 30
0.0
 10
140.7583112672739
 20
143.9712521953282
 30
0.0
 10
140.7160910173829
 20
144.1646665200218
 30
0.0
 10
140.6816323190756
 20
144.2758276784605
 30
0.0
 10
140.6524532336587
 20
144.3478066490845
 30
0.0
 10
140.6042293018278
 20
144.4259889928936
 30
0.0
 10
140.5170262975136
 20
144.5091380008788
 30
0.0
 10
140.4252717746633
 20
144.5244727541079
 30
0.0
 10
140.376786526598
 20
144.5325759984084
 30
0.0
  0
SPLINE
  5
B8
330
1F
100
AcDbEntity
  8
0
  6
Continuous
 62
     7
370
    18
100
AcDbSpline
210
0.0
220
0.0
230
1.0
 70
     8
 71
     3
 72
    34
 73
    30
 74
     0
 42
0.000000001
 43
0.00000001
 40
0.0
 40
0.0
 40
0.0
 40
0.0
 40
0.0108577005620464
 40
0.0388754074747594
 40
0.0700327242495346
 40
0.1043655831828505
 40
0.1418947561131391
 40
0.1825950533614304
 40
0.2254911374738253
 40
0.2664569716272352
 40
0.3050045153471737
 40
0.3411634560532215
 40
0.3749276778098043
 40
0.4351036951873657
 40
0.4872563976263429
 40
0.5204277854089855
 40
0.5525089285207888
 40
0.5859406194291382
 40
0.6248251925190189
 40
0.6692285841687383
 40
0.719135079421278
 40
0.760216733028329
 40
0.8013349502967939
 40
0.8391874556132654
 40
0.8737908302916948
 40
0.9332463928633022
 40
0.9622294220946744
 40
0.97994858081573
 40
1.0
 40
1.0
 40
1.0
 40
1.0
 10
139.5243669786558
 20
135.9893744093873
 30
0.0
 10
139.5275866536056
 20
135.9877676927788
 30
0.0
 10
139.5391145249898
 20
135.9820149311793
 30
0.0
 10
139.5199821314409
 20
136.0337377689233
 30
0.0
 10
139.5036070663048
 20
136.1252096596212
 30
0.0
 10
139.4750459110887
 20
136.2833803946031
 30
0.0
 10
139.4422309020976
 20
136.5091050613481
 30
0.0
 10
139.4045723692366
 20
136.8102790489068
 30
0.0
 10
139.3650232746221
 20
137.1759854873412
 30
0.0
 10
139.3260832441653
 20
137.5803238141398
 30
0.0
 10
139.2891483443106
 20
137.9989368254947
 30
0.0
 10
139.2544751248393
 20
138.4177733919069
 30
0.0
 10
139.2128792549053
 20
138.9425356796849
 30
0.0
 10
139.1660468259846
 20
139.5582694655611
 30
0.0
 10
139.1193644460729
 20
140.1828902555943
 30
0.0
 10
139.0816900478896
 20
140.6834304034126
 30
0.0
 10
139.0500320276495
 20
141.0976905437534
 30
0.0
 10
139.0165637095822
 20
141.5250539972471
 30
0.0
 10
138.9791059973712
 20
141.9851738731042
 30
0.0
 10
138.9362744017988
 20
142.4795849796954
 30
0.0
 10
138.8924876832738
 20
142.937923375169
 30
0.0
 10
138.8497132986508
 20
143.3309266874106
 30
0.0
 10
138.8103018952471
 20
143.6409394036422
 30
0.0
 10
138.7719420296417
 20
143.8926110054005
 30
0.0
 10
138.7219874692071
 20
144.1426070355242
 30
0.0
 10
138.6765183705241
 20
144.3100298051025
 30
0.0
 10
138.5945256198692
 20
144.4400486083184
 30
0.0
 10
138.4922397978393
 20
144.5176296319939
 30
0.0
 10
138.4170635675825
 20
144.527190936628
 30
0.0
 10
138.3771544587161
 20
144.5322667850211
 30
0.0
  0
SPLINE
  5
B9
330
1F
100
AcDbEntity
  8
0
  6
Continuous
 62
     7
370
    18
100
AcDbSpline
210
0.0
220
0.0
230
1.0
 70
     8
 71
     3
 72
    30
 73
    26
 74
     0
 42
0.000000001
 43
0.00000001
 40
0.0
 40
0.0
 40
0.0
 40
0.0
 40
0.0063364700345509
 40
0.0325825650634066
 40
0.0728531310840697
 40
0.1099675326562941
 40
0.1553580144883821
 40
0.2090417700550379
 40
0.2547460274593858
 40
0.3050869422334219
 40
0.3586266032902391
 40
0.4077828440454388
 40
0.4647222336804631
 40
0.5117576040138371
 40
0.5488298410375221
 40
0.5700869788757694
 40
0.5933731431140311
 40
0.6292651595899933
 40
0.6778730527794071
 40
0.7392469553270262
 40
0.8133650073908055
 40
0.8552200022917334
 40
0.9002481961424161
 40
0.9484934618993501
 40
1.0
 40
1.0
 40
1.0
 40
1.0
 10
137.5459221517544
 20
135.9605958784386
 30
0.0
 10
137.5464347141777
 20
135.9602137955589
 30
0.0
 10
137.5490703454382
 20
135.9582490990923
 30
0.0
 10
137.5383314612442
 20
135.9853731692208
 30
0.0
 10
137.5192017166819
 20
136.0586308086933
 30
0.0
 10
137.4917624620472
 20
136.1913694009082
 30
0.0
 10
137.460013487441
 20
136.3833110419828
 30
0.0
 10
137.4250236077132
 20
136.6401186140439
 30
0.0
 10
137.3882925216817
 20
136.9548366101592
 30
0.0
 10
137.3511976734603
 20
137.3132496667014
 30
0.0
 10
137.3130165308275
 20
137.7239892378141
 30
0.0
 10
137.2731865789365
 20
138.1882556531853
 30
0.0
 10
137.2349146802453
 20
138.6623717837247
 30
0.0
 10
137.1996164058465
 20
139.1174888967527
 30
0.0
 10
137.1732024965127
 20
139.4651394313807
 30
0.0
 10
137.1527262661017
 20
139.7369121866493
 30
0.0
 10
137.1325368544593
 20
140.0059245795722
 30
0.0
 10
137.1054731236748
 20
140.3670497489967
 30
0.0
 10
137.0688535138956
 20
140.8526693834941
 30
0.0
 10
137.022666598426
 20
141.451402456186
 30
0.0
 10
136.9781087306647
 20
141.9992708095125
 30
0.0
 10
136.9376560565828
 20
142.4614983848251
 30
0.0
 10
136.9036487581358
 20
142.8224972279296
 30
0.0
 10
136.8672075450552
 20
143.1768075999046
 30
0.0
 10
136.8421163917476
 20
143.3837317190526
 30
0.0
 10
136.8291606516622
 20
143.4905763535822
 30
0.0
  0
SPLINE
  5
BA
330
1F
100
AcDbEntity
  8
0
  6
Continuous
 62
     7
370
    18
100
AcDbSpline
210
0.0
220
0.0
230
1.0
 70
     8
 71
     3
 72
    18
 73
    14
 74
     0
 42
0.000000001
 43
0.00000001
 40
0.0
 40
0.0
 40
0.0
 40
0.0
 40
0.0559575598148089
 40
0.1058124938470615
 40
0.1879109738999047
 40
0.2598039775663259
 40
0.3421394851679437
 40
0.4354914560042758
 40
0.5398593448645645
 40
0.6553497772185742
 40
0.7811806360177367
 40
0.9040943753075564
 40
1.0
 40
1.0
 40
1.0
 40
1.0
 10
137.3761602456809
 20
135.5347680293827
 30
0.0
 10
137.415444445133
 20
135.5397813536928
 30
0.0
 10
137.4897285834437
 20
135.5492612586327
 30
0.0
 10
137.592501967003
 20
135.6232788321593
 30
0.0
 10
137.6571263153107
 20
135.7237181503305
 30
0.0
 10
137.6866785681506
 20
135.8054324621777
 30
0.0
 10
137.721336777719
 20
135.9218238748824
 30
0.0
 10
137.7547200295726
 20
136.0771988860257
 30
0.0
 10
137.7908087908978
 20
136.2881210003641
 30
0.0
 10
137.8290120422241
 20
136.5645850324569
 30
0.0
 10
137.8684681735233
 20
136.9033172770235
 30
0.0
 10
137.9056424957849
 20
137.2633475258775
 30
0.0
 10
137.9291712276189
 20
137.5202161281351
 30
0.0
 10
137.9394835586836
 20
137.6327982292575
 30
0.0
  0
SPLINE
  5
BB
330
1F
100
AcDbEntity
  8
0
  6
Continuous
 62
     7
370
    18
100
AcDbSpline
210
0.0
220
0.0
230
1.0
 70
     8
 71
     3
 72
     9
 73
     5
 74
     0
 42
0.000000001
 43
0.00000001
 40
0.0
 40
0.0
 40
0.0
 40
0.0
 40
0.5508502336766852
 40
1.0
 40
1.0
 40
1.0
 40
1.0
 10
138.3222269814667
 20
142.4327982292575
 30
0.0
 10
138.3331537029917
 20
142.5526706458915
 30
0.0
 10
138.3529898051787
 20
142.7702840901734
 30
0.0
 10
138.3727530205919
 20
142.9531778959885
 30
0.0
 10
138.3816296641766
 20
143.0353246061323
 30
0.0
  0
SPLINE
  5
BC
330
1F
100
AcDbEntity
  8
0
  6
Continuous
 62
     7
370
    18
100
AcDbSpline
210
0.0
220
0.0
230
1.0
 70
     8
 71
     3
 72
    20
 73
    16
 74
     0
 42
0.000000001
 43
0.00000001
 40
0.0
 40
0.0
 40
0.0
 40
0.0
 40
0.1213890077387689
 40
0.2114429476540059
 40
0.2705236794237626
 40
0.3034840602006092
 40
0.3284201691916118
 40
0.3616711422080625
 40
0.4032416019546377
 40
0.487038261833545
 40
0.5921031570185349
 40
0.7184310726637991
 40
0.8607519216641364
 40
0.9939320517045553
 40
1.0
 40
1.0
 40
1.0
 40
1.0
 10
139.3765147593446
 20
135.5357110139763
 30
0.0
 10
139.4248211691787
 20
135.5449560274277
 30
0.0
 10
139.5089642878692
 20
135.5610595686929
 30
0.0
 10
139.6058802028383
 20
135.6667560727572
 30
0.0
 10
139.6606248741189
 20
135.7606404881473
 30
0.0
 10
139.6918795509903
 20
135.8344709615089
 30
0.0
 10
139.7088869398251
 20
135.8873995822989
 30
0.0
 10
139.7242226799441
 20
135.9439348986344
 30
0.0
 10
139.7457745187527
 20
136.0372061275372
 30
0.0
 10
139.7737123155766
 20
136.1852301321416
 30
0.0
 10
139.8094935259889
 20
136.4191418259944
 30
0.0
 10
139.8504143150817
 20
136.7409314552947
 30
0.0
 10
139.8936890357808
 20
137.1452449250018
 30
0.0
 10
139.9240448749792
 20
137.4540727695737
 30
0.0
 10
139.9390139829537
 20
137.6253352062615
 30
0.0
 10
139.9396662847614
 20
137.6327982292575
 30
0.0
  0
SPLINE
  5
BD
330
1F
100
AcDbEntity
  8
0
  6
Continuous
 62
     7
370
    18
100
AcDbSpline
210
0.0
220
0.0
230
1.0
 70
     8
 71
     3
 72
     9
 73
     5
 74
     0
 42
0.000000001
 43
0.00000001
 40
0.0
 40
0.0
 40
0.0
 40
0.0
 40
0.3952539428205033
 40
0.9999999999999999
 40
0.9999999999999999
 40
0.9999999999999999
 40
0.9999999999999999
 10
140.3222528887825
 20
142.4327982292575
 30
0.0
 10
140.3300378127099
 20
142.5187043605628
 30
0.0
 10
140.3497338184519
 20
142.7360485082071
 30
0.0
 10
140.3693646628141
 20
142.923911048697
 30
0.0
 10
140.3812363385413
 20
143.03752017935
 30
0.0
  0
SPLINE
  5
BE
330
1F
100
AcDbEntity
  8
0
  6
Continuous
 62
     7
370
    18
100
AcDbSpline
210
0.0
220
0.0
230
1.0
 70
     8
 71
     3
 72
    15
 73
    11
 74
     0
 42
0.000000001
 43
0.00000001
 40
0.0
 40
0.0
 40
0.0
 40
0.0
 40
0.1030780349016465
 40
0.1920313137615252
 40
0.3317301401103697
 40
0.4672167694014054
 40
0.6216030635438056
 40
0.7949823392540506
 40
0.9874130174858181
 40
1.0
 40
1.0
 40
1.0
 40
1.0
 10
141.3770327498926
 20
135.5351594942653
 30
0.0
 10
141.423103638463
 20
135.5419229806344
 30
0.0
 10
141.5089323338466
 20
135.5545231546122
 30
0.0
 10
141.6173224508324
 20
135.6501429579615
 30
0.0
 10
141.6698866565906
 20
135.751719334629
 30
0.0
 10
141.7055387178549
 20
135.8610831495833
 30
0.0
 10
141.7439781424863
 20
136.0193809961349
 30
0.0
 10
141.782237122621
 20
136.2376901078649
 30
0.0
 10
141.8093353959962
 20
136.4141189762498
 30
0.0
 10
141.8236068097077
 20
136.5337258431272
 30
0.0
 10
141.8244829978086
 20
136.5410690619333
 30
0.0
  0
SPLINE
  5
BF
330
1F
100
AcDbEntity
  8
0
  6
Continuous
 62
     7
370
    18
100
AcDbSpline
210
0.0
220
0.0
230
1.0
 70
     8
 71
     3
 72
    16
 73
    12
 74
     0
 42
0.000000001
 43
0.00000001
 40
0.0
 40
0.0
 40
0.0
 40
0.0
 40
0.1621383596839444
 40
0.2883175518161499
 40
0.3928306179980215
 40
0.4516984625933923
 40
0.5087768324814399
 40
0.5760277282091697
 40
0.653449633858697
 40
0.8618152775082781
 40
1.0
 40
1.0
 40
1.0
 40
1.0
 10
142.3859241643609
 20
144.5311424065985
 30
0.0
 10
142.3415356577811
 20
144.5241472223866
 30
0.0
 10
142.2626031610493
 20
144.5117082511871
 30
0.0
 10
142.169500516978
 20
144.4269562396988
 30
0.0
 10
142.1133166478008
 20
144.3410894491244
 30
0.0
 10
142.0838031044496
 20
144.2729445917502
 30
0.0
 10
142.0655498838636
 20
144.219223574741
 30
0.0
 10
142.047545814371
 20
144.1567317995412
 30
0.0
 10
142.0195155176156
 20
144.0401546886954
 30
0.0
 10
141.9896113222559
 20
143.8871635002256
 30
0.0
 10
141.967101069841
 20
143.7234495371626
 30
0.0
 10
141.9581252519309
 20
143.658169650704
 30
0.0
  0
SPLINE
  5
C0
330
1F
100
AcDbEntity
  8
0
  6
Continuous
 62
     7
370
    18
100
AcDbSpline
210
0.0
220
0.0
230
1.0
 70
     8
 71
     3
 72
    10
 73
     6
 74
     0
 42
0.000000001
 43
0.00000001
 40
0.0
 40
0.0
 40
0.0
 40
0.0
 40
0.2143065889378862
 40
0.8844967464666813
 40
1.0
 40
1.0
 40
1.0
 40
1.0
 10
141.4409129848521
 20
137.6327982292575
 30
0.0
 10
141.4366599862808
 20
137.5852577868327
 30
0.0
 10
141.4191068003631
 20
137.38904652306
 30
0.0
 10
141.3992752015641
 20
137.185148676548
 30
0.0
 10
141.3838236015046
 20
137.0489438496961
 30
0.0
 10
141.3815520919641
 20
137.0289206441724
 30
0.0
  0
SPLINE
  5
C1
330
1F
100
AcDbEntity
  8
0
  6
Continuous
 62
     7
370
    18
100
AcDbSpline
210
0.0
220
0.0
230
1.0
 70
     8
 71
     3
 72
    17
 73
    13
 74
     0
 42
0.000000001
 43
0.00000001
 40
0.0
 40
0.0
 40
0.0
 40
0.0
 40
0.0664139596613319
 40
0.1611806164450535
 40
0.2353871474284955
 40
0.313817448436413
 40
0.4008051788385772
 40
0.5106787548062302
 40
0.63170457410332
 40
0.7617131503668537
 40
0.8901603735088139
 40
1.0
 40
1.0
 40
1.0
 40
1.0
 10
140.3865710877927
 20
144.532567392561
 30
0.0
 10
140.3403962341994
 20
144.5256302086279
 30
0.0
 10
140.2283340803333
 20
144.5087942965933
 30
0.0
 10
140.1239186086814
 20
144.3819107237744
 30
0.0
 10
140.0864244992927
 20
144.2902436932918
 30
0.0
 10
140.0525811119291
 20
144.1846060134543
 30
0.0
 10
140.0184272001395
 20
144.038288318932
 30
0.0
 10
139.9815637906351
 20
143.8356641199195
 30
0.0
 10
139.9416574479178
 20
143.5606747889356
 30
0.0
 10
139.9006176281516
 20
143.2196475111579
 30
0.0
 10
139.8608683455926
 20
142.8402442337025
 30
0.0
 10
139.835312824095
 20
142.5613541421596
 30
0.0
 10
139.8235328667016
 20
142.4327982292575
 30
0.0
  0
SPLINE
  5
C2
330
1F
100
AcDbEntity
  8
0
  6
Continuous
 62
     7
370
    18
100
AcDbSpline
210
0.0
220
0.0
230
1.0
 70
     8
 71
     3
 72
     9
 73
     5
 74
     0
 42
0.000000001
 43
0.00000001
 40
0.0
 40
0.0
 40
0.0
 40
0.0
 40
0.5820619669443712
 40
1.0
 40
1.0
 40
1.0
 40
1.0
 10
139.4407260037658
 20
137.6327982292575
 30
0.0
 10
139.429163918112
 20
137.505189497098
 30
0.0
 10
139.4092999065284
 20
137.2859538496815
 30
0.0
 10
139.3896760806623
 20
137.1068917315427
 30
0.0
 10
139.3814745374788
 20
137.032054862093
 30
0.0
  0
SPLINE
  5
C3
330
1F
100
AcDbEntity
  8
0
  6
Continuous
 62
     7
370
    18
100
AcDbSpline
210
0.0
220
0.0
230
1.0
 70
     8
 71
     3
 72
    20
 73
    16
 74
     0
 42
0.000000001
 43
0.00000001
 40
0.0
 40
0.0
 40
0.0
 40
0.0
 40
0.0997481534051469
 40
0.177022272446737
 40
0.2402844775780289
 40
0.2747274687985727
 40
0.3076306912749142
 40
0.3465527036875935
 40
0.3914828261766642
 40
0.4796653221998316
 40
0.5844225495994748
 40
0.705780860250525
 40
0.8396769588140803
 40
0.9655354535629307
 40
1.0
 40
1.0
 40
1.0
 40
1.0
 10
138.3875976646548
 20
144.5322614504363
 30
0.0
 10
138.3425873559992
 20
144.5248655506065
 30
0.0
 10
138.2627079111198
 20
144.5117401046713
 30
0.0
 10
138.1684418089346
 20
144.4228453775907
 30
0.0
 10
138.1118253274184
 20
144.3343858682988
 30
0.0
 10
138.0818366520538
 20
144.2643549163466
 30
0.0
 10
138.0637202880449
 20
144.2105119784891
 30
0.0
 10
138.0459146450069
 20
144.1482754414555
 30
0.0
 10
138.0225206093926
 20
144.051455843333
 30
0.0
 10
137.9933152066756
 20
143.9028225414172
 30
0.0
 10
137.9573330958819
 20
143.6744989917503
 30
0.0
 10
137.917636274155
 20
143.3683259534252
 30
0.0
 10
137.8764472238835
 20
142.9906153961823
 30
0.0
 10
137.8446838486318
 20
142.669434297009
 30
0.0
 10
137.8274395205483
 20
142.4746671945506
 30
0.0
 10
137.8237325178517
 20
142.4327982292575
 30
0.0
  0
SPLINE
  5
C4
330
1F
100
AcDbEntity
  8
0
  6
Continuous
 62
     7
370
    18
100
AcDbSpline
210
0.0
220
0.0
230
1.0
 70
     8
 71
     3
 72
    10
 73
     6
 74
     0
 42
0.000000001
 43
0.00000001
 40
0.0
 40
0.0
 40
0.0
 40
0.0
 40
0.2346786244024546
 40
0.8992079429186733
 40
1.0
 40
1.0
 40
1.0
 40
1.0
 10
137.4407686199869
 20
137.6327982292575
 30
0.0
 10
137.4361122701803
 20
137.5810250843352
 30
0.0
 10
137.4182707358616
 20
137.382648162438
 30
0.0
 10
137.3984821167761
 20
137.1787146297147
 30
0.0
 10
137.3834272018579
 20
137.0455356500154
 30
0.0
 10
137.3814444846724
 20
137.0279961120489
 30
0.0
  0
SPLINE
  5
C5
330
1F
100
AcDbEntity
  8
0
  6
Continuous
 62
     7
370
    18
100
AcDbSpline
210
0.0
220
0.0
230
1.0
 70
     8
 71
     3
 72
    34
 73
    30
 74
     0
 42
0.000000001
 43
0.00000001
 40
0.0
 40
0.0
 40
0.0
 40
0.0
 40
0.0489861089170484
 40
0.0948410903496889
 40
0.1375950925323842
 40
0.1772762423562071
 40
0.2472901590987289
 40
0.3048110072774642
 40
0.3497518801778582
 40
0.382109630138173
 40
0.4026857728765104
 40
0.4242132133792925
 40
0.4612726015401019
 40
0.5079140984989217
 40
0.5641408340123478
 40
0.6126066003510117
 40
0.6631614582776358
 40
0.7095401771920367
 40
0.7515905942115637
 40
0.8008574060226219
 40
0.8423089813038133
 40
0.875904596972184
 40
0.9016193980114233
 40
0.9202909598931567
 40
0.9357893839882415
 40
0.9539731241845069
 40
0.966160069821708
 40
0.9795710411245919
 40
1.0
 40
1.0
 40
1.0
 40
1.0
 10
136.3338443062171
 20
143.4478011964147
 30
0.0
 10
136.3470530884728
 20
143.3399726199393
 30
0.0
 10
136.3726263650407
 20
143.1312077274041
 30
0.0
 10
136.40979114559
 20
142.7704716468688
 30
0.0
 10
136.444459169151
 20
142.4018607329007
 30
0.0
 10
136.4856128488755
 20
141.9301165649628
 30
0.0
 10
136.530793789153
 20
141.372453025617
 30
0.0
 10
136.5773767176691
 20
140.7668526115308
 30
0.0
 10
136.6138389248216
 20
140.2826604874043
 30
0.0
 10
136.640324129225
 20
139.9292068853574
 30
0.0
 10
136.6604651030109
 20
139.6609468894993
 30
0.0
 10
136.6818736311781
 20
139.3770153194006
 30
0.0
 10
136.7103403690745
 20
139.0032603562842
 30
0.0
 10
136.7482144262188
 20
138.5181552122093
 30
0.0
 10
136.7892698544929
 20
138.0167428323463
 30
0.0
 10
136.831491429044
 20
137.5367696560962
 30
0.0
 10
136.8711739608447
 20
137.1255334339727
 30
0.0
 10
136.9093308913831
 20
136.7742138878796
 30
0.0
 10
136.9474614792937
 20
136.4665409598692
 30
0.0
 10
136.9848436425844
 20
136.2121668075557
 30
0.0
 10
137.0209284391184
 20
136.0154216495468
 30
0.0
 10
137.0518238330273
 20
135.8838083223875
 30
0.0
 10
137.0776457173966
 20
135.7984449712878
 30
0.0
 10
137.1012253423958
 20
135.7385196536216
 30
0.0
 10
137.1255160022908
 20
135.6904084997737
 30
0.0
 10
137.1519644187214
 20
135.6507951219129
 30
0.0
 10
137.1900809645337
 20
135.6089061648483
 30
0.0
 10
137.2687441290742
 20
135.5498819527416
 30
0.0
 10
137.3422496999758
 20
135.540475106331
 30
0.0
 10
137.3866245635512
 20
135.5347962506876
 30
0.0
  0
SPLINE
  5
C6
330
1F
100
AcDbEntity
  8
0
  6
Continuous
 62
     7
370
    18
100
AcDbSpline
210
0.0
220
0.0
230
1.0
 70
     8
 71
     3
 72
    35
 73
    31
 74
     0
 42
0.000000001
 43
0.00000001
 40
0.0
 40
0.0
 40
0.0
 40
0.0
 40
0.0118120918473102
 40
0.0374610044410561
 40
0.067467382999486
 40
0.1018505607501584
 40
0.1405875109991443
 40
0.1835250465603924
 40
0.2257889983099518
 40
0.2647518810379959
 40
0.3003886815905661
 40
0.3326594451963203
 40
0.3615338285124632
 40
0.3949080028700747
 40
0.4271907437660596
 40
0.4604894092546719
 40
0.5127489793011264
 40
0.5729209003791698
 40
0.6066020270043389
 40
0.64265709489875
 40
0.6811133334338385
 40
0.7220218513632366
 40
0.7651384075437536
 40
0.8068628714229056
 40
0.846101347569467
 40
0.8829267455387296
 40
0.9174203753952911
 40
0.9496203248056236
 40
0.9774397846144633
 40
1.0
 40
1.0
 40
1.0
 40
1.0
 10
138.2373240745493
 20
144.0687834165457
 30
0.0
 10
138.2360948277694
 20
144.066680624269
 30
0.0
 10
138.2321963803416
 20
144.0600118045684
 30
0.0
 10
138.24606760668
 20
144.006196755928
 30
0.0
 10
138.2654999999224
 20
143.9042355602475
 30
0.0
 10
138.294488031654
 20
143.736758935283
 30
0.0
 10
138.3291342854918
 20
143.4944082078236
 30
0.0
 10
138.3679159520054
 20
143.1748730169542
 30
0.0
 10
138.4069603060284
 20
142.8012147805477
 30
0.0
 10
138.4437757801932
 20
142.4091467225088
 30
0.0
 10
138.4774990508732
 20
142.022156033918
 30
0.0
 10
138.5080901735741
 20
141.6521404672046
 30
0.0
 10
138.5380132865172
 20
141.2766730340113
 30
0.0
 10
138.5680037662802
 20
140.8894054241988
 30
0.0
 10
138.5994226140484
 20
140.4752670602848
 30
0.0
 10
138.6368289156472
 20
139.9765776197715
 30
0.0
 10
138.6830637832327
 20
139.3589833978439
 30
0.0
 10
138.7294449834799
 20
138.754042656445
 30
0.0
 10
138.7707195824816
 20
138.2405752182322
 30
0.0
 10
138.8051953394542
 20
137.8319291942466
 30
0.0
 10
138.8420488734846
 20
137.4242338528708
 30
0.0
 10
138.8812739355082
 20
137.0284899894083
 30
0.0
 10
138.9214255114359
 20
136.6686196023172
 30
0.0
 10
138.9622736476607
 20
136.3572463327818
 30
0.0
 10
139.0039496418257
 20
136.1025201214585
 30
0.0
 10
139.0482190175817
 20
135.9026604597616
 30
0.0
 10
139.0990878454345
 20
135.7494617475247
 30
0.0
 10
139.1570293195985
 20
135.6498133934512
 30
0.0
 10
139.2281576521888
 20
135.5651603441758
 30
0.0
 10
139.3377765799932
 20
135.54482662061
 30
0.0
 10
139.3868643641454
 20
135.5357210997533
 30
0.0
  0
SPLINE
  5
C7
330
1F
100
AcDbEntity
  8
0
  6
Continuous
 62
     7
370
    18
100
AcDbSpline
210
0.0
220
0.0
230
1.0
 70
     8
 71
     3
 72
    36
 73
    32
 74
     0
 42
0.000000001
 43
0.00000001
 40
0.0
 40
0.0
 40
0.0
 40
0.0
 40
0.0043049736587356
 40
0.0193090790153064
 40
0.0519455080768332
 40
0.0882958097927222
 40
0.1283187963801601
 40
0.171727327218505
 40
0.2157362845127788
 40
0.2595612258457715
 40
0.3031584174220192
 40
0.3464754596752075
 40
0.3888639923345634
 40
0.4263860296548563
 40
0.4677547187892128
 40
0.5028889826010798
 40
0.5499346893279247
 40
0.5946503666230611
 40
0.6474754180633912
 40
0.7070274130130991
 40
0.7618245171523861
 40
0.8093968883872547
 40
0.8497281053258999
 40
0.8828331269630211
 40
0.90868494402956
 40
0.9324998350811253
 40
0.9502662682356127
 40
0.9634536218011385
 40
0.9771926840351925
 40
0.9870720580828121
 40
1.0
 40
1.0
 40
1.0
 40
1.0
 10
140.2211599316553
 20
144.0950610582075
 30
0.0
 10
140.2200682392502
 20
144.0959246483904
 30
0.0
 10
140.2151716762086
 20
144.0997981055587
 30
0.0
 10
140.231425668277
 20
144.061378407466
 30
0.0
 10
140.245521762645
 20
143.9944744341923
 30
0.0
 10
140.2774533255261
 20
143.8406162378255
 30
0.0
 10
140.3129611061781
 20
143.6137640955768
 30
0.0
 10
140.3532209048888
 20
143.3033713895953
 30
0.0
 10
140.3946163769423
 20
142.9237318686694
 30
0.0
 10
140.4362952305643
 20
142.4920446010998
 30
0.0
 10
140.4778517144399
 20
142.0198129019314
 30
0.0
 10
140.5190681122664
 20
141.5184127581369
 30
0.0
 10
140.5584371351376
 20
141.0156139461945
 30
0.0
 10
140.5971608278319
 20
140.5060502448354
 30
0.0
 10
140.6335474392797
 20
140.0200637442826
 30
0.0
 10
140.6729245588385
 20
139.4941922011018
 30
0.0
 10
140.7134338258892
 20
138.9605265967008
 30
0.0
 10
140.7596955465538
 20
138.3727558412205
 30
0.0
 10
140.8101344612533
 20
137.7711676255467
 30
0.0
 10
140.8638422018018
 20
137.1936232299743
 30
0.0
 10
140.9162209255638
 20
136.7086914577276
 30
0.0
 10
140.9631026235158
 20
136.3491543937914
 30
0.0
 10
141.0038895110396
 20
136.0996922113397
 30
0.0
 10
141.0388031889154
 20
135.9347828264379
 30
0.0
 10
141.069917900148
 20
135.8224837410826
 30
0.0
 10
141.0991645716113
 20
135.7432868527779
 30
0.0
 10
141.1305944170439
 20
135.6842190531361
 30
0.0
 10
141.1614393825512
 20
135.6400734684948
 30
0.0
 10
141.2145295022167
 20
135.5885847896944
 30
0.0
 10
141.2963833451547
 20
135.5436774358895
 30
0.0
 10
141.3542318084914
 20
135.5382383613421
 30
0.0
 10
141.3870222330714
 20
135.5351553137822
 30
0.0
  0
SPLINE
  5
C8
330
1F
100
AcDbEntity
  8
0
  6
Continuous
 62
     7
370
    18
100
AcDbSpline
210
0.0
220
0.0
230
1.0
 70
     8
 71
     3
 72
    30
 73
    26
 74
     0
 42
0.000000001
 43
0.00000001
 40
0.0
 40
0.0
 40
0.0
 40
0.0
 40
0.0016493675425678
 40
0.0221577679374723
 40
0.0451811852577479
 40
0.1000905644024563
 40
0.1669019926987834
 40
0.2175605347400972
 40
0.2661538920790655
 40
0.3107030903121024
 40
0.3698249920217485
 40
0.4197625597287852
 40
0.462229437782425
 40
0.5051978223444759
 40
0.5346846150747094
 40
0.5649452071238508
 40
0.6021524076292947
 40
0.6369225650939406
 40
0.677616477716161
 40
0.7243052993623521
 40
0.7770365233298486
 40
0.8358074033933078
 40
0.9005991389694525
 40
0.9715322229202502
 40
1.0
 40
1.0
 40
1.0
 40
1.0
 10
142.2376383063962
 20
144.0655973922055
 30
0.0
 10
142.2369546723365
 20
144.0658490159618
 30
0.0
 10
142.2277706642507
 20
144.0692293545805
 30
0.0
 10
142.2408358021992
 20
144.0401757887517
 30
0.0
 10
142.2498300998352
 20
143.976203039291
 30
0.0
 10
142.2866728625884
 20
143.8010754667882
 30
0.0
 10
142.3313642792815
 20
143.4825453801338
 30
0.0
 10
142.3776487625698
 20
143.0854841091617
 30
0.0
 10
142.417506580365
 20
142.6910799650311
 30
0.0
 10
142.4599325794472
 20
142.2293749338394
 30
0.0
 10
142.5029301576324
 20
141.7203118500221
 30
0.0
 10
142.5454433696607
 20
141.1839839482458
 30
0.0
 10
142.5834147915403
 20
140.6877987973517
 30
0.0
 10
142.6156281524413
 20
140.2590413946086
 30
0.0
 10
142.6444068931846
 20
139.8743244423062
 30
0.0
 10
142.6715782041155
 20
139.512063513471
 30
0.0
 10
142.7002743232291
 20
139.1334131897944
 30
0.0
 10
142.7319965315878
 20
138.7239413920281
 30
0.0
 10
142.766521657974
 20
138.2933925949089
 30
0.0
 10
142.8062960659405
 20
137.8229788188778
 30
0.0
 10
142.851483097031
 20
137.3300068439305
 30
0.0
 10
142.9022826633725
 20
136.8358927458169
 30
0.0
 10
142.959069039278
 20
136.3832832872347
 30
0.0
 10
143.0074496631775
 20
136.067488346802
 30
0.0
 10
143.0372199622433
 20
135.9640394213679
 30
0.0
 10
143.0457459873562
 20
135.9344123042799
 30
0.0
  0
SPLINE
  5
C9
330
1F
100
AcDbEntity
  8
0
  6
Continuous
 62
     7
370
    18
100
AcDbSpline
210
0.0
220
0.0
230
1.0
 70
     8
 71
     3
 72
    17
 73
    13
 74
     0
 42
0.000000001
 43
0.00000001
 40
0.0
 40
0.0
 40
0.0
 40
0.0
 40
0.061791882516003
 40
0.1411903824782337
 40
0.2074593681676871
 40
0.2979014856699446
 40
0.3989743355277969
 40
0.5107924746335373
 40
0.6334644942826976
 40
0.7648611123146378
 40
0.894366710444777
 40
1.0
 40
1.0
 40
1.0
 40
1.0
 10
136.386438123473
 20
144.5297557953424
 30
0.0
 10
136.3406920941955
 20
144.522886730917
 30
0.0
 10
136.2361654297281
 20
144.5071913710412
 30
0.0
 10
136.1375611414363
 20
144.4001542361308
 30
0.0
 10
136.0932757430995
 20
144.3105345379511
 30
0.0
 10
136.0587165586561
 20
144.21006399105
 30
0.0
 10
136.0201645656225
 20
144.0514185193194
 30
0.0
 10
135.9815158039229
 20
143.8366640272874
 30
0.0
 10
135.9410099307802
 20
143.5549590899778
 30
0.0
 10
135.8996313310855
 20
143.208181909829
 30
0.0
 10
135.8601166912345
 20
142.8316925381608
 30
0.0
 10
135.8348643257918
 20
142.5564483417036
 30
0.0
 10
135.8235200073041
 20
142.4327982292575
 30
0.0
  0
SPLINE
  5
CA
330
1F
100
AcDbEntity
  8
0
  6
Continuous
 62
     7
370
    18
100
AcDbSpline
210
0.0
220
0.0
230
1.0
 70
     8
 71
     3
 72
     9
 73
     5
 74
     0
 42
0.000000001
 43
0.00000001
 40
0.0
 40
0.0
 40
0.0
 40
0.0
 40
0.5910756017329354
 40
1.0
 40
1.0
 40
1.0
 40
1.0
 10
135.4407523096833
 20
137.6327982292575
 30
0.0
 10
135.4290305352177
 20
137.5029327424362
 30
0.0
 10
135.4091992743245
 20
137.2832222917924
 30
0.0
 10
135.3895546660732
 20
137.1040595197768
 30
0.0
 10
135.3815215064648
 20
137.0307954910385
 30
0.0
  0
SPLINE
  5
CB
330
1F
100
AcDbEntity
  8
0
  6
Continuous
 62
     7
370
    18
100
AcDbSpline
210
0.0
220
0.0
230
1.0
 70
     8
 71
     3
 72
    20
 73
    16
 74
     0
 42
0.000000001
 43
0.00000001
 40
0.0
 40
0.0
 40
0.0
 40
0.0
 40
0.1006594926037613
 40
0.1780393648654688
 40
0.2323940364168023
 40
0.2699860978579731
 40
0.3021845786250731
 40
0.341288438069872
 40
0.3872979188351734
 40
0.4752554251230127
 40
0.5808394234680951
 40
0.7039911442903699
 40
0.8401668822976186
 40
0.9678862301876137
 40
1.0
 40
1.0
 40
1.0
 40
1.0
 10
134.385967115748
 20
144.5308886271722
 30
0.0
 10
134.3407376325243
 20
144.5235165228884
 30
0.0
 10
134.2607389333648
 20
144.5104772681647
 30
0.0
 10
134.1693326488645
 20
144.4237986058837
 30
0.0
 10
134.1140444672295
 20
144.339486802652
 30
0.0
 10
134.0830589979262
 20
144.2702951447964
 30
0.0
 10
134.0642083352647
 20
144.2144348252407
 30
0.0
 10
134.0461921667818
 20
144.1514873008279
 30
0.0
 10
134.0227573872479
 20
144.0536535436244
 30
0.0
 10
133.9935460241109
 20
143.9035299435278
 30
0.0
 10
133.9575719843142
 20
143.6738038806005
 30
0.0
 10
133.9176326818492
 20
143.3665234324328
 30
0.0
 10
133.8760131183437
 20
142.9871801315321
 30
0.0
 10
133.8441458001169
 20
142.6658053146368
 30
0.0
 10
133.8270252975939
 20
142.4717815959659
 30
0.0
 10
133.8235854355365
 20
142.4327982292575
 30
0.0
  0
SPLINE
  5
CC
330
1F
100
AcDbEntity
  8
0
  6
Continuous
 62
     7
370
    18
100
AcDbSpline
210
0.0
220
0.0
230
1.0
 70
     8
 71
     3
 72
    10
 73
     6
 74
     0
 42
0.000000001
 43
0.00000001
 40
0.0
 40
0.0
 40
0.0
 40
0.0
 40
0.2619431355575387
 40
0.9233821732968855
 40
0.9999999999999999
 40
0.9999999999999999
 40
0.9999999999999999
 40
0.9999999999999999
 10
133.4408846940204
 20
137.6327982292575
 30
0.0
 10
133.4356943520038
 20
137.5751009409381
 30
0.0
 10
133.4173977500285
 20
137.3717108144196
 30
0.0
 10
133.3975892789489
 20
137.1683799954781
 30
0.0
 10
133.3830943316559
 20
137.0412271671362
 30
0.0
 10
133.381589608357
 20
137.0280274072856
 30
0.0
  0
SPLINE
  5
CD
330
1F
100
AcDbEntity
  8
0
  6
Continuous
 62
     7
370
    18
100
AcDbSpline
210
0.0
220
0.0
230
1.0
 70
     8
 71
     3
 72
    17
 73
    13
 74
     0
 42
0.000000001
 43
0.00000001
 40
0.0
 40
0.0
 40
0.0
 40
0.0
 40
0.0664499753643882
 40
0.1611811957848452
 40
0.2353110203642583
 40
0.3140535832209677
 40
0.401826445560295
 40
0.5131756280433937
 40
0.636286999277616
 40
0.7688061285141391
 40
0.8993711152321053
 40
1.0
 40
1.0
 40
1.0
 40
1.0
 10
132.3865105722357
 20
144.532399553765
 30
0.0
 10
132.3403378577555
 20
144.5255035019446
 30
0.0
 10
132.2283412273316
 20
144.5087764245828
 30
0.0
 10
132.1238871990207
 20
144.3820798227708
 30
0.0
 10
132.086342429279
 20
144.2902901313415
 30
0.0
 10
132.0524092889495
 20
144.1842209624151
 30
0.0
 10
132.0179991744131
 20
144.0363460510069
 30
0.0
 10
131.9806939610293
 20
143.8303025219079
 30
0.0
 10
131.9401672497477
 20
143.549343614336
 30
0.0
 10
131.8984351984357
 20
143.2000216857493
 30
0.0
 10
131.8591981919201
 20
142.8233783070885
 30
0.0
 10
131.8344144248601
 20
142.5512459152704
 30
0.0
 10
131.8236271024126
 20
142.4327982292575
 30
0.0
  0
SPLINE
  5
CE
330
1F
100
AcDbEntity
  8
0
  6
Continuous
 62
     7
370
    18
100
AcDbSpline
210
0.0
220
0.0
230
1.0
 70
     8
 71
     3
 72
    14
 73
    10
 74
     0
 42
0.000000001
 43
0.00000001
 40
0.0
 40
0.0
 40
0.0
 40
0.0
 40
0.1815745383017708
 40
0.3245445905167474
 40
0.4289865531696763
 40
0.4957756905332638
 40
0.6297556954237278
 40
0.8194951048950493
 40
1.0
 40
1.0
 40
1.0
 40
1.0
 10
130.387552973061
 20
144.5324603686087
 30
0.0
 10
130.3451031192734
 20
144.5258625595075
 30
0.0
 10
130.2692286572268
 20
144.5140696987183
 30
0.0
 10
130.179415055156
 20
144.4324266321264
 30
0.0
 10
130.1238310162916
 20
144.3525438474862
 30
0.0
 10
130.0787658901974
 20
144.2605137968448
 30
0.0
 10
130.0455504689588
 20
144.1510634601576
 30
0.0
 10
130.0097036189821
 20
143.9971441554381
 30
0.0
 10
129.9870150248422
 20
143.8530488786344
 30
0.0
 10
129.9759536735811
 20
143.7827982292575
 30
0.0
  0
SPLINE
  5
CF
330
1F
100
AcDbEntity
  8
0
  6
Continuous
 62
     7
370
    18
100
AcDbSpline
210
0.0
220
0.0
230
1.0
 70
     8
 71
     3
 72
    35
 73
    31
 74
     0
 42
0.000000001
 43
0.00000001
 40
0.0
 40
0.0
 40
0.0
 40
0.0
 40
0.0126390194667457
 40
0.0391488104028178
 40
0.0696078140478728
 40
0.1040256012898069
 40
0.14237299588844
 40
0.1845053735784004
 40
0.2259136392396659
 40
0.2641599010089464
 40
0.2992165114411506
 40
0.3310446034866492
 40
0.3596155106817318
 40
0.3927968527843894
 40
0.4249591341442878
 40
0.4581358283525713
 40
0.5102245219495455
 40
0.5704799048482477
 40
0.6043273279896365
 40
0.6406329858223546
 40
0.6794282775292408
 40
0.7207638055751386
 40
0.7643804293503111
 40
0.8065271884985524
 40
0.8460642891717185
 40
0.8830684990414599
 40
0.9176250094296354
 40
0.9497670042604252
 40
0.9774984066421291
 40
1.0
 40
1.0
 40
1.0
 40
1.0
 10
130.2419835996833
 20
144.0667075601578
 30
0.0
 10
130.2383844356271
 20
144.0673554454165
 30
0.0
 10
130.2272361822665
 20
144.0693622416892
 30
0.0
 10
130.2463190746294
 20
144.0098996939747
 30
0.0
 10
130.2640719920903
 20
143.9100213674282
 30
0.0
 10
130.2936385677164
 20
143.7429367755184
 30
0.0
 10
130.3278122678738
 20
143.5041769355466
 30
0.0
 10
130.3661357990698
 20
143.1906457474699
 30
0.0
 10
130.4045470538348
 20
142.8251482247851
 30
0.0
 10
130.440809377437
 20
142.4415774736313
 30
0.0
 10
130.4740984084523
 20
142.0619579323107
 30
0.0
 10
130.5043785737152
 20
141.6977420228206
 30
0.0
 10
130.5341126988698
 20
141.326371446329
 30
0.0
 10
130.5640182367571
 20
140.9415375390611
 30
0.0
 10
130.5954143963332
 20
140.5285584064488
 30
0.0
 10
130.6328238273467
 20
140.0301972427948
 30
0.0
 10
130.67915826889
 20
139.4107269623963
 30
0.0
 10
130.7257345494351
 20
138.8014787850477
 30
0.0
 10
130.767320461174
 20
138.2819149614614
 30
0.0
 10
130.8021646020364
 20
137.866814547509
 30
0.0
 10
130.8394731448155
 20
137.451722317842
 30
0.0
 10
130.8792376871925
 20
137.047929717714
 30
0.0
 10
130.91996156474
 20
136.6805664294672
 30
0.0
 10
130.9613393619915
 20
136.363388991371
 30
0.0
 10
131.0034368892002
 20
136.1050033497094
 30
0.0
 10
131.0480015340449
 20
135.9035383752959
 30
0.0
 10
131.0990228687975
 20
135.7498266149367
 30
0.0
 10
131.1570474822094
 20
135.6499717395348
 30
0.0
 10
131.2282773149357
 20
135.5652021954545
 30
0.0
 10
131.3378729570174
 20
135.5448514530474
 30
0.0
 10
131.3869657203617
 20
135.5357354502403
 30
0.0
  0
SPLINE
  5
D0
330
1F
100
AcDbEntity
  8
0
  6
Continuous
 62
     7
370
    18
100
AcDbSpline
210
0.0
220
0.0
230
1.0
 70
     8
 71
     3
 72
    36
 73
    32
 74
     0
 42
0.000000001
 43
0.00000001
 40
0.0
 40
0.0
 40
0.0
 40
0.0
 40
0.0043047752272206
 40
0.0193147730433015
 40
0.051779763868395
 40
0.0877065682376611
 40
0.1270541515030954
 40
0.1695705600847887
 40
0.2127940835733007
 40
0.2560248436307186
 40
0.2992192510376973
 40
0.3423274512921154
 40
0.3846816146088752
 40
0.422199346464169
 40
0.4635636883586413
 40
0.4987374111017984
 40
0.5460840290632097
 40
0.5912168988950495
 40
0.6446300706337297
 40
0.7049125133994145
 40
0.7603541673899903
 40
0.8084403071985693
 40
0.8491627846317479
 40
0.8825377099056362
 40
0.9085309044454383
 40
0.9323523468502065
 40
0.9501123702955283
 40
0.9633278133915236
 40
0.9771539530590446
 40
0.9870605731887038
 40
0.9999999999999999
 40
0.9999999999999999
 40
0.9999999999999999
 40
0.9999999999999999
 10
132.221123018212
 20
144.0949324984757
 30
0.0
 10
132.2200341040201
 20
144.0957975500473
 30
0.0
 10
132.2151483366181
 20
144.0996788850517
 30
0.0
 10
132.2313540509179
 20
144.0614606488004
 30
0.0
 10
132.2452953364448
 20
143.9954243752671
 30
0.0
 10
132.2767879836683
 20
143.8442722148787
 30
0.0
 10
132.3116756639254
 20
143.6226749370563
 30
0.0
 10
132.351179104374
 20
143.3201030109827
 30
0.0
 10
132.3918463000104
 20
142.9502460314544
 30
0.0
 10
132.4329547383158
 20
142.5280037880253
 30
0.0
 10
132.4741288858987
 20
142.0635450793321
 30
0.0
 10
132.5151444015253
 20
141.5674759784261
 30
0.0
 10
132.5544396441912
 20
141.0675723283514
 30
0.0
 10
132.5931507180976
 20
140.5592971822681
 30
0.0
 10
132.6295488106818
 20
140.0735074590162
 30
0.0
 10
132.6690368399974
 20
139.5457978530006
 30
0.0
 10
132.7097930031507
 20
139.0077438001308
 30
0.0
 10
132.7564801934685
 20
138.4125335014604
 30
0.0
 10
132.8074755806595
 20
137.8015297202957
 30
0.0
 10
132.861808630504
 20
137.2138814953991
 30
0.0
 10
132.9147955181633
 20
136.7204371438744
 30
0.0
 10
132.9621836329701
 20
136.3551782461458
 30
0.0
 10
133.0033497951764
 20
136.1027327852197
 30
0.0
 10
133.0385193831378
 20
135.9362127219105
 30
0.0
 10
133.0697464547341
 20
135.8232150036936
 30
0.0
 10
133.0990611431003
 20
135.7436535848079
 30
0.0
 10
133.1304941550039
 20
135.6843813773627
 30
0.0
 10
133.1614751661459
 20
135.6399692573189
 30
0.0
 10
133.2143991798086
 20
135.5885426507145
 30
0.0
 10
133.2963458818275
 20
135.5434972860285
 30
0.0
 10
133.3542689835889
 20
135.5380342668452
 30
0.0
 10
133.3870751726799
 20
135.5349401500787
 30
0.0
  0
SPLINE
  5
D1
330
1F
100
AcDbEntity
  8
0
  6
Continuous
 62
     7
370
    18
100
AcDbSpline
210
0.0
220
0.0
230
1.0
 70
     8
 71
     3
 72
    35
 73
    31
 74
     0
 42
0.000000001
 43
0.00000001
 40
0.0
 40
0.0
 40
0.0
 40
0.0
 40
0.0122002421483801
 40
0.0386062880982505
 40
0.0690112669653765
 40
0.1034235739602716
 40
0.1418601390836769
 40
0.1842454012440707
 40
0.2259776164738136
 40
0.2644743188281598
 40
0.2996969987493824
 40
0.3316355621451595
 40
0.3602999473478906
 40
0.3936025756581556
 40
0.4258995225278796
 40
0.4592195682042587
 40
0.5114560593504228
 40
0.5717160740892864
 40
0.6055706470976505
 40
0.6419268412383929
 40
0.6807914763460515
 40
0.7221502748752583
 40
0.7657129590677605
 40
0.8077543682425584
 40
0.8471944001901872
 40
0.8841213473152625
 40
0.9185768458042094
 40
0.9505540920270009
 40
0.9779743003715088
 40
1.0
 40
1.0
 40
1.0
 40
1.0
 10
134.236953133575
 20
144.068337116028
 30
0.0
 10
134.2357855253322
 20
144.0662766094841
 30
0.0
 10
134.2320907609448
 20
144.0597563692877
 30
0.0
 10
134.2462048215269
 20
144.0062491161013
 30
0.0
 10
134.2658774521965
 20
143.9044640948655
 30
0.0
 10
134.2948804145016
 20
143.7371209545879
 30
0.0
 10
134.3293243050807
 20
143.4939685716848
 30
0.0
 10
134.3676583588838
 20
143.1753362324961
 30
0.0
 10
134.4061617203316
 20
142.8070458513877
 30
0.0
 10
134.4425275766818
 20
142.4219622196387
 30
0.0
 10
134.4759210562935
 20
142.0411984150676
 30
0.0
 10
134.5062895795846
 20
141.6756744027734
 30
0.0
 10
134.5360861535992
 20
141.3025548282909
 30
0.0
 10
134.5660168190575
 20
140.9160715540078
 30
0.0
 10
134.5974018418478
 20
140.5019744141481
 30
0.0
 10
134.6347789176558
 20
140.0031444765658
 30
0.0
 10
134.6810658286123
 20
139.3841947999766
 30
0.0
 10
134.7276708021607
 20
138.7762728484207
 30
0.0
 10
134.7691954564009
 20
138.2601739563269
 30
0.0
 10
134.8039473958925
 20
137.8481117631133
 30
0.0
 10
134.8411258414573
 20
137.4349681841437
 30
0.0
 10
134.8807621328277
 20
137.0322698054539
 30
0.0
 10
134.9213716899217
 20
136.6663269987905
 30
0.0
 10
134.9626327792956
 20
136.3529546561776
 30
0.0
 10
135.00455197917
 20
136.1002145751739
 30
0.0
 10
135.0488840790575
 20
135.9026871979164
 30
0.0
 10
135.0995766678423
 20
135.7498065167144
 30
0.0
 10
135.1573776176967
 20
135.6495821180536
 30
0.0
 10
135.2275924561886
 20
135.5640137891768
 30
0.0
 10
135.3375115404723
 20
135.5428287023737
 30
0.0
 10
135.3864750408532
 20
135.5333917969217
 30
0.0
  0
SPLINE
  5
D2
330
1F
100
AcDbEntity
  8
0
  6
Continuous
 62
     7
370
    18
100
AcDbSpline
210
0.0
220
0.0
230
1.0
 70
     8
 71
     3
 72
    12
 73
     8
 74
     0
 42
0.000000001
 43
0.00000001
 40
0.0
 40
0.0
 40
0.0
 40
0.0
 40
0.0951835603798307
 40
0.2783242056689594
 40
0.4897638805393547
 40
0.7301319088559571
 40
1.0
 40
1.0
 40
1.0
 40
1.0
 10
136.2695122410407
 20
144.0357817550442
 30
0.0
 10
136.2665602237101
 20
144.0326185495404
 30
0.0
 10
136.2579282932022
 20
144.023369088229
 30
0.0
 10
136.2617374964497
 20
143.9728463591055
 30
0.0
 10
136.2752099007918
 20
143.8700803699975
 30
0.0
 10
136.3003440224802
 20
143.7020048306517
 30
0.0
 10
136.3223251244995
 20
143.5358044336689
 30
0.0
 10
136.3339511106203
 20
143.4478996731659
 30
0.0
  0
SPLINE
  5
D3
330
1F
100
AcDbEntity
  8
0
  6
Continuous
 62
     7
370
    18
100
AcDbSpline
210
0.0
220
0.0
230
1.0
 70
     8
 71
     3
 72
    13
 73
     9
 74
     0
 42
0.000000001
 43
0.00000001
 40
0.0
 40
0.0
 40
0.0
 40
0.0
 40
0.2377438445337563
 40
0.4471757942449168
 40
0.6284162484992928
 40
0.8467367085981917
 40
0.9315502368823497
 40
1.0
 40
1.0
 40
1.0
 40
1.0
 10
136.829290592813
 20
143.4904883478899
 30
0.0
 10
136.8112731490355
 20
143.6233046724866
 30
0.0
 10
136.7773838815879
 20
143.8731207951993
 30
0.0
 10
136.7198075180294
 20
144.1428285354943
 30
0.0
 10
136.6474003580054
 20
144.3500700185515
 30
0.0
 10
136.5620278463042
 20
144.4655626787492
 30
0.0
 10
136.462607243407
 20
144.522171671762
 30
0.0
 10
136.4027490404935
 20
144.527410345885
 30
0.0
 10
136.3760154386466
 20
144.5297500190023
 30
0.0
  0
LWPOLYLINE
  5
D4
330
1F
100
AcDbEntity
  8
0
  6
Continuous
 62
     7
370
    18
100
AcDbPolyline
 90
       32
 70
   128
 43
0.0
 10
135.5120855136
 20
136.0013073502
 10
135.5162606901
 20
136.0000996915
 10
135.5164648096
 20
136.0387656877
 10
135.5016300873
 20
136.1295883004
 10
135.4757546449
 20
136.2846615905
 10
135.4422606157
 20
136.5141751149
 10
135.4035207757
 20
136.8260624194
 10
135.3634091695
 20
137.1993553804
 10
135.3253990022
 20
137.5952213926
 10
135.2895456788
 20
138.0003838716
 10
135.2558898818
 20
138.4040494013
 10
135.2244665156
 20
138.7975516049
 10
135.1684278045
 20
139.5277490184
 10
135.1191922085
 20
140.1839641154
 10
135.087725682
 20
140.6027898044
 10
135.0572942102
 20
141.0027443269
 10
135.0245183209
 20
141.4235222482
 10
134.9962327945
 20
141.7747642602
 10
134.9647383522
 20
142.1493248407
 10
134.9299942
 20
142.5386939575
 10
134.8919504606
 20
142.9317404566
 10
134.8505768253
 20
143.3138668888
 10
134.8095272338
 20
143.6392641488
 10
134.7708759207
 20
143.8906227918
 10
134.7336330061
 20
144.0801449129
 10
134.6964645278
 20
144.2209967264
 10
134.6576935582
 20
144.324557869
 10
134.6312992264
 20
144.3740877698
 10
134.5809511889
 20
144.4389060745
 10
134.4971178326
 20
144.5017371184
 10
134.3755418127
 20
144.5308896248
 10
134.3755418127
 20
144.5308896248
  0
SPLINE
  5
D5
330
1F
100
AcDbEntity
  8
0
  6
Continuous
 62
     7
370
    18
100
AcDbSpline
210
0.0
220
0.0
230
1.0
 70
     8
 71
     3
 72
    35
 73
    31
 74
     0
 42
0.000000001
 43
0.00000001
 40
0.0
 40
0.0
 40
0.0
 40
0.0
 40
0.0016084481630806
 40
0.0198548077689048
 40
0.0459588983510612
 40
0.0739568273286929
 40
0.1092407742909373
 40
0.1518653642336603
 40
0.201904767559957
 40
0.2593514492992675
 40
0.3161532264282857
 40
0.3649377670188912
 40
0.4057297653416421
 40
0.4384734988735645
 40
0.4640099144249148
 40
0.4921521750085671
 40
0.5255996937657146
 40
0.5643490677675578
 40
0.6063690462953972
 40
0.6486016008888511
 40
0.6910089663462312
 40
0.7335635955261912
 40
0.7762524730231323
 40
0.8177189150864674
 40
0.8560241683481153
 40
0.8911879158635395
 40
0.9232182621106555
 40
0.9555146413721307
 40
0.9760211810718215
 40
0.9999999999999999
 40
0.9999999999999999
 40
0.9999999999999999
 40
0.9999999999999999
 10
133.5472023610411
 20
135.9605993918489
 30
0.0
 10
133.5474444217132
 20
135.9603812976516
 30
0.0
 10
133.5504324372576
 20
135.9576891261149
 30
0.0
 10
133.5422595762009
 20
135.975879641233
 30
0.0
 10
133.5277131857113
 20
136.0270874676226
 30
0.0
 10
133.502661537859
 20
136.1335640467386
 30
0.0
 10
133.4716288813116
 20
136.3052351589837
 30
0.0
 10
133.432192797051
 20
136.5787764131755
 30
0.0
 10
133.3850611833098
 20
136.9787009217891
 30
0.0
 10
133.3327906763351
 20
137.5023805473706
 30
0.0
 10
133.2806378460205
 20
138.0955287610749
 30
0.0
 10
133.2336804424429
 20
138.6758819121726
 30
0.0
 10
133.1944298081852
 20
139.1838887751769
 30
0.0
 10
133.1626364431436
 20
139.6045377088197
 30
0.0
 10
133.1348984045084
 20
139.9746845974111
 30
0.0
 10
133.106925664991
 20
140.3485252312022
 30
0.0
 10
133.0746827475574
 20
140.776710663163
 30
0.0
 10
133.0379367379934
 20
141.2554892460825
 30
0.0
 10
132.9983615066132
 20
141.7524996795728
 30
0.0
 10
132.9576033046938
 20
142.2370472030675
 30
0.0
 10
132.9166114047095
 20
142.6892541248255
 30
0.0
 10
132.8753004732795
 20
143.1017423297179
 30
0.0
 10
132.8341056169359
 20
143.4625044183983
 30
0.0
 10
132.7938180873861
 20
143.7586982255847
 30
0.0
 10
132.7545290507942
 20
143.991192812354
 30
0.0
 10
132.7153151858687
 20
144.1681422762535
 30
0.0
 10
132.6751531366909
 20
144.2967765415103
 30
0.0
 10
132.6290695235381
 20
144.3991265676108
 30
0.0
 10
132.518617822316
 20
144.5090317626389
 30
0.0
 10
132.4260082417591
 20
144.5242257096921
 30
0.0
 10
132.3760891575552
 20
144.532415660643
 30
0.0
  0
LWPOLYLINE
  5
D6
330
1F
100
AcDbEntity
  8
0
  6
Continuous
 62
     7
370
    18
100
AcDbPolyline
 90
       32
 70
   128
 43
0.0
 10
131.5117468156
 20
136.0020641633
 10
131.5157383243
 20
136.000819496
 10
131.5157014508
 20
136.0392897962
 10
131.5006555372
 20
136.1316211452
 10
131.474594194
 20
136.2907810785
 10
131.4409384912
 20
136.525306544
 10
131.4020621419
 20
136.8404852122
 10
131.3618232168
 20
137.2153896007
 10
131.3237020467
 20
137.6125473626
 10
131.2877551305
 20
138.0198089716
 10
131.2540234269
 20
138.4263099785
 10
131.2225420736
 20
138.8223830942
 10
131.1664418595
 20
139.5550839871
 10
131.1172013389
 20
140.2111370662
 10
131.0857329621
 20
140.629136172
 10
131.0552993433
 20
141.0279157362
 10
131.022556077
 20
141.4469931881
 10
130.9943201675
 20
141.7969347104
 10
130.9628971619
 20
142.1704502277
 10
130.9282466031
 20
142.5586448085
 10
130.8903190438
 20
142.9495968643
 10
130.8490821752
 20
143.327541382
 10
130.8081086211
 20
143.6481178386
 10
130.769436634
 20
143.8968418761
 10
130.7320494378
 20
144.086208014
 10
130.6945728303
 20
144.2278345755
 10
130.6552768976
 20
144.3320597028
 10
130.6287796553
 20
144.3810970843
 10
130.5789581993
 20
144.4440100002
 10
130.4964587025
 20
144.5044982091
 10
130.3771413726
 20
144.5324699454
 10
130.3771413726
 20
144.5324699454
  0
SPLINE
  5
D7
330
1F
100
AcDbEntity
  8
0
  6
Continuous
 62
     7
370
    18
100
AcDbSpline
210
0.0
220
0.0
230
1.0
 70
     8
 71
     3
 72
    25
 73
    21
 74
     0
 42
0.000000001
 43
0.00000001
 40
0.0
 40
0.0
 40
0.0
 40
0.0
 40
0.0156325915023561
 40
0.0282427954322263
 40
0.0381564463540085
 40
0.0423170239392518
 40
0.0461187497945795
 40
0.0497551543103393
 40
0.0534463347932256
 40
0.0617624393562884
 40
0.1016148876227748
 40
0.1410747671582241
 40
0.2256127303226594
 40
0.3179760429681724
 40
0.4249295151006847
 40
0.540072956101334
 40
0.6552685392871653
 40
0.7704900411365815
 40
0.8857102206879951
 40
1.0
 40
1.0
 40
1.0
 40
1.0
 10
131.3765318396399
 20
135.5357277779885
 30
0.0
 10
131.3953921438219
 20
135.5368204527582
 30
0.0
 10
131.429466322292
 20
135.5387945457927
 30
0.0
 10
131.4776642290241
 20
135.5570732738608
 30
0.0
 10
131.5115533666064
 20
135.576980880426
 30
0.0
 10
131.5333046221016
 20
135.593298615793
 30
0.0
 10
131.5465786910651
 20
135.6044836715152
 30
0.0
 10
131.5578600935652
 20
135.614906557584
 30
0.0
 10
131.5709360079506
 20
135.6278159269766
 30
0.0
 10
131.5977745489826
 20
135.6555741548663
 30
0.0
 10
131.6001488812525
 20
135.6486253568789
 30
0.0
 10
131.6274992639933
 20
135.6753862974457
 30
0.0
 10
131.6548075066088
 20
135.7205320201238
 30
0.0
 10
131.6937701803247
 20
135.8233754240535
 30
0.0
 10
131.7347783552007
 20
135.984329499715
 30
0.0
 10
131.7776059181235
 20
136.213312380445
 30
0.0
 10
131.819609880053
 20
136.499748720052
 30
0.0
 10
131.8604867516954
 20
136.8349867944756
 30
0.0
 10
131.9004607940015
 20
137.2102103438317
 30
0.0
 10
131.9266998975396
 20
137.4923168070739
 30
0.0
 10
131.9397662645398
 20
137.6327982292575
 30
0.0
  0
SPLINE
  5
D8
330
1F
100
AcDbEntity
  8
0
  6
Continuous
 62
     7
370
    18
100
AcDbSpline
210
0.0
220
0.0
230
1.0
 70
     8
 71
     3
 72
     9
 73
     5
 74
     0
 42
0.000000001
 43
0.00000001
 40
0.0
 40
0.0
 40
0.0
 40
0.0
 40
0.3958149103245189
 40
0.9999999999999999
 40
0.9999999999999999
 40
0.9999999999999999
 40
0.9999999999999999
 10
132.3224857204729
 20
142.4327982292575
 30
0.0
 10
132.330286625096
 20
142.5201433495354
 30
0.0
 10
132.3499950908956
 20
142.7408149766003
 30
0.0
 10
132.3695759893506
 20
142.9252396658562
 30
0.0
 10
132.3814064762396
 20
143.0366663132726
 30
0.0
  0
SPLINE
  5
D9
330
1F
100
AcDbEntity
  8
0
  6
Continuous
 62
     7
370
    18
100
AcDbSpline
210
0.0
220
0.0
230
1.0
 70
     8
 71
     3
 72
    18
 73
    14
 74
     0
 42
0.000000001
 43
0.00000001
 40
0.0
 40
0.0
 40
0.0
 40
0.0
 40
0.0566127436439553
 40
0.1067471055750223
 40
0.1883708804139284
 40
0.2591802552723902
 40
0.3412925826400819
 40
0.4353739941325078
 40
0.5414299055939675
 40
0.659437725101462
 40
0.7883684221069869
 40
0.9140287124861473
 40
1.0
 40
1.0
 40
1.0
 40
1.0
 10
133.3766457050079
 20
135.5349585094386
 30
0.0
 10
133.4159923582011
 20
135.5397476476342
 30
0.0
 10
133.4901830981669
 20
135.548777887253
 30
0.0
 10
133.5928696546544
 20
135.6220790880064
 30
0.0
 10
133.6576276591644
 20
135.722177923411
 30
0.0
 10
133.6871128991664
 20
135.804263490587
 30
0.0
 10
133.7216616977349
 20
135.9220181044127
 30
0.0
 10
133.7551893857837
 20
136.0807422735015
 30
0.0
 10
133.7916777086182
 20
136.296349051698
 30
0.0
 10
133.8305268522703
 20
136.5779651054334
 30
0.0
 10
133.8708038390842
 20
136.9242210879744
 30
0.0
 10
133.9075371835993
 20
137.2805580247919
 30
0.0
 10
133.9302751211878
 20
137.5310433491402
 30
0.0
 10
133.939511974163
 20
137.6327982292575
 30
0.0
  0
SPLINE
  5
DA
330
1F
100
AcDbEntity
  8
0
  6
Continuous
 62
     7
370
    18
100
AcDbSpline
210
0.0
220
0.0
230
1.0
 70
     8
 71
     3
 72
     9
 73
     5
 74
     0
 42
0.000000001
 43
0.00000001
 40
0.0
 40
0.0
 40
0.0
 40
0.0
 40
0.6212410013352586
 40
1.0
 40
1.0
 40
1.0
 40
1.0
 10
134.3219158136149
 20
142.4327982292575
 30
0.0
 10
134.3343004555608
 20
142.567717438431
 30
0.0
 10
134.354235781657
 20
142.7848943615308
 30
0.0
 10
134.3740658359422
 20
142.9659148489731
 30
0.0
 10
134.3815766474467
 20
143.0344779875345
 30
0.0
  0
SPLINE
  5
DB
330
1F
100
AcDbEntity
  8
0
  6
Continuous
 62
     7
370
    18
100
AcDbSpline
210
0.0
220
0.0
230
1.0
 70
     8
 71
     3
 72
    25
 73
    21
 74
     0
 42
0.000000001
 43
0.00000001
 40
0.0
 40
0.0
 40
0.0
 40
0.0
 40
0.0147342011060778
 40
0.0268066773810602
 40
0.0365822475730002
 40
0.0408312718081141
 40
0.0448174182285559
 40
0.0487099751278892
 40
0.0526910724245804
 40
0.0615442511818325
 40
0.1019181887915123
 40
0.1415950938710959
 40
0.2266236987886588
 40
0.3196346714676792
 40
0.4274738391447145
 40
0.5435690331488553
 40
0.6595654966199296
 40
0.7754462817149933
 40
0.8913489972372856
 40
1.0
 40
1.0
 40
1.0
 40
1.0
 10
135.3760743868624
 20
135.5334339065512
 30
0.0
 10
135.3951003679333
 20
135.5345589652598
 30
0.0
 10
135.4297152976981
 20
135.5366058414779
 30
0.0
 10
135.4784991809769
 20
135.5548695815641
 30
0.0
 10
135.512608974433
 20
135.5746053695356
 30
0.0
 10
135.5343535966748
 20
135.5906080899057
 30
0.0
 10
135.5477646108994
 20
135.6016935272668
 30
0.0
 10
135.5591459835594
 20
135.6120197413485
 30
0.0
 10
135.5723194017673
 20
135.6248151753921
 30
0.0
 10
135.5990326912679
 20
135.6523111024671
 30
0.0
 10
135.6027103912855
 20
135.6478372726224
 30
0.0
 10
135.6300575711593
 20
135.6762888979977
 30
0.0
 10
135.6577790505672
 20
135.7255815954032
 30
0.0
 10
135.6966096985498
 20
135.833704755997
 30
0.0
 10
135.7373873932635
 20
135.998964842075
 30
0.0
 10
135.7799521216665
 20
136.2291378971708
 30
0.0
 10
135.8218275043607
 20
136.5158154263012
 30
0.0
 10
135.8626482078161
 20
136.8518821398592
 30
0.0
 10
135.9018682577051
 20
137.223054682024
 30
0.0
 10
135.9273253249216
 20
137.4991895362519
 30
0.0
 10
135.9396428046836
 20
137.6327982292575
 30
0.0
  0
SPLINE
  5
DC
330
1F
100
AcDbEntity
  8
0
  6
Continuous
 62
     7
370
    18
100
AcDbSpline
210
0.0
220
0.0
230
1.0
 70
     8
 71
     3
 72
     9
 73
     5
 74
     0
 42
0.000000001
 43
0.00000001
 40
0.0
 40
0.0
 40
0.0
 40
0.0
 40
0.4288665238963609
 40
1.0
 40
1.0
 40
1.0
 40
1.0
 10
136.3224524566772
 20
142.4327982292575
 30
0.0
 10
136.3309487451615
 20
142.5273424091824
 30
0.0
 10
136.3507597772914
 20
142.7477937026665
 30
0.0
 10
136.3703733136587
 20
142.9311287790184
 30
0.0
 10
136.3815752608629
 20
143.035837578467
 30
0.0
  0
LINE
  5
DD
330
1F
100
AcDbEntity
  8
0
  6
Continuous
 62
     7
370
    18
100
AcDbLine
 10
155.1298372272
 20
131.9498944606
 30
0.0
 11
155.6107144422
 21
132.7827982293
 31
0.0
  0
LINE
  5
DE
330
1F
100
AcDbEntity
  8
0
  6
Continuous
 62
     7
370
    18
100
AcDbLine
 10
152.6107144422
 20
132.7827982293
 30
0.0
 11
153.0915916573
 21
131.9498944606
 31
0.0
  0
LINE
  5
DF
330
1F
100
AcDbEntity
  8
0
  6
Continuous
 62
     7
370
    18
100
AcDbLine
 10
155.6107144422
 20
147.2827982293
 30
0.0
 11
155.1298372272
 21
148.1157019979
 31
0.0
  0
LINE
  5
E0
330
1F
100
AcDbEntity
  8
0
  6
Continuous
 62
     7
370
    18
100
AcDbLine
 10
153.0915916573
 20
148.1157019979
 30
0.0
 11
152.6107144422
 21
147.2827982293
 31
0.0
  0
LINE
  5
E1
330
1F
100
AcDbEntity
  8
0
  6
Continuous
 62
     7
370
    18
100
AcDbLine
 10
158.6107144422
 20
147.2827982293
 30
0.0
 11
158.1298372272
 21
148.1157019979
 31
0.0
  0
LINE
  5
E2
330
1F
100
AcDbEntity
  8
0
  6
Continuous
 62
     7
370
    18
100
AcDbLine
 10
156.0915916573
 20
148.1157019979
 30
0.0
 11
155.6107144422
 21
147.2827982293
 31
0.0
  0
LINE
  5
E3
330
1F
100
AcDbEntity
  8
0
  6
Continuous
 62
     7
370
    18
100
AcDbLine
 10
158.1298372272
 20
131.9498944606
 30
0.0
 11
158.6107144422
 21
132.7827982293
 31
0.0
  0
LINE
  5
E4
330
1F
100
AcDbEntity
  8
0
  6
Continuous
 62
     7
370
    18
100
AcDbLine
 10
155.6107144422
 20
132.7827982293
 30
0.0
 11
156.0915916573
 21
131.9498944606
 31
0.0
  0
LINE
  5
E5
330
1F
100
AcDbEntity
  8
0
  6
Continuous
 62
     7
370
    18
100
AcDbLine
 10
164.2827538305
 20
142.1134750878
 30
0.0
 11
163.6827538305
 21
142.1134750878
 31
0.0
  0
LINE
  5
E6
330
1F
100
AcDbEntity
  8
0
  6
Continuous
 62
     7
370
    18
100
AcDbLine
 10
164.2827538305
 20
136.5327982293
 30
0.0
 11
164.2827538305
 21
142.1134750878
 31
0.0
  0
LINE
  5
E7
330
1F
100
AcDbEntity
  8
0
  6
Continuous
 62
     7
370
    18
100
AcDbLine
 10
163.6827538305
 20
136.5327982293
 30
0.0
 11
163.6827538305
 21
142.1134750878
 31
0.0
  0
LINE
  5
E8
330
1F
100
AcDbEntity
  8
0
  6
Continuous
 62
     7
370
    18
100
AcDbLine
 10
163.6827538305
 20
142.1134750878
 30
0.0
 11
163.6827538305
 21
142.1945792673
 31
0.0
  0
LINE
  5
E9
330
1F
100
AcDbEntity
  8
0
  6
Continuous
 62
     7
370
    18
100
AcDbLine
 10
164.2827538305
 20
142.1945792673
 30
0.0
 11
164.2827538305
 21
142.1134750878
 31
0.0
  0
LINE
  5
EA
330
1F
100
AcDbEntity
  8
0
  6
Continuous
 62
     7
370
    18
100
AcDbLine
 10
164.2827538305
 20
142.8206010899
 30
0.0
 11
163.6827538305
 21
142.8206010899
 31
0.0
  0
LINE
  5
EB
330
1F
100
AcDbEntity
  8
0
  6
Continuous
 62
     7
370
    18
100
AcDbLine
 10
163.6827538305
 20
142.1945792673
 30
0.0
 11
163.6827538305
 21
142.8206010899
 31
0.0
  0
LINE
  5
EC
330
1F
100
AcDbEntity
  8
0
  6
Continuous
 62
     7
370
    18
100
AcDbLine
 10
164.2827538305
 20
142.2327982293
 30
0.0
 11
164.2827538305
 21
142.8206010899
 31
0.0
  0
LINE
  5
ED
330
1F
100
AcDbEntity
  8
0
  6
Continuous
 62
     7
370
    18
100
AcDbLine
 10
163.6827538305
 20
142.8206010899
 30
0.0
 11
163.6827538305
 21
142.9680037631
 31
0.0
  0
LINE
  5
EE
330
1F
100
AcDbEntity
  8
0
  6
Continuous
 62
     7
370
    18
100
AcDbLine
 10
164.2827538305
 20
142.9680037631
 30
0.0
 11
164.2827538305
 21
142.8206010899
 31
0.0
  0
LINE
  5
EF
330
1F
100
AcDbEntity
  8
0
  6
Continuous
 62
     7
370
    18
100
AcDbLine
 10
129.5827538305
 20
145.7327982293
 30
0.0
 11
129.5827538305
 21
134.3327982293
 31
0.0
  0
SPLINE
  5
F0
330
1F
100
AcDbEntity
  8
0
  6
Continuous
 62
     7
370
    18
100
AcDbSpline
210
0.0
220
0.0
230
1.0
 70
     8
 71
     3
 72
    14
 73
    10
 74
     0
 42
0.000000001
 43
0.00000001
 40
0.0
 40
0.0
 40
0.0
 40
0.0
 40
0.1250000000000007
 40
0.1250000000000007
 40
0.2500000000000014
 40
0.2500000000000014
 40
0.5000000000000012
 40
0.5000000000000012
 40
1.0
 40
1.0
 40
1.0
 40
1.0
 10
127.5827538304843
 20
134.6126967541927
 30
0.0
 10
127.5827538304843
 20
134.5639400413514
 30
0.0
 10
127.5907860609383
 20
134.5211886990524
 30
0.0
 10
127.6120562721519
 20
134.4433169874675
 30
0.0
 10
127.6256052777207
 20
134.4087898888524
 30
0.0
 10
127.669038058894
 20
134.3160947397784
 30
0.0
 10
127.7016398620733
 20
134.2684198968453
 30
0.0
 10
127.7930135260069
 20
134.1535266958358
 30
0.0
 10
127.8456553508565
 20
134.1129296007642
 30
0.0
 10
127.8827538304844
 20
134.0868969942386
 30
0.0
  0
LINE
  5
F1
330
1F
100
AcDbEntity
  8
0
  6
Continuous
 62
     7
370
    18
100
AcDbLine
 10
127.5827538305
 20
134.6126967542
 30
0.0
 11
127.5827538305
 21
145.7327982293
 31
0.0
  0
LINE
  5
F2
330
1F
100
AcDbEntity
  8
0
  6
Continuous
 62
     7
370
    18
100
AcDbLine
 10
131.5827538305
 20
143.4827982293
 30
0.0
 11
131.5827538305
 21
136.5827982293
 31
0.0
  0
LINE
  5
F3
330
1F
100
AcDbEntity
  8
0
  6
Continuous
 62
     7
370
    18
100
AcDbLine
 10
123.5827538305
 20
137.0112092433
 30
0.0
 11
123.5827538305
 21
138.9827982293
 31
0.0
  0
SPLINE
  5
F4
330
1F
100
AcDbEntity
  8
0
  6
Continuous
 62
     7
370
    18
100
AcDbSpline
210
0.0
220
0.0
230
1.0
 70
     8
 71
     3
 72
    12
 73
     8
 74
     0
 42
0.000000001
 43
0.00000001
 40
0.0
 40
0.0
 40
0.0
 40
0.0
 40
0.25
 40
0.25
 40
0.5
 40
0.5
 40
1.0
 40
1.0
 40
1.0
 40
1.0
 10
123.2827538304899
 20
136.5629279146776
 30
0.0
 10
123.3321658281835
 20
136.562927914679
 30
0.0
 10
123.3813747031854
 20
136.5818590782718
 30
0.0
 10
123.4607388061855
 20
136.6417124160415
 30
0.0
 10
123.4924110667392
 20
136.6822090796987
 30
0.0
 10
123.5635215602768
 20
136.8123161351398
 30
0.0
 10
123.5827538304844
 20
136.9122438418254
 30
0.0
 10
123.5827538304844
 20
137.0112092433099
 30
0.0
  0
LINE
  5
F5
330
1F
100
AcDbEntity
  8
0
  6
Continuous
 62
     7
370
    18
100
AcDbLine
 10
121.8827538305
 20
136.5629279147
 30
0.0
 11
123.2827538305
 21
136.5629279147
 31
0.0
  0
SPLINE
  5
F6
330
1F
100
AcDbEntity
  8
0
  6
Continuous
 62
     7
370
    18
100
AcDbSpline
210
0.0
220
0.0
230
1.0
 70
     8
 71
     3
 72
    12
 73
     8
 74
     0
 42
0.000000001
 43
0.00000001
 40
0.0
 40
0.0
 40
0.0
 40
0.0
 40
0.4999999999999989
 40
0.4999999999999989
 40
0.7499999999999994
 40
0.7499999999999994
 40
1.0
 40
1.0
 40
1.0
 40
1.0
 10
121.5827538304843
 20
137.0112092433099
 30
0.0
 10
121.5827538304843
 20
136.9126043681316
 30
0.0
 10
121.6018077362518
 20
136.8127280844651
 30
0.0
 10
121.6730535063884
 20
136.6822452315231
 30
0.0
 10
121.7042772089373
 20
136.6421704348868
 30
0.0
 10
121.7840034180289
 20
136.5818702104534
 30
0.0
 10
121.8331584096785
 20
136.5629279146776
 30
0.0
 10
121.8827538304844
 20
136.5629279146776
 30
0.0
  0
SPLINE
  5
F7
330
1F
100
AcDbEntity
  8
0
  6
Continuous
 62
     7
370
    18
100
AcDbSpline
210
0.0
220
0.0
230
1.0
 70
     8
 71
     3
 72
    12
 73
     8
 74
     0
 42
0.000000001
 43
0.00000001
 40
0.0
 40
0.0
 40
0.0
 40
0.0
 40
0.250000000000001
 40
0.250000000000001
 40
0.500000000000002
 40
0.500000000000002
 40
1.0
 40
1.0
 40
1.0
 40
1.0
 10
121.8827538304844
 20
143.5026685438373
 30
0.0
 10
121.8332723236404
 20
143.5026685438374
 30
0.0
 10
121.7840075272739
 20
143.4836875721899
 30
0.0
 10
121.7045721643583
 20
143.4236907374179
 30
0.0
 10
121.6733581220871
 20
143.3838464409784
 30
0.0
 10
121.6015824789964
 20
143.2525806725785
 30
0.0
 10
121.5827538304844
 20
143.152645455289
 30
0.0
 10
121.5827538304844
 20
143.0543872152051
 30
0.0
  0
LINE
  5
F8
330
1F
100
AcDbEntity
  8
0
  6
Continuous
 62
     7
370
    18
100
AcDbLine
 10
123.2827538305
 20
143.5026685438
 30
0.0
 11
121.8827538305
 21
143.5026685438
 31
0.0
  0
SPLINE
  5
F9
330
1F
100
AcDbEntity
  8
0
  6
Continuous
 62
     7
370
    18
100
AcDbSpline
210
0.0
220
0.0
230
1.0
 70
     8
 71
     3
 72
    12
 73
     8
 74
     0
 42
0.000000001
 43
0.00000001
 40
0.0
 40
0.0
 40
0.0
 40
0.0
 40
0.5
 40
0.5
 40
0.75
 40
0.75
 40
1.0
 40
1.0
 40
1.0
 40
1.0
 10
123.5827538304844
 20
143.0543872152051
 30
0.0
 10
123.5827538304844
 20
143.1527355231479
 30
0.0
 10
123.5634429324912
 20
143.253687079205
 30
0.0
 10
123.4920420471649
 20
143.3839299748797
 30
0.0
 10
123.4606204328361
 20
143.4239743188043
 30
0.0
 10
123.381485840668
 20
143.4836525608312
 30
0.0
 10
123.3322013661217
 20
143.502668543838
 30
0.0
 10
123.2827538304844
 20
143.502668543838
 30
0.0
  0
LINE
  5
FA
330
1F
100
AcDbEntity
  8
0
  6
Continuous
 62
     7
370
    18
100
AcDbLine
 10
123.5827538305
 20
141.0827982293
 30
0.0
 11
123.5827538305
 21
143.0543872152
 31
0.0
  0
LINE
  5
FB
330
1F
100
AcDbEntity
  8
0
  6
Continuous
 62
     7
370
    18
100
AcDbLine
 10
127.5827538305
 20
141.0827982293
 30
0.0
 11
123.5827538305
 21
141.0827982293
 31
0.0
  0
LINE
  5
FC
330
1F
100
AcDbEntity
  8
0
  6
Continuous
 62
     7
370
    18
100
AcDbLine
 10
123.5827538305
 20
138.9827982293
 30
0.0
 11
127.5827538305
 21
138.9827982293
 31
0.0
  0
LINE
  5
FD
330
1F
100
AcDbEntity
  8
0
  6
Continuous
 62
     7
370
    18
100
AcDbLine
 10
121.5827538305
 20
137.0112092433
 30
0.0
 11
121.5827538305
 21
143.0543872152
 31
0.0
  0
LINE
  5
FE
330
1F
100
AcDbEntity
  8
0
  6
Continuous
 62
     7
370
    18
100
AcDbLine
 10
121.5827538305
 20
143.0543872152
 30
0.0
 11
121.5827538305
 21
144.7327982293
 31
0.0
  0
LINE
  5
FF
330
1F
100
AcDbEntity
  8
0
  6
Continuous
 62
     7
370
    18
100
AcDbLine
 10
121.5827538305
 20
135.3327982293
 30
0.0
 11
121.5827538305
 21
137.0112092433
 31
0.0
  0
LINE
  5
100
330
1F
100
AcDbEntity
  8
0
  6
Continuous
 62
     7
370
    18
100
AcDbLine
 10
123.2827538305
 20
135.096617769
 30
0.0
 11
123.2827538305
 21
136.5629279147
 31
0.0
  0
LINE
  5
101
330
1F
100
AcDbEntity
  8
0
  6
Continuous
 62
     7
370
    18
100
AcDbLine
 10
123.5827538305
 20
144.7327982293
 30
0.0
 11
123.5827538305
 21
143.0543872152
 31
0.0
  0
SPLINE
  5
102
330
1F
100
AcDbEntity
  8
0
  6
Continuous
 62
     7
370
    18
100
AcDbSpline
210
0.0
220
0.0
230
1.0
 70
     8
 71
     3
 72
    14
 73
    10
 74
     0
 42
0.000000001
 43
0.00000001
 40
0.0
 40
0.0
 40
0.0
 40
0.0
 40
0.5000000000000009
 40
0.5000000000000009
 40
0.7500000000000004
 40
0.7500000000000004
 40
0.8750000000000002
 40
0.8750000000000002
 40
1.0
 40
1.0
 40
1.0
 40
1.0
 10
123.2827538304843
 20
135.0966177689735
 30
0.0
 10
123.3209242848937
 20
135.1282756908288
 30
0.0
 10
123.3759134299912
 20
135.1777317993887
 30
0.0
 10
123.4685230762426
 20
135.309614096079
 30
0.0
 10
123.5009512326513
 20
135.3634931484628
 30
0.0
 10
123.5427860798509
 20
135.4640352625112
 30
0.0
 10
123.5556270497816
 20
135.5010421917064
 30
0.0
 10
123.5754338112821
 20
135.5826216397586
 30
0.0
 10
123.5827538304844
 20
135.6272546611983
 30
0.0
 10
123.5827538304844
 20
135.6764809772658
 30
0.0
  0
LINE
  5
103
330
1F
100
AcDbEntity
  8
0
  6
Continuous
 62
     7
370
    18
100
AcDbLine
 10
123.5827538305
 20
137.0112092433
 30
0.0
 11
123.5827538305
 21
135.6764809773
 31
0.0
  0
SPLINE
  5
104
330
1F
100
AcDbEntity
  8
0
  6
Continuous
 62
     7
370
    18
100
AcDbSpline
210
0.0
220
0.0
230
1.0
 70
     8
 71
     3
 72
    14
 73
    10
 74
     0
 42
0.000000001
 43
0.00000001
 40
0.0
 40
0.0
 40
0.0
 40
0.0
 40
0.25
 40
0.25
 40
0.5
 40
0.5
 40
0.75
 40
0.75
 40
1.0
 40
1.0
 40
1.0
 40
1.0
 10
127.0745905651782
 20
136.6173075115154
 30
0.0
 10
127.1168337645411
 20
136.5988562956263
 30
0.0
 10
127.17183538325
 20
136.5867204261215
 30
0.0
 10
127.2918787084355
 20
136.5779248007332
 30
0.0
 10
127.3552724045673
 20
136.5815453557204
 30
0.0
 10
127.4639752844144
 20
136.6035520129346
 30
0.0
 10
127.508929392541
 20
136.6219141742329
 30
0.0
 10
127.5679255067762
 20
136.6675080678702
 30
0.0
 10
127.5827538304843
 20
136.6948301347357
 30
0.0
 10
127.5827538304843
 20
136.7237198077027
 30
0.0
  0
SPLINE
  5
105
330
1F
100
AcDbEntity
  8
0
  6
Continuous
 62
     7
370
    18
100
AcDbSpline
210
0.0
220
0.0
230
1.0
 70
     8
 71
     3
 72
    20
 73
    16
 74
     0
 42
0.000000001
 43
0.00000001
 40
0.0
 40
0.0
 40
0.0
 40
0.0
 40
0.1249999999999998
 40
0.1249999999999998
 40
0.2499999999999996
 40
0.2499999999999996
 40
0.3749999999999994
 40
0.3749999999999994
 40
0.4999999999999993
 40
0.4999999999999993
 40
0.6249999999999992
 40
0.6249999999999992
 40
0.749999999999999
 40
0.749999999999999
 40
1.0
 40
1.0
 40
1.0
 40
1.0
 10
127.0745905651782
 20
136.6173075115154
 30
0.0
 10
126.9781712741111
 20
136.6594220573404
 30
0.0
 10
126.8721296411638
 20
136.7024344653952
 30
0.0
 10
126.6458217980378
 20
136.783344994924
 30
0.0
 10
126.5266148990583
 20
136.820934009043
 30
0.0
 10
126.2748131204976
 20
136.8857132108288
 30
0.0
 10
126.1402944347107
 20
136.913115412006
 30
0.0
 10
125.8662441172845
 20
136.9502771672689
 30
0.0
 10
125.7268667853837
 20
136.9602373941856
 30
0.0
 10
125.4430466387799
 20
136.9604408866195
 30
0.0
 10
125.3023068361175
 20
136.9505424074638
 30
0.0
 10
125.0289000573518
 20
136.913759204759
 30
0.0
 10
124.8940952747581
 20
136.8864972703341
 30
0.0
 10
124.513430599902
 20
136.7888363548743
 30
0.0
 10
124.2839864133196
 20
136.7016373850344
 30
0.0
 10
124.0909170957905
 20
136.6173075115155
 30
0.0
  0
SPLINE
  5
106
330
1F
100
AcDbEntity
  8
0
  6
Continuous
 62
     7
370
    18
100
AcDbSpline
210
0.0
220
0.0
230
1.0
 70
     8
 71
     3
 72
    14
 73
    10
 74
     0
 42
0.000000001
 43
0.00000001
 40
0.0
 40
0.0
 40
0.0
 40
0.0
 40
0.25
 40
0.25
 40
0.5
 40
0.5
 40
0.75
 40
0.75
 40
1.0
 40
1.0
 40
1.0
 40
1.0
 10
123.5827538304844
 20
136.7237198077027
 30
0.0
 10
123.5827538304844
 20
136.6948098156323
 30
0.0
 10
123.597573042419
 20
136.6676048660184
 30
0.0
 10
123.6560804762873
 20
136.6222098992439
 30
0.0
 10
123.7004313235208
 20
136.6038618618637
 30
0.0
 10
123.8097754464725
 20
136.5815527313746
 30
0.0
 10
123.8724576154708
 20
136.5779135112249
 30
0.0
 10
123.993198819201
 20
136.5866122095331
 30
0.0
 10
124.0485893968964
 20
136.5988193874584
 30
0.0
 10
124.0909170957905
 20
136.6173075115155
 30
0.0
  0
LINE
  5
107
330
1F
100
AcDbEntity
  8
0
  6
Continuous
 62
     7
370
    18
100
AcDbLine
 10
116.0827538305
 20
140.0327982293
 30
0.0
 11
116.0827538305
 21
143.2327982293
 31
0.0
  0
LINE
  5
108
330
1F
100
AcDbEntity
  8
0
  6
Continuous
 62
     7
370
    18
100
AcDbLine
 10
116.0827538305
 20
136.8327982293
 30
0.0
 11
116.0827538305
 21
140.0327982293
 31
0.0
  0
LINE
  5
109
330
1F
100
AcDbEntity
  8
0
  6
Continuous
 62
     7
370
    18
100
AcDbLine
 10
118.0827538305
 20
143.2327982293
 30
0.0
 11
118.0827538305
 21
136.8327982293
 31
0.0
  0
SPLINE
  5
10A
330
1F
100
AcDbEntity
  8
0
  6
Continuous
 62
     7
370
    18
100
AcDbSpline
210
0.0
220
0.0
230
1.0
 70
    24
 71
     3
 72
    14
 73
    10
 74
     0
 42
0.000000001
 43
0.00000001
 40
0.0
 40
0.0
 40
0.0
 40
0.0
 40
0.5000000000000024
 40
0.5000000000000024
 40
0.750000000000001
 40
0.750000000000001
 40
0.8750000000000004
 40
0.8750000000000004
 40
1.0
 40
1.0
 40
1.0
 40
1.0
 10
164.3591470353045
 20
137.6327982292575
 30
0.0
 10
164.35915271581
 20
137.6327982292575
 30
0.0
 10
164.3667973057154
 20
137.6327982292575
 30
0.0
 10
164.4034770646125
 20
137.6327982292575
 30
0.0
 10
164.4197133763917
 20
137.6327982292575
 30
0.0
 10
164.4599688857757
 20
137.6327982292575
 30
0.0
 10
164.4763045727829
 20
137.6327982292575
 30
0.0
 10
164.5200901308114
 20
137.6327982292575
 30
0.0
 10
164.5500980173757
 20
137.6327982292575
 30
0.0
 10
164.5827538304844
 20
137.6327982292575
 30
0.0
  0
SPLINE
  5
10B
330
1F
100
AcDbEntity
  8
0
  6
Continuous
 62
     7
370
    18
100
AcDbSpline
210
0.0
220
0.0
230
1.0
 70
    24
 71
     3
 72
    14
 73
    10
 74
     0
 42
0.000000001
 43
0.00000001
 40
0.0
 40
0.0
 40
0.0
 40
0.0
 40
0.1250000000000001
 40
0.1250000000000001
 40
0.2500000000000003
 40
0.2500000000000003
 40
0.5000000000000001
 40
0.5000000000000001
 40
1.0
 40
1.0
 40
1.0
 40
1.0
 10
164.5827538304877
 20
142.4327982292575
 30
0.0
 10
164.5494827172171
 20
142.4327982292575
 30
0.0
 10
164.519999367368
 20
142.4327982292575
 30
0.0
 10
164.4764147281955
 20
142.4327982292575
 30
0.0
 10
164.4600533791443
 20
142.4327982292575
 30
0.0
 10
164.419622602597
 20
142.4327982292575
 30
0.0
 10
164.4032763807593
 20
142.4327982292575
 30
0.0
 10
164.3669092916132
 20
142.4327982292575
 30
0.0
 10
164.3591462563559
 20
142.4327982292575
 30
0.0
 10
164.3591470327819
 20
142.4327982292575
 30
0.0
  0
LINE
  5
10C
330
1F
100
AcDbEntity
  8
0
  6
Continuous
 62
     7
370
    18
100
AcDbLine
 10
164.5827538305
 20
142.4327982293
 30
0.0
 11
164.5827538305
 21
137.6327982293
 31
0.0
  0
LINE
  5
10D
330
1F
100
AcDbEntity
  8
0
  6
Continuous
 62
     7
370
    18
100
AcDbLine
 10
164.2827538305
 20
142.1945792673
 30
0.0
 11
164.2827538305
 21
142.2327982293
 31
0.0
  0
SPLINE
  5
10E
330
1F
100
AcDbEntity
  8
0
  6
Continuous
 62
     7
370
    18
100
AcDbSpline
210
0.0
220
0.0
230
1.0
 70
    24
 71
     3
 72
    10
 73
     6
 74
     0
 42
0.000000001
 43
0.00000001
 40
0.0
 40
0.0
 40
0.0
 40
0.0
 40
0.3285456730220725
 40
0.6594933776849768
 40
1.0
 40
1.0
 40
1.0
 40
1.0
 10
165.0827538304844
 20
137.6327982292575
 30
0.0
 10
165.1018308013505
 20
137.6327982292575
 30
0.0
 10
165.1401242168041
 20
137.6327982292575
 30
0.0
 10
165.1771069853897
 20
137.6327982292575
 30
0.0
 10
165.1769322173404
 20
137.6327982292575
 30
0.0
 10
165.1768435893046
 20
137.6327982292575
 30
0.0
  0
LINE
  5
10F
330
1F
100
AcDbEntity
  8
0
  6
Continuous
 62
     7
370
    18
100
AcDbLine
 10
165.0827538305
 20
137.6327982293
 30
0.0
 11
165.0827538305
 21
142.4327982293
 31
0.0
  0
SPLINE
  5
110
330
1F
100
AcDbEntity
  8
0
  6
Continuous
 62
     7
370
    18
100
AcDbSpline
210
0.0
220
0.0
230
1.0
 70
    24
 71
     3
 72
    10
 73
     6
 74
     0
 42
0.000000001
 43
0.00000001
 40
0.0
 40
0.0
 40
0.0
 40
0.0
 40
0.3404816310287933
 40
0.6689535038213255
 40
1.0
 40
1.0
 40
1.0
 40
1.0
 10
165.1764421030174
 20
142.4327982292575
 30
0.0
 10
165.1767028279608
 20
142.4327982292575
 30
0.0
 10
165.1772150813354
 20
142.4327982292575
 30
0.0
 10
165.1402085758553
 20
142.4327982292575
 30
0.0
 10
165.101955190045
 20
142.4327982292575
 30
0.0
 10
165.0827538304844
 20
142.4327982292575
 30
0.0
  0
LINE
  5
111
330
1F
100
AcDbEntity
  8
0
  6
Continuous
 62
     7
370
    18
100
AcDbLine
 10
165.5827538305
 20
142.0327982293
 30
0.0
 11
165.5827538305
 21
138.0327982293
 31
0.0
  0
LINE
  5
112
330
1F
100
AcDbEntity
  8
0
  6
Continuous
 62
     7
370
    18
100
AcDbLine
 10
165.0827538305
 20
137.6327982293
 30
0.0
 11
164.5827538305
 21
137.6327982293
 31
0.0
  0
LINE
  5
113
330
1F
100
AcDbEntity
  8
0
  6
Continuous
 62
     7
370
    18
100
AcDbLine
 10
165.0827538305
 20
142.4327982293
 30
0.0
 11
164.5827538305
 21
142.4327982293
 31
0.0
  0
LINE
  5
114
330
1F
100
AcDbEntity
  8
0
  6
Continuous
 62
     7
370
    18
100
AcDbLine
 10
123.5827538305
 20
125.7327982293
 30
0.0
 11
127.5827538305
 21
125.7327982293
 31
0.0
  0
LINE
  5
115
330
1F
100
AcDbEntity
  8
0
  6
Continuous
 62
     7
370
    18
100
AcDbLine
 10
123.0827538305
 20
128.2327982293
 30
0.0
 11
128.0827538305
 21
128.2327982293
 31
0.0
  0
LINE
  5
116
330
1F
100
AcDbEntity
  8
0
  6
Continuous
 62
     7
370
    18
100
AcDbLine
 10
123.0827538305
 20
130.7327982293
 30
0.0
 11
128.0827538305
 21
130.7327982293
 31
0.0
  0
LINE
  5
117
330
1F
100
AcDbEntity
  8
0
  6
Continuous
 62
     7
370
    18
100
AcDbLine
 10
141.5827538305
 20
137.6327982293
 30
0.0
 11
141.3230306448
 21
137.6327982293
 31
0.0
  0
LINE
  5
118
330
1F
100
AcDbEntity
  8
0
  6
Continuous
 62
     7
370
    18
100
AcDbLine
 10
140.824189316
 20
137.6327982293
 30
0.0
 11
139.3219444787
 21
137.6327982293
 31
0.0
  0
LINE
  5
119
330
1F
100
AcDbEntity
  8
0
  6
Continuous
 62
     7
370
    18
100
AcDbLine
 10
138.8236859392
 20
137.6327982293
 30
0.0
 11
137.3221043882
 21
137.6327982293
 31
0.0
  0
LINE
  5
11A
330
1F
100
AcDbEntity
  8
0
  6
Continuous
 62
     7
370
    18
100
AcDbLine
 10
136.8235941125
 20
137.6327982293
 30
0.0
 11
135.3220737819
 21
137.6327982293
 31
0.0
  0
LINE
  5
11B
330
1F
100
AcDbEntity
  8
0
  6
Continuous
 62
     7
370
    18
100
AcDbLine
 10
134.823800928
 20
137.6327982293
 30
0.0
 11
133.3223526268
 21
137.6327982293
 31
0.0
  0
LINE
  5
11C
330
1F
100
AcDbEntity
  8
0
  6
Continuous
 62
     7
370
    18
100
AcDbLine
 10
132.8242822679
 20
137.6327982293
 30
0.0
 11
131.5827538305
 21
137.6327982293
 31
0.0
  0
LINE
  5
11D
330
1F
100
AcDbEntity
  8
0
  6
Continuous
 62
     7
370
    18
100
AcDbLine
 10
141.5827538305
 20
142.4327982293
 30
0.0
 11
140.9392146741
 21
142.4327982293
 31
0.0
  0
LINE
  5
11E
330
1F
100
AcDbEntity
  8
0
  6
Continuous
 62
     7
370
    18
100
AcDbLine
 10
140.4409114013
 20
142.4327982293
 30
0.0
 11
138.9397032301
 21
142.4327982293
 31
0.0
  0
LINE
  5
11F
330
1F
100
AcDbEntity
  8
0
  6
Continuous
 62
     7
370
    18
100
AcDbLine
 10
138.441046814
 20
142.4327982293
 30
0.0
 11
136.9398107137
 21
142.4327982293
 31
0.0
  0
LINE
  5
120
330
1F
100
AcDbEntity
  8
0
  6
Continuous
 62
     7
370
    18
100
AcDbLine
 10
136.4410798256
 20
142.4327982293
 30
0.0
 11
134.9394434787
 21
142.4327982293
 31
0.0
  0
LINE
  5
121
330
1F
100
AcDbEntity
  8
0
  6
Continuous
 62
     7
370
    18
100
AcDbLine
 10
134.441011183
 20
142.4327982293
 30
0.0
 11
132.9392744912
 21
142.4327982293
 31
0.0
  0
LINE
  5
122
330
1F
100
AcDbEntity
  8
0
  6
Continuous
 62
     7
370
    18
100
AcDbLine
 10
132.4408042355
 20
142.4327982293
 30
0.0
 11
131.5827538305
 21
142.4327982293
 31
0.0
  0
SPLINE
  5
123
330
1F
100
AcDbEntity
  8
0
  6
Continuous
 62
     7
370
    18
100
AcDbSpline
210
0.0
220
0.0
230
1.0
 70
     8
 71
     3
 72
    14
 73
    10
 74
     0
 42
0.000000001
 43
0.00000001
 40
0.0
 40
0.0
 40
0.0
 40
0.0
 40
0.25
 40
0.25
 40
0.5
 40
0.5
 40
0.75
 40
0.75
 40
1.0
 40
1.0
 40
1.0
 40
1.0
 10
124.0909170957905
 20
135.6764809772659
 30
0.0
 10
124.0909170957905
 20
135.5566097535614
 30
0.0
 10
124.0643283915662
 20
135.4391571352612
 30
0.0
 10
123.9850356892931
 20
135.2321348480556
 30
0.0
 10
123.9315129130055
 20
135.1410747525944
 30
0.0
 10
123.8197253345522
 20
134.9937064040366
 30
0.0
 10
123.7603843995622
 20
134.9357016898697
 30
0.0
 10
123.6533497576028
 20
134.8497752150213
 30
0.0
 10
123.6041352527303
 20
134.820357445283
 30
0.0
 10
123.5643864835456
 20
134.8004469413564
 30
0.0
  0
LINE
  5
124
330
1F
100
AcDbEntity
  8
0
  6
Continuous
 62
     7
370
    18
100
AcDbLine
 10
124.0909170958
 20
136.6173075115
 30
0.0
 11
124.0909170958
 21
135.6764809773
 31
0.0
  0
LINE
  5
125
330
1F
100
AcDbEntity
  8
0
  6
Continuous
 62
     7
370
    18
100
AcDbLine
 10
127.0745905652
 20
134.6126967542
 30
0.0
 11
127.0745905652
 21
136.6173075115
 31
0.0
  0
SPLINE
  5
126
330
1F
100
AcDbEntity
  8
0
  6
Continuous
 62
     7
370
    18
100
AcDbSpline
210
0.0
220
0.0
230
1.0
 70
     8
 71
     3
 72
    14
 73
    10
 74
     0
 42
0.000000001
 43
0.00000001
 40
0.0
 40
0.0
 40
0.0
 40
0.0
 40
0.25
 40
0.25
 40
0.5
 40
0.5
 40
0.75
 40
0.75
 40
1.0
 40
1.0
 40
1.0
 40
1.0
 10
127.6011211774233
 20
133.7896019324876
 30
0.0
 10
127.5618869217255
 20
133.8060727019496
 30
0.0
 10
127.5148571262483
 20
133.830171580661
 30
0.0
 10
127.4080863696733
 20
133.9065138274479
 30
0.0
 10
127.350216481839
 20
133.957553028036
 30
0.0
 10
127.236812183465
 20
134.0953157165292
 30
0.0
 10
127.1826966920334
 20
134.1809259481609
 30
0.0
 10
127.1013138768844
 20
134.3817084972236
 30
0.0
 10
127.0745905651782
 20
134.4952936166642
 30
0.0
 10
127.0745905651782
 20
134.6126967541927
 30
0.0
  0
LINE
  5
127
330
1F
100
AcDbEntity
  8
0
  6
Continuous
 62
     7
370
    18
100
AcDbLine
 10
124.0909170958
 20
135.6764809773
 30
0.0
 11
123.5827538305
 21
135.6764809773
 31
0.0
  0
LINE
  5
128
330
1F
100
AcDbEntity
  8
0
  6
Continuous
 62
     7
370
    18
100
AcDbLine
 10
127.5827538305
 20
134.6126967542
 30
0.0
 11
127.0745905652
 21
134.6126967542
 31
0.0
  0
ARC
  5
129
330
1F
100
AcDbEntity
  8
0
  6
Continuous
 62
     7
370
    18
100
AcDbCircle
 10
123.2553965546
 20
134.7886139115
 30
0.0
 40
0.3092164238623407
100
AcDbArc
 50
2.1931184903
 51
84.9242393729
  0
ARC
  5
12A
330
1F
100
AcDbEntity
  8
0
  6
Continuous
 62
     7
370
    18
100
AcDbCircle
 10
127.9074918195
 20
133.781417053
 30
0.0
 40
0.3064799546520335
100
AcDbArc
 50
94.6297513169
 51
178.4696721395
  0
LINE
  5
12B
330
1F
100
AcDbEntity
  8
0
  6
Continuous
 62
     7
370
    18
100
AcDbLine
 10
143.5827538305
 20
132.5272467459
 30
0.0
 11
146.5827538305
 21
132.5272467459
 31
0.0
  0
LINE
  5
12C
330
1F
100
AcDbEntity
  8
0
  6
Continuous
 62
     7
370
    18
100
AcDbLine
 10
143.5827538305
 20
132.5272467459
 30
0.0
 11
143.5827538305
 21
136.2847867784
 31
0.0
  0
LINE
  5
12D
330
1F
100
AcDbEntity
  8
0
  6
Continuous
 62
     7
370
    18
100
AcDbLine
 10
143.5827538305
 20
136.2847867784
 30
0.0
 11
146.5827538305
 21
136.2847867784
 31
0.0
  0
LINE
  5
12E
330
1F
100
AcDbEntity
  8
0
  6
Continuous
 62
     7
370
    18
100
AcDbLine
 10
146.5827538305
 20
132.5272467459
 30
0.0
 11
146.5827538305
 21
136.2847867784
 31
0.0
  0
LINE
  5
12F
330
1F
100
AcDbEntity
  8
0
  6
Continuous
 62
     7
370
    18
100
AcDbLine
 10
143.5827538305
 20
136.2847867784
 30
0.0
 11
143.5827538305
 21
143.7903382618
 31
0.0
  0
LINE
  5
130
330
1F
100
AcDbEntity
  8
0
  6
Continuous
 62
     7
370
    18
100
AcDbLine
 10
143.5827538305
 20
143.7903382618
 30
0.0
 11
146.5827538305
 21
143.7903382618
 31
0.0
  0
LINE
  5
131
330
1F
100
AcDbEntity
  8
0
  6
Continuous
 62
     7
370
    18
100
AcDbLine
 10
146.5827538305
 20
136.2847867784
 30
0.0
 11
146.5827538305
 21
143.7903382618
 31
0.0
  0
LINE
  5
132
330
1F
100
AcDbEntity
  8
0
  6
Continuous
 62
     7
370
    18
100
AcDbLine
 10
143.5827538305
 20
147.5383497126
 30
0.0
 11
146.5827538305
 21
147.5383497126
 31
0.0
  0
LINE
  5
133
330
1F
100
AcDbEntity
  8
0
  6
Continuous
 62
     7
370
    18
100
AcDbLine
 10
143.5827538305
 20
143.7903382618
 30
0.0
 11
143.5827538305
 21
147.5383497126
 31
0.0
  0
LINE
  5
134
330
1F
100
AcDbEntity
  8
0
  6
Continuous
 62
     7
370
    18
100
AcDbLine
 10
146.5827538305
 20
143.7903382618
 30
0.0
 11
146.5827538305
 21
147.5383497126
 31
0.0
  0
LINE
  5
135
330
1F
100
AcDbEntity
  8
0
  6
Continuous
 62
     7
370
    18
100
AcDbLine
 10
148.0827538305
 20
135.0327982293
 30
0.0
 11
148.0827538305
 21
145.0327982293
 31
0.0
  0
LINE
  5
136
330
1F
100
AcDbEntity
  8
0
  6
Continuous
 62
     7
370
    18
100
AcDbLine
 10
162.5827538305
 20
135.0327982293
 30
0.0
 11
162.5827538305
 21
145.0327982293
 31
0.0
  0
LINE
  5
137
330
1F
100
AcDbEntity
  8
0
  6
Continuous
 62
     7
370
    18
100
AcDbLine
 10
163.5827538305
 20
144.0327982293
 30
0.0
 11
163.5827538305
 21
136.0327982293
 31
0.0
  0
LINE
  5
138
330
1F
100
AcDbEntity
  8
0
  6
Continuous
 62
     7
370
    18
100
AcDbLine
 10
142.0827538305
 20
143.7827982293
 30
0.0
 11
142.0827538305
 21
136.2827982293
 31
0.0
  0
LINE
  5
139
330
1F
100
AcDbEntity
  8
0
  6
Continuous
 62
     7
370
    18
100
AcDbLine
 10
141.5827538305
 20
136.7827982293
 30
0.0
 11
141.5827538305
 21
143.2827982293
 31
0.0
  0
SPLINE
  5
13A
330
1F
100
AcDbEntity
  8
0
  6
Continuous
 62
     7
370
    18
100
AcDbSpline
210
0.0
220
0.0
230
1.0
 70
     8
 71
     3
 72
    14
 73
    10
 74
     0
 42
0.000000001
 43
0.00000001
 40
0.0
 40
0.0
 40
0.0
 40
0.0
 40
0.0138344024261745
 40
0.1928976716412443
 40
0.3896246295521558
 40
0.5760216978387331
 40
0.7532980905041571
 40
0.949571478996715
 40
1.0
 40
1.0
 40
1.0
 40
1.0
 10
143.5230454975603
 20
136.048416540062
 30
0.0
 10
143.5238164872605
 20
136.0465867690694
 30
0.0
 10
143.534566652931
 20
136.0210736638966
 30
0.0
 10
143.5314129323311
 20
135.9630622277328
 30
0.0
 10
143.5108724877937
 20
135.8849613712189
 30
0.0
 10
143.4583809040572
 20
135.8198122203389
 30
0.0
 10
143.388391988626
 20
135.7745341738484
 30
0.0
 10
143.3260088671407
 20
135.7566122194314
 30
0.0
 10
143.2890931825635
 20
135.7555181328647
 30
0.0
 10
143.2815472199933
 20
135.755294489815
 30
0.0
  0
SPLINE
  5
13B
330
1F
100
AcDbEntity
  8
0
  6
Continuous
 62
     7
370
    18
100
AcDbSpline
210
0.0
220
0.0
230
1.0
 70
     8
 71
     3
 72
    15
 73
    11
 74
     0
 42
0.000000001
 43
0.00000001
 40
0.0
 40
0.0
 40
0.0
 40
0.0
 40
0.1255620002805812
 40
0.2550127869896937
 40
0.3804644678286019
 40
0.5090996685396654
 40
0.6427042632161456
 40
0.7806799018745763
 40
0.9053152967498141
 40
1.0
 40
1.0
 40
1.0
 40
1.0
 10
143.2815472199933
 20
135.755294489815
 30
0.0
 10
143.2678273836026
 20
135.7559892096869
 30
0.0
 10
143.2399627931436
 20
135.7574001656315
 30
0.0
 10
143.1996772361641
 20
135.7681394452418
 30
0.0
 10
143.161367937073
 20
135.7844769446597
 30
0.0
 10
143.12585010116
 20
135.8066788824186
 30
0.0
 10
143.0935240950344
 20
135.8349464697142
 30
0.0
 10
143.0674968372765
 20
135.868034020405
 30
0.0
 10
143.0496219322775
 20
135.9013544931751
 30
0.0
 10
143.0436035533776
 20
135.9234369350567
 30
0.0
 10
143.0410053034905
 20
135.9329703497982
 30
0.0
  0
LINE
  5
13C
330
1F
100
AcDbEntity
  8
0
  6
Continuous
 62
     7
370
    18
100
AcDbLine
 10
152.6107144422
 20
141.9202568381
 30
0.0
 11
152.6107144422
 21
145.1512467513
 31
0.0
  0
SPLINE
  5
13D
330
1F
100
AcDbEntity
  8
0
  6
Continuous
 62
     7
370
    18
100
AcDbSpline
210
0.0
220
0.0
230
1.0
 70
     8
 71
     3
 72
     8
 73
     4
 74
     0
 42
0.000000001
 43
0.00000001
 40
0.0
 40
0.0
 40
0.0
 40
0.0
 40
1.0
 40
1.0
 40
1.0
 40
1.0
 10
153.091591657289
 20
144.0742501135859
 30
0.0
 10
152.8872921367146
 20
144.4281072631828
 30
0.0
 10
152.7194355526776
 20
144.7895829179597
 30
0.0
 10
152.6107144422472
 20
145.1512467513406
 30
0.0
  0
SPLINE
  5
13E
330
1F
100
AcDbEntity
  8
0
  6
Continuous
 62
     7
370
    18
100
AcDbSpline
210
0.0
220
0.0
230
1.0
 70
     8
 71
     3
 72
    10
 73
     6
 74
     0
 42
0.000000001
 43
0.00000001
 40
0.0
 40
0.0
 40
0.0
 40
0.0
 40
0.5
 40
0.5
 40
1.0
 40
1.0
 40
1.0
 40
1.0
 10
152.6107144422472
 20
141.9202568380763
 30
0.0
 10
152.6656564605241
 20
142.2857891779328
 30
0.0
 10
152.7353973944604
 20
142.6499625327996
 30
0.0
 10
152.8974948505031
 20
143.3675658993552
 30
0.0
 10
152.9900346917111
 20
143.7224464650993
 30
0.0
 10
153.091591657289
 20
144.074250113586
 30
0.0
  0
SPLINE
  5
13F
330
1F
100
AcDbEntity
  8
0
  6
Continuous
 62
     7
370
    18
100
AcDbSpline
210
0.0
220
0.0
230
1.0
 70
     8
 71
     3
 72
    10
 73
     6
 74
     0
 42
0.000000001
 43
0.00000001
 40
0.0
 40
0.0
 40
0.0
 40
0.0
 40
0.5
 40
0.5
 40
1.0
 40
1.0
 40
1.0
 40
1.0
 10
155.1298372272053
 20
144.074250113586
 30
0.0
 10
155.2315721498616
 20
143.7218300036962
 30
0.0
 10
155.3242903690904
 20
143.3662169906063
 30
0.0
 10
155.4866866332135
 20
142.6468322125106
 30
0.0
 10
155.5561860786585
 20
142.2830371100105
 30
0.0
 10
155.6107144422472
 20
141.9202568380763
 30
0.0
  0
LINE
  5
140
330
1F
100
AcDbEntity
  8
0
  6
Continuous
 62
     7
370
    18
100
AcDbLine
 10
155.6107144422
 20
138.1453396204
 30
0.0
 11
155.6107144422
 21
141.9202568381
 31
0.0
  0
SPLINE
  5
141
330
1F
100
AcDbEntity
  8
0
  6
Continuous
 62
     7
370
    18
100
AcDbSpline
210
0.0
220
0.0
230
1.0
 70
     8
 71
     3
 72
    10
 73
     6
 74
     0
 42
0.000000001
 43
0.00000001
 40
0.0
 40
0.0
 40
0.0
 40
0.0
 40
0.5
 40
0.5
 40
1.0
 40
1.0
 40
1.0
 40
1.0
 10
155.6107144422472
 20
138.1453396204409
 30
0.0
 10
155.5557724239703
 20
137.7798072805844
 30
0.0
 10
155.4860314900339
 20
137.4156339257176
 30
0.0
 10
155.3239340339912
 20
136.6980305591619
 30
0.0
 10
155.2313941927831
 20
136.3431499934179
 30
0.0
 10
155.1298372272053
 20
135.9913463449312
 30
0.0
  0
LINE
  5
142
330
1F
100
AcDbEntity
  8
0
  6
Continuous
 62
     7
370
    18
100
AcDbLine
 10
155.1298372272
 20
135.9913463449
 30
0.0
 11
153.0915916573
 21
135.9913463449
 31
0.0
  0
SPLINE
  5
143
330
1F
100
AcDbEntity
  8
0
  6
Continuous
 62
     7
370
    18
100
AcDbSpline
210
0.0
220
0.0
230
1.0
 70
     8
 71
     3
 72
    10
 73
     6
 74
     0
 42
0.000000001
 43
0.00000001
 40
0.0
 40
0.0
 40
0.0
 40
0.0
 40
0.5000000000000001
 40
0.5000000000000001
 40
1.0
 40
1.0
 40
1.0
 40
1.0
 10
153.091591657289
 20
135.9913463449312
 30
0.0
 10
152.9898567346327
 20
136.343766454821
 30
0.0
 10
152.8971385154039
 20
136.6993794679109
 30
0.0
 10
152.7347422512808
 20
137.4187642460065
 30
0.0
 10
152.6652428058358
 20
137.7825593485067
 30
0.0
 10
152.6107144422472
 20
138.1453396204409
 30
0.0
  0
LINE
  5
144
330
1F
100
AcDbEntity
  8
0
  6
Continuous
 62
     7
370
    18
100
AcDbLine
 10
152.6107144422
 20
138.1453396204
 30
0.0
 11
152.6107144422
 21
141.9202568381
 31
0.0
  0
LINE
  5
145
330
1F
100
AcDbEntity
  8
0
  6
Continuous
 62
     7
370
    18
100
AcDbLine
 10
155.1298372272
 20
144.0742501136
 30
0.0
 11
153.0915916573
 21
144.0742501136
 31
0.0
  0
SPLINE
  5
146
330
1F
100
AcDbEntity
  8
0
  6
Continuous
 62
     7
370
    18
100
AcDbSpline
210
0.0
220
0.0
230
1.0
 70
     8
 71
     3
 72
     8
 73
     4
 74
     0
 42
0.000000001
 43
0.00000001
 40
0.0
 40
0.0
 40
0.0
 40
0.0
 40
1.0
 40
1.0
 40
1.0
 40
1.0
 10
155.1298372272053
 20
135.9913463449312
 30
0.0
 10
155.3341367477798
 20
135.6374891953342
 30
0.0
 10
155.5019933318167
 20
135.2760135405571
 30
0.0
 10
155.6107144422472
 20
134.9143497071761
 30
0.0
  0
LINE
  5
147
330
1F
100
AcDbEntity
  8
0
  6
Continuous
 62
     7
370
    18
100
AcDbLine
 10
155.6107144422
 20
133.0268910984
 30
0.0
 11
155.6107144422
 21
134.9143497072
 31
0.0
  0
SPLINE
  5
148
330
1F
100
AcDbEntity
  8
0
  6
Continuous
 62
     7
370
    18
100
AcDbSpline
210
0.0
220
0.0
230
1.0
 70
     8
 71
     3
 72
     8
 73
     4
 74
     0
 42
0.000000001
 43
0.00000001
 40
0.0
 40
0.0
 40
0.0
 40
0.0
 40
1.0
 40
1.0
 40
1.0
 40
1.0
 10
155.6107144422472
 20
133.0268910983579
 30
0.0
 10
155.5005510245468
 20
132.6604293892553
 30
0.0
 10
155.333387263982
 20
132.3024534661826
 30
0.0
 10
155.1298372272053
 20
131.9498944606027
 30
0.0
  0
LINE
  5
149
330
1F
100
AcDbEntity
  8
0
  6
Continuous
 62
     7
370
    18
100
AcDbLine
 10
155.1298372272
 20
131.9498944606
 30
0.0
 11
153.0915916573
 21
131.9498944606
 31
0.0
  0
SPLINE
  5
14A
330
1F
100
AcDbEntity
  8
0
  6
Continuous
 62
     7
370
    18
100
AcDbSpline
210
0.0
220
0.0
230
1.0
 70
     8
 71
     3
 72
     8
 73
     4
 74
     0
 42
0.000000001
 43
0.00000001
 40
0.0
 40
0.0
 40
0.0
 40
0.0
 40
1.0
 40
1.0
 40
1.0
 40
1.0
 10
153.091591657289
 20
131.9498944606027
 30
0.0
 10
152.8872921367146
 20
132.3037516101998
 30
0.0
 10
152.7194355526776
 20
132.6652272649768
 30
0.0
 10
152.6107144422472
 20
133.0268910983579
 30
0.0
  0
LINE
  5
14B
330
1F
100
AcDbEntity
  8
0
  6
Continuous
 62
     7
370
    18
100
AcDbLine
 10
152.6107144422
 20
133.0268910984
 30
0.0
 11
152.6107144422
 21
134.9143497072
 31
0.0
  0
SPLINE
  5
14C
330
1F
100
AcDbEntity
  8
0
  6
Continuous
 62
     7
370
    18
100
AcDbSpline
210
0.0
220
0.0
230
1.0
 70
     8
 71
     3
 72
     8
 73
     4
 74
     0
 42
0.000000001
 43
0.00000001
 40
0.0
 40
0.0
 40
0.0
 40
0.0
 40
1.0
 40
1.0
 40
1.0
 40
1.0
 10
152.6107144422472
 20
134.9143497071761
 30
0.0
 10
152.7208778599475
 20
135.2808114162787
 30
0.0
 10
152.8880416205123
 20
135.6387873393514
 30
0.0
 10
153.091591657289
 20
135.9913463449312
 30
0.0
  0
LINE
  5
14D
330
1F
100
AcDbEntity
  8
0
  6
Continuous
 62
     7
370
    18
100
AcDbLine
 10
155.6107144422
 20
138.1453396204
 30
0.0
 11
155.6107144422
 21
134.9143497072
 31
0.0
  0
LINE
  5
14E
330
1F
100
AcDbEntity
  8
0
  6
Continuous
 62
     7
370
    18
100
AcDbLine
 10
152.6107144422
 20
134.9143497072
 30
0.0
 11
152.6107144422
 21
138.1453396204
 31
0.0
  0
SPLINE
  5
14F
330
1F
100
AcDbEntity
  8
0
  6
Continuous
 62
     7
370
    18
100
AcDbSpline
210
0.0
220
0.0
230
1.0
 70
     8
 71
     3
 72
     8
 73
     4
 74
     0
 42
0.000000001
 43
0.00000001
 40
0.0
 40
0.0
 40
0.0
 40
0.0
 40
1.0
 40
1.0
 40
1.0
 40
1.0
 10
155.6107144422472
 20
145.1512467513406
 30
0.0
 10
155.5005510245468
 20
144.7847850422381
 30
0.0
 10
155.333387263982
 20
144.4268091191656
 30
0.0
 10
155.1298372272053
 20
144.0742501135859
 30
0.0
  0
LINE
  5
150
330
1F
100
AcDbEntity
  8
0
  6
Continuous
 62
     7
370
    18
100
AcDbLine
 10
155.6107144422
 20
145.1512467513
 30
0.0
 11
155.6107144422
 21
141.9202568381
 31
0.0
  0
SPLINE
  5
151
330
1F
100
AcDbEntity
  8
0
  6
Continuous
 62
     7
370
    18
100
AcDbSpline
210
0.0
220
0.0
230
1.0
 70
     8
 71
     3
 72
     8
 73
     4
 74
     0
 42
0.000000001
 43
0.00000001
 40
0.0
 40
0.0
 40
0.0
 40
0.0
 40
1.0
 40
1.0
 40
1.0
 40
1.0
 10
155.1298372272053
 20
148.1157019979123
 30
0.0
 10
155.3341367477798
 20
147.7618448483155
 30
0.0
 10
155.5019933318167
 20
147.4003691935386
 30
0.0
 10
155.6107144422472
 20
147.0387053601577
 30
0.0
  0
SPLINE
  5
152
330
1F
100
AcDbEntity
  8
0
  6
Continuous
 62
     7
370
    18
100
AcDbSpline
210
0.0
220
0.0
230
1.0
 70
     8
 71
     3
 72
     8
 73
     4
 74
     0
 42
0.000000001
 43
0.00000001
 40
0.0
 40
0.0
 40
0.0
 40
0.0
 40
1.0
 40
1.0
 40
1.0
 40
1.0
 10
152.6107144422472
 20
147.0387053601577
 30
0.0
 10
152.7208778599475
 20
147.4051670692601
 30
0.0
 10
152.8880416205123
 20
147.7631429923326
 30
0.0
 10
153.091591657289
 20
148.1157019979123
 30
0.0
  0
LINE
  5
153
330
1F
100
AcDbEntity
  8
0
  6
Continuous
 62
     7
370
    18
100
AcDbLine
 10
155.1298372272
 20
148.1157019979
 30
0.0
 11
153.0915916573
 21
148.1157019979
 31
0.0
  0
LINE
  5
154
330
1F
100
AcDbEntity
  8
0
  6
Continuous
 62
     7
370
    18
100
AcDbLine
 10
155.6107144422
 20
145.1512467513
 30
0.0
 11
155.6107144422
 21
147.0387053602
 31
0.0
  0
LINE
  5
155
330
1F
100
AcDbEntity
  8
0
  6
Continuous
 62
     7
370
    18
100
AcDbLine
 10
152.6107144422
 20
145.1512467513
 30
0.0
 11
152.6107144422
 21
147.0387053602
 31
0.0
  0
LINE
  5
156
330
1F
100
AcDbEntity
  8
0
  6
Continuous
 62
     7
370
    18
100
AcDbLine
 10
155.6107144422
 20
133.0268910984
 30
0.0
 11
155.6107144422
 21
132.7827982293
 31
0.0
  0
LINE
  5
157
330
1F
100
AcDbEntity
  8
0
  6
Continuous
 62
     7
370
    18
100
AcDbLine
 10
152.6107144422
 20
132.7827982293
 30
0.0
 11
152.6107144422
 21
133.0268910984
 31
0.0
  0
LINE
  5
158
330
1F
100
AcDbEntity
  8
0
  6
Continuous
 62
     7
370
    18
100
AcDbLine
 10
155.6107144422
 20
147.2827982293
 30
0.0
 11
155.6107144422
 21
147.0387053602
 31
0.0
  0
LINE
  5
159
330
1F
100
AcDbEntity
  8
0
  6
Continuous
 62
     7
370
    18
100
AcDbLine
 10
152.6107144422
 20
147.0387053602
 30
0.0
 11
152.6107144422
 21
147.2827982293
 31
0.0
  0
SPLINE
  5
15A
330
1F
100
AcDbEntity
  8
0
  6
Continuous
 62
     7
370
    18
100
AcDbSpline
210
0.0
220
0.0
230
1.0
 70
     8
 71
     3
 72
    10
 73
     6
 74
     0
 42
0.000000001
 43
0.00000001
 40
0.0
 40
0.0
 40
0.0
 40
0.0
 40
0.5
 40
0.5
 40
1.0
 40
1.0
 40
1.0
 40
1.0
 10
156.091591657289
 20
135.9913463449301
 30
0.0
 10
155.9898567346327
 20
136.3437664548199
 30
0.0
 10
155.8971385154039
 20
136.6993794679098
 30
0.0
 10
155.7347422512808
 20
137.4187642460054
 30
0.0
 10
155.6652428058358
 20
137.7825593485056
 30
0.0
 10
155.6107144422472
 20
138.1453396204398
 30
0.0
  0
SPLINE
  5
15B
330
1F
100
AcDbEntity
  8
0
  6
Continuous
 62
     7
370
    18
100
AcDbSpline
210
0.0
220
0.0
230
1.0
 70
     8
 71
     3
 72
     8
 73
     4
 74
     0
 42
0.000000001
 43
0.00000001
 40
0.0
 40
0.0
 40
0.0
 40
0.0
 40
1.0
 40
1.0
 40
1.0
 40
1.0
 10
155.6107144422472
 20
134.9143497071753
 30
0.0
 10
155.7208778599475
 20
135.2808114162778
 30
0.0
 10
155.8880416205123
 20
135.6387873393504
 30
0.0
 10
156.091591657289
 20
135.9913463449301
 30
0.0
  0
SPLINE
  5
15C
330
1F
100
AcDbEntity
  8
0
  6
Continuous
 62
     7
370
    18
100
AcDbSpline
210
0.0
220
0.0
230
1.0
 70
     8
 71
     3
 72
    10
 73
     6
 74
     0
 42
0.000000001
 43
0.00000001
 40
0.0
 40
0.0
 40
0.0
 40
0.0
 40
0.5
 40
0.5
 40
1.0
 40
1.0
 40
1.0
 40
1.0
 10
158.1298372272053
 20
144.0742501135849
 30
0.0
 10
158.2315721498616
 20
143.7218300036951
 30
0.0
 10
158.3242903690904
 20
143.3662169906052
 30
0.0
 10
158.4866866332135
 20
142.6468322125096
 30
0.0
 10
158.5561860786585
 20
142.2830371100094
 30
0.0
 10
158.6107144422472
 20
141.9202568380751
 30
0.0
  0
LINE
  5
15D
330
1F
100
AcDbEntity
  8
0
  6
Continuous
 62
     7
370
    18
100
AcDbLine
 10
158.6107144422
 20
138.1453396204
 30
0.0
 11
158.6107144422
 21
141.9202568381
 31
0.0
  0
SPLINE
  5
15E
330
1F
100
AcDbEntity
  8
0
  6
Continuous
 62
     7
370
    18
100
AcDbSpline
210
0.0
220
0.0
230
1.0
 70
     8
 71
     3
 72
    10
 73
     6
 74
     0
 42
0.000000001
 43
0.00000001
 40
0.0
 40
0.0
 40
0.0
 40
0.0
 40
0.5
 40
0.5
 40
1.0
 40
1.0
 40
1.0
 40
1.0
 10
158.6107144422472
 20
138.1453396204398
 30
0.0
 10
158.5557724239703
 20
137.7798072805833
 30
0.0
 10
158.4860314900339
 20
137.4156339257165
 30
0.0
 10
158.3239340339912
 20
136.6980305591609
 30
0.0
 10
158.2313941927831
 20
136.3431499934168
 30
0.0
 10
158.1298372272053
 20
135.9913463449301
 30
0.0
  0
LINE
  5
15F
330
1F
100
AcDbEntity
  8
0
  6
Continuous
 62
     7
370
    18
100
AcDbLine
 10
158.1298372272
 20
135.9913463449
 30
0.0
 11
156.0915916573
 21
135.9913463449
 31
0.0
  0
SPLINE
  5
160
330
1F
100
AcDbEntity
  8
0
  6
Continuous
 62
     7
370
    18
100
AcDbSpline
210
0.0
220
0.0
230
1.0
 70
     8
 71
     3
 72
    10
 73
     6
 74
     0
 42
0.000000001
 43
0.00000001
 40
0.0
 40
0.0
 40
0.0
 40
0.0
 40
0.5
 40
0.5
 40
1.0
 40
1.0
 40
1.0
 40
1.0
 10
155.6107144422472
 20
141.9202568380752
 30
0.0
 10
155.665656460524
 20
142.2857891779317
 30
0.0
 10
155.7353973944604
 20
142.6499625327985
 30
0.0
 10
155.8974948505031
 20
143.3675658993542
 30
0.0
 10
155.9900346917112
 20
143.7224464650982
 30
0.0
 10
156.091591657289
 20
144.0742501135849
 30
0.0
  0
LINE
  5
161
330
1F
100
AcDbEntity
  8
0
  6
Continuous
 62
     7
370
    18
100
AcDbLine
 10
158.1298372272
 20
144.0742501136
 30
0.0
 11
156.0915916573
 21
144.0742501136
 31
0.0
  0
SPLINE
  5
162
330
1F
100
AcDbEntity
  8
0
  6
Continuous
 62
     7
370
    18
100
AcDbSpline
210
0.0
220
0.0
230
1.0
 70
     8
 71
     3
 72
     8
 73
     4
 74
     0
 42
0.000000001
 43
0.00000001
 40
0.0
 40
0.0
 40
0.0
 40
0.0
 40
1.0
 40
1.0
 40
1.0
 40
1.0
 10
158.6107144422472
 20
145.1512467513398
 30
0.0
 10
158.5005510245468
 20
144.7847850422372
 30
0.0
 10
158.333387263982
 20
144.4268091191646
 30
0.0
 10
158.1298372272053
 20
144.0742501135849
 30
0.0
  0
LINE
  5
163
330
1F
100
AcDbEntity
  8
0
  6
Continuous
 62
     7
370
    18
100
AcDbLine
 10
158.6107144422
 20
145.1512467513
 30
0.0
 11
158.6107144422
 21
141.9202568381
 31
0.0
  0
SPLINE
  5
164
330
1F
100
AcDbEntity
  8
0
  6
Continuous
 62
     7
370
    18
100
AcDbSpline
210
0.0
220
0.0
230
1.0
 70
     8
 71
     3
 72
     8
 73
     4
 74
     0
 42
0.000000001
 43
0.00000001
 40
0.0
 40
0.0
 40
0.0
 40
0.0
 40
1.0
 40
1.0
 40
1.0
 40
1.0
 10
158.1298372272053
 20
135.9913463449301
 30
0.0
 10
158.3341367477798
 20
135.6374891953332
 30
0.0
 10
158.5019933318167
 20
135.2760135405562
 30
0.0
 10
158.6107144422472
 20
134.9143497071753
 30
0.0
  0
LINE
  5
165
330
1F
100
AcDbEntity
  8
0
  6
Continuous
 62
     7
370
    18
100
AcDbLine
 10
158.6107144422
 20
133.0268910984
 30
0.0
 11
158.6107144422
 21
134.9143497072
 31
0.0
  0
SPLINE
  5
166
330
1F
100
AcDbEntity
  8
0
  6
Continuous
 62
     7
370
    18
100
AcDbSpline
210
0.0
220
0.0
230
1.0
 70
     8
 71
     3
 72
     8
 73
     4
 74
     0
 42
0.000000001
 43
0.00000001
 40
0.0
 40
0.0
 40
0.0
 40
0.0
 40
1.0
 40
1.0
 40
1.0
 40
1.0
 10
158.6107144422472
 20
133.0268910983576
 30
0.0
 10
158.5005510245468
 20
132.6604293892551
 30
0.0
 10
158.333387263982
 20
132.3024534661825
 30
0.0
 10
158.1298372272053
 20
131.9498944606027
 30
0.0
  0
LINE
  5
167
330
1F
100
AcDbEntity
  8
0
  6
Continuous
 62
     7
370
    18
100
AcDbLine
 10
158.1298372272
 20
131.9498944606
 30
0.0
 11
156.0915916573
 21
131.9498944606
 31
0.0
  0
SPLINE
  5
168
330
1F
100
AcDbEntity
  8
0
  6
Continuous
 62
     7
370
    18
100
AcDbSpline
210
0.0
220
0.0
230
1.0
 70
     8
 71
     3
 72
     8
 73
     4
 74
     0
 42
0.000000001
 43
0.00000001
 40
0.0
 40
0.0
 40
0.0
 40
0.0
 40
1.0
 40
1.0
 40
1.0
 40
1.0
 10
156.091591657289
 20
131.9498944606027
 30
0.0
 10
155.8872921367146
 20
132.3037516101997
 30
0.0
 10
155.7194355526776
 20
132.6652272649766
 30
0.0
 10
155.6107144422472
 20
133.0268910983576
 30
0.0
  0
LINE
  5
169
330
1F
100
AcDbEntity
  8
0
  6
Continuous
 62
     7
370
    18
100
AcDbLine
 10
158.6107144422
 20
138.1453396204
 30
0.0
 11
158.6107144422
 21
134.9143497072
 31
0.0
  0
SPLINE
  5
16A
330
1F
100
AcDbEntity
  8
0
  6
Continuous
 62
     7
370
    18
100
AcDbSpline
210
0.0
220
0.0
230
1.0
 70
     8
 71
     3
 72
     8
 73
     4
 74
     0
 42
0.000000001
 43
0.00000001
 40
0.0
 40
0.0
 40
0.0
 40
0.0
 40
1.0
 40
1.0
 40
1.0
 40
1.0
 10
156.091591657289
 20
144.0742501135849
 30
0.0
 10
155.8872921367146
 20
144.4281072631818
 30
0.0
 10
155.7194355526776
 20
144.7895829179588
 30
0.0
 10
155.6107144422472
 20
145.1512467513398
 30
0.0
  0
SPLINE
  5
16B
330
1F
100
AcDbEntity
  8
0
  6
Continuous
 62
     7
370
    18
100
AcDbSpline
210
0.0
220
0.0
230
1.0
 70
     8
 71
     3
 72
     8
 73
     4
 74
     0
 42
0.000000001
 43
0.00000001
 40
0.0
 40
0.0
 40
0.0
 40
0.0
 40
1.0
 40
1.0
 40
1.0
 40
1.0
 10
158.1298372272053
 20
148.1157019979123
 30
0.0
 10
158.3341367477798
 20
147.7618448483153
 30
0.0
 10
158.5019933318167
 20
147.4003691935384
 30
0.0
 10
158.6107144422472
 20
147.0387053601574
 30
0.0
  0
SPLINE
  5
16C
330
1F
100
AcDbEntity
  8
0
  6
Continuous
 62
     7
370
    18
100
AcDbSpline
210
0.0
220
0.0
230
1.0
 70
     8
 71
     3
 72
     8
 73
     4
 74
     0
 42
0.000000001
 43
0.00000001
 40
0.0
 40
0.0
 40
0.0
 40
0.0
 40
1.0
 40
1.0
 40
1.0
 40
1.0
 10
155.6107144422472
 20
147.0387053601574
 30
0.0
 10
155.7208778599475
 20
147.4051670692599
 30
0.0
 10
155.8880416205123
 20
147.7631429923325
 30
0.0
 10
156.091591657289
 20
148.1157019979123
 30
0.0
  0
LINE
  5
16D
330
1F
100
AcDbEntity
  8
0
  6
Continuous
 62
     7
370
    18
100
AcDbLine
 10
158.1298372272
 20
148.1157019979
 30
0.0
 11
156.0915916573
 21
148.1157019979
 31
0.0
  0
LINE
  5
16E
330
1F
100
AcDbEntity
  8
0
  6
Continuous
 62
     7
370
    18
100
AcDbLine
 10
158.6107144422
 20
145.1512467513
 30
0.0
 11
158.6107144422
 21
147.0387053602
 31
0.0
  0
LINE
  5
16F
330
1F
100
AcDbEntity
  8
0
  6
Continuous
 62
     7
370
    18
100
AcDbLine
 10
158.6107144422
 20
147.2827982293
 30
0.0
 11
158.6107144422
 21
147.0387053602
 31
0.0
  0
LINE
  5
170
330
1F
100
AcDbEntity
  8
0
  6
Continuous
 62
     7
370
    18
100
AcDbLine
 10
158.6107144422
 20
133.0268910984
 30
0.0
 11
158.6107144422
 21
132.7827982293
 31
0.0
  0
LINE
  5
171
330
1F
100
AcDbEntity
  8
0
  6
Continuous
 62
     8
370
    18
100
AcDbLine
 10
129.2827538305
 20
134.0327982293
 30
0.0
 11
129.2827538305
 21
146.0327982293
 31
0.0
  0
SPLINE
  5
172
330
1F
100
AcDbEntity
  8
0
  6
Continuous
 62
     8
370
    18
100
AcDbSpline
210
0.0
220
0.0
230
1.0
 70
     8
 71
     3
 72
    12
 73
     8
 74
     0
 42
0.000000001
 43
0.00000001
 40
0.0
 40
0.0
 40
0.0
 40
0.0
 40
0.2214102459051551
 40
0.4450777663009431
 40
0.6721751969184568
 40
0.901728138201073
 40
1.0
 40
1.0
 40
1.0
 40
1.0
 10
127.8827538304843
 20
134.0868969942386
 30
0.0
 10
127.9031701232289
 20
134.0796805923071
 30
0.0
 10
127.944210852549
 20
134.0651742173233
 30
0.0
 10
127.9885938370955
 20
134.0490485514186
 30
0.0
 10
128.0185382776022
 20
134.0380641912907
 30
0.0
 10
128.0327083971392
 20
134.0328148750435
 30
0.0
 10
128.0313218550162
 20
134.0333283717401
 30
0.0
 10
128.0309062120429
 20
134.0334823023638
 30
0.0
  0
LINE
  5
173
330
1F
100
AcDbEntity
  8
0
  6
Continuous
 62
     8
370
    18
100
AcDbLine
 10
127.8827538305
 20
146.0327982293
 30
0.0
 11
127.8827538305
 21
134.0868969942
 31
0.0
  0
LINE
  5
174
330
1F
100
AcDbEntity
  8
0
  6
Continuous
 62
     8
370
    18
100
AcDbLine
 10
131.2827538305
 20
138.0654283334
 30
0.0
 11
131.2827538305
 21
143.7827982293
 31
0.0
  0
LINE
  5
175
330
1F
100
AcDbEntity
  8
0
  6
Continuous
 62
     8
370
    18
100
AcDbLine
 10
121.8827538305
 20
145.0327982293
 30
0.0
 11
121.8827538305
 21
143.5026685438
 31
0.0
  0
LINE
  5
176
330
1F
100
AcDbEntity
  8
0
  6
Continuous
 62
     8
370
    18
100
AcDbLine
 10
121.8827538305
 20
136.5629279147
 30
0.0
 11
121.8827538305
 21
135.0327982293
 31
0.0
  0
SPLINE
  5
177
330
1F
100
AcDbEntity
  8
0
  6
Continuous
 62
     8
370
    18
100
AcDbSpline
210
0.0
220
0.0
230
1.0
 70
     8
 71
     3
 72
    12
 73
     8
 74
     0
 42
0.000000001
 43
0.00000001
 40
0.0
 40
0.0
 40
0.0
 40
0.0
 40
0.2049361848410237
 40
0.4249543816969131
 40
0.6485340582328614
 40
0.7609107448282718
 40
1.0
 40
1.0
 40
1.0
 40
1.0
 10
123.1331178206692
 20
135.0329568092948
 30
0.0
 10
123.1342165357824
 20
135.0334363805616
 30
0.0
 10
123.1364948245186
 20
135.0344308165188
 30
0.0
 10
123.1582284581169
 20
135.0438837691686
 30
0.0
 10
123.1883296518734
 20
135.0568380627886
 30
0.0
 10
123.228484868841
 20
135.0739530948016
 30
0.0
 10
123.2607827671773
 20
135.0874418611251
 30
0.0
 10
123.2827538304843
 20
135.0966177689735
 30
0.0
  0
LINE
  5
178
330
1F
100
AcDbEntity
  8
0
  6
Continuous
 62
     8
370
    18
100
AcDbLine
 10
123.2827538305
 20
143.5026685438
 30
0.0
 11
123.2827538305
 21
145.0327982293
 31
0.0
  0
LINE
  5
179
330
1F
100
AcDbEntity
  8
0
  6
Continuous
 62
     8
370
    18
100
AcDbLine
 10
117.7827538305
 20
136.5327982293
 30
0.0
 11
117.7827538305
 21
143.5327982293
 31
0.0
  0
LINE
  5
17A
330
1F
100
AcDbEntity
  8
0
  6
Continuous
 62
     8
370
    18
100
AcDbLine
 10
116.3827538305
 20
140.0327982293
 30
0.0
 11
116.3827538305
 21
136.5327982293
 31
0.0
  0
LINE
  5
17B
330
1F
100
AcDbEntity
  8
0
  6
Continuous
 62
     8
370
    18
100
AcDbLine
 10
116.3827538305
 20
143.5327982293
 30
0.0
 11
116.3827538305
 21
140.0327982293
 31
0.0
  0
SPLINE
  5
17C
330
1F
100
AcDbEntity
  8
0
  6
Continuous
 62
     8
370
    18
100
AcDbSpline
210
0.0
220
0.0
230
1.0
 70
     8
 71
     3
 72
    13
 73
     9
 74
     0
 42
0.000000001
 43
0.00000001
 40
0.0
 40
0.0
 40
0.0
 40
0.0
 40
0.1192475147657177
 40
0.2387354891556091
 40
0.454811016838542
 40
0.6724292329674504
 40
0.8950457741709796
 40
1.0
 40
1.0
 40
1.0
 40
1.0
 10
123.5643864835456
 20
134.8004469413564
 30
0.0
 10
123.5544557250703
 20
134.7954542706396
 30
0.0
 10
123.5345741829941
 20
134.7854588616107
 30
0.0
 10
123.5022829778446
 20
134.7689889194289
 30
0.0
 10
123.4701974313776
 20
134.7524189925356
 30
0.0
 10
123.4453145590237
 20
134.7394111527351
 30
0.0
 10
123.4329515095529
 20
134.7329025481633
 30
0.0
 10
123.4340775536371
 20
134.7334953569529
 30
0.0
 10
123.4344383400595
 20
134.7336852938882
 30
0.0
  0
SPLINE
  5
17D
330
1F
100
AcDbEntity
  8
0
  6
Continuous
 62
     8
370
    18
100
AcDbSpline
210
0.0
220
0.0
230
1.0
 70
     8
 71
     3
 72
    13
 73
     9
 74
     0
 42
0.000000001
 43
0.00000001
 40
0.0
 40
0.0
 40
0.0
 40
0.0
 40
0.0983979990970005
 40
0.2089498072188228
 40
0.4310120164345551
 40
0.6563806714365634
 40
0.8850949008551501
 40
1.0
 40
1.0
 40
1.0
 40
1.0
 10
127.7325353007737
 20
133.7328950499221
 30
0.0
 10
127.7323737013711
 20
133.7329667211791
 30
0.0
 10
127.7320305423199
 20
133.7331189162995
 30
0.0
 10
127.7258042276162
 20
133.7358755867607
 30
0.0
 10
127.7100838817193
 20
133.7428195602832
 30
0.0
 10
127.6773736113623
 20
133.7571091789776
 30
0.0
 10
127.6393869232071
 20
133.7734737103873
 30
0.0
 10
127.6107104796446
 20
133.7855602395101
 30
0.0
 10
127.6011211774233
 20
133.7896019324876
 30
0.0
  0
SPLINE
  5
17E
330
1F
100
AcDbEntity
  8
0
  6
Continuous
 62
     8
370
    18
100
AcDbSpline
210
0.0
220
0.0
230
1.0
 70
     8
 71
     3
 72
    25
 73
    21
 74
     0
 42
0.000000001
 43
0.00000001
 40
0.0
 40
0.0
 40
0.0
 40
0.0
 40
0.0580114283208407
 40
0.1159704164400295
 40
0.1739848651067328
 40
0.232058286011148
 40
0.2901058816403656
 40
0.3480869799709437
 40
0.4060947569683058
 40
0.464163152542589
 40
0.5222180640110002
 40
0.580205689746377
 40
0.6382026261742205
 40
0.696265000007111
 40
0.7543271135674962
 40
0.81232329278199
 40
0.8703098705751091
 40
0.9283642349305558
 40
0.9864327632632219
 40
1.0
 40
1.0
 40
1.0
 40
1.0
 10
143.2815472199933
 20
135.755294489815
 30
0.0
 10
143.2641043781858
 20
135.8419946611355
 30
0.0
 10
143.2292344622595
 20
136.0153166300044
 30
0.0
 10
143.1768294541111
 20
136.4159927815269
 30
0.0
 10
143.1244871374907
 20
136.9086515087242
 30
0.0
 10
143.0721846488293
 20
137.4860253097702
 30
0.0
 10
143.0198639346374
 20
138.1300422776655
 30
0.0
 10
142.9674698782768
 20
138.8262177752678
 30
0.0
 10
142.9151101051637
 20
139.5559174566224
 30
0.0
 10
142.8628035824667
 20
140.2980329053075
 30
0.0
 10
142.810488783501
 20
141.0331955503279
 30
0.0
 10
142.7581044718962
 20
141.7417383849574
 30
0.0
 10
142.7057320138996
 20
142.4023741214861
 30
0.0
 10
142.6534222054675
 20
142.9993652483658
 30
0.0
 10
142.6011124830845
 20
143.5183684323319
 30
0.0
 10
142.5487396648704
 20
143.9437023149214
 30
0.0
 10
142.4963560285944
 20
144.2621733645452
 30
0.0
 10
142.4440370990087
 20
144.4566020199476
 30
0.0
 10
142.4050914494488
 20
144.542479630356
 30
0.0
 10
142.3835420952465
 20
144.523795170995
 30
0.0
 10
142.3794608211831
 20
144.5202564849322
 30
0.0
  0
SPLINE
  5
17F
330
1F
100
AcDbEntity
  8
0
  6
Continuous
 62
     8
370
    18
100
AcDbSpline
210
0.0
220
0.0
230
1.0
 70
     8
 71
     3
 72
    27
 73
    23
 74
     0
 42
0.000000001
 43
0.00000001
 40
0.0
 40
0.0
 40
0.0
 40
0.0
 40
0.0381319930237346
 40
0.0903753330974
 40
0.1425587334777441
 40
0.1947377167458131
 40
0.2469774319145746
 40
0.299226625556466
 40
0.3514197643551073
 40
0.4035915637111142
 40
0.4558229751349777
 40
0.5080761001755607
 40
0.5602797252164475
 40
0.6124470621178214
 40
0.6646689516526396
 40
0.7169239406851002
 40
0.769138167659394
 40
0.8213042521281357
 40
0.8735158190010729
 40
0.9257705370241918
 40
0.9779949278821737
 40
1.0
 40
1.0
 40
1.0
 40
1.0
 10
141.3830311189851
 20
135.5469181461081
 30
0.0
 10
141.3702961374033
 20
135.5479087797105
 30
0.0
 10
141.3401133929101
 20
135.5502566465461
 30
0.0
 10
141.292520081282
 20
135.6925028249014
 30
0.0
 10
141.2401430003146
 20
135.9496952204401
 30
0.0
 10
141.1877615538155
 20
136.3254636373058
 30
0.0
 10
141.1354480243897
 20
136.7995611903203
 30
0.0
 10
141.0831410764639
 20
137.3591461379149
 30
0.0
 10
141.0307786203883
 20
137.9900179163566
 30
0.0
 10
140.9783865291421
 20
138.6780990757659
 30
0.0
 10
140.9260664360474
 20
139.4025869665961
 30
0.0
 10
140.8737618054264
 20
140.1436135020299
 30
0.0
 10
140.8214126192391
 20
140.8819339026097
 30
0.0
 10
140.7690140571891
 20
141.59685257196
 30
0.0
 10
140.716685105189
 20
142.2687041461148
 30
0.0
 10
140.6643815175086
 20
142.881402859654
 30
0.0
 10
140.6120445802828
 20
143.4191141750421
 30
0.0
 10
140.5596441154956
 20
143.8631591170663
 30
0.0
 10
140.5073044958216
 20
144.2032901977276
 30
0.0
 10
140.4549996970032
 20
144.4256669059242
 30
0.0
 10
140.4127520957694
 20
144.5340512875673
 30
0.0
 10
140.387922078408
 20
144.5212037514625
 30
0.0
 10
140.3805613041168
 20
144.5173951430315
 30
0.0
  0
SPLINE
  5
180
330
1F
100
AcDbEntity
  8
0
  6
Continuous
 62
     8
370
    18
100
AcDbSpline
210
0.0
220
0.0
230
1.0
 70
     8
 71
     3
 72
    27
 73
    23
 74
     0
 42
0.000000001
 43
0.00000001
 40
0.0
 40
0.0
 40
0.0
 40
0.0
 40
0.0285749128323425
 40
0.0806979922115649
 40
0.1327756662695893
 40
0.1849014012418668
 40
0.2370678291893013
 40
0.2892012137356971
 40
0.3412801381037496
 40
0.3933952891106377
 40
0.4455598562252523
 40
0.4977027465231043
 40
0.5497861257828655
 40
0.6018908083194495
 40
0.6540514506982541
 40
0.7062026306679231
 40
0.7582931816645432
 40
0.8103881422873696
 40
0.8625429410184892
 40
0.9147008556221159
 40
0.9668004850091241
 40
1.0
 40
1.0
 40
1.0
 40
1.0
 10
139.3844374443838
 20
135.5506195146474
 30
0.0
 10
139.374881050991
 20
135.5470894240684
 30
0.0
 10
139.3478929805772
 20
135.5371201470415
 30
0.0
 10
139.3034488235771
 20
135.6515783140117
 30
0.0
 10
139.2510486968229
 20
135.886060264664
 30
0.0
 10
139.1987116689517
 20
136.2404158937203
 30
0.0
 10
139.1464081055817
 20
136.6933440765359
 30
0.0
 10
139.0940791470742
 20
137.2348928296578
 30
0.0
 10
139.0416805867557
 20
137.8531276835277
 30
0.0
 10
138.9893314001424
 20
138.5317721198996
 30
0.0
 10
138.9370267694932
 20
139.2499611766019
 30
0.0
 10
138.8847066769372
 20
139.9888677050927
 30
0.0
 10
138.8323145835666
 20
140.7292903025573
 30
0.0
 10
138.7799521354546
 20
141.450136116421
 30
0.0
 10
138.7276451577679
 20
142.1330099836489
 30
0.0
 10
138.6753317393755
 20
142.7605339319784
 30
0.0
 10
138.6229498789676
 20
143.315118093639
 30
0.0
 10
138.5705743430725
 20
143.7773262355503
 30
0.0
 10
138.5182631354907
 20
144.1404747509039
 30
0.0
 10
138.4659558555947
 20
144.3902981703307
 30
0.0
 10
138.419908405168
 20
144.5243950227318
 30
0.0
 10
138.3913352533613
 20
144.5197286854831
 30
0.0
 10
138.3802142182248
 20
144.5179124875064
 30
0.0
  0
SPLINE
  5
181
330
1F
100
AcDbEntity
  8
0
  6
Continuous
 62
     8
370
    18
100
AcDbSpline
210
0.0
220
0.0
230
1.0
 70
     8
 71
     3
 72
    23
 73
    19
 74
     0
 42
0.000000001
 43
0.00000001
 40
0.0
 40
0.0
 40
0.0
 40
0.0
 40
0.0190355408255848
 40
0.0843947693095927
 40
0.1497648199789587
 40
0.215209188156651
 40
0.2806538496989582
 40
0.3460247538568775
 40
0.4113851635228086
 40
0.4768214139051029
 40
0.542272862817644
 40
0.6076559858594356
 40
0.6730090381996159
 40
0.7384370425769836
 40
0.8038941557606689
 40
0.8692847987351153
 40
0.9346129296811723
 40
1.0
 40
1.0
 40
1.0
 40
1.0
 10
137.3819294324756
 20
135.5471317517962
 30
0.0
 10
137.3768544748665
 20
135.5432888670585
 30
0.0
 10
137.3543544639346
 20
135.5262512964486
 30
0.0
 10
137.3143505142801
 20
135.6177906816287
 30
0.0
 10
137.2619815345801
 20
135.8278903219745
 30
0.0
 10
137.2096707824712
 20
136.1592232032734
 30
0.0
 10
137.1573612499942
 20
136.5902311848975
 30
0.0
 10
137.1049887181392
 20
137.1140872466635
 30
0.0
 10
137.0526044263201
 20
137.7195745852356
 30
0.0
 10
137.0002896220427
 20
138.3871101430876
 30
0.0
 10
136.9479831007852
 20
139.0979784399678
 30
0.0
 10
136.8956233272284
 20
139.8339598112807
 30
0.0
 10
136.8432292712043
 20
140.5756622021117
 30
0.0
 10
136.7909085561089
 20
141.3021502692846
 30
0.0
 10
136.7386060707256
 20
141.9955584904774
 30
0.0
 10
136.6862637419116
 20
142.6353189285047
 30
0.0
 10
136.6338588241975
 20
143.2100143514708
 30
0.0
 10
136.5989888399155
 20
143.5175975512754
 30
0.0
 10
136.5815459863514
 20
143.6714584956789
 30
0.0
  0
SPLINE
  5
182
330
1F
100
AcDbEntity
  8
0
  6
Continuous
 62
     8
370
    18
100
AcDbSpline
210
0.0
220
0.0
230
1.0
 70
     8
 71
     3
 72
    12
 73
     8
 74
     0
 42
0.000000001
 43
0.00000001
 40
0.0
 40
0.0
 40
0.0
 40
0.0
 40
0.2010965642103287
 40
0.3340076188881339
 40
0.4672824881825052
 40
0.7344015720991199
 40
1.0
 40
1.0
 40
1.0
 40
1.0
 10
136.8259917788599
 20
143.4883021571977
 30
0.0
 10
136.8232979490636
 20
143.508260839528
 30
0.0
 10
136.818823682288
 20
143.5414108437934
 30
0.0
 10
136.7905533994764
 20
143.5823290057587
 30
0.0
 10
136.7487624296877
 20
143.6226153716243
 30
0.0
 10
136.6792404214945
 20
143.661523732433
 30
0.0
 10
136.614048767641
 20
143.6681532159414
 30
0.0
 10
136.5815459863514
 20
143.6714584956789
 30
0.0
  0
SPLINE
  5
183
330
1F
100
AcDbEntity
  8
0
  6
Continuous
 62
     8
370
    18
100
AcDbSpline
210
0.0
220
0.0
230
1.0
 70
     8
 71
     3
 72
    11
 73
     7
 74
     0
 42
0.000000001
 43
0.00000001
 40
0.0
 40
0.0
 40
0.0
 40
0.0
 40
0.2080188919694905
 40
0.4794382070343107
 40
0.7511622895182469
 40
1.0
 40
1.0
 40
1.0
 40
1.0
 10
137.4836371600689
 20
136.2471597478582
 30
0.0
 10
137.4970005779932
 20
136.3016681491422
 30
0.0
 10
137.5278003436724
 20
136.4272981336714
 30
0.0
 10
137.5761150496203
 20
136.7452681629207
 30
0.0
 10
137.6269547795591
 20
137.1496171967962
 30
0.0
 10
137.6603641402531
 20
137.4765287472431
 30
0.0
 10
137.6763344034113
 20
137.6327982292575
 30
0.0
  0
SPLINE
  5
184
330
1F
100
AcDbEntity
  8
0
  6
Continuous
 62
     8
370
    18
100
AcDbSpline
210
0.0
220
0.0
230
1.0
 70
     8
 71
     3
 72
    12
 73
     8
 74
     0
 42
0.000000001
 43
0.00000001
 40
0.0
 40
0.0
 40
0.0
 40
0.0
 40
0.0643643581675222
 40
0.3357687400526005
 40
0.6068740968156562
 40
0.8781302349815259
 40
1.0
 40
1.0
 40
1.0
 40
1.0
 10
138.087108702908
 20
142.4327982292575
 30
0.0
 10
138.0912442596417
 20
142.4759983303709
 30
0.0
 10
138.1128181665904
 20
142.7013597560727
 30
0.0
 10
138.1518252494143
 20
143.0466000518053
 30
0.0
 10
138.2042198706631
 20
143.4406003017603
 30
0.0
 10
138.2469522334465
 20
143.697964042159
 30
0.0
 10
138.2722100084553
 20
143.7881980836383
 30
0.0
 10
138.2800399659328
 20
143.8161708052083
 30
0.0
  0
SPLINE
  5
185
330
1F
100
AcDbEntity
  8
0
  6
Continuous
 62
     8
370
    18
100
AcDbSpline
210
0.0
220
0.0
230
1.0
 70
     8
 71
     3
 72
    12
 73
     8
 74
     0
 42
0.000000001
 43
0.00000001
 40
0.0
 40
0.0
 40
0.0
 40
0.0
 40
0.1554805630362979
 40
0.4257140407656748
 40
0.6962131653097108
 40
0.9666157115715882
 40
1.0
 40
1.0
 40
1.0
 40
1.0
 10
139.4826614766968
 20
136.245921203002
 30
0.0
 10
139.492707293681
 20
136.2835655941934
 30
0.0
 10
139.5202132742203
 20
136.3866379369562
 30
0.0
 10
139.5651689352564
 20
136.6684392006011
 30
0.0
 10
139.6174770247079
 20
137.0740781191796
 30
0.0
 10
139.6545151298034
 20
137.4037113686034
 30
0.0
 10
139.6741410202603
 20
137.6101156763731
 30
0.0
 10
139.6762977838618
 20
137.6327982292575
 30
0.0
  0
SPLINE
  5
186
330
1F
100
AcDbEntity
  8
0
  6
Continuous
 62
     8
370
    18
100
AcDbSpline
210
0.0
220
0.0
230
1.0
 70
     8
 71
     3
 72
    12
 73
     8
 74
     0
 42
0.000000001
 43
0.00000001
 40
0.0
 40
0.0
 40
0.0
 40
0.0
 40
0.0105031258651055
 40
0.2813448476485838
 40
0.5520974659869651
 40
0.8231623618408763
 40
0.9999999999999999
 40
0.9999999999999999
 40
0.9999999999999999
 40
0.9999999999999999
 10
140.0865501823032
 20
142.4327982292575
 30
0.0
 10
140.0872260502327
 20
142.4399707316348
 30
0.0
 10
140.1053303709922
 20
142.632098924186
 30
0.0
 10
140.140914468299
 20
142.953375207931
 30
0.0
 10
140.193300579597
 20
143.3659635545504
 30
0.0
 10
140.2395465256791
 20
143.6579934829349
 30
0.0
 10
140.268366454474
 20
143.7716177716392
 30
0.0
 10
140.2797449302651
 20
143.8164780912983
 30
0.0
  0
SPLINE
  5
187
330
1F
100
AcDbEntity
  8
0
  6
Continuous
 62
     8
370
    18
100
AcDbSpline
210
0.0
220
0.0
230
1.0
 70
     8
 71
     3
 72
    10
 73
     6
 74
     0
 42
0.000000001
 43
0.00000001
 40
0.0
 40
0.0
 40
0.0
 40
0.0
 40
0.1947366383464573
 40
0.7468139859255251
 40
1.0
 40
1.0
 40
1.0
 40
1.0
 10
141.4833739719701
 20
136.2481956266561
 30
0.0
 10
141.4895365676353
 20
136.2696213784152
 30
0.0
 10
141.5131700896654
 20
136.3517890239517
 30
0.0
 10
141.5447584158123
 20
136.5337723088083
 30
0.0
 10
141.5702010591059
 20
136.7250731864104
 30
0.0
 10
141.5782005804423
 20
136.7852208461643
 30
0.0
  0
LINE
  5
188
330
1F
100
AcDbEntity
  8
0
  6
Continuous
 62
     8
370
    18
100
AcDbLine
 10
142.2711009969
 20
143.7827982293
 30
0.0
 11
142.2795700291
 21
143.8223582457
 31
0.0
  0
SPLINE
  5
189
330
1F
100
AcDbEntity
  8
0
  6
Continuous
 62
     8
370
    18
100
AcDbSpline
210
0.0
220
0.0
230
1.0
 70
     8
 71
     3
 72
    13
 73
     9
 74
     0
 42
0.000000001
 43
0.00000001
 40
0.0
 40
0.0
 40
0.0
 40
0.0
 40
0.0633560966247248
 40
0.2975966918014789
 40
0.4144533234287525
 40
0.5316298242401649
 40
0.7664833995543107
 40
1.0
 40
1.0
 40
1.0
 40
1.0
 10
136.3375629695288
 20
143.4483664797562
 30
0.0
 10
136.3356025220903
 20
143.4553265747731
 30
0.0
 10
136.32639389493
 20
143.4880195808451
 30
0.0
 10
136.3425131554385
 20
143.5356604811494
 30
0.0
 10
136.3721342761285
 20
143.5823397578813
 30
0.0
 10
136.414565089272
 20
143.6226161466383
 30
0.0
 10
136.483779229364
 20
143.6615293802601
 30
0.0
 10
136.5490199664384
 20
143.6681581027955
 30
0.0
 10
136.5815472192837
 20
143.6714630031326
 30
0.0
  0
SPLINE
  5
18A
330
1F
100
AcDbEntity
  8
0
  6
Continuous
 62
     8
370
    18
100
AcDbSpline
210
0.0
220
0.0
230
1.0
 70
     8
 71
     3
 72
    12
 73
     8
 74
     0
 42
0.000000001
 43
0.00000001
 40
0.0
 40
0.0
 40
0.0
 40
0.0
 40
0.0731773326108191
 40
0.3421158946738618
 40
0.6113351273216886
 40
0.880491927078614
 40
1.0
 40
1.0
 40
1.0
 40
1.0
 10
136.2817327074458
 20
143.8273905607835
 30
0.0
 10
136.2769828945595
 20
143.81213252867
 30
0.0
 10
136.2547767491976
 20
143.7407987546548
 30
0.0
 10
136.215108841928
 20
143.508408622431
 30
0.0
 10
136.1628012432322
 20
143.1359695330775
 30
0.0
 10
136.1201702588434
 20
142.7704871027756
 30
0.0
 10
136.0949417077422
 20
142.512213213606
 30
0.0
 10
136.0871843421128
 20
142.4327982292575
 30
0.0
  0
SPLINE
  5
18B
330
1F
100
AcDbEntity
  8
0
  6
Continuous
 62
     8
370
    18
100
AcDbSpline
210
0.0
220
0.0
230
1.0
 70
     8
 71
     3
 72
    11
 73
     7
 74
     0
 42
0.000000001
 43
0.00000001
 40
0.0
 40
0.0
 40
0.0
 40
0.0
 40
0.1898851764048994
 40
0.4615407584997108
 40
0.7335013733097289
 40
1.0
 40
1.0
 40
1.0
 40
1.0
 10
135.6759287896326
 20
137.6327982292575
 30
0.0
 10
135.6637408116712
 20
137.5104471710969
 30
0.0
 10
135.6341163370313
 20
137.2130569205475
 30
0.0
 10
135.5869779989493
 20
136.8269763656526
 30
0.0
 10
135.5350196965421
 20
136.4709032130751
 30
0.0
 10
135.5004917596964
 20
136.315659488773
 30
0.0
 10
135.4834029124028
 20
136.2388250022601
 30
0.0
  0
SPLINE
  5
18C
330
1F
100
AcDbEntity
  8
0
  6
Continuous
 62
     8
370
    18
100
AcDbSpline
210
0.0
220
0.0
230
1.0
 70
     8
 71
     3
 72
    12
 73
     8
 74
     0
 42
0.000000001
 43
0.00000001
 40
0.0
 40
0.0
 40
0.0
 40
0.0
 40
0.0023260183119024
 40
0.275386774136044
 40
0.5485608964328978
 40
0.8214765800640613
 40
1.0
 40
1.0
 40
1.0
 40
1.0
 10
134.2788678175456
 20
143.8253616208979
 30
0.0
 10
134.278719020366
 20
143.8249138444494
 30
0.0
 10
134.2611023167103
 20
143.7718997683955
 30
0.0
 10
134.226069661709
 20
143.5710690970156
 30
0.0
 10
134.1737610953577
 20
143.2232410156665
 30
0.0
 10
134.1274329525375
 20
142.837861611458
 30
0.0
 10
134.0985489103474
 20
142.5475880740234
 30
0.0
 10
134.0871265990044
 20
142.4327982292575
 30
0.0
  0
SPLINE
  5
18D
330
1F
100
AcDbEntity
  8
0
  6
Continuous
 62
     8
370
    18
100
AcDbSpline
210
0.0
220
0.0
230
1.0
 70
     8
 71
     3
 72
    12
 73
     8
 74
     0
 42
0.000000001
 43
0.00000001
 40
0.0
 40
0.0
 40
0.0
 40
0.0
 40
0.1329937463491779
 40
0.4052662915933163
 40
0.6778064881106131
 40
0.9502493776068919
 40
1.0
 40
1.0
 40
1.0
 40
1.0
 10
133.6758802966277
 20
137.6327982292575
 30
0.0
 10
133.6673518018033
 20
137.5456590473668
 30
0.0
 10
133.641363275536
 20
137.2801234559067
 30
0.0
 10
133.5979242787242
 20
136.910602856438
 30
0.0
 10
133.5456165488266
 20
136.5445513701895
 30
0.0
 10
133.5075455960755
 20
136.3220520188738
 30
0.0
 10
133.4868859324631
 20
136.2556938938575
 30
0.0
 10
133.4836958274944
 20
136.2454473870267
 30
0.0
  0
SPLINE
  5
18E
330
1F
100
AcDbEntity
  8
0
  6
Continuous
 62
     8
370
    18
100
AcDbSpline
210
0.0
220
0.0
230
1.0
 70
     8
 71
     3
 72
    11
 73
     7
 74
     0
 42
0.000000001
 43
0.00000001
 40
0.0
 40
0.0
 40
0.0
 40
0.0
 40
0.2201531645626388
 40
0.492134205433239
 40
0.763805243579403
 40
1.0
 40
1.0
 40
1.0
 40
1.0
 10
132.2793672134738
 20
143.818709706043
 30
0.0
 10
132.2652502541966
 20
143.7592034424867
 30
0.0
 10
132.2336929583893
 20
143.6261821080364
 30
0.0
 10
132.184708869147
 20
143.3026502888088
 30
0.0
 10
132.1345973667697
 20
142.9038833429613
 30
0.0
 10
132.1019988859804
 20
142.5823395986218
 30
0.0
 10
132.0868382070923
 20
142.4327982292575
 30
0.0
  0
SPLINE
  5
18F
330
1F
100
AcDbEntity
  8
0
  6
Continuous
 62
     8
370
    18
100
AcDbSpline
210
0.0
220
0.0
230
1.0
 70
     8
 71
     3
 72
    10
 73
     6
 74
     0
 42
0.000000001
 43
0.00000001
 40
0.0
 40
0.0
 40
0.0
 40
0.0
 40
0.1584414917300771
 40
0.7196755055146584
 40
1.0
 40
1.0
 40
1.0
 40
1.0
 10
131.676028635887
 20
137.6327982292575
 30
0.0
 10
131.6710965506648
 20
137.5816661982506
 30
0.0
 10
131.6486939534235
 20
137.349413460277
 30
0.0
 10
131.6176221013714
 20
137.0702068371031
 30
0.0
 10
131.5914663525441
 20
136.8810308194804
 30
0.0
 10
131.5827538304843
 20
136.8180159833309
 30
0.0
  0
SPLINE
  5
190
330
1F
100
AcDbEntity
  8
0
  6
Continuous
 62
     8
370
    18
100
AcDbSpline
210
0.0
220
0.0
230
1.0
 70
     8
 71
     3
 72
     9
 73
     5
 74
     0
 42
0.000000001
 43
0.00000001
 40
0.0
 40
0.0
 40
0.0
 40
0.0
 40
0.3808829292797036
 40
1.0
 40
1.0
 40
1.0
 40
1.0
 10
131.5177091607585
 20
136.4027471716382
 30
0.0
 10
131.5132076310364
 20
136.3755018774893
 30
0.0
 10
131.5013889608466
 20
136.3039699393152
 30
0.0
 10
131.4895604297794
 20
136.2669957302784
 30
0.0
 10
131.4822371842742
 20
136.2441043662872
 30
0.0
  0
LINE
  5
191
330
1F
100
AcDbEntity
  8
0
  6
Continuous
 62
     8
370
    18
100
AcDbLine
 10
130.2799946021
 20
143.8164587858
 30
0.0
 11
130.2718772698
 21
143.7827982293
 31
0.0
  0
SPLINE
  5
192
330
1F
100
AcDbEntity
  8
0
  6
Continuous
 62
     8
370
    18
100
AcDbSpline
210
0.0
220
0.0
230
1.0
 70
     8
 71
     3
 72
    27
 73
    23
 74
     0
 42
0.000000001
 43
0.00000001
 40
0.0
 40
0.0
 40
0.0
 40
0.0
 40
0.0246239061564211
 40
0.0768995722401113
 40
0.1292342204726225
 40
0.1815686341079407
 40
0.2338436176757161
 40
0.2861099469812421
 40
0.338437375853669
 40
0.3907775714580881
 40
0.4430630732480216
 40
0.4953231235222687
 40
0.547641932726315
 40
0.5999854467351456
 40
0.6522813956074422
 40
0.7045376736877326
 40
0.7568466833460513
 40
0.8091915446597375
 40
0.861498075533265
 40
0.9137539596258749
 40
0.9660525035937243
 40
1.0
 40
1.0
 40
1.0
 40
1.0
 10
130.3803236429161
 20
144.5170038022389
 30
0.0
 10
130.3885434461851
 20
144.5209477231627
 30
0.0
 10
130.4142135958061
 20
144.5332644461905
 30
0.0
 10
130.4573624669399
 20
144.4197345632745
 30
0.0
 10
130.509670642987
 20
144.1901603107671
 30
0.0
 10
130.561980875268
 20
143.8442142468189
 30
0.0
 10
130.6143532869611
 20
143.3980718948324
 30
0.0
 10
130.6667380399898
 20
142.8571229000995
 30
0.0
 10
130.7190529042266
 20
142.2405077423091
 30
0.0
 10
130.7713591133372
 20
141.5657060758858
 30
0.0
 10
130.8237181208034
 20
140.8499237371802
 30
0.0
 10
130.8761122510983
 20
140.1112013657236
 30
0.0
 10
130.9284343896304
 20
139.3706695202217
 30
0.0
 10
130.98073865001
 20
138.6476887554445
 30
0.0
 10
131.0330846195512
 20
137.9611640433392
 30
0.0
 10
131.085484100307
 20
137.3319151547749
 30
0.0
 10
131.1378156372887
 20
136.7768866654576
 30
0.0
 10
131.1901191326887
 20
136.3082498770349
 30
0.0
 10
131.2424532985441
 20
135.936602110631
 30
0.0
 10
131.2948532206678
 20
135.6822208485247
 30
0.0
 10
131.3410594013909
 20
135.548262479324
 30
0.0
 10
131.3698042444634
 20
135.5489803799367
 30
0.0
 10
131.3811185662881
 20
135.5492629543989
 30
0.0
  0
SPLINE
  5
193
330
1F
100
AcDbEntity
  8
0
  6
Continuous
 62
     8
370
    18
100
AcDbSpline
210
0.0
220
0.0
230
1.0
 70
     8
 71
     3
 72
    27
 73
    23
 74
     0
 42
0.000000001
 43
0.00000001
 40
0.0
 40
0.0
 40
0.0
 40
0.0
 40
0.0132690604251965
 40
0.0655664066968502
 40
0.1178969002924543
 40
0.1701865729317553
 40
0.2224280335031734
 40
0.2747150421974676
 40
0.3270452643921391
 40
0.3793451156011798
 40
0.4315886700282902
 40
0.4838650353063116
 40
0.5361928578178631
 40
0.5885019725980668
 40
0.6407507452970027
 40
0.6930167356642722
 40
0.7453401175192512
 40
0.7976571826196442
 40
0.8499137192421372
 40
0.9021702558646246
 40
0.9544873209650038
 40
0.9999999999999999
 40
0.9999999999999999
 40
0.9999999999999999
 40
0.9999999999999999
 10
132.380751724032
 20
144.5206495516143
 30
0.0
 10
132.3851837207348
 20
144.524232246322
 30
0.0
 10
132.407083545514
 20
144.5419354152542
 30
0.0
 10
132.4464067121611
 20
144.4505447743919
 30
0.0
 10
132.498712055878
 20
144.2491861325878
 30
0.0
 10
132.5510485419536
 20
143.9264987649309
 30
0.0
 10
132.6034490565469
 20
143.4990350938552
 30
0.0
 10
132.6557889279437
 20
142.9753026031288
 30
0.0
 10
132.7080926692056
 20
142.3741118786841
 30
0.0
 10
132.7604191716792
 20
141.7110067974669
 30
0.0
 10
132.8128165138373
 20
141.0018177643075
 30
0.0
 10
132.8651689934344
 20
140.2658286555663
 30
0.0
 10
132.9174740882742
 20
139.5239035161194
 30
0.0
 10
132.9697922921455
 20
138.7953286447717
 30
0.0
 10
133.0221821000455
 20
138.0999005708576
 30
0.0
 10
133.0745479492385
 20
137.4586450724898
 30
0.0
 10
133.1268557208705
 20
136.8861548444726
 30
0.0
 10
133.1791678781731
 20
136.3968015646859
 30
0.0
 10
133.2315463310838
 20
136.0039357362014
 30
0.0
 10
133.2839264150266
 20
135.7271134998128
 30
0.0
 10
133.3339630803723
 20
135.5617556148449
 30
0.0
 10
133.366587080523
 20
135.5480460493897
 30
0.0
 10
133.3817645264094
 20
135.5416680397385
 30
0.0
  0
SPLINE
  5
194
330
1F
100
AcDbEntity
  8
0
  6
Continuous
 62
     8
370
    18
100
AcDbSpline
210
0.0
220
0.0
230
1.0
 70
     8
 71
     3
 72
    28
 73
    24
 74
     0
 42
0.000000001
 43
0.00000001
 40
0.0
 40
0.0
 40
0.0
 40
0.0
 40
0.0032636795367724
 40
0.0555873440477024
 40
0.1079015165758163
 40
0.1601548706419457
 40
0.2124126481160622
 40
0.2647304507156465
 40
0.3170513789260397
 40
0.3693138397560236
 40
0.4215633415023329
 40
0.4738735791518304
 40
0.5261994408661071
 40
0.578472109072035
 40
0.6307156822284982
 40
0.6830169557635388
 40
0.7353457449535684
 40
0.7876290446774825
 40
0.8398696969608708
 40
0.8921609812623921
 40
0.9444905848313185
 40
0.9967843471950956
 40
1.0
 40
1.0
 40
1.0
 40
1.0
 10
134.3798408752593
 20
144.527367802338
 30
0.0
 10
134.3809303932074
 20
144.5285843872093
 30
0.0
 10
134.3994871811336
 20
144.5493053927613
 30
0.0
 10
134.4354436645633
 20
144.4766865404264
 30
0.0
 10
134.4877626445681
 20
144.3042777892
 30
0.0
 10
134.5401429908705
 20
144.0035027410802
 30
0.0
 10
134.5925190281217
 20
143.5950547727701
 30
0.0
 10
134.644829743723
 20
143.0904765397186
 30
0.0
 10
134.6971384895008
 20
142.5055826855373
 30
0.0
 10
134.7495076938843
 20
141.8543850904771
 30
0.0
 10
134.8018949966731
 20
141.1521394920461
 30
0.0
 10
134.8542114506502
 20
140.4200047380893
 30
0.0
 10
134.9065170951753
 20
139.6777191911587
 30
0.0
 10
134.9588729203433
 20
138.9446020383059
 30
0.0
 10
135.0112687524186
 20
138.2416721842027
 30
0.0
 10
135.0635929438274
 20
137.5877906489984
 30
0.0
 10
135.115896917672
 20
136.9985496001223
 30
0.0
 10
135.1682398218438
 20
136.4891628808204
 30
0.0
 10
135.2206401000197
 20
136.0786828532979
 30
0.0
 10
135.2729734635591
 20
135.7733582625858
 30
0.0
 10
135.3252798138101
 20
135.594313015543
 30
0.0
 10
135.3612486968934
 20
135.5165175958859
 30
0.0
 10
135.379788702976
 20
135.5358529690975
 30
0.0
 10
135.3808627229847
 20
135.5369730646149
 30
0.0
  0
SPLINE
  5
195
330
1F
100
AcDbEntity
  8
0
  6
Continuous
 62
     8
370
    18
100
AcDbSpline
210
0.0
220
0.0
230
1.0
 70
     8
 71
     3
 72
    11
 73
     7
 74
     0
 42
0.000000001
 43
0.00000001
 40
0.0
 40
0.0
 40
0.0
 40
0.0
 40
0.2186825484304811
 40
0.4792094629824883
 40
0.7394873194867636
 40
1.0
 40
1.0
 40
1.0
 40
1.0
 10
136.3806239573215
 20
144.5217387195112
 30
0.0
 10
136.3952520960911
 20
144.517426360827
 30
0.0
 10
136.4273074318941
 20
144.5079764842637
 30
0.0
 10
136.4768293756127
 20
144.348645821887
 30
0.0
 10
136.5292344034798
 20
144.0797865079107
 30
0.0
 10
136.5641043730693
 20
143.807611745848
 30
0.0
 10
136.5815472192837
 20
143.6714630031326
 30
0.0
  0
DIMENSION
  5
196
330
1F
100
AcDbEntity
  8
0
  6
Continuous
 62
     7
370
    18
100
AcDbDimension
  2
_D
 10
165.5827538305
 20
95.682354089
 30
0.0
 11
140.8327538305
 21
95.682354089
 31
0.0
 70
   160
  1
<>
 71
     2
 42
-1.0
  3
SLDDIMSTYLE0
100
AcDbAlignedDimension
 13
116.0827538305
 23
136.8327982293
 33
0.0
 14
165.5827538305
 24
138.0327982293
 34
0.0
100
AcDbRotatedDimension
  0
DIMENSION
  5
1A1
330
1F
100
AcDbEntity
  8
0
  6
Continuous
 62
     7
370
    18
100
AcDbDimension
  2
_D_1
 10
116.0827538305
 20
161.2515450589
 30
0.0
 11
128.4434348088
 21
161.2515450589
 31
0.0
 70
   160
  1
<>
 71
     2
 42
-1.0
  3
SLDDIMSTYLE1
100
AcDbAlignedDimension
 13
121.5827538305
 23
144.7327982293
 33
0.0
 14
116.0827538305
 24
143.2327982293
 34
0.0
100
AcDbRotatedDimension
  0
DIMENSION
  5
1AE
330
1F
100
AcDbEntity
  8
0
  6
Continuous
 62
     7
370
    18
100
AcDbDimension
  2
_D_2
 10
141.5827538305
 20
107.9039743445
 30
0.0
 11
148.6991502139
 21
107.9039743445
 31
0.0
 70
   160
  1
<>st
 71
     2
 42
-1.0
  3
SLDDIMSTYLE1
100
AcDbAlignedDimension
 13
131.5827538305
 23
136.5827982293
 33
0.0
 14
141.5827538305
 24
136.7827982293
 34
0.0
100
AcDbRotatedDimension
  0
DIMENSION
  5
1BB
330
1F
100
AcDbEntity
  8
0
  6
Continuous
 62
     7
370
    18
100
AcDbDimension
  2
_D_3
 10
146.5827538305
 20
119.0780271495
 30
0.0
 11
151.7409511185
 21
119.0780271495
 31
0.0
 70
   160
  1
<>
 71
     2
 42
-1.0
  3
SLDDIMSTYLE1
100
AcDbAlignedDimension
 13
143.5827538305
 23
132.5272467459
 33
0.0
 14
146.5827538305
 24
132.5272467459
 34
0.0
100
AcDbRotatedDimension
  0
DIMENSION
  5
1C7
330
1F
100
AcDbEntity
  8
0
  6
Continuous
 62
     7
370
    18
100
AcDbDimension
  2
_D_4
 10
141.5827538305
 20
161.2515450589
 30
0.0
 11
144.0827538305
 21
161.2515450589
 31
0.0
 70
   160
  1
<>
 71
     2
 42
-1.0
  3
SLDDIMSTYLE1
100
AcDbAlignedDimension
 13
146.5827538305
 23
147.5383497126
 33
0.0
 14
141.5827538305
 24
143.2827982293
 34
0.0
100
AcDbRotatedDimension
  0
DIMENSION
  5
1D3
330
1F
100
AcDbEntity
  8
0
  6
Continuous
 62
     7
370
    18
100
AcDbDimension
  2
_D_5
 10
163.5827538305
 20
161.2515450589
 30
0.0
 11
155.0827538305
 21
161.2515450589
 31
0.0
 70
   160
  1
<>
 71
     2
 42
-1.0
  3
SLDDIMSTYLE0
100
AcDbAlignedDimension
 13
146.5827538305
 23
147.5383497126
 33
0.0
 14
163.5827538305
 24
144.0327982293
 34
0.0
100
AcDbRotatedDimension
  0
DIMENSION
  5
1DD
330
1F
100
AcDbEntity
  8
0
  6
Continuous
 62
     7
370
    18
100
AcDbDimension
  2
_D_6
 10
165.5827538305
 20
173.0146549002
 30
0.0
 11
156.0827538305
 21
173.0146549002
 31
0.0
 70
   160
  1
<>
 71
     2
 42
-1.0
  3
SLDDIMSTYLE0
100
AcDbAlignedDimension
 13
146.5827538305
 23
147.5383497126
 33
0.0
 14
165.5827538305
 24
142.0327982293
 34
0.0
100
AcDbRotatedDimension
  0
DIMENSION
  5
1E7
330
1F
100
AcDbEntity
  8
0
  6
Continuous
 62
     7
370
    18
100
AcDbDimension
  2
_D_7
 10
181.5827538305
 20
131.9498944606
 30
0.0
 11
181.5827538305
 21
140.0327982293
 31
0.0
 70
   160
  1
<>
 71
     2
 42
-1.0
  3
SLDDIMSTYLE2
100
AcDbAlignedDimension
 13
158.1298372272
 23
148.1157019979
 33
0.0
 14
158.1298372272
 24
131.9498944606
 34
0.0
 50
90.0
100
AcDbRotatedDimension
  0
DIMENSION
  5
1F2
330
1F
100
AcDbEntity
  8
0
  6
Continuous
 62
     7
370
    18
100
AcDbDimension
  2
_D_8
 10
174.1808940425
 20
137.6327982293
 30
0.0
 11
174.1808940425
 21
153.4404912887
 31
0.0
 70
   160
  1
%%c<>
 71
     2
 42
-1.0
  3
SLDDIMSTYLE3
100
AcDbAlignedDimension
 13
165.0827538305
 23
142.4327982293
 33
0.0
 14
165.0827538305
 24
137.6327982293
 34
0.0
 50
90.0
100
AcDbRotatedDimension
  0
DIMENSION
  5
200
330
1F
100
AcDbEntity
  8
0
  6
Continuous
 62
     7
370
    18
100
AcDbDimension
  2
_D_9
 10
108.0607096861
 20
136.5327982293
 30
0.0
 11
108.0607096861
 21
140.0327982293
 31
0.0
 70
   160
  1
%%c<>
 71
     2
 42
-1.0
  3
SLDDIMSTYLE1
100
AcDbAlignedDimension
 13
116.3827538305
 23
143.5327982293
 33
0.0
 14
116.3827538305
 24
136.5327982293
 34
0.0
 50
90.0
100
AcDbRotatedDimension
  0
DIMENSION
  5
20D
330
1F
100
AcDbEntity
  8
0
  6
Continuous
 62
     7
370
    18
100
AcDbDimension
  2
_D_10
 10
97.3812873915
 20
135.0327982293
 30
0.0
 11
97.3812873915
 21
140.0327982293
 31
0.0
 70
   160
  1
%%c<>
 71
     2
 42
-1.0
  3
SLDDIMSTYLE1
100
AcDbAlignedDimension
 13
121.8827538305
 23
145.0327982293
 33
0.0
 14
121.8827538305
 24
135.0327982293
 34
0.0
 50
90.0
100
AcDbRotatedDimension
  0
INSERT
  5
21F
330
1F
100
AcDbEntity
  8
0
  6
Continuous
 62
     7
370
     0
100
AcDbBlockReference
  2
SW_NOTE_0
 10
169.6354679803
 20
160.6477834449
 30
0.0
  0
LEADER
  5
221
330
1F
100
AcDbEntity
  8
0
  6
Continuous
 62
     7
370
     0
100
AcDbLeader
  3
SLDDIMSTYLE4
 76
     2
 10
150.1085540476
 20
145.0327982293
 30
0.0
 10
169.6354679803
 20
160.6477834449
 30
0.0
  0
LINE
  5
222
330
1F
100
AcDbEntity
  8
0
  6
CENTERX2
 62
     7
370
    18
100
AcDbLine
 10
113.446216345
 20
140.0327982293
 30
0.0
 11
164.5827538305
 21
140.0327982293
 31
0.0
  0
LINE
  5
223
330
1F
100
AcDbEntity
  8
0
  6
CENTERX2
 62
     7
370
    18
100
AcDbLine
 10
125.5827538305
 20
140.4129288542
 30
0.0
 11
125.5827538305
 21
124.1316390447
 31
0.0
  0
LINE
  5
224
330
1F
100
AcDbEntity
  8
0
  6
Continuous
 62
     7
370
    18
100
AcDbLine
 10
52.9044938629
 20
128.2327982235
 30
0.0
 11
53.4044937121
 21
125.7327978137
 31
0.0
  0
LINE
  5
225
330
1F
100
AcDbEntity
  8
0
  6
Continuous
 62
     7
370
    18
100
AcDbLine
 10
57.404493902
 20
125.7327978137
 30
0.0
 11
57.9044937512
 21
128.2327982235
 31
0.0
  0
LINE
  5
226
330
1F
100
AcDbEntity
  8
0
  6
Continuous
 62
     7
370
    18
100
AcDbLine
 10
52.9044938629
 20
130.7327981676
 30
0.0
 11
53.4044937121
 21
128.2327982235
 31
0.0
  0
LINE
  5
227
330
1F
100
AcDbEntity
  8
0
  6
Continuous
 62
     7
370
    18
100
AcDbLine
 10
57.404493902
 20
128.2327982235
 30
0.0
 11
57.9044937512
 21
130.7327981676
 31
0.0
  0
LINE
  5
228
330
1F
100
AcDbEntity
  8
0
  6
Continuous
 62
     7
370
    18
100
AcDbLine
 10
53.254493734
 20
135.5186538176
 30
0.0
 11
53.254493734
 21
130.7327981676
 31
0.0
  0
LINE
  5
229
330
1F
100
AcDbEntity
  8
0
  6
Continuous
 62
     7
370
    18
100
AcDbLine
 10
57.5544938801
 20
130.7327981676
 30
0.0
 11
57.5544938801
 21
135.5186538176
 31
0.0
  0
CIRCLE
  5
22A
330
1F
100
AcDbEntity
  8
0
  6
Continuous
 62
     7
370
    18
100
AcDbCircle
 10
55.4044938071
 20
140.0327982293
 30
0.0
 40
3.499999999999993
  0
CIRCLE
  5
22B
330
1F
100
AcDbEntity
  8
0
  6
Continuous
 62
     7
370
    18
100
AcDbCircle
 10
55.4044938071
 20
140.0327982293
 30
0.0
 40
3.199999999999996
  0
CIRCLE
  5
22C
330
1F
100
AcDbEntity
  8
0
  6
Continuous
 62
     7
370
    18
100
AcDbCircle
 10
55.4044938071
 20
140.0327982293
 30
0.0
 40
1.500000000000007
  0
SPLINE
  5
22D
330
1F
100
AcDbEntity
  8
0
  6
Continuous
 62
     7
370
    18
100
AcDbSpline
210
0.0
220
0.0
230
1.0
 70
    11
 71
     3
 72
    54
 73
    50
 74
     0
 42
0.000000001
 43
0.00000001
 40
0.0
 40
0.0
 40
0.0
 40
0.0
 40
0.0624999999999997
 40
0.0624999999999997
 40
0.0937499999999995
 40
0.0937499999999995
 40
0.1249999999999994
 40
0.1249999999999994
 40
0.1562499999999992
 40
0.1562499999999992
 40
0.187499999999999
 40
0.187499999999999
 40
0.2499999999999993
 40
0.2499999999999993
 40
0.3124999999999996
 40
0.3124999999999996
 40
0.3437499999999997
 40
0.3437499999999997
 40
0.3749999999999998
 40
0.3749999999999998
 40
0.4062499999999999
 40
0.4062499999999999
 40
0.4375000000000001
 40
0.4375000000000001
 40
0.5000000000000002
 40
0.5000000000000002
 40
0.5625000000000004
 40
0.5625000000000004
 40
0.5937500000000006
 40
0.5937500000000006
 40
0.6250000000000007
 40
0.6250000000000007
 40
0.6562500000000007
 40
0.6562500000000007
 40
0.6875000000000008
 40
0.6875000000000008
 40
0.7500000000000006
 40
0.7500000000000006
 40
0.8125000000000004
 40
0.8125000000000004
 40
0.8437500000000004
 40
0.8437500000000004
 40
0.8750000000000003
 40
0.8750000000000003
 40
0.9062500000000003
 40
0.9062500000000003
 40
0.9375000000000003
 40
0.9375000000000003
 40
1.0
 40
1.0
 40
1.0
 40
1.0
 10
54.53367024594675
 20
138.867662851166
 30
0.0
 10
54.42085984657478
 20
138.9513826303764
 30
0.0
 10
54.33346519905162
 20
139.0414328236838
 30
0.0
 10
54.23408935751394
 20
139.1641894079144
 30
0.0
 10
54.20728599260786
 20
139.2018485840984
 30
0.0
 10
54.16750247538648
 20
139.2609799634787
 30
0.0
 10
54.15505742951657
 20
139.2813901087021
 30
0.0
 10
54.14891852595238
 20
139.2901664576378
 30
0.0
 10
54.15540583173412
 20
139.278047263302
 30
0.0
 10
54.18506169183692
 20
139.2296748694598
 30
0.0
 10
54.20736832984276
 20
139.1952849256751
 30
0.0
 10
54.29343698369016
 20
139.0789057290997
 30
0.0
 10
54.37392841808136
 20
138.9874444654215
 30
0.0
 10
54.58166596153115
 20
138.8159576751703
 30
0.0
 10
54.70778317636745
 20
138.7359818536384
 30
0.0
 10
54.93322494477645
 20
138.6447333212653
 30
0.0
 10
55.01241014673155
 20
138.6199150666095
 30
0.0
 10
55.17997294001752
 20
138.5836250873159
 30
0.0
 10
55.26812587193163
 20
138.5725204167096
 30
0.0
 10
55.44328496189656
 20
138.5666501998639
 30
0.0
 10
55.5330028371021
 20
138.571843087229
 30
0.0
 10
55.7050643741979
 20
138.597465721081
 30
0.0
 10
55.78837547257105
 20
138.6178121568457
 30
0.0
 10
56.02463967636248
 20
138.6969597095981
 30
0.0
 10
56.16091132498961
 20
138.772873802149
 30
0.0
 10
56.3839253962304
 20
138.9384703996936
 30
0.0
 10
56.47384592828229
 20
139.0310844721752
 30
0.0
 10
56.57218055694269
 20
139.1538668620765
 30
0.0
 10
56.59917924495937
 20
139.1922978846397
 30
0.0
 10
56.64000837803678
 20
139.2548832758648
 30
0.0
 10
56.65297833838657
 20
139.2774769664508
 30
0.0
 10
56.66035690694088
 20
139.2913373233385
 30
0.0
 10
56.65444612980487
 20
139.2817408244196
 30
0.0
 10
56.62569828622738
 20
139.2372065824591
 30
0.0
 10
56.60363888243803
 20
139.2039802326272
 30
0.0
 10
56.51744880992375
 20
139.0892886978876
 30
0.0
 10
56.43733144076791
 20
138.9985705913918
 30
0.0
 10
56.22846848208023
 20
138.8267650713452
 30
0.0
 10
56.10414470685757
 20
138.7479390737663
 30
0.0
 10
55.87815714964185
 20
138.6562827951401
 30
0.0
 10
55.79876098608029
 20
138.6313285888367
 30
0.0
 10
55.63070758043857
 20
138.594797593781
 30
0.0
 10
55.5422942031408
 20
138.5835904716518
 30
0.0
 10
55.36651904880137
 20
138.5775796764719
 30
0.0
 10
55.27645502703238
 20
138.5827413651428
 30
0.0
 10
55.10384078176035
 20
138.6083519952849
 30
0.0
 10
55.02017357513862
 20
138.6287455134216
 30
0.0
 10
54.78322709102115
 20
138.7079966278635
 30
0.0
 10
54.64648064531873
 20
138.7839430719557
 30
0.0
 10
54.53367024594675
 20
138.867662851166
 30
0.0
  0
CIRCLE
  5
22E
330
1F
100
AcDbEntity
  8
0
  6
Continuous
 62
     7
370
    18
100
AcDbCircle
 10
55.4044938071
 20
140.0327982293
 30
0.0
 40
1.449821465561932
  0
ARC
  5
22F
330
1F
100
AcDbEntity
  8
0
  6
Continuous
 62
     7
370
    18
100
AcDbCircle
 10
55.4044938071
 20
140.0327982293
 30
0.0
 40
4.699999999999986
100
AcDbArc
 50
220.0077539135
 51
319.9922460865
  0
SPLINE
  5
230
330
1F
100
AcDbEntity
  8
0
  6
Continuous
 62
     7
370
    18
100
AcDbSpline
210
0.0
220
0.0
230
1.0
 70
    24
 71
     3
 72
    12
 73
     8
 74
     0
 42
0.000000001
 43
0.00000001
 40
0.0
 40
0.0
 40
0.0
 40
0.0
 40
0.4999999999999989
 40
0.4999999999999989
 40
0.7499999999999994
 40
0.7499999999999994
 40
1.0
 40
1.0
 40
1.0
 40
1.0
 10
59.00449380705251
 20
137.0112092433099
 30
0.0
 10
59.00449380705251
 20
136.9126043681316
 30
0.0
 10
59.00449380705251
 20
136.8127280844651
 30
0.0
 10
59.00449380705251
 20
136.6822452315231
 30
0.0
 10
59.00449380705251
 20
136.6421704348868
 30
0.0
 10
59.00449380705251
 20
136.5818702104534
 30
0.0
 10
59.00449380705251
 20
136.5629279146776
 30
0.0
 10
59.00449380705251
 20
136.5629279146776
 30
0.0
  0
ARC
  5
231
330
1F
100
AcDbEntity
  8
0
  6
Continuous
 62
     7
370
    18
100
AcDbCircle
 10
55.4044938071
 20
140.0327982293
 30
0.0
 40
4.999999999999991
100
AcDbArc
 50
223.9455195623
 51
316.0544804377
  0
SPLINE
  5
232
330
1F
100
AcDbEntity
  8
0
  6
Continuous
 62
     7
370
    18
100
AcDbSpline
210
0.0
220
0.0
230
1.0
 70
    24
 71
     3
 72
    12
 73
     8
 74
     0
 42
0.000000001
 43
0.00000001
 40
0.0
 40
0.0
 40
0.0
 40
0.0
 40
0.2500000000000005
 40
0.2500000000000005
 40
0.500000000000001
 40
0.500000000000001
 40
1.0
 40
1.0
 40
1.0
 40
1.0
 10
51.80449380705252
 20
136.562927914678
 30
0.0
 10
51.80449380705252
 20
136.562927914678
 30
0.0
 10
51.80449380705252
 20
136.5821572418468
 30
0.0
 10
51.80449380705252
 20
136.6416659772874
 30
0.0
 10
51.80449380705252
 20
136.6817749535736
 30
0.0
 10
51.80449380705252
 20
136.8118620710385
 30
0.0
 10
51.80449380705252
 20
136.9127237651641
 30
0.0
 10
51.80449380705252
 20
137.0112092433099
 30
0.0
  0
ARC
  5
233
330
1F
100
AcDbEntity
  8
0
  6
Continuous
 62
     7
370
    18
100
AcDbCircle
 10
55.4044938071
 20
140.0327982293
 30
0.0
 40
5.000000000000012
100
AcDbArc
 50
43.9455195623
 51
136.0544804377
  0
SPLINE
  5
234
330
1F
100
AcDbEntity
  8
0
  6
Continuous
 62
     7
370
    18
100
AcDbSpline
210
0.0
220
0.0
230
1.0
 70
    24
 71
     3
 72
    12
 73
     8
 74
     0
 42
0.000000001
 43
0.00000001
 40
0.0
 40
0.0
 40
0.0
 40
0.0
 40
0.250000000000001
 40
0.250000000000001
 40
0.500000000000002
 40
0.500000000000002
 40
1.0
 40
1.0
 40
1.0
 40
1.0
 10
59.00449380705251
 20
143.5026685438373
 30
0.0
 10
59.00449380705251
 20
143.5026685438374
 30
0.0
 10
59.00449380705251
 20
143.4836875721899
 30
0.0
 10
59.00449380705251
 20
143.4236907374179
 30
0.0
 10
59.00449380705251
 20
143.3838464409784
 30
0.0
 10
59.00449380705251
 20
143.2525806725785
 30
0.0
 10
59.00449380705251
 20
143.152645455289
 30
0.0
 10
59.00449380705251
 20
143.0543872152051
 30
0.0
  0
ARC
  5
235
330
1F
100
AcDbEntity
  8
0
  6
Continuous
 62
     7
370
    18
100
AcDbCircle
 10
55.4044938071
 20
140.0327982293
 30
0.0
 40
4.700000000000022
100
AcDbArc
 50
40.0077539135
 51
139.9922460865
  0
SPLINE
  5
236
330
1F
100
AcDbEntity
  8
0
  6
Continuous
 62
     7
370
    18
100
AcDbSpline
210
0.0
220
0.0
230
1.0
 70
    24
 71
     3
 72
    12
 73
     8
 74
     0
 42
0.000000001
 43
0.00000001
 40
0.0
 40
0.0
 40
0.0
 40
0.0
 40
0.499999999999997
 40
0.499999999999997
 40
0.7499999999999984
 40
0.7499999999999984
 40
1.0
 40
1.0
 40
1.0
 40
1.0
 10
51.80449380705252
 20
143.0543872152051
 30
0.0
 10
51.80449380705252
 20
143.1531815103347
 30
0.0
 10
51.80449380705252
 20
143.2538627910938
 30
0.0
 10
51.80449380705252
 20
143.3839030473406
 30
0.0
 10
51.80449380705252
 20
143.4239534762695
 30
0.0
 10
51.80449380705252
 20
143.4837297461994
 30
0.0
 10
51.80449380705252
 20
143.5026685438374
 30
0.0
 10
51.80449380705252
 20
143.5026685438374
 30
0.0
  0
LINE
  5
237
330
1F
100
AcDbEntity
  8
0
  6
Continuous
 62
     7
370
    18
100
AcDbLine
 10
59.0044937452
 20
137.0112092454
 30
0.0
 11
59.0044937452
 21
143.0543872166
 31
0.0
  0
LINE
  5
238
330
1F
100
AcDbEntity
  8
0
  6
Continuous
 62
     7
370
    18
100
AcDbLine
 10
51.8044938689
 20
143.0543872166
 30
0.0
 11
51.8044938689
 21
137.0112092454
 31
0.0
  0
LWPOLYLINE
  5
239
330
1F
100
AcDbEntity
  8
0
  6
Continuous
 62
     7
370
    18
100
AcDbPolyline
 90
        9
 70
   128
 43
0.0
 10
56.2008118613
 20
135.0966177752
 10
56.1826640514
 20
135.088251006
 10
56.1668763293
 20
135.0695813644
 10
56.154013775
 20
135.0412771908
 10
56.1445369857
 20
135.0043517641
 10
56.1387850793
 20
134.9601269803
 10
56.1369639944
 20
134.9101859714
 10
56.1391389819
 20
134.8563164111
 10
56.1452321016
 20
134.8004469519
  0
SPLINE
  5
23A
330
1F
100
AcDbEntity
  8
0
  6
Continuous
 62
     7
370
    18
100
AcDbSpline
210
0.0
220
0.0
230
1.0
 70
     8
 71
     3
 72
    12
 73
     8
 74
     0
 42
0.000000001
 43
0.00000001
 40
0.0
 40
0.0
 40
0.0
 40
0.0
 40
0.5
 40
0.5
 40
0.75
 40
0.75
 40
1.0
 40
1.0
 40
1.0
 40
1.0
 10
56.14523212306658
 20
134.8004469413564
 30
0.0
 10
55.908767812487
 20
134.756977028739
 30
0.0
 10
55.65819385046103
 20
134.7327869153614
 30
0.0
 10
55.27737085752223
 20
134.7328038922891
 30
0.0
 10
55.14980948873665
 20
134.7388667120218
 30
0.0
 10
54.90279680993822
 20
134.7618308390623
 30
0.0
 10
54.78195810804806
 20
134.7787174151545
 30
0.0
 10
54.66375549103845
 20
134.8004469413564
 30
0.0
  0
LWPOLYLINE
  5
23B
330
1F
100
AcDbEntity
  8
0
  6
Continuous
 62
     7
370
    18
100
AcDbPolyline
 90
        9
 70
   128
 43
0.0
 10
54.6081757529
 20
135.0966177752
 10
54.6263235627
 20
135.088251006
 10
54.6421112848
 20
135.0695813644
 10
54.6549738391
 20
135.0412771908
 10
54.6644506284
 20
135.0043517641
 10
54.6702025348
 20
134.9601269803
 10
54.6720236197
 20
134.9101859714
 10
54.6698486322
 20
134.8563164111
 10
54.6637555125
 20
134.8004469519
  0
LINE
  5
23C
330
1F
100
AcDbEntity
  8
0
  6
Continuous
 62
     7
370
    18
100
AcDbLine
 10
52.9044938629
 20
128.2327982235
 30
0.0
 11
57.9044937512
 21
128.2327982235
 31
0.0
  0
LINE
  5
23D
330
1F
100
AcDbEntity
  8
0
  6
Continuous
 62
     7
370
    18
100
AcDbLine
 10
53.4044937121
 20
125.7327978137
 30
0.0
 11
57.404493902
 21
125.7327978137
 31
0.0
  0
LINE
  5
23E
330
1F
100
AcDbEntity
  8
0
  6
Continuous
 62
     7
370
    18
100
AcDbLine
 10
52.9044938629
 20
130.7327981676
 30
0.0
 11
57.9044937512
 21
130.7327981676
 31
0.0
  0
ARC
  5
23F
330
1F
100
AcDbEntity
  8
0
  6
Continuous
 62
     7
370
    18
100
AcDbCircle
 10
55.4044938071
 20
140.0327982293
 30
0.0
 40
5.999999999999982
100
AcDbArc
 50
290.9978755459
 51
249.0021244541
  0
LINE
  5
240
330
1F
100
AcDbEntity
  8
0
  6
Continuous
 62
     7
370
    18
100
AcDbLine
 10
61.9072427397
 20
136.2847867758
 30
0.0
 11
61.9017414173
 21
143.7903383385
 31
0.0
  0
LINE
  5
241
330
1F
100
AcDbEntity
  8
0
  6
Continuous
 62
     7
370
    18
100
AcDbLine
 10
57.5544938801
 20
133.7674704018
 30
0.0
 11
61.9072427397
 21
136.2847867758
 31
0.0
  0
LINE
  5
242
330
1F
100
AcDbEntity
  8
0
  6
Continuous
 62
     7
370
    18
100
AcDbLine
 10
48.9072461968
 20
136.2752582108
 30
0.0
 11
53.254493734
 21
133.76962036
 31
0.0
  0
LINE
  5
243
330
1F
100
AcDbEntity
  8
0
  6
Continuous
 62
     7
370
    18
100
AcDbLine
 10
48.9017448744
 20
143.7808095116
 30
0.0
 11
48.9072461968
 21
136.2752582108
 31
0.0
  0
LINE
  5
244
330
1F
100
AcDbEntity
  8
0
  6
Continuous
 62
     7
370
    18
100
AcDbLine
 10
55.3989924778
 20
147.5383496481
 30
0.0
 11
48.9017448744
 21
143.7808095116
 31
0.0
  0
LINE
  5
245
330
1F
100
AcDbEntity
  8
0
  6
Continuous
 62
     7
370
    18
100
AcDbLine
 10
61.9017414173
 20
143.7903383385
 30
0.0
 11
55.3989924778
 21
147.5383496481
 31
0.0
  0
ARC
  5
246
330
1F
100
AcDbEntity
  8
0
  6
Continuous
 62
     7
370
    18
100
AcDbCircle
 10
55.4044938071
 20
140.0327982293
 30
0.0
 40
7.249999999999996
100
AcDbArc
 50
195.0901851794
 51
206.3335512412
  0
ARC
  5
247
330
1F
100
AcDbEntity
  8
0
  6
Continuous
 62
     7
370
    18
100
AcDbCircle
 10
55.4044938071
 20
140.0327982293
 30
0.0
 40
7.250000000000004
100
AcDbArc
 50
213.7504406917
 51
224.9098148206
  0
SPLINE
  5
248
330
1F
100
AcDbEntity
  8
0
  6
Continuous
 62
     7
370
    18
100
AcDbSpline
210
0.0
220
0.0
230
1.0
 70
    24
 71
     3
 72
     8
 73
     4
 74
     0
 42
0.000000001
 43
0.00000001
 40
0.0
 40
0.0
 40
0.0
 40
0.0
 40
1.0
 40
1.0
 40
1.0
 40
1.0
 10
48.40449380705328
 20
135.991346344929
 30
0.0
 10
49.01739236877672
 20
135.6374891953322
 30
0.0
 10
49.64348656854972
 20
135.2760135405553
 30
0.0
 10
50.26990670322571
 20
134.9143497071745
 30
0.0
  0
SPLINE
  5
249
330
1F
100
AcDbEntity
  8
0
  6
Continuous
 62
     7
370
    18
100
AcDbSpline
210
0.0
220
0.0
230
1.0
 70
    24
 71
     3
 72
    10
 73
     6
 74
     0
 42
0.000000001
 43
0.00000001
 40
0.0
 40
0.0
 40
0.0
 40
0.0
 40
0.5
 40
0.5
 40
1.0
 40
1.0
 40
1.0
 40
1.0
 10
48.40449380705295
 20
138.1453396204388
 30
0.0
 10
48.40449380705301
 20
137.7798072805822
 30
0.0
 10
48.40449380705306
 20
137.4156339257154
 30
0.0
 10
48.40449380705317
 20
136.6980305591598
 30
0.0
 10
48.40449380705323
 20
136.3431499934157
 30
0.0
 10
48.40449380705329
 20
135.991346344929
 30
0.0
  0
LINE
  5
24A
330
1F
100
AcDbEntity
  8
0
  6
Continuous
 62
     7
370
    18
100
AcDbLine
 10
62.4044940231
 20
138.1453395925
 30
0.0
 11
62.4044940231
 21
141.9202570442
 31
0.0
  0
ARC
  5
24B
330
1F
100
AcDbEntity
  8
0
  6
Continuous
 62
     7
370
    18
100
AcDbCircle
 10
55.4044938071
 20
140.0327982293
 30
0.0
 40
7.249999999999997
100
AcDbArc
 50
315.0901851794
 51
326.3335512412
  0
ARC
  5
24C
330
1F
100
AcDbEntity
  8
0
  6
Continuous
 62
     7
370
    18
100
AcDbCircle
 10
55.4044938071
 20
140.0327982293
 30
0.0
 40
7.250000000000008
100
AcDbArc
 50
333.7504406917
 51
344.9098148206
  0
LINE
  5
24D
330
1F
100
AcDbEntity
  8
0
  6
Continuous
 62
     7
370
    18
100
AcDbLine
 10
57.5544938801
 20
133.1911975622
 30
0.0
 11
60.5390809832
 21
134.9143496818
 31
0.0
  0
LINE
  5
24E
330
1F
100
AcDbEntity
  8
0
  6
Continuous
 62
     7
370
    18
100
AcDbLine
 10
50.2699066309
 20
134.9143496818
 30
0.0
 11
53.254493734
 21
133.1911975622
 31
0.0
  0
LINE
  5
24F
330
1F
100
AcDbEntity
  8
0
  6
Continuous
 62
     7
370
    18
100
AcDbLine
 10
48.404493591
 20
141.9202570442
 30
0.0
 11
48.404493591
 21
138.1453395925
 31
0.0
  0
ARC
  5
250
330
1F
100
AcDbEntity
  8
0
  6
Continuous
 62
     7
370
    18
100
AcDbCircle
 10
55.4044938071
 20
140.0327982293
 30
0.0
 40
7.250000000000007
100
AcDbArc
 50
135.0901851794
 51
146.3335512412
  0
ARC
  5
251
330
1F
100
AcDbEntity
  8
0
  6
Continuous
 62
     7
370
    18
100
AcDbCircle
 10
55.4044938071
 20
140.0327982293
 30
0.0
 40
7.249999999999998
100
AcDbArc
 50
153.7504406917
 51
164.9098148206
  0
ARC
  5
252
330
1F
100
AcDbEntity
  8
0
  6
Continuous
 62
     7
370
    18
100
AcDbCircle
 10
55.4044938071
 20
140.0327982293
 30
0.0
 40
7.25000000000001
100
AcDbArc
 50
75.0901851794
 51
86.3335512412
  0
ARC
  5
253
330
1F
100
AcDbEntity
  8
0
  6
Continuous
 62
     7
370
    18
100
AcDbCircle
 10
55.4044938071
 20
140.0327982293
 30
0.0
 40
7.24999999999998
100
AcDbArc
 50
93.7504406917
 51
104.9098148206
  0
LINE
  5
254
330
1F
100
AcDbEntity
  8
0
  6
Continuous
 62
     7
370
    18
100
AcDbLine
 10
60.5390809832
 20
145.1512469548
 30
0.0
 11
57.2699067306
 21
147.0387053314
 31
0.0
  0
ARC
  5
255
330
1F
100
AcDbEntity
  8
0
  6
Continuous
 62
     7
370
    18
100
AcDbCircle
 10
55.4044938071
 20
140.0327982293
 30
0.0
 40
7.249999999999995
100
AcDbArc
 50
15.0901851794
 51
26.3335512412
  0
ARC
  5
256
330
1F
100
AcDbEntity
  8
0
  6
Continuous
 62
     7
370
    18
100
AcDbCircle
 10
55.4044938071
 20
140.0327982293
 30
0.0
 40
7.25000000000001
100
AcDbArc
 50
33.7504406917
 51
44.9098148206
  0
LINE
  5
257
330
1F
100
AcDbEntity
  8
0
  6
Continuous
 62
     7
370
    18
100
AcDbLine
 10
53.5390808835
 20
147.0387053314
 30
0.0
 11
50.2699066309
 21
145.1512469548
 31
0.0
  0
SPLINE
  5
258
330
1F
100
AcDbEntity
  8
0
  6
Continuous
 62
     7
370
    18
100
AcDbSpline
210
0.0
220
0.0
230
1.0
 70
    24
 71
     3
 72
    10
 73
     6
 74
     0
 42
0.000000001
 43
0.00000001
 40
0.0
 40
0.0
 40
0.0
 40
0.0
 40
0.5
 40
0.5
 40
1.0
 40
1.0
 40
1.0
 40
1.0
 10
48.40449380705204
 20
144.0742501135838
 30
0.0
 10
48.40449380705209
 20
143.721830003694
 30
0.0
 10
48.40449380705215
 20
143.3662169906041
 30
0.0
 10
48.40449380705225
 20
142.6468322125085
 30
0.0
 10
48.40449380705231
 20
142.2830371100083
 30
0.0
 10
48.40449380705237
 20
141.9202568380741
 30
0.0
  0
SPLINE
  5
259
330
1F
100
AcDbEntity
  8
0
  6
Continuous
 62
     7
370
    18
100
AcDbSpline
210
0.0
220
0.0
230
1.0
 70
    24
 71
     3
 72
     8
 73
     4
 74
     0
 42
0.000000001
 43
0.00000001
 40
0.0
 40
0.0
 40
0.0
 40
0.0
 40
1.0
 40
1.0
 40
1.0
 40
1.0
 10
50.26990670322415
 20
145.151246751339
 30
0.0
 10
49.63517640403012
 20
144.7847850422364
 30
0.0
 10
49.01514391738208
 20
144.4268091191637
 30
0.0
 10
48.40449380705203
 20
144.0742501135838
 30
0.0
  0
SPLINE
  5
25A
330
1F
100
AcDbEntity
  8
0
  6
Continuous
 62
     7
370
    18
100
AcDbSpline
210
0.0
220
0.0
230
1.0
 70
    24
 71
     3
 72
     8
 73
     4
 74
     0
 42
0.000000001
 43
0.00000001
 40
0.0
 40
0.0
 40
0.0
 40
0.0
 40
1.0
 40
1.0
 40
1.0
 40
1.0
 10
57.26990670322385
 20
147.0387053601577
 30
0.0
 10
56.63517640402971
 20
147.4051670692601
 30
0.0
 10
56.01514391738157
 20
147.7631429923326
 30
0.0
 10
55.40449380705141
 20
148.1157019979123
 30
0.0
  0
SPLINE
  5
25B
330
1F
100
AcDbEntity
  8
0
  6
Continuous
 62
     7
370
    18
100
AcDbSpline
210
0.0
220
0.0
230
1.0
 70
    24
 71
     3
 72
     8
 73
     4
 74
     0
 42
0.000000001
 43
0.00000001
 40
0.0
 40
0.0
 40
0.0
 40
0.0
 40
1.0
 40
1.0
 40
1.0
 40
1.0
 10
55.40449380705142
 20
148.1157019979123
 30
0.0
 10
54.7915952453281
 20
147.7618448483153
 30
0.0
 10
54.1655010455552
 20
147.4003691935382
 30
0.0
 10
53.53908091087931
 20
147.0387053601571
 30
0.0
  0
SPLINE
  5
25C
330
1F
100
AcDbEntity
  8
0
  6
Continuous
 62
     7
370
    18
100
AcDbSpline
210
0.0
220
0.0
230
1.0
 70
    24
 71
     3
 72
    10
 73
     6
 74
     0
 42
0.000000001
 43
0.00000001
 40
0.0
 40
0.0
 40
0.0
 40
0.0
 40
0.5
 40
0.5
 40
1.0
 40
1.0
 40
1.0
 40
1.0
 10
62.40449380705237
 20
141.9202568380763
 30
0.0
 10
62.40449380705231
 20
142.2857891779328
 30
0.0
 10
62.40449380705225
 20
142.6499625327996
 30
0.0
 10
62.40449380705215
 20
143.3675658993552
 30
0.0
 10
62.40449380705209
 20
143.7224464650993
 30
0.0
 10
62.40449380705204
 20
144.074250113586
 30
0.0
  0
SPLINE
  5
25D
330
1F
100
AcDbEntity
  8
0
  6
Continuous
 62
     7
370
    18
100
AcDbSpline
210
0.0
220
0.0
230
1.0
 70
    24
 71
     3
 72
     8
 73
     4
 74
     0
 42
0.000000001
 43
0.00000001
 40
0.0
 40
0.0
 40
0.0
 40
0.0
 40
1.0
 40
1.0
 40
1.0
 40
1.0
 10
62.40449380705204
 20
144.0742501135859
 30
0.0
 10
61.7915952453286
 20
144.4281072631828
 30
0.0
 10
61.1655010455556
 20
144.7895829179597
 30
0.0
 10
60.5390809108796
 20
145.1512467513406
 30
0.0
  0
SPLINE
  5
25E
330
1F
100
AcDbEntity
  8
0
  6
Continuous
 62
     7
370
    18
100
AcDbSpline
210
0.0
220
0.0
230
1.0
 70
    24
 71
     3
 72
    10
 73
     6
 74
     0
 42
0.000000001
 43
0.00000001
 40
0.0
 40
0.0
 40
0.0
 40
0.0
 40
0.5000000000000001
 40
0.5000000000000001
 40
1.0
 40
1.0
 40
1.0
 40
1.0
 10
62.40449380705329
 20
135.9913463449312
 30
0.0
 10
62.40449380705323
 20
136.343766454821
 30
0.0
 10
62.40449380705317
 20
136.6993794679109
 30
0.0
 10
62.40449380705306
 20
137.4187642460065
 30
0.0
 10
62.40449380705301
 20
137.7825593485067
 30
0.0
 10
62.40449380705295
 20
138.1453396204409
 30
0.0
  0
SPLINE
  5
25F
330
1F
100
AcDbEntity
  8
0
  6
Continuous
 62
     7
370
    18
100
AcDbSpline
210
0.0
220
0.0
230
1.0
 70
    24
 71
     3
 72
     8
 73
     4
 74
     0
 42
0.000000001
 43
0.00000001
 40
0.0
 40
0.0
 40
0.0
 40
0.0
 40
1.0
 40
1.0
 40
1.0
 40
1.0
 10
60.53908091088118
 20
134.9143497071761
 30
0.0
 10
61.17381121007521
 20
135.2808114162787
 30
0.0
 10
61.79384369672325
 20
135.6387873393514
 30
0.0
 10
62.40449380705329
 20
135.9913463449312
 30
0.0
  0
SPLINE
  5
260
330
1F
100
AcDbEntity
  8
0
  6
Continuous
 62
     8
370
    18
100
AcDbSpline
210
0.0
220
0.0
230
1.0
 70
     8
 71
     3
 72
    11
 73
     7
 74
     0
 42
0.000000001
 43
0.00000001
 40
0.0
 40
0.0
 40
0.0
 40
0.0
 40
0.2681453649177426
 40
0.6699481894611394
 40
0.9849187715495317
 40
1.0
 40
1.0
 40
1.0
 40
1.0
 10
54.66375551249951
 20
134.8004469518909
 30
0.0
 10
54.5842766303079
 20
134.8179305341382
 30
0.0
 10
54.38570249779963
 20
134.8616124164465
 30
0.0
 10
54.14332574125026
 20
135.0073355019451
 30
0.0
 10
53.99417627086807
 20
135.1641656565243
 30
0.0
 10
53.95908795990545
 20
135.2599078179164
 30
0.0
 10
53.95748465152576
 20
135.2642826141217
 30
0.0
  0
SPLINE
  5
261
330
1F
100
AcDbEntity
  8
0
  6
Continuous
 62
     8
370
    18
100
AcDbSpline
210
0.0
220
0.0
230
1.0
 70
     8
 71
     3
 72
    11
 73
     7
 74
     0
 42
0.000000001
 43
0.00000001
 40
0.0
 40
0.0
 40
0.0
 40
0.0
 40
0.1038103453410456
 40
0.4332922201606973
 40
0.8340163519716546
 40
1.0
 40
1.0
 40
1.0
 40
1.0
 10
56.849482225423
 20
135.2743235520446
 30
0.0
 10
56.83686337443525
 20
135.2449264030913
 30
0.0
 10
56.78419376869997
 20
135.1222261472108
 30
0.0
 10
56.60291227031897
 20
134.9566978193957
 30
0.0
 10
56.36484450281386
 20
134.846044686111
 30
0.0
 10
56.19498301463437
 20
134.8107766459201
 30
0.0
 10
56.14523210160553
 20
134.8004469518909
 30
0.0
  0
ARC
  5
262
330
1F
100
AcDbEntity
  8
0
  6
Continuous
 62
     8
370
    18
100
AcDbCircle
 10
55.4044938071
 20
140.0327982293
 30
0.0
 40
5.699999999999986
100
AcDbArc
 50
292.1599175499
 51
247.8400824501
  0
DIMENSION
  5
263
330
1F
100
AcDbEntity
  8
0
  6
Continuous
 62
     7
370
    18
100
AcDbDimension
  2
_D_11
 10
48.8890115896
 20
161.1530531209
 30
0.0
 11
55.3890098436
 21
161.1578174117
 31
0.0
 70
   160
  1
<>
 71
     2
 42
-1.0
  3
SLDDIMSTYLE0
100
AcDbAlignedDimension
 13
61.9017413964
 23
143.7903382618
 33
0.0
 14
48.9017448885
 24
143.7808096801
 34
0.0
 50
0.0419959664
100
AcDbRotatedDimension
  0
INSERT
  5
272
330
1F
100
AcDbEntity
  8
0
  6
Continuous
 62
     7
370
     0
100
AcDbBlockReference
  2
SW_NOTE_1
 10
66.4334975369
 20
95.7463056124
 30
0.0
  0
LEADER
  5
273
330
1F
100
AcDbEntity
  8
0
  6
Continuous
 62
     7
370
     0
100
AcDbLeader
  3
SLDDIMSTYLE4
 76
     2
 10
54.4147470685
 20
131.6167859701
 30
0.0
 10
66.4334975369
 20
95.7463056124
 30
0.0
  0
INSERT
  5
27F
330
1F
100
AcDbEntity
  8
0
  6
Continuous
 62
     7
370
    18
100
AcDbBlockReference
  2
SW_CENTERMARKSYMBOL_0
 10
55.4044938071
 20
140.0327982293
 30
0.0
  0
ENDSEC
  0
SECTION
  2
OBJECTS
  0
DICTIONARY
  5
C
330
0
100
AcDbDictionary
281
     1
  3
ACAD_GROUP
350
D
  3
ACAD_LAYOUT
350
1A
  3
ACAD_MLINESTYLE
350
17
  3
ACAD_PLOTSETTINGS
350
19
  3
ACAD_PLOTSTYLENAME
350
E
  3
ACAD_SCALELIST
350
47
  0
DICTIONARY
  5
D
102
{ACAD_REACTORS
330
C
102
}
330
C
100
AcDbDictionary
281
     1
  0
DICTIONARY
  5
1A
102
{ACAD_REACTORS
330
C
102
}
330
C
100
AcDbDictionary
281
     1
  3
Layout1
350
1E
  3
Layout2
350
26
  3
Model
350
22
  0
DICTIONARY
  5
17
102
{ACAD_REACTORS
330
C
102
}
330
C
100
AcDbDictionary
281
     1
  3
Standard
350
18
  0
DICTIONARY
  5
19
102
{ACAD_REACTORS
330
C
102
}
330
C
100
AcDbDictionary
281
     1
  0
ACDBDICTIONARYWDFLT
  5
E
102
{ACAD_REACTORS
330
C
102
}
330
C
100
AcDbDictionary
281
     1
  3
Normal
350
F
100
AcDbDictionaryWithDefault
340
F
  0
DICTIONARY
  5
47
102
{ACAD_REACTORS
330
C
102
}
330
C
100
AcDbDictionary
281
     1
  3
A0
350
48
  3
A1
350
49
  3
A2
350
4A
  3
A3
350
4B
  3
A4
350
4C
  3
A5
350
4D
  3
A6
350
4E
  3
A7
350
4F
  3
A8
350
50
  3
A9
350
51
  3
B0
350
52
  3
B1
350
53
  3
B2
350
54
  3
B3
350
55
  3
B4
350
56
  3
B5
350
57
  3
B6
350
58
  3
B7
350
59
  3
B8
350
5A
  3
B9
350
5B
  3
C0
350
5C
  3
C1
350
5D
  3
C2
350
5E
  3
C3
350
5F
  3
C4
350
60
  3
C5
350
61
  3
C6
350
62
  3
C7
350
63
  3
C8
350
64
  3
C9
350
65
  3
D0
350
66
  3
D1
350
67
  3
D2
350
68
  0
LAYOUT
  5
1E
102
{ACAD_REACTORS
330
1A
102
}
330
1A
100
AcDbPlotSettings
  1

  2
none_device
  4

  6

 40
0.0
 41
0.0
 42
0.0
 43
0.0
 44
0.0
 45
0.0
 46
0.0
 47
0.0
 48
0.0
 49
0.0
140
0.0
141
0.0
142
1.0
143
1.0
 70
   688
 72
     1
 73
     0
 74
     5
  7

 75
    16
147
1.0
148
0.0
149
0.0
100
AcDbLayout
  1
Layout1
 70
     1
 71
     1
 10
0.0
 20
0.0
 11
420.0
 21
297.0
 12
0.0
 22
0.0
 32
0.0
 14
1.0000000000E+20
 24
1.0000000000E+20
 34
1.0000000000E+20
 15
-1.0000000000E+20
 25
-1.0000000000E+20
 35
-1.0000000000E+20
146
0.0
 13
0.0
 23
0.0
 33
0.0
 16
1.0
 26
0.0
 36
0.0
 17
0.0
 27
1.0
 37
0.0
 76
     0
330
1B
  0
LAYOUT
  5
26
102
{ACAD_REACTORS
330
1A
102
}
330
1A
100
AcDbPlotSettings
  1

  2
none_device
  4

  6

 40
0.0
 41
0.0
 42
0.0
 43
0.0
 44
0.0
 45
0.0
 46
0.0
 47
0.0
 48
0.0
 49
0.0
140
0.0
141
0.0
142
1.0
143
1.0
 70
   688
 72
     1
 73
     0
 74
     5
  7

 75
    16
147
1.0
148
0.0
149
0.0
100
AcDbLayout
  1
Layout2
 70
     1
 71
     2
 10
0.0
 20
0.0
 11
0.0
 21
0.0
 12
0.0
 22
0.0
 32
0.0
 14
0.0
 24
0.0
 34
0.0
 15
0.0
 25
0.0
 35
0.0
146
0.0
 13
0.0
 23
0.0
 33
0.0
 16
1.0
 26
0.0
 36
0.0
 17
0.0
 27
1.0
 37
0.0
 76
     0
330
23
  0
LAYOUT
  5
22
102
{ACAD_REACTORS
330
1A
102
}
330
1A
100
AcDbPlotSettings
  1

  2
none_device
  4
Letter_(8.50_x_11.00_Inches)
  6

 40
6.35
 41
6.35
 42
6.35000508
 43
6.35000508
 44
215.9
 45
279.4
 46
0.0
 47
0.0
 48
0.0
 49
0.0
140
0.0
141
0.0
142
1.0
143
1.0
 70
  1712
 72
     1
 73
     0
 74
     0
  7

 75
     0
147
1.0
148
0.0
149
0.0
100
AcDbLayout
  1
Model
 70
     1
 71
     0
 10
0.0
 20
0.0
 11
210.0
 21
297.0
 12
0.0
 22
0.0
 32
0.0
 14
0.0
 24
0.0
 34
0.0
 15
210.0
 25
297.0
 35
0.0
146
0.0
 13
0.0
 23
0.0
 33
0.0
 16
1.0
 26
0.0
 36
0.0
 17
0.0
 27
1.0
 37
0.0
 76
     0
330
1F
331
29
  0
MLINESTYLE
  5
18
102
{ACAD_REACTORS
330
17
102
}
330
17
100
AcDbMlineStyle
  2
Standard
 70
     0
  3

 62
   256
 51
90.0
 52
90.0
 71
     2
 49
0.5
 62
   256
  6
BYLAYER
 49
-0.5
 62
   256
  6
BYLAYER
  0
ACDBPLACEHOLDER
  5
F
102
{ACAD_REACTORS
330
E
102
}
330
E
  0
SCALE
  5
48
102
{ACAD_REACTORS
330
47
102
}
330
47
100
AcDbScale
 70
     0
300
1:1
140
1.0
141
1.0
290
     1
  0
SCALE
  5
49
102
{ACAD_REACTORS
330
47
102
}
330
47
100
AcDbScale
 70
     0
300
1:2
140
1.0
141
2.0
290
     0
  0
SCALE
  5
4A
102
{ACAD_REACTORS
330
47
102
}
330
47
100
AcDbScale
 70
     0
300
1:4
140
1.0
141
4.0
290
     0
  0
SCALE
  5
4B
102
{ACAD_REACTORS
330
47
102
}
330
47
100
AcDbScale
 70
     0
300
1:5
140
1.0
141
5.0
290
     0
  0
SCALE
  5
4C
102
{ACAD_REACTORS
330
47
102
}
330
47
100
AcDbScale
 70
     0
300
1:8
140
1.0
141
8.0
290
     0
  0
SCALE
  5
4D
102
{ACAD_REACTORS
330
47
102
}
330
47
100
AcDbScale
 70
     0
300
1:10
140
1.0
141
10.0
290
     0
  0
SCALE
  5
4E
102
{ACAD_REACTORS
330
47
102
}
330
47
100
AcDbScale
 70
     0
300
1:16
140
1.0
141
16.0
290
     0
  0
SCALE
  5
4F
102
{ACAD_REACTORS
330
47
102
}
330
47
100
AcDbScale
 70
     0
300
1:20
140
1.0
141
20.0
290
     0
  0
SCALE
  5
50
102
{ACAD_REACTORS
330
47
102
}
330
47
100
AcDbScale
 70
     0
300
1:30
140
1.0
141
30.0
290
     0
  0
SCALE
  5
51
102
{ACAD_REACTORS
330
47
102
}
330
47
100
AcDbScale
 70
     0
300
1:40
140
1.0
141
40.0
290
     0
  0
SCALE
  5
52
102
{ACAD_REACTORS
330
47
102
}
330
47
100
AcDbScale
 70
     0
300
1:50
140
1.0
141
50.0
290
     0
  0
SCALE
  5
53
102
{ACAD_REACTORS
330
47
102
}
330
47
100
AcDbScale
 70
     0
300
1:100
140
1.0
141
100.0
290
     0
  0
SCALE
  5
54
102
{ACAD_REACTORS
330
47
102
}
330
47
100
AcDbScale
 70
     0
300
2:1
140
2.0
141
1.0
290
     0
  0
SCALE
  5
55
102
{ACAD_REACTORS
330
47
102
}
330
47
100
AcDbScale
 70
     0
300
4:1
140
4.0
141
1.0
290
     0
  0
SCALE
  5
56
102
{ACAD_REACTORS
330
47
102
}
330
47
100
AcDbScale
 70
     0
300
8:1
140
8.0
141
1.0
290
     0
  0
SCALE
  5
57
102
{ACAD_REACTORS
330
47
102
}
330
47
100
AcDbScale
 70
     0
300
10:1
140
10.0
141
1.0
290
     0
  0
SCALE
  5
58
102
{ACAD_REACTORS
330
47
102
}
330
47
100
AcDbScale
 70
     0
300
100:1
140
100.0
141
1.0
290
     0
  0
SCALE
  5
59
102
{ACAD_REACTORS
330
47
102
}
330
47
100
AcDbScale
 70
     0
300
1/128" = 1'-0"
140
0.0078125
141
12.0
290
     0
  0
SCALE
  5
5A
102
{ACAD_REACTORS
330
47
102
}
330
47
100
AcDbScale
 70
     0
300
1/64" = 1'-0"
140
0.015625
141
12.0
290
     0
  0
SCALE
  5
5B
102
{ACAD_REACTORS
330
47
102
}
330
47
100
AcDbScale
 70
     0
300
1/32" = 1'-0"
140
0.03125
141
12.0
290
     0
  0
SCALE
  5
5C
102
{ACAD_REACTORS
330
47
102
}
330
47
100
AcDbScale
 70
     0
300
1/16" = 1'-0"
140
0.0625
141
12.0
290
     0
  0
SCALE
  5
5D
102
{ACAD_REACTORS
330
47
102
}
330
47
100
AcDbScale
 70
     0
300
3/32" = 1'-0"
140
0.09375
141
12.0
290
     0
  0
SCALE
  5
5E
102
{ACAD_REACTORS
330
47
102
}
330
47
100
AcDbScale
 70
     0
300
1/8" = 1'-0"
140
0.125
141
12.0
290
     0
  0
SCALE
  5
5F
102
{ACAD_REACTORS
330
47
102
}
330
47
100
AcDbScale
 70
     0
300
3/16" = 1'-0"
140
0.1875
141
12.0
290
     0
  0
SCALE
  5
60
102
{ACAD_REACTORS
330
47
102
}
330
47
100
AcDbScale
 70
     0
300
1/4" = 1'-0"
140
0.25
141
12.0
290
     0
  0
SCALE
  5
61
102
{ACAD_REACTORS
330
47
102
}
330
47
100
AcDbScale
 70
     0
300
3/8" = 1'-0"
140
0.375
141
12.0
290
     0
  0
SCALE
  5
62
102
{ACAD_REACTORS
330
47
102
}
330
47
100
AcDbScale
 70
     0
300
1/2" = 1'-0"
140
0.5
141
12.0
290
     0
  0
SCALE
  5
63
102
{ACAD_REACTORS
330
47
102
}
330
47
100
AcDbScale
 70
     0
300
3/4" = 1'-0"
140
0.75
141
12.0
290
     0
  0
SCALE
  5
64
102
{ACAD_REACTORS
330
47
102
}
330
47
100
AcDbScale
 70
     0
300
1" = 1'-0"
140
1.0
141
12.0
290
     0
  0
SCALE
  5
65
102
{ACAD_REACTORS
330
47
102
}
330
47
100
AcDbScale
 70
     0
300
1-1/2" = 1'-0"
140
1.5
141
12.0
290
     0
  0
SCALE
  5
66
102
{ACAD_REACTORS
330
47
102
}
330
47
100
AcDbScale
 70
     0
300
3" = 1'-0"
140
3.0
141
12.0
290
     0
  0
SCALE
  5
67
102
{ACAD_REACTORS
330
47
102
}
330
47
100
AcDbScale
 70
     0
300
6" = 1'-0"
140
6.0
141
12.0
290
     0
  0
SCALE
  5
68
102
{ACAD_REACTORS
330
47
102
}
330
47
100
AcDbScale
 70
     0
300
1'-0" = 1'-0"
140
12.0
141
12.0
290
     0
  0
ENDSEC
  0
EOF
