  0
SECTION
  2
HEADER
  9
$ACADVER
  1
AC1015
  9
$ACADMAINTVER
 70
     6
  9
$DWGCODEPAGE
  3
DOS932
  9
$INSBASE
 10
0.0
 20
0.0
 30
0.0
  9
$EXTMIN
 10
0.0
 20
0.0
 30
0.0
  9
$EXTMAX
 10
210.0
 20
297.0
 30
0.0
  9
$LIMMIN
 10
0.0
 20
0.0
  9
$LIMMAX
 10
210.0
 20
297.0
  9
$ORTHOMODE
 70
     0
  9
$REGENMODE
 70
     1
  9
$FILLMODE
 70
     1
  9
$QTEXTMODE
 70
     0
  9
$MIRRTEXT
 70
     1
  9
$LTSCALE
 40
1.0
  9
$ATTMODE
 70
     1
  9
$TEXTSIZE
 40
3.5
  9
$TRACEWID
 40
1.0
  9
$TEXTSTYLE
  7
Standard
  9
$CLAYER
  8
0
  9
$CELTYPE
  6
ByLayer
  9
$CECOLOR
 62
   256
  9
$CELTSCALE
 40
1.0
  9
$DISPSILH
 70
     0
  9
$DIMSCALE
 40
1.0
  9
$DIMASZ
 40
3.0
  9
$DIMEXO
 40
1.0
  9
$DIMDLI
 40
3.75
  9
$DIMRND
 40
0.0
  9
$DIMDLE
 40
0.0
  9
$DIMEXE
 40
1.0
  9
$DIMTP
 40
0.0
  9
$DIMTM
 40
0.0
  9
$DIMTXT
 40
3.5
  9
$DIMCEN
 40
2.5
  9
$DIMTSZ
 40
0.0
  9
$DIMTOL
 70
     0
  9
$DIMLIM
 70
     0
  9
$DIMTIH
 70
     1
  9
$DIMTOH
 70
     1
  9
$DIMSE1
 70
     0
  9
$DIMSE2
 70
     0
  9
$DIMTAD
 70
     1
  9
$DIMZIN
 70
     0
  9
$DIMBLK
  1

  9
$DIMASO
 70
     1
  9
$DIMSHO
 70
     1
  9
$DIMPOST
  1

  9
$DIMAPOST
  1

  9
$DIMALT
 70
     0
  9
$DIMALTD
 70
     3
  9
$DIMALTF
 40
0.0393700787
  9
$DIMLFAC
 40
1.0
  9
$DIMTOFL
 70
     1
  9
$DIMTVP
 40
0.0
  9
$DIMTIX
 70
     0
  9
$DIMSOXD
 70
     0
  9
$DIMSAH
 70
     0
  9
$DIMBLK1
  1

  9
$DIMBLK2
  1

  9
$DIMSTYLE
  2
ISO-25
  9
$DIMCLRD
 70
     0
  9
$DIMCLRE
 70
     0
  9
$DIMCLRT
 70
     0
  9
$DIMTFAC
 40
1.0
  9
$DIMGAP
 40
1.524
  9
$DIMJUST
 70
     0
  9
$DIMSD1
 70
     0
  9
$DIMSD2
 70
     0
  9
$DIMTOLJ
 70
     0
  9
$DIMTZIN
 70
     0
  9
$DIMALTZ
 70
     0
  9
$DIMALTTZ
 70
     0
  9
$DIMUPT
 70
     0
  9
$DIMDEC
 70
     1
  9
$DIMTDEC
 70
     3
  9
$DIMALTU
 70
     2
  9
$DIMALTTD
 70
     3
  9
$DIMTXSTY
  7
Standard
  9
$DIMAUNIT
 70
     0
  9
$DIMADEC
 70
     2
  9
$DIMALTRND
 40
0.0
  9
$DIMAZIN
 70
     0
  9
$DIMDSEP
 70
    44
  9
$DIMATFIT
 70
     3
  9
$DIMFRAC
 70
     0
  9
$DIMLDRBLK
  1

  9
$DIMLUNIT
 70
     2
  9
$DIMLWD
 70
    -2
  9
$DIMLWE
 70
    -2
  9
$DIMTMOVE
 70
     0
  9
$LUNITS
 70
     2
  9
$LUPREC
 70
     1
  9
$SKETCHINC
 40
1.0
  9
$FILLETRAD
 40
10.0
  9
$AUNITS
 70
     0
  9
$AUPREC
 70
     2
  9
$MENU
  1
.
  9
$ELEVATION
 40
0.0
  9
$PELEVATION
 40
0.0
  9
$THICKNESS
 40
0.0
  9
$LIMCHECK
 70
     0
  9
$CHAMFERA
 40
0.0
  9
$CHAMFERB
 40
0.0
  9
$CHAMFERC
 40
0.0
  9
$CHAMFERD
 40
0.0
  9
$SKPOLY
 70
     0
  9
$TDCREATE
 40
2459019.491450208
  9
$TDUCREATE
 40
2459019.116450208
  9
$TDUPDATE
 40
2459019.491452558
  9
$TDUUPDATE
 40
2459019.116452558
  9
$TDINDWG
 40
0.0000000116
  9
$TDUSRTIMER
 40
0.0000000116
  9
$USRTIMER
 70
     1
  9
$ANGBASE
 50
0.0
  9
$ANGDIR
 70
     0
  9
$PDMODE
 70
     0
  9
$PDSIZE
 40
-1.0
  9
$PLINEWID
 40
0.0
  9
$SPLFRAME
 70
     0
  9
$SPLINETYPE
 70
     6
  9
$SPLINESEGS
 70
     8
  9
$HANDSEED
  5
297
  9
$SURFTAB1
 70
     6
  9
$SURFTAB2
 70
     6
  9
$SURFTYPE
 70
     6
  9
$SURFU
 70
     6
  9
$SURFV
 70
     6
  9
$UCSBASE
  2

  9
$UCSNAME
  2

  9
$UCSORG
 10
0.0
 20
0.0
 30
0.0
  9
$UCSXDIR
 10
1.0
 20
0.0
 30
0.0
  9
$UCSYDIR
 10
0.0
 20
1.0
 30
0.0
  9
$UCSORTHOREF
  2

  9
$UCSORTHOVIEW
 70
     0
  9
$UCSORGTOP
 10
0.0
 20
0.0
 30
0.0
  9
$UCSORGBOTTOM
 10
0.0
 20
0.0
 30
0.0
  9
$UCSORGLEFT
 10
0.0
 20
0.0
 30
0.0
  9
$UCSORGRIGHT
 10
0.0
 20
0.0
 30
0.0
  9
$UCSORGFRONT
 10
0.0
 20
0.0
 30
0.0
  9
$UCSORGBACK
 10
0.0
 20
0.0
 30
0.0
  9
$PUCSBASE
  2

  9
$PUCSNAME
  2

  9
$PUCSORG
 10
0.0
 20
0.0
 30
0.0
  9
$PUCSXDIR
 10
1.0
 20
0.0
 30
0.0
  9
$PUCSYDIR
 10
0.0
 20
1.0
 30
0.0
  9
$PUCSORTHOREF
  2

  9
$PUCSORTHOVIEW
 70
     0
  9
$PUCSORGTOP
 10
0.0
 20
0.0
 30
0.0
  9
$PUCSORGBOTTOM
 10
0.0
 20
0.0
 30
0.0
  9
$PUCSORGLEFT
 10
0.0
 20
0.0
 30
0.0
  9
$PUCSORGRIGHT
 10
0.0
 20
0.0
 30
0.0
  9
$PUCSORGFRONT
 10
0.0
 20
0.0
 30
0.0
  9
$PUCSORGBACK
 10
0.0
 20
0.0
 30
0.0
  9
$USERI1
 70
     0
  9
$USERI2
 70
     0
  9
$USERI3
 70
     0
  9
$USERI4
 70
     0
  9
$USERI5
 70
     0
  9
$USERR1
 40
0.0
  9
$USERR2
 40
0.0
  9
$USERR3
 40
0.0
  9
$USERR4
 40
0.0
  9
$USERR5
 40
0.0
  9
$WORLDVIEW
 70
     1
  9
$SHADEDGE
 70
     3
  9
$SHADEDIF
 70
    70
  9
$TILEMODE
 70
     1
  9
$MAXACTVP
 70
    64
  9
$PINSBASE
 10
0.0
 20
0.0
 30
0.0
  9
$PLIMCHECK
 70
     0
  9
$PEXTMIN
 10
1.0000000000E+20
 20
1.0000000000E+20
 30
1.0000000000E+20
  9
$PEXTMAX
 10
-1.0000000000E+20
 20
-1.0000000000E+20
 30
-1.0000000000E+20
  9
$PLIMMIN
 10
0.0
 20
0.0
  9
$PLIMMAX
 10
420.0
 20
297.0
  9
$UNITMODE
 70
     0
  9
$VISRETAIN
 70
     1
  9
$PLINEGEN
 70
     0
  9
$PSLTSCALE
 70
     1
  9
$TREEDEPTH
 70
  3020
  9
$CMLSTYLE
  2
Standard
  9
$CMLJUST
 70
     0
  9
$CMLSCALE
 40
20.0
  9
$PROXYGRAPHICS
 70
     1
  9
$MEASUREMENT
 70
     1
  9
$CELWEIGHT
370
    -1
  9
$ENDCAPS
280
     0
  9
$JOINSTYLE
280
     0
  9
$LWDISPLAY
290
     1
  9
$INSUNITS
 70
     4
  9
$HYPERLINKBASE
  1

  9
$STYLESHEET
  1

  9
$XEDIT
290
     1
  9
$CEPSNTYPE
380
     0
  9
$PSTYLEMODE
290
     1
  9
$FINGERPRINTGUID
  2
{66C9E67E-C350-45D8-BA73-6038C5463A52}
  9
$VERSIONGUID
  2
{FAEB1C32-E019-11D5-929B-00C0DF256EC4}
  9
$EXTNAMES
290
     1
  9
$PSVPSCALE
 40
0.0
  9
$OLESTARTUP
290
     0
  0
ENDSEC
  0
SECTION
  2
CLASSES
  0
CLASS
  1
ACDBDICTIONARYWDFLT
  2
AcDbDictionaryWithDefault
  3
ObjectDBX Classes
 90
        0
280
     0
281
     0
  0
CLASS
  1
VISUALSTYLE
  2
AcDbVisualStyle
  3
ObjectDBX Classes
 90
     4095
280
     0
281
     0
  0
CLASS
  1
MATERIAL
  2
AcDbMaterial
  3
ObjectDBX Classes
 90
     1153
280
     0
281
     0
  0
CLASS
  1
SCALE
  2
AcDbScale
  3
ObjectDBX Classes
 90
     1153
280
     0
281
     0
  0
CLASS
  1
TABLESTYLE
  2
AcDbTableStyle
  3
ObjectDBX Classes
 90
     4095
280
     0
281
     0
  0
CLASS
  1
MLEADERSTYLE
  2
AcDbMLeaderStyle
  3
ACDB_MLEADERSTYLE_CLASS
 90
     4095
280
     0
281
     0
  0
CLASS
  1
SUN
  2
AcDbSun
  3
SCENEOE
 90
     1153
280
     0
281
     0
  0
CLASS
  1
ACDBPLACEHOLDER
  2
AcDbPlaceHolder
  3
ObjectDBX Classes
 90
        0
280
     0
281
     0
  0
CLASS
  1
LAYOUT
  2
AcDbLayout
  3
ObjectDBX Classes
 90
        0
280
     0
281
     0
  0
ENDSEC
  0
SECTION
  2
TABLES
  0
TABLE
  2
VPORT
  5
8
330
0
100
AcDbSymbolTable
 70
     1
  0
VPORT
  5
29
330
8
100
AcDbSymbolTableRecord
100
AcDbViewportTableRecord
  2
*Active
 70
     0
 10
0.0
 20
0.0
 11
1.0
 21
1.0
 12
105.0
 22
148.5
 13
0.0
 23
0.0
 14
10.0
 24
10.0
 15
10.0
 25
10.0
 16
0.0
 26
0.0
 36
1.0
 17
0.0
 27
0.0
 37
0.0
 40
297.0
 41
0.7070707071
 42
50.0
 43
0.0
 44
0.0
 50
0.0
 51
0.0
 71
     0
 72
  2000
 73
     1
 74
     3
 75
     0
 76
     0
 77
     0
 78
     0
281
     0
 65
     1
110
0.0
120
0.0
130
0.0
111
1.0
121
0.0
131
0.0
112
0.0
122
1.0
132
0.0
 79
     0
146
0.0
  0
ENDTAB
  0
TABLE
  2
LTYPE
  5
5
330
0
100
AcDbSymbolTable
 70
     6
  0
LTYPE
  5
14
330
5
100
AcDbSymbolTableRecord
100
AcDbLinetypeTableRecord
  2
ByBlock
 70
     0
  3

 72
    65
 73
     0
 40
0.0
  0
LTYPE
  5
15
330
5
100
AcDbSymbolTableRecord
100
AcDbLinetypeTableRecord
  2
ByLayer
 70
     0
  3

 72
    65
 73
     0
 40
0.0
  0
LTYPE
  5
16
330
5
100
AcDbSymbolTableRecord
100
AcDbLinetypeTableRecord
  2
Continuous
 70
     0
  3
Solid line
 72
    65
 73
     0
 40
0.0
  0
LTYPE
  5
6E
330
5
100
AcDbSymbolTableRecord
100
AcDbLinetypeTableRecord
  2
HIDDEN
 70
     0
  3
Hidden __ __ __ __ __ __ __ __ __ __ __ __ __ __
 72
    65
 73
     2
 40
1.905
 49
1.27
 74
     0
 49
-0.635
 74
     0
  0
LTYPE
  5
6F
330
5
100
AcDbSymbolTableRecord
100
AcDbLinetypeTableRecord
  2
PHANTOM
 70
     0
  3
Phantom ______  __  __  ______  __  __  ______
 72
    65
 73
     6
 40
12.7
 49
6.35
 74
     0
 49
-1.27
 74
     0
 49
1.27
 74
     0
 49
-1.27
 74
     0
 49
1.27
 74
     0
 49
-1.27
 74
     0
  0
LTYPE
  5
70
330
5
100
AcDbSymbolTableRecord
100
AcDbLinetypeTableRecord
  2
CENTER
 70
     0
  3
Center ____ _ ____ _ ____ _ ____ _ ____ _ ____
 72
    65
 73
     4
 40
10.16
 49
6.35
 74
     0
 49
-1.27
 74
     0
 49
1.27
 74
     0
 49
-1.27
 74
     0
  0
LTYPE
  5
71
330
5
100
AcDbSymbolTableRecord
100
AcDbLinetypeTableRecord
  2
CENTERX2
 70
     0
  3
Center (2x) ________  __  ________  __  _____
 72
    65
 73
     4
 40
20.32
 49
12.7
 74
     0
 49
-2.54
 74
     0
 49
2.54
 74
     0
 49
-2.54
 74
     0
  0
LTYPE
  5
72
330
5
100
AcDbSymbolTableRecord
100
AcDbLinetypeTableRecord
  2
DOT2
 70
     0
  3
Dot (.5x) ........................................
 72
    65
 73
     2
 40
0.635
 49
0.0
 74
     0
 49
-0.635
 74
     0
  0
ENDTAB
  0
TABLE
  2
LAYER
  5
2
330
0
100
AcDbSymbolTable
 70
     1
  0
LAYER
  5
10
330
2
100
AcDbSymbolTableRecord
100
AcDbLayerTableRecord
  2
0
 70
     0
 62
     7
  6
Continuous
370
    -3
390
F
  0
ENDTAB
  0
TABLE
  2
STYLE
  5
3
330
0
100
AcDbSymbolTable
 70
     2
  0
STYLE
  5
11
330
3
100
AcDbSymbolTableRecord
100
AcDbTextStyleTableRecord
  2
Standard
 70
     0
 40
0.0
 41
1.0
 50
0.0
 71
     0
 42
3.5
  3
txt
  4
bigfont
  0
STYLE
  5
7B
330
3
100
AcDbSymbolTableRecord
100
AcDbTextStyleTableRecord
  2
SLDTEXTSTYLE0
 70
     0
 40
0.0
 41
0.7
 50
0.0
 71
     0
 42
3.5
  3
TXT
  4
bigfont
  0
ENDTAB
  0
TABLE
  2
VIEW
  5
6
330
0
100
AcDbSymbolTable
 70
     0
  0
ENDTAB
  0
TABLE
  2
UCS
  5
7
330
0
100
AcDbSymbolTable
 70
     0
  0
ENDTAB
  0
TABLE
  2
APPID
  5
9
330
0
100
AcDbSymbolTable
 70
     1
  0
APPID
  5
12
330
9
100
AcDbSymbolTableRecord
100
AcDbRegAppTableRecord
  2
ACAD
 70
     0
  0
ENDTAB
  0
TABLE
  2
DIMSTYLE
  5
A
330
0
100
AcDbSymbolTable
 70
     6
100
AcDbDimStyleTable
  0
DIMSTYLE
105
27
330
A
100
AcDbSymbolTableRecord
100
AcDbDimStyleTableRecord
  2
ISO-25
 70
     0
 41
2.5
 42
0.625
 43
3.75
 44
1.25
 73
     0
 74
     0
 77
     1
 78
     8
140
2.5
141
2.5
143
0.0393700787
147
0.625
171
     3
172
     1
178
     0
271
     2
272
     2
274
     3
278
    44
283
     0
284
     8
340
11
  0
DIMSTYLE
105
1B0
102
{ACAD_REACTORS
330
1AF
330
1BD
330
1CA
330
1E2
330
211
102
}
330
A
100
AcDbSymbolTableRecord
100
AcDbDimStyleTableRecord
  2
SLDDIMSTYLE0
 70
     0
 41
3.0
 44
0.0
 45
0.000000001
 73
     0
 74
     0
 77
     3
 78
    12
 79
     3
140
3.5
147
0.875
172
     1
173
     1
178
     0
271
     1
272
     3
276
     2
284
    12
289
     0
340
7B
  0
DIMSTYLE
105
1D7
102
{ACAD_REACTORS
330
1D6
330
1EE
330
21D
330
227
330
27A
102
}
330
A
100
AcDbSymbolTableRecord
100
AcDbDimStyleTableRecord
  2
SLDDIMSTYLE1
 70
     0
 41
3.0
 44
0.0
 45
0.000000001
 73
     0
 74
     0
 77
     3
 78
    12
 79
     3
140
3.5
147
0.875
173
     1
178
     0
271
     1
272
     3
276
     2
284
    12
340
7B
  0
DIMSTYLE
105
1F9
102
{ACAD_REACTORS
330
1F8
102
}
330
A
100
AcDbSymbolTableRecord
100
AcDbDimStyleTableRecord
  2
SLDDIMSTYLE2
 70
     0
 41
3.0
 44
0.0
 45
0.000000001
 73
     0
 74
     0
 77
     3
 78
    12
 79
     3
140
3.5
147
0.875
172
     1
173
     1
178
     0
271
     0
272
     3
276
     2
284
    12
289
     0
340
7B
  0
DIMSTYLE
105
207
102
{ACAD_REACTORS
330
206
102
}
330
A
100
AcDbSymbolTableRecord
100
AcDbDimStyleTableRecord
  2
SLDDIMSTYLE3
 70
     0
 41
3.0
 44
0.0
 45
0.000000001
 73
     0
 74
     0
 77
     3
 78
    12
 79
     3
140
3.5
147
0.875
173
     1
178
     0
271
     0
272
     3
276
     2
284
    12
340
7B
  0
DIMSTYLE
105
237
330
A
100
AcDbSymbolTableRecord
100
AcDbDimStyleTableRecord
  2
SLDDIMSTYLE4
 70
     0
 41
3.0
 44
0.0
 45
0.000000001
146
3.0
147
0.0
173
     1
178
     0
271
     0
272
     0
276
     2
340
11
  0
ENDTAB
  0
TABLE
  2
BLOCK_RECORD
  5
1
330
0
100
AcDbSymbolTable
 70
    16
  0
BLOCK_RECORD
  5
1F
330
1
100
AcDbSymbolTableRecord
100
AcDbBlockTableRecord
  2
*Model_Space
340
22
  0
BLOCK_RECORD
  5
1B
330
1
100
AcDbSymbolTableRecord
100
AcDbBlockTableRecord
  2
*Paper_Space
340
1E
  0
BLOCK_RECORD
  5
23
330
1
100
AcDbSymbolTableRecord
100
AcDbBlockTableRecord
  2
*Paper_Space0
340
26
  0
BLOCK_RECORD
  5
1B1
330
1
100
AcDbSymbolTableRecord
100
AcDbBlockTableRecord
  2
_D
340
0
  0
BLOCK_RECORD
  5
1BE
330
1
100
AcDbSymbolTableRecord
100
AcDbBlockTableRecord
  2
_D_1
340
0
  0
BLOCK_RECORD
  5
1CB
330
1
100
AcDbSymbolTableRecord
100
AcDbBlockTableRecord
  2
_D_2
340
0
  0
BLOCK_RECORD
  5
1D8
330
1
100
AcDbSymbolTableRecord
100
AcDbBlockTableRecord
  2
_D_3
340
0
  0
BLOCK_RECORD
  5
1E3
330
1
100
AcDbSymbolTableRecord
100
AcDbBlockTableRecord
  2
_D_4
340
0
  0
BLOCK_RECORD
  5
1EF
330
1
100
AcDbSymbolTableRecord
100
AcDbBlockTableRecord
  2
_D_5
340
0
  0
BLOCK_RECORD
  5
1FA
330
1
100
AcDbSymbolTableRecord
100
AcDbBlockTableRecord
  2
_D_6
340
0
  0
BLOCK_RECORD
  5
208
330
1
100
AcDbSymbolTableRecord
100
AcDbBlockTableRecord
  2
_D_7
340
0
  0
BLOCK_RECORD
  5
212
330
1
100
AcDbSymbolTableRecord
100
AcDbBlockTableRecord
  2
_D_8
340
0
  0
BLOCK_RECORD
  5
21E
330
1
100
AcDbSymbolTableRecord
100
AcDbBlockTableRecord
  2
_D_9
340
0
  0
BLOCK_RECORD
  5
228
330
1
100
AcDbSymbolTableRecord
100
AcDbBlockTableRecord
  2
_D_10
340
0
  0
BLOCK_RECORD
  5
231
330
1
100
AcDbSymbolTableRecord
100
AcDbBlockTableRecord
  2
SW_NOTE_0
340
0
102
{BLKREFS
331
236
102
}
  0
BLOCK_RECORD
  5
27B
330
1
100
AcDbSymbolTableRecord
100
AcDbBlockTableRecord
  2
_D_11
340
0
  0
BLOCK_RECORD
  5
284
330
1
100
AcDbSymbolTableRecord
100
AcDbBlockTableRecord
  2
SW_NOTE_1
340
0
102
{BLKREFS
331
289
102
}
  0
BLOCK_RECORD
  5
28B
330
1
100
AcDbSymbolTableRecord
100
AcDbBlockTableRecord
  2
SW_CENTERMARKSYMBOL_0
340
0
102
{BLKREFS
331
296
102
}
  0
ENDTAB
  0
ENDSEC
  0
SECTION
  2
BLOCKS
  0
BLOCK
  5
20
330
1F
100
AcDbEntity
  8
0
100
AcDbBlockBegin
  2
*Model_Space
 70
     0
 10
0.0
 20
0.0
 30
0.0
  3
*Model_Space
  1

  0
ENDBLK
  5
21
330
1F
100
AcDbEntity
  8
0
100
AcDbBlockEnd
  0
BLOCK
  5
1C
330
1B
100
AcDbEntity
 67
     1
  8
0
100
AcDbBlockBegin
  2
*Paper_Space
 70
     0
 10
0.0
 20
0.0
 30
0.0
  3
*Paper_Space
  1

  0
ENDBLK
  5
1D
330
1B
100
AcDbEntity
 67
     1
  8
0
100
AcDbBlockEnd
  0
BLOCK
  5
24
330
23
100
AcDbEntity
  8
0
100
AcDbBlockBegin
  2
*Paper_Space0
 70
     0
 10
0.0
 20
0.0
 30
0.0
  3
*Paper_Space0
  1

  0
ENDBLK
  5
25
330
23
100
AcDbEntity
  8
0
100
AcDbBlockEnd
  0
BLOCK
  5
1B2
330
1B1
100
AcDbEntity
  8
0
100
AcDbBlockBegin
  2
_D
 70
     0
 10
0.0
 20
0.0
 30
0.0
  3
_D
  1

  0
SOLID
  5
1B4
330
1B1
100
AcDbEntity
  8
0
  6
Continuous
 62
     7
370
    18
100
AcDbTrace
 10
104.9906403111
 20
155.4816269334
 30
0.0
 11
105.7406403111
 21
158.4816269334
 31
0.0
 12
104.2406403111
 22
158.4816269334
 32
0.0
 13
104.2406403111
 23
158.4816269334
 33
0.0
  0
SOLID
  5
1B5
330
1B1
100
AcDbEntity
  8
0
  6
Continuous
 62
     7
370
    18
100
AcDbTrace
 10
104.9906403111
 20
148.4816269334
 30
0.0
 11
104.2406403111
 21
145.4816269334
 31
0.0
 12
105.7406403111
 22
145.4816269334
 32
0.0
 13
105.7406403111
 23
145.4816269334
 33
0.0
  0
LINE
  5
1B6
330
1B1
100
AcDbEntity
  8
0
  6
Continuous
 62
     7
370
    18
100
AcDbLine
 10
109.3226175664
 20
155.4816269334
 30
0.0
 11
103.9906403111
 21
155.4816269334
 31
0.0
  0
LINE
  5
1B7
330
1B1
100
AcDbEntity
  8
0
  6
Continuous
 62
     7
370
    18
100
AcDbLine
 10
109.3226175664
 20
148.4816269334
 30
0.0
 11
103.9906403111
 21
148.4816269334
 31
0.0
  0
LINE
  5
1B8
330
1B1
100
AcDbEntity
  8
0
  6
Continuous
 62
     7
370
    18
100
AcDbLine
 10
104.9906403111
 20
155.4816269334
 30
0.0
 11
104.9906403111
 21
160.4816269334
 31
0.0
  0
LINE
  5
1B9
330
1B1
100
AcDbEntity
  8
0
  6
Continuous
 62
     7
370
    18
100
AcDbLine
 10
104.9906403111
 20
155.4816269334
 30
0.0
 11
104.9906403111
 21
148.4816269334
 31
0.0
  0
LINE
  5
1BA
330
1B1
100
AcDbEntity
  8
0
  6
Continuous
 62
     7
370
    18
100
AcDbLine
 10
104.9906403111
 20
148.4816269334
 30
0.0
 11
104.9906403111
 21
143.4816269334
 31
0.0
  0
MTEXT
  5
1BB
330
1B1
100
AcDbEntity
  8
0
  6
Continuous
 62
     7
370
    18
100
AcDbMText
 10
100.478902989
 20
149.0282589271
 30
0.0
 40
3.5
 41
0.0
 71
     1
 72
     1
  1
%%c
  7
SLDTEXTSTYLE0
 11
-7.044195017643634E-15
 21
1.0
 31
0.0
 73
     1
 44
1.0
  0
MTEXT
  5
1BC
330
1B1
100
AcDbEntity
  8
0
  6
Continuous
 62
     7
370
    18
100
AcDbMText
 10
100.478902989
 20
152.8981894422
 30
0.0
 40
3.5
 41
0.0
 71
     1
 72
     1
  1
7
  7
SLDTEXTSTYLE0
 11
-7.044195017643634E-15
 21
1.0
 31
0.0
 73
     1
 44
1.0
  0
ENDBLK
  5
1B3
330
1B1
100
AcDbEntity
  8
0
100
AcDbBlockEnd
  0
BLOCK
  5
1BF
330
1BE
100
AcDbEntity
  8
0
100
AcDbBlockBegin
  2
_D_1
 70
     0
 10
0.0
 20
0.0
 30
0.0
  3
_D_1
  1

  0
SOLID
  5
1C1
330
1BE
100
AcDbEntity
  8
0
  6
Continuous
 62
     7
370
    18
100
AcDbTrace
 10
96.0477216322
 20
156.9816269334
 30
0.0
 11
96.7977216322
 21
159.9816269334
 31
0.0
 12
95.2977216322
 22
159.9816269334
 32
0.0
 13
95.2977216322
 23
159.9816269334
 33
0.0
  0
SOLID
  5
1C2
330
1BE
100
AcDbEntity
  8
0
  6
Continuous
 62
     7
370
    18
100
AcDbTrace
 10
96.0477216322
 20
146.9816269334
 30
0.0
 11
95.2977216322
 21
143.9816269334
 31
0.0
 12
96.7977216322
 22
143.9816269334
 32
0.0
 13
96.7977216322
 23
143.9816269334
 33
0.0
  0
LINE
  5
1C3
330
1BE
100
AcDbEntity
  8
0
  6
Continuous
 62
     7
370
    18
100
AcDbLine
 10
114.8226175664
 20
156.9816269334
 30
0.0
 11
95.0477216322
 21
156.9816269334
 31
0.0
  0
LINE
  5
1C4
330
1BE
100
AcDbEntity
  8
0
  6
Continuous
 62
     7
370
    18
100
AcDbLine
 10
114.8226175664
 20
146.9816269334
 30
0.0
 11
95.0477216322
 21
146.9816269334
 31
0.0
  0
LINE
  5
1C5
330
1BE
100
AcDbEntity
  8
0
  6
Continuous
 62
     7
370
    18
100
AcDbLine
 10
96.0477216322
 20
156.9816269334
 30
0.0
 11
96.0477216322
 21
161.9816269334
 31
0.0
  0
LINE
  5
1C6
330
1BE
100
AcDbEntity
  8
0
  6
Continuous
 62
     7
370
    18
100
AcDbLine
 10
96.0477216322
 20
156.9816269334
 30
0.0
 11
96.0477216322
 21
146.9816269334
 31
0.0
  0
LINE
  5
1C7
330
1BE
100
AcDbEntity
  8
0
  6
Continuous
 62
     7
370
    18
100
AcDbLine
 10
96.0477216322
 20
146.9816269334
 30
0.0
 11
96.0477216322
 21
141.9816269334
 31
0.0
  0
MTEXT
  5
1C8
330
1BE
100
AcDbEntity
  8
0
  6
Continuous
 62
     7
370
    18
100
AcDbMText
 10
91.5359843102
 20
148.009856062
 30
0.0
 40
3.5
 41
0.0
 71
     1
 72
     1
  1
%%c
  7
SLDTEXTSTYLE0
 11
-7.044195017643634E-15
 21
1.0
 31
0.0
 73
     1
 44
1.0
  0
MTEXT
  5
1C9
330
1BE
100
AcDbEntity
  8
0
  6
Continuous
 62
     7
370
    18
100
AcDbMText
 10
91.5359843102
 20
151.879786577
 30
0.0
 40
3.5
 41
0.0
 71
     1
 72
     1
  1
10
  7
SLDTEXTSTYLE0
 11
-7.044195017643634E-15
 21
1.0
 31
0.0
 73
     1
 44
1.0
  0
ENDBLK
  5
1C0
330
1BE
100
AcDbEntity
  8
0
100
AcDbBlockEnd
  0
BLOCK
  5
1CC
330
1CB
100
AcDbEntity
  8
0
100
AcDbBlockBegin
  2
_D_2
 70
     0
 10
0.0
 20
0.0
 30
0.0
  3
_D_2
  1

  0
SOLID
  5
1CE
330
1CB
100
AcDbEntity
  8
0
  6
Continuous
 62
     7
370
    18
100
AcDbTrace
 10
115.5226175664
 20
170.0645307021
 30
0.0
 11
118.5226175664
 21
169.3145307021
 31
0.0
 12
118.5226175664
 22
170.8145307021
 32
0.0
 13
118.5226175664
 23
170.8145307021
 33
0.0
  0
SOLID
  5
1CF
330
1CB
100
AcDbEntity
  8
0
  6
Continuous
 62
     7
370
    18
100
AcDbTrace
 10
110.0226175664
 20
170.0645307021
 30
0.0
 11
107.0226175664
 21
170.8145307021
 31
0.0
 12
107.0226175664
 22
169.3145307021
 32
0.0
 13
107.0226175664
 23
169.3145307021
 33
0.0
  0
LINE
  5
1D0
330
1CB
100
AcDbEntity
  8
0
  6
Continuous
 62
     7
370
    18
100
AcDbLine
 10
115.5226175664
 20
157.6816269334
 30
0.0
 11
115.5226175664
 21
171.0645307021
 31
0.0
  0
LINE
  5
1D1
330
1CB
100
AcDbEntity
  8
0
  6
Continuous
 62
     7
370
    18
100
AcDbLine
 10
110.0226175664
 20
156.1816269334
 30
0.0
 11
110.0226175664
 21
171.0645307021
 31
0.0
  0
LINE
  5
1D2
330
1CB
100
AcDbEntity
  8
0
  6
Continuous
 62
     7
370
    18
100
AcDbLine
 10
115.5226175664
 20
170.0645307021
 30
0.0
 11
126.8208537948
 21
170.0645307021
 31
0.0
  0
LINE
  5
1D3
330
1CB
100
AcDbEntity
  8
0
  6
Continuous
 62
     7
370
    18
100
AcDbLine
 10
115.5226175664
 20
170.0645307021
 30
0.0
 11
110.0226175664
 21
170.0645307021
 31
0.0
  0
LINE
  5
1D4
330
1CB
100
AcDbEntity
  8
0
  6
Continuous
 62
     7
370
    18
100
AcDbLine
 10
110.0226175664
 20
170.0645307021
 30
0.0
 11
105.0226175664
 21
170.0645307021
 31
0.0
  0
MTEXT
  5
1D5
330
1CB
100
AcDbEntity
  8
0
  6
Continuous
 62
     7
370
    18
100
AcDbMText
 10
120.7104370696
 20
174.5762675584
 30
0.0
 40
3.5
 41
0.0
 71
     1
 72
     1
  1
5.5
  7
SLDTEXTSTYLE0
 73
     1
 44
1.0
  0
ENDBLK
  5
1CD
330
1CB
100
AcDbEntity
  8
0
100
AcDbBlockEnd
  0
BLOCK
  5
1D9
330
1D8
100
AcDbEntity
  8
0
100
AcDbBlockBegin
  2
_D_3
 70
     0
 10
0.0
 20
0.0
 30
0.0
  3
_D_3
  1

  0
SOLID
  5
1DB
330
1D8
100
AcDbEntity
  8
0
  6
Continuous
 62
     7
370
    18
100
AcDbTrace
 10
127.5226175664
 20
126.5515727323
 30
0.0
 11
130.5226175664
 21
125.8015727323
 31
0.0
 12
130.5226175664
 22
127.3015727323
 32
0.0
 13
130.5226175664
 23
127.3015727323
 33
0.0
  0
SOLID
  5
1DC
330
1D8
100
AcDbEntity
  8
0
  6
Continuous
 62
     7
370
    18
100
AcDbTrace
 10
147.5226175664
 20
126.5515727323
 30
0.0
 11
144.5226175664
 21
127.3015727323
 31
0.0
 12
144.5226175664
 22
125.8015727323
 32
0.0
 13
144.5226175664
 23
125.8015727323
 33
0.0
  0
LINE
  5
1DD
330
1D8
100
AcDbEntity
  8
0
  6
Continuous
 62
     7
370
    18
100
AcDbLine
 10
127.5226175664
 20
147.5316269334
 30
0.0
 11
127.5226175664
 21
125.5515727323
 31
0.0
  0
LINE
  5
1DE
330
1D8
100
AcDbEntity
  8
0
  6
Continuous
 62
     7
370
    18
100
AcDbLine
 10
147.5226175664
 20
147.7316269334
 30
0.0
 11
147.5226175664
 21
125.5515727323
 31
0.0
  0
LINE
  5
1DF
330
1D8
100
AcDbEntity
  8
0
  6
Continuous
 62
     7
370
    18
100
AcDbLine
 10
127.5226175664
 20
126.5515727323
 30
0.0
 11
147.5226175664
 21
126.5515727323
 31
0.0
  0
MTEXT
  5
1E0
330
1D8
100
AcDbEntity
  8
0
  6
Continuous
 62
     7
370
    18
100
AcDbMText
 10
133.4490065714
 20
131.0633095886
 30
0.0
 40
3.5
 41
0.0
 71
     1
 72
     1
  1
20
  7
SLDTEXTSTYLE0
 73
     1
 44
1.0
  0
MTEXT
  5
1E1
330
1D8
100
AcDbEntity
  8
0
  6
Continuous
 62
     7
370
    18
100
AcDbMText
 10
137.5226175664
 20
131.0633095886
 30
0.0
 40
3.5
 41
0.0
 71
     1
 72
     1
  1
st
  7
SLDTEXTSTYLE0
 73
     1
 44
1.0
  0
ENDBLK
  5
1DA
330
1D8
100
AcDbEntity
  8
0
100
AcDbBlockEnd
  0
BLOCK
  5
1E4
330
1E3
100
AcDbEntity
  8
0
100
AcDbBlockBegin
  2
_D_4
 70
     0
 10
0.0
 20
0.0
 30
0.0
  3
_D_4
  1

  0
SOLID
  5
1E6
330
1E3
100
AcDbEntity
  8
0
  6
Continuous
 62
     7
370
    18
100
AcDbTrace
 10
149.5226175664
 20
135.2896964636
 30
0.0
 11
146.5226175664
 21
136.0396964636
 31
0.0
 12
146.5226175664
 22
134.5396964636
 32
0.0
 13
146.5226175664
 23
134.5396964636
 33
0.0
  0
SOLID
  5
1E7
330
1E3
100
AcDbEntity
  8
0
  6
Continuous
 62
     7
370
    18
100
AcDbTrace
 10
152.5226175664
 20
135.2896964636
 30
0.0
 11
155.5226175664
 21
134.5396964636
 31
0.0
 12
155.5226175664
 22
136.0396964636
 32
0.0
 13
155.5226175664
 23
136.0396964636
 33
0.0
  0
LINE
  5
1E8
330
1E3
100
AcDbEntity
  8
0
  6
Continuous
 62
     7
370
    18
100
AcDbLine
 10
149.5226175664
 20
143.4760754501
 30
0.0
 11
149.5226175664
 21
134.2896964636
 31
0.0
  0
LINE
  5
1E9
330
1E3
100
AcDbEntity
  8
0
  6
Continuous
 62
     7
370
    18
100
AcDbLine
 10
152.5226175664
 20
143.4760754501
 30
0.0
 11
152.5226175664
 21
134.2896964636
 31
0.0
  0
LINE
  5
1EA
330
1E3
100
AcDbEntity
  8
0
  6
Continuous
 62
     7
370
    18
100
AcDbLine
 10
149.5226175664
 20
135.2896964636
 30
0.0
 11
144.5226175664
 21
135.2896964636
 31
0.0
  0
LINE
  5
1EB
330
1E3
100
AcDbEntity
  8
0
  6
Continuous
 62
     7
370
    18
100
AcDbLine
 10
149.5226175664
 20
135.2896964636
 30
0.0
 11
152.5226175664
 21
135.2896964636
 31
0.0
  0
LINE
  5
1EC
330
1E3
100
AcDbEntity
  8
0
  6
Continuous
 62
     7
370
    18
100
AcDbLine
 10
152.5226175664
 20
135.2896964636
 30
0.0
 11
158.6441396357
 21
135.2896964636
 31
0.0
  0
MTEXT
  5
1ED
330
1E3
100
AcDbEntity
  8
0
  6
Continuous
 62
     7
370
    18
100
AcDbMText
 10
156.6073341382
 20
139.80143332
 30
0.0
 40
3.5
 41
0.0
 71
     1
 72
     1
  1
3
  7
SLDTEXTSTYLE0
 73
     1
 44
1.0
  0
ENDBLK
  5
1E5
330
1E3
100
AcDbEntity
  8
0
100
AcDbBlockEnd
  0
BLOCK
  5
1F0
330
1EF
100
AcDbEntity
  8
0
100
AcDbBlockBegin
  2
_D_5
 70
     0
 10
0.0
 20
0.0
 30
0.0
  3
_D_5
  1

  0
SOLID
  5
1F2
330
1EF
100
AcDbEntity
  8
0
  6
Continuous
 62
     7
370
    18
100
AcDbTrace
 10
110.0226175664
 20
115.6816269334
 30
0.0
 11
113.0226175664
 21
114.9316269334
 31
0.0
 12
113.0226175664
 22
116.4316269334
 32
0.0
 13
113.0226175664
 23
116.4316269334
 33
0.0
  0
SOLID
  5
1F3
330
1EF
100
AcDbEntity
  8
0
  6
Continuous
 62
     7
370
    18
100
AcDbTrace
 10
171.5226175664
 20
115.6816269334
 30
0.0
 11
168.5226175664
 21
116.4316269334
 31
0.0
 12
168.5226175664
 22
114.9316269334
 32
0.0
 13
168.5226175664
 23
114.9316269334
 33
0.0
  0
LINE
  5
1F4
330
1EF
100
AcDbEntity
  8
0
  6
Continuous
 62
     7
370
    18
100
AcDbLine
 10
110.0226175664
 20
147.7816269334
 30
0.0
 11
110.0226175664
 21
114.6816269334
 31
0.0
  0
LINE
  5
1F5
330
1EF
100
AcDbEntity
  8
0
  6
Continuous
 62
     7
370
    18
100
AcDbLine
 10
171.5226175664
 20
148.9816269334
 30
0.0
 11
171.5226175664
 21
114.6816269334
 31
0.0
  0
LINE
  5
1F6
330
1EF
100
AcDbEntity
  8
0
  6
Continuous
 62
     7
370
    18
100
AcDbLine
 10
110.0226175664
 20
115.6816269334
 30
0.0
 11
171.5226175664
 21
115.6816269334
 31
0.0
  0
MTEXT
  5
1F7
330
1EF
100
AcDbEntity
  8
0
  6
Continuous
 62
     7
370
    18
100
AcDbMText
 10
136.6990065714
 20
120.1933637898
 30
0.0
 40
3.5
 41
0.0
 71
     1
 72
     1
  1
61.5
  7
SLDTEXTSTYLE0
 73
     1
 44
1.0
  0
ENDBLK
  5
1F1
330
1EF
100
AcDbEntity
  8
0
100
AcDbBlockEnd
  0
BLOCK
  5
1FB
330
1FA
100
AcDbEntity
  8
0
100
AcDbBlockBegin
  2
_D_6
 70
     0
 10
0.0
 20
0.0
 30
0.0
  3
_D_6
  1

  0
SOLID
  5
1FD
330
1FA
100
AcDbEntity
  8
0
  6
Continuous
 62
     7
370
    18
100
AcDbTrace
 10
177.2259138889
 20
154.3816269334
 30
0.0
 11
177.9759138889
 21
157.3816269334
 31
0.0
 12
176.4759138889
 22
157.3816269334
 32
0.0
 13
176.4759138889
 23
157.3816269334
 33
0.0
  0
SOLID
  5
1FE
330
1FA
100
AcDbEntity
  8
0
  6
Continuous
 62
     7
370
    18
100
AcDbTrace
 10
177.2259138889
 20
149.5816269334
 30
0.0
 11
176.4759138889
 21
146.5816269334
 31
0.0
 12
177.9759138889
 22
146.5816269334
 32
0.0
 13
177.9759138889
 23
146.5816269334
 33
0.0
  0
LINE
  5
1FF
330
1FA
100
AcDbEntity
  8
0
  6
Continuous
 62
     7
370
    18
100
AcDbLine
 10
172.0226175664
 20
154.3816269334
 30
0.0
 11
178.2259138889
 21
154.3816269334
 31
0.0
  0
LINE
  5
200
330
1FA
100
AcDbEntity
  8
0
  6
Continuous
 62
     7
370
    18
100
AcDbLine
 10
172.0226175664
 20
149.5816269334
 30
0.0
 11
178.2259138889
 21
149.5816269334
 31
0.0
  0
LINE
  5
201
330
1FA
100
AcDbEntity
  8
0
  6
Continuous
 62
     7
370
    18
100
AcDbLine
 10
177.2259138889
 20
154.3816269334
 30
0.0
 11
177.2259138889
 21
165.9968721627
 31
0.0
  0
LINE
  5
202
330
1FA
100
AcDbEntity
  8
0
  6
Continuous
 62
     7
370
    18
100
AcDbLine
 10
177.2259138889
 20
154.3816269334
 30
0.0
 11
177.2259138889
 21
149.5816269334
 31
0.0
  0
LINE
  5
203
330
1FA
100
AcDbEntity
  8
0
  6
Continuous
 62
     7
370
    18
100
AcDbLine
 10
177.2259138889
 20
149.5816269334
 30
0.0
 11
177.2259138889
 21
144.5816269334
 31
0.0
  0
MTEXT
  5
204
330
1FA
100
AcDbEntity
  8
0
  6
Continuous
 62
     7
370
    18
100
AcDbMText
 10
172.7141765669
 20
160.0901361501
 30
0.0
 40
3.5
 41
0.0
 71
     1
 72
     1
  1
%%c
  7
SLDTEXTSTYLE0
 11
-7.044195017643634E-15
 21
1.0
 31
0.0
 73
     1
 44
1.0
  0
MTEXT
  5
205
330
1FA
100
AcDbEntity
  8
0
  6
Continuous
 62
     7
370
    18
100
AcDbMText
 10
172.7141765669
 20
163.9600666652
 30
0.0
 40
3.5
 41
0.0
 71
     1
 72
     1
  1
5
  7
SLDTEXTSTYLE0
 11
-7.044195017643634E-15
 21
1.0
 31
0.0
 73
     1
 44
1.0
  0
ENDBLK
  5
1FC
330
1FA
100
AcDbEntity
  8
0
100
AcDbBlockEnd
  0
BLOCK
  5
209
330
208
100
AcDbEntity
  8
0
100
AcDbBlockBegin
  2
_D_7
 70
     0
 10
0.0
 20
0.0
 30
0.0
  3
_D_7
  1

  0
SOLID
  5
20B
330
208
100
AcDbEntity
  8
0
  6
Continuous
 62
     7
370
    18
100
AcDbTrace
 10
185.3625098885
 20
160.0645307021
 30
0.0
 11
184.6125098885
 21
157.0645307021
 31
0.0
 12
186.1125098885
 22
157.0645307021
 32
0.0
 13
186.1125098885
 23
157.0645307021
 33
0.0
  0
SOLID
  5
20C
330
208
100
AcDbEntity
  8
0
  6
Continuous
 62
     7
370
    18
100
AcDbTrace
 10
185.3625098885
 20
143.8987231648
 30
0.0
 11
186.1125098885
 21
146.8987231648
 31
0.0
 12
184.6125098885
 22
146.8987231648
 32
0.0
 13
184.6125098885
 23
146.8987231648
 33
0.0
  0
LINE
  5
20D
330
208
100
AcDbEntity
  8
0
  6
Continuous
 62
     7
370
    18
100
AcDbLine
 10
165.0697009631
 20
160.0645307021
 30
0.0
 11
186.3625098885
 21
160.0645307021
 31
0.0
  0
LINE
  5
20E
330
208
100
AcDbEntity
  8
0
  6
Continuous
 62
     7
370
    18
100
AcDbLine
 10
165.0697009631
 20
143.8987231648
 30
0.0
 11
186.3625098885
 21
143.8987231648
 31
0.0
  0
LINE
  5
20F
330
208
100
AcDbEntity
  8
0
  6
Continuous
 62
     7
370
    18
100
AcDbLine
 10
185.3625098885
 20
160.0645307021
 30
0.0
 11
185.3625098885
 21
143.8987231648
 31
0.0
  0
MTEXT
  5
210
330
208
100
AcDbEntity
  8
0
  6
Continuous
 62
     7
370
    18
100
AcDbMText
 10
180.8507730321
 20
149.9448214359
 30
0.0
 40
3.5
 41
0.0
 71
     1
 72
     1
  1
16
  7
SLDTEXTSTYLE0
 11
-7.044195017643634E-15
 21
1.0
 31
0.0
 73
     1
 44
1.0
  0
ENDBLK
  5
20A
330
208
100
AcDbEntity
  8
0
100
AcDbBlockEnd
  0
BLOCK
  5
213
330
212
100
AcDbEntity
  8
0
100
AcDbBlockBegin
  2
_D_8
 70
     0
 10
0.0
 20
0.0
 30
0.0
  3
_D_8
  1

  0
SOLID
  5
215
330
212
100
AcDbEntity
  8
0
  6
Continuous
 62
     7
370
    18
100
AcDbTrace
 10
147.5226175664
 20
170.0645307021
 30
0.0
 11
144.5226175664
 21
170.8145307021
 31
0.0
 12
144.5226175664
 22
169.3145307021
 32
0.0
 13
144.5226175664
 23
169.3145307021
 33
0.0
  0
SOLID
  5
216
330
212
100
AcDbEntity
  8
0
  6
Continuous
 62
     7
370
    18
100
AcDbTrace
 10
152.5226175664
 20
170.0645307021
 30
0.0
 11
155.5226175664
 21
169.3145307021
 31
0.0
 12
155.5226175664
 22
170.8145307021
 32
0.0
 13
155.5226175664
 23
170.8145307021
 33
0.0
  0
LINE
  5
217
330
212
100
AcDbEntity
  8
0
  6
Continuous
 62
     7
370
    18
100
AcDbLine
 10
147.5226175664
 20
156.2316269334
 30
0.0
 11
147.5226175664
 21
171.0645307021
 31
0.0
  0
LINE
  5
218
330
212
100
AcDbEntity
  8
0
  6
Continuous
 62
     7
370
    18
100
AcDbLine
 10
152.5226175664
 20
160.4871784167
 30
0.0
 11
152.5226175664
 21
171.0645307021
 31
0.0
  0
LINE
  5
219
330
212
100
AcDbEntity
  8
0
  6
Continuous
 62
     7
370
    18
100
AcDbLine
 10
147.5226175664
 20
170.0645307021
 30
0.0
 11
142.5226175664
 21
170.0645307021
 31
0.0
  0
LINE
  5
21A
330
212
100
AcDbEntity
  8
0
  6
Continuous
 62
     7
370
    18
100
AcDbLine
 10
147.5226175664
 20
170.0645307021
 30
0.0
 11
152.5226175664
 21
170.0645307021
 31
0.0
  0
LINE
  5
21B
330
212
100
AcDbEntity
  8
0
  6
Continuous
 62
     7
370
    18
100
AcDbLine
 10
152.5226175664
 20
170.0645307021
 30
0.0
 11
157.5226175664
 21
170.0645307021
 31
0.0
  0
MTEXT
  5
21C
330
212
100
AcDbEntity
  8
0
  6
Continuous
 62
     7
370
    18
100
AcDbMText
 10
149.0042148177
 20
174.5762675584
 30
0.0
 40
3.5
 41
0.0
 71
     1
 72
     1
  1
5
  7
SLDTEXTSTYLE0
 73
     1
 44
1.0
  0
ENDBLK
  5
214
330
212
100
AcDbEntity
  8
0
100
AcDbBlockEnd
  0
BLOCK
  5
21F
330
21E
100
AcDbEntity
  8
0
100
AcDbBlockBegin
  2
_D_9
 70
     0
 10
0.0
 20
0.0
 30
0.0
  3
_D_9
  1

  0
SOLID
  5
221
330
21E
100
AcDbEntity
  8
0
  6
Continuous
 62
     7
370
    18
100
AcDbTrace
 10
152.5226175664
 20
170.0645307021
 30
0.0
 11
155.5226175664
 21
169.3145307021
 31
0.0
 12
155.5226175664
 22
170.8145307021
 32
0.0
 13
155.5226175664
 23
170.8145307021
 33
0.0
  0
SOLID
  5
222
330
21E
100
AcDbEntity
  8
0
  6
Continuous
 62
     7
370
    18
100
AcDbTrace
 10
169.5226175664
 20
170.0645307021
 30
0.0
 11
166.5226175664
 21
170.8145307021
 31
0.0
 12
166.5226175664
 22
169.3145307021
 32
0.0
 13
166.5226175664
 23
169.3145307021
 33
0.0
  0
LINE
  5
223
330
21E
100
AcDbEntity
  8
0
  6
Continuous
 62
     7
370
    18
100
AcDbLine
 10
152.5226175664
 20
160.4871784167
 30
0.0
 11
152.5226175664
 21
171.0645307021
 31
0.0
  0
LINE
  5
224
330
21E
100
AcDbEntity
  8
0
  6
Continuous
 62
     7
370
    18
100
AcDbLine
 10
169.5226175664
 20
156.9816269334
 30
0.0
 11
169.5226175664
 21
171.0645307021
 31
0.0
  0
LINE
  5
225
330
21E
100
AcDbEntity
  8
0
  6
Continuous
 62
     7
370
    18
100
AcDbLine
 10
152.5226175664
 20
170.0645307021
 30
0.0
 11
169.5226175664
 21
170.0645307021
 31
0.0
  0
MTEXT
  5
226
330
21E
100
AcDbEntity
  8
0
  6
Continuous
 62
     7
370
    18
100
AcDbMText
 10
158.9858120689
 20
174.5762675584
 30
0.0
 40
3.5
 41
0.0
 71
     1
 72
     1
  1
17
  7
SLDTEXTSTYLE0
 73
     1
 44
1.0
  0
ENDBLK
  5
220
330
21E
100
AcDbEntity
  8
0
100
AcDbBlockEnd
  0
BLOCK
  5
229
330
228
100
AcDbEntity
  8
0
100
AcDbBlockBegin
  2
_D_10
 70
     0
 10
0.0
 20
0.0
 30
0.0
  3
_D_10
  1

  0
SOLID
  5
22B
330
228
100
AcDbEntity
  8
0
  6
Continuous
 62
     7
370
    18
100
AcDbTrace
 10
152.5226175664
 20
181.1731043299
 30
0.0
 11
155.5226175664
 21
180.4231043299
 31
0.0
 12
155.5226175664
 22
181.9231043299
 32
0.0
 13
155.5226175664
 23
181.9231043299
 33
0.0
  0
SOLID
  5
22C
330
228
100
AcDbEntity
  8
0
  6
Continuous
 62
     7
370
    18
100
AcDbTrace
 10
171.5226175664
 20
181.1731043299
 30
0.0
 11
168.5226175664
 21
181.9231043299
 31
0.0
 12
168.5226175664
 22
180.4231043299
 32
0.0
 13
168.5226175664
 23
180.4231043299
 33
0.0
  0
LINE
  5
22D
330
228
100
AcDbEntity
  8
0
  6
Continuous
 62
     7
370
    18
100
AcDbLine
 10
152.5226175664
 20
160.4871784167
 30
0.0
 11
152.5226175664
 21
182.1731043299
 31
0.0
  0
LINE
  5
22E
330
228
100
AcDbEntity
  8
0
  6
Continuous
 62
     7
370
    18
100
AcDbLine
 10
171.5226175664
 20
154.9816269334
 30
0.0
 11
171.5226175664
 21
182.1731043299
 31
0.0
  0
LINE
  5
22F
330
228
100
AcDbEntity
  8
0
  6
Continuous
 62
     7
370
    18
100
AcDbLine
 10
152.5226175664
 20
181.1731043299
 30
0.0
 11
171.5226175664
 21
181.1731043299
 31
0.0
  0
MTEXT
  5
230
330
228
100
AcDbEntity
  8
0
  6
Continuous
 62
     7
370
    18
100
AcDbMText
 10
159.9858120689
 20
185.6848411863
 30
0.0
 40
3.5
 41
0.0
 71
     1
 72
     1
  1
19
  7
SLDTEXTSTYLE0
 73
     1
 44
1.0
  0
ENDBLK
  5
22A
330
228
100
AcDbEntity
  8
0
100
AcDbBlockEnd
  0
BLOCK
  5
232
330
231
100
AcDbEntity
  8
0
100
AcDbBlockBegin
  2
SW_NOTE_0
 70
     0
 10
0.0
 20
0.0
 30
0.0
  3
SW_NOTE_0
  1

  0
LINE
  5
234
330
231
100
AcDbEntity
  8
0
  6
Continuous
 62
     0
370
     0
100
AcDbLine
 10
18.2080974665
 20
0.0
 30
0.0
 11
0.0
 21
0.0
 31
0.0
  0
MTEXT
  5
235
330
231
100
AcDbEntity
  8
0
  6
Continuous
 62
     0
370
     0
100
AcDbMText
 10
0.4037813523
 20
4.53522075
 30
0.0
 40
3.5
 41
0.0
 71
     1
 72
     1
  1
M10 P=1.0
  7
SLDTEXTSTYLE0
 73
     1
 44
1.0
  0
ENDBLK
  5
233
330
231
100
AcDbEntity
  8
0
100
AcDbBlockEnd
  0
BLOCK
  5
27C
330
27B
100
AcDbEntity
  8
0
100
AcDbBlockBegin
  2
_D_11
 70
     0
 10
0.0
 20
0.0
 30
0.0
  3
_D_11
  1

  0
SOLID
  5
27E
330
27B
100
AcDbEntity
  8
0
  6
Continuous
 62
     7
370
    18
100
AcDbTrace
 10
49.9246710955
 20
169.20054694
 30
0.0
 11
52.9252200155
 21
168.4527460449
 31
0.0
 12
52.9241205638
 22
169.952745642
 32
0.0
 13
52.9241205638
 23
169.952745642
 33
0.0
  0
SOLID
  5
27F
330
27B
100
AcDbEntity
  8
0
  6
Continuous
 62
     7
370
    18
100
AcDbTrace
 10
62.9246676034
 20
169.2100755216
 30
0.0
 11
59.9241186834
 21
169.9578764167
 31
0.0
 12
59.9252181352
 22
168.4578768196
 32
0.0
 13
59.9252181352
 23
168.4578768196
 33
0.0
  0
LINE
  5
280
330
27B
100
AcDbEntity
  8
0
  6
Continuous
 62
     7
370
    18
100
AcDbLine
 10
49.9338118728
 20
156.7296381156
 30
0.0
 11
49.9239381277
 21
170.2005466713
 31
0.0
  0
LINE
  5
281
330
27B
100
AcDbEntity
  8
0
  6
Continuous
 62
     7
370
    18
100
AcDbLine
 10
62.9338083808
 20
156.7391666973
 30
0.0
 11
62.9239346356
 21
170.210075253
 31
0.0
  0
LINE
  5
282
330
27B
100
AcDbEntity
  8
0
  6
Continuous
 62
     7
370
    18
100
AcDbLine
 10
49.9246710955
 20
169.20054694
 30
0.0
 11
62.9246676034
 21
169.2100755216
 31
0.0
  0
MTEXT
  5
283
330
27B
100
AcDbEntity
  8
0
  6
Continuous
 62
     7
370
    18
100
AcDbMText
 10
54.3845574412
 20
173.7155539623
 30
0.0
 40
3.5
 41
0.0
 71
     1
 72
     1
  1
13
  7
SLDTEXTSTYLE0
 11
0.9999997313790504
 21
0.0007329678212857937
 31
0.0
 73
     1
 44
1.0
  0
ENDBLK
  5
27D
330
27B
100
AcDbEntity
  8
0
100
AcDbBlockEnd
  0
BLOCK
  5
285
330
284
100
AcDbEntity
  8
0
100
AcDbBlockBegin
  2
SW_NOTE_1
 70
     0
 10
0.0
 20
0.0
 30
0.0
  3
SW_NOTE_1
  1

  0
LINE
  5
287
330
284
100
AcDbEntity
  8
0
  6
Continuous
 62
     0
370
     0
100
AcDbLine
 10
34.5025414463
 20
0.0
 30
0.0
 11
0.0
 21
0.0
 31
0.0
  0
MTEXT
  5
288
330
284
100
AcDbEntity
  8
0
  6
Continuous
 62
     0
370
     0
100
AcDbMText
 10
0.4280430731
 20
4.6058826323
 30
0.0
 40
3.5
 41
0.0
 71
     1
 72
     1
  1
外径φ6配管用継手
  7
SLDTEXTSTYLE0
 73
     1
 44
1.0
  0
ENDBLK
  5
286
330
284
100
AcDbEntity
  8
0
100
AcDbBlockEnd
  0
BLOCK
  5
28C
330
28B
100
AcDbEntity
  8
0
100
AcDbBlockBegin
  2
SW_CENTERMARKSYMBOL_0
 70
     0
 10
0.0
 20
0.0
 30
0.0
  3
SW_CENTERMARKSYMBOL_0
  1

  0
LINE
  5
28E
330
28B
100
AcDbEntity
  8
0
  6
Continuous
 62
     0
370
    18
100
AcDbLine
 10
0.0
 20
0.0
 30
0.0
 11
0.0
 21
2.5
 31
0.0
  0
LINE
  5
28F
330
28B
100
AcDbEntity
  8
0
  6
Continuous
 62
     0
370
    18
100
AcDbLine
 10
0.0
 20
0.0
 30
0.0
 11
-2.5
 21
0.0
 31
0.0
  0
LINE
  5
290
330
28B
100
AcDbEntity
  8
0
  6
Continuous
 62
     0
370
    18
100
AcDbLine
 10
0.0
 20
0.0
 30
0.0
 11
0.0
 21
-2.5
 31
0.0
  0
LINE
  5
291
330
28B
100
AcDbEntity
  8
0
  6
Continuous
 62
     0
370
    18
100
AcDbLine
 10
0.0
 20
0.0
 30
0.0
 11
2.5
 21
0.0
 31
0.0
  0
LINE
  5
292
330
28B
100
AcDbEntity
  8
0
  6
Continuous
 62
     0
370
    18
100
AcDbLine
 10
0.0
 20
5.0
 30
0.0
 11
0.0
 21
8.5
 31
0.0
  0
LINE
  5
293
330
28B
100
AcDbEntity
  8
0
  6
Continuous
 62
     0
370
    18
100
AcDbLine
 10
-5.0
 20
0.0
 30
0.0
 11
-8.5
 21
0.0
 31
0.0
  0
LINE
  5
294
330
28B
100
AcDbEntity
  8
0
  6
Continuous
 62
     0
370
    18
100
AcDbLine
 10
0.0
 20
-5.0
 30
0.0
 11
0.0
 21
-8.5
 31
0.0
  0
LINE
  5
295
330
28B
100
AcDbEntity
  8
0
  6
Continuous
 62
     0
370
    18
100
AcDbLine
 10
5.0
 20
0.0
 30
0.0
 11
8.5
 21
0.0
 31
0.0
  0
ENDBLK
  5
28D
330
28B
100
AcDbEntity
  8
0
100
AcDbBlockEnd
  0
ENDSEC
  0
SECTION
  2
ENTITIES
  0
LINE
  5
73
330
1F
100
AcDbEntity
  8
0
  6
Continuous
 62
     7
370
    18
100
AcDbLine
 10
20.2604743903
 20
285.0
 30
0.0
 11
196.7604743903
 21
285.0
 31
0.0
  0
LINE
  5
74
330
1F
100
AcDbEntity
  8
0
  6
Continuous
 62
     7
370
    18
100
AcDbLine
 10
20.2604743903
 20
285.0
 30
0.0
 11
20.2604743903
 21
10.0
 31
0.0
  0
LINE
  5
75
330
1F
100
AcDbEntity
  8
0
  6
Continuous
 62
     7
370
    18
100
AcDbLine
 10
20.2604743903
 20
10.0
 30
0.0
 11
196.7604743903
 21
10.0
 31
0.0
  0
LINE
  5
76
330
1F
100
AcDbEntity
  8
0
  6
Continuous
 62
     7
370
    18
100
AcDbLine
 10
196.7604743903
 20
285.0
 30
0.0
 11
196.7604743903
 21
10.0
 31
0.0
  0
LINE
  5
77
330
1F
100
AcDbEntity
  8
0
  6
Continuous
 62
     7
370
    18
100
AcDbLine
 10
127.0104743903
 20
50.75
 30
0.0
 11
196.7604743903
 21
50.75
 31
0.0
  0
LINE
  5
78
330
1F
100
AcDbEntity
  8
0
  6
Continuous
 62
     7
370
    18
100
AcDbLine
 10
127.0104743903
 20
50.75
 30
0.0
 11
127.0104743903
 21
10.0
 31
0.0
  0
LINE
  5
79
330
1F
100
AcDbEntity
  8
0
  6
Continuous
 62
     7
370
    18
100
AcDbLine
 10
127.0104743903
 20
22.75
 30
0.0
 11
196.7604743903
 21
22.75
 31
0.0
  0
LINE
  5
7A
330
1F
100
AcDbEntity
  8
0
  6
Continuous
 62
     7
370
    18
100
AcDbLine
 10
127.0104743903
 20
36.75
 30
0.0
 11
196.7604743903
 21
36.75
 31
0.0
  0
MTEXT
  5
7C
330
1F
100
AcDbEntity
  8
0
  6
Continuous
 62
     7
370
     0
100
AcDbMText
 10
162.3749499454
 20
30.4171582345
 30
0.0
 40
4.2333333333
 41
0.0
 71
     2
 72
     1
  1
VFILP-SS-20
  7
SLDTEXTSTYLE0
 73
     1
 44
1.0
  0
MTEXT
  5
7D
330
1F
100
AcDbEntity
  8
0
  6
Continuous
 62
     7
370
     0
100
AcDbMText
 10
161.0903525561
 20
43.9409718514
 30
0.0
 40
4.2333333333
 41
0.0
 71
     2
 72
     1
  1
吸着樹脂具・ミニ用
  7
SLDTEXTSTYLE0
 73
     1
 44
1.0
  0
MTEXT
  5
7E
330
1F
100
AcDbEntity
  8
0
  6
Continuous
 62
     7
370
     0
100
AcDbMText
 10
163.2610623398
 20
16.8228189052
 30
0.0
 40
4.2333333333
 41
0.0
 71
     2
 72
     1
  1
211111
  7
SLDTEXTSTYLE0
 73
     1
 44
1.0
  0
LINE
  5
7F
330
1F
100
AcDbEntity
  8
0
  6
Continuous
 62
     7
370
    18
100
AcDbLine
 10
169.6226175664
 20
148.4816269334
 30
0.0
 11
170.2226175664
 21
148.4816269334
 31
0.0
  0
LINE
  5
80
330
1F
100
AcDbEntity
  8
0
  6
Continuous
 62
     7
370
    18
100
AcDbLine
 10
170.2226175664
 20
154.1434079715
 30
0.0
 11
169.6226175664
 21
154.1434079715
 31
0.0
  0
LINE
  5
81
330
1F
100
AcDbEntity
  8
0
  6
Continuous
 62
     7
370
    18
100
AcDbLine
 10
170.2226175664
 20
154.9168324672
 30
0.0
 11
169.6226175664
 21
154.9168324672
 31
0.0
  0
LINE
  5
82
330
1F
100
AcDbEntity
  8
0
  6
Continuous
 62
     7
370
    18
100
AcDbLine
 10
123.2226175664
 20
157.9816269334
 30
0.0
 11
121.8226175664
 21
157.9816269334
 31
0.0
  0
LINE
  5
83
330
1F
100
AcDbEntity
  8
0
  6
Continuous
 62
     7
370
    18
100
AcDbLine
 10
121.970773161
 20
145.9816269334
 30
0.0
 11
123.2226175664
 21
145.9816269334
 31
0.0
  0
ARC
  5
84
330
1F
100
AcDbEntity
  8
0
  6
Continuous
 62
     7
370
    18
100
AcDbCircle
 10
123.2226175664
 20
157.6816269334
 30
0.0
 40
0.3000000000000114
100
AcDbArc
 50
0.0
 51
90.0
  0
ARC
  5
85
330
1F
100
AcDbEntity
  8
0
  6
Continuous
 62
     7
370
    18
100
AcDbCircle
 10
123.2226175664
 20
146.2816269334
 30
0.0
 40
0.3000000000000114
100
AcDbArc
 50
270.0
 51
0.0
  0
ARC
  5
86
330
1F
100
AcDbEntity
  8
0
  6
Continuous
 62
     7
370
    18
100
AcDbCircle
 10
121.8226175664
 20
157.6816269334
 30
0.0
 40
0.3000000000000114
100
AcDbArc
 50
90.0
 51
180.0
  0
LINE
  5
87
330
1F
100
AcDbEntity
  8
0
  6
Continuous
 62
     7
370
    18
100
AcDbLine
 10
127.2226175664
 20
155.7316269334
 30
0.0
 11
125.0362881255
 21
155.7316269334
 31
0.0
  0
LINE
  5
88
330
1F
100
AcDbEntity
  8
0
  6
Continuous
 62
     7
370
    18
100
AcDbLine
 10
124.5297968498
 20
155.7316269334
 30
0.0
 11
123.5226175664
 21
155.7316269334
 31
0.0
  0
LINE
  5
89
330
1F
100
AcDbEntity
  8
0
  6
Continuous
 62
     7
370
    18
100
AcDbLine
 10
123.5226175664
 20
148.2316269334
 30
0.0
 11
125.5677516356
 21
148.2316269334
 31
0.0
  0
LINE
  5
8A
330
1F
100
AcDbEntity
  8
0
  6
Continuous
 62
     7
370
    18
100
AcDbLine
 10
126.0709451172
 20
148.2316269334
 30
0.0
 11
127.2226175664
 21
148.2316269334
 31
0.0
  0
ARC
  5
8B
330
1F
100
AcDbEntity
  8
0
  6
Continuous
 62
     7
370
    18
100
AcDbCircle
 10
127.2226175664
 20
155.4316269334
 30
0.0
 40
0.3000000000000114
100
AcDbArc
 50
0.0
 51
90.0
  0
ARC
  5
8C
330
1F
100
AcDbEntity
  8
0
  6
Continuous
 62
     7
370
    18
100
AcDbCircle
 10
127.2226175664
 20
148.5316269334
 30
0.0
 40
0.3000000000000398
100
AcDbArc
 50
270.0
 51
0.0
  0
ARC
  5
8D
330
1F
100
AcDbEntity
  8
0
  6
Continuous
 62
     7
370
    18
100
AcDbCircle
 10
117.2226175664
 20
156.6816269334
 30
0.0
 40
0.3000000000000114
100
AcDbArc
 50
0.0
 51
90.0
  0
LINE
  5
8E
330
1F
100
AcDbEntity
  8
0
  6
Continuous
 62
     7
370
    18
100
AcDbLine
 10
117.2226175664
 20
156.9816269334
 30
0.0
 11
115.8226175664
 21
156.9816269334
 31
0.0
  0
ARC
  5
8F
330
1F
100
AcDbEntity
  8
0
  6
Continuous
 62
     7
370
    18
100
AcDbCircle
 10
115.8226175664
 20
156.6816269334
 30
0.0
 40
0.3000000000000114
100
AcDbArc
 50
90.0
 51
180.0
  0
ARC
  5
90
330
1F
100
AcDbEntity
  8
0
  6
Continuous
 62
     7
370
    18
100
AcDbCircle
 10
115.8226175664
 20
147.2816269334
 30
0.0
 40
0.3000000000000114
100
AcDbArc
 50
180.0
 51
270.0
  0
LINE
  5
91
330
1F
100
AcDbEntity
  8
0
  6
Continuous
 62
     7
370
    18
100
AcDbLine
 10
115.8226175664
 20
146.9816269334
 30
0.0
 11
117.0729815566
 21
146.9816269334
 31
0.0
  0
LINE
  5
92
330
1F
100
AcDbEntity
  8
0
  6
Continuous
 62
     7
370
    18
100
AcDbLine
 10
121.5226175664
 20
155.7316269334
 30
0.0
 11
117.5226175664
 21
155.7316269334
 31
0.0
  0
ARC
  5
93
330
1F
100
AcDbEntity
  8
0
  6
Continuous
 62
     7
370
    18
100
AcDbCircle
 10
110.3226175664
 20
148.7816269334
 30
0.0
 40
0.3000000000000114
100
AcDbArc
 50
180.0
 51
270.0
  0
ARC
  5
94
330
1F
100
AcDbEntity
  8
0
  6
Continuous
 62
     7
370
    18
100
AcDbCircle
 10
110.3226175664
 20
155.1816269334
 30
0.0
 40
0.3000000000000114
100
AcDbArc
 50
90.0
 51
180.0
  0
LINE
  5
95
330
1F
100
AcDbEntity
  8
0
  6
Continuous
 62
     7
370
    18
100
AcDbLine
 10
111.7226175664
 20
155.4816269334
 30
0.0
 11
110.3226175664
 21
155.4816269334
 31
0.0
  0
LINE
  5
96
330
1F
100
AcDbEntity
  8
0
  6
Continuous
 62
     7
370
    18
100
AcDbLine
 10
110.3226175664
 20
148.4816269334
 30
0.0
 11
111.7226175664
 21
148.4816269334
 31
0.0
  0
ARC
  5
97
330
1F
100
AcDbEntity
  8
0
  6
Continuous
 62
     7
370
    18
100
AcDbCircle
 10
111.7226175664
 20
155.1816269334
 30
0.0
 40
0.3000000000000114
100
AcDbArc
 50
0.0
 51
90.0
  0
ARC
  5
98
330
1F
100
AcDbEntity
  8
0
  6
Continuous
 62
     7
370
    18
100
AcDbCircle
 10
111.7226175664
 20
148.7816269334
 30
0.0
 40
0.3000000000000114
100
AcDbArc
 50
270.0
 51
0.0
  0
LINE
  5
99
330
1F
100
AcDbEntity
  8
0
  6
Continuous
 62
     7
370
    18
100
AcDbLine
 10
117.0226175664
 20
140.1816269334
 30
0.0
 11
117.5226175664
 21
137.6816269334
 31
0.0
  0
LINE
  5
9A
330
1F
100
AcDbEntity
  8
0
  6
Continuous
 62
     7
370
    18
100
AcDbLine
 10
121.5226175664
 20
137.6816269334
 30
0.0
 11
122.0226175664
 21
140.1816269334
 31
0.0
  0
LINE
  5
9B
330
1F
100
AcDbEntity
  8
0
  6
Continuous
 62
     7
370
    18
100
AcDbLine
 10
171.1226175664
 20
149.5816269334
 30
0.0
 11
171.5226175664
 21
149.9816269334
 31
0.0
  0
LINE
  5
9C
330
1F
100
AcDbEntity
  8
0
  6
Continuous
 62
     7
370
    18
100
AcDbLine
 10
171.5226175664
 20
153.9816269334
 30
0.0
 11
171.1226175664
 21
154.3816269334
 31
0.0
  0
ARC
  5
9D
330
1F
100
AcDbEntity
  8
0
  6
Continuous
 62
     7
370
    18
100
AcDbCircle
 10
170.5226175664
 20
149.7816269334
 30
0.0
 40
0.3000000000000114
100
AcDbArc
 50
180.0
 51
221.8399063145
  0
ARC
  5
9E
330
1F
100
AcDbEntity
  8
0
  6
Continuous
 62
     7
370
    18
100
AcDbCircle
 10
170.5226175664
 20
154.1816269334
 30
0.0
 40
0.3000000000000114
100
AcDbArc
 50
138.1839398833
 51
180.0
  0
LINE
  5
9F
330
1F
100
AcDbEntity
  8
0
  6
Continuous
 62
     7
370
    18
100
AcDbLine
 10
117.0226175664
 20
142.6816269334
 30
0.0
 11
117.5226175664
 21
140.1816269334
 31
0.0
  0
LINE
  5
A0
330
1F
100
AcDbEntity
  8
0
  6
Continuous
 62
     7
370
    18
100
AcDbLine
 10
121.5226175664
 20
140.1816269334
 30
0.0
 11
122.0226175664
 21
142.6816269334
 31
0.0
  0
LINE
  5
A1
330
1F
100
AcDbEntity
  8
0
  6
Continuous
 62
     7
370
    18
100
AcDbLine
 10
115.5226175664
 20
154.4816269334
 30
0.0
 11
112.0226175664
 21
154.4816269334
 31
0.0
  0
LINE
  5
A2
330
1F
100
AcDbEntity
  8
0
  6
Continuous
 62
     7
370
    18
100
AcDbLine
 10
112.0226175664
 20
149.4816269334
 30
0.0
 11
115.5226175664
 21
149.4816269334
 31
0.0
  0
LINE
  5
A3
330
1F
100
AcDbEntity
  8
0
  6
Continuous
 62
     7
370
    18
100
AcDbLine
 10
117.3726175664
 20
146.682513998
 30
0.0
 11
117.3726175664
 21
142.6816269334
 31
0.0
  0
LINE
  5
A4
330
1F
100
AcDbEntity
  8
0
  6
Continuous
 62
     7
370
    18
100
AcDbLine
 10
121.6726175664
 20
142.6816269334
 30
0.0
 11
121.6726175664
 21
145.6823935454
 31
0.0
  0
LINE
  5
A5
330
1F
100
AcDbEntity
  8
0
  6
Continuous
 62
     7
370
    18
100
AcDbLine
 10
169.6226175664
 20
153.4816269334
 30
0.0
 11
169.5226175664
 21
153.4816269334
 31
0.0
  0
LINE
  5
A6
330
1F
100
AcDbEntity
  8
0
  6
Continuous
 62
     7
370
    18
100
AcDbLine
 10
169.5226175664
 20
150.4816269334
 30
0.0
 11
169.6226175664
 21
150.4816269334
 31
0.0
  0
ARC
  5
A7
330
1F
100
AcDbEntity
  8
0
  6
Continuous
 62
     7
370
    18
100
AcDbCircle
 10
121.9726175664
 20
145.6816269334
 30
0.0
 40
0.3000000000000136
100
AcDbArc
 50
90.388984454
 51
179.9281661017
  0
ARC
  5
A8
330
1F
100
AcDbEntity
  8
0
  6
Continuous
 62
     7
370
    18
100
AcDbCircle
 10
117.0726175664
 20
146.6816269334
 30
0.0
 40
0.3000000000000072
100
AcDbArc
 50
0.2407636824
 51
89.9631309201
  0
LINE
  5
A9
330
1F
100
AcDbEntity
  8
0
  6
Continuous
 62
     7
370
    18
100
AcDbLine
 10
168.5226175664
 20
156.9816269334
 30
0.0
 11
164.5505781782
 21
156.9816269334
 31
0.0
  0
LINE
  5
AA
330
1F
100
AcDbEntity
  8
0
  6
Continuous
 62
     7
370
    18
100
AcDbLine
 10
158.5505781782
 20
156.9816269334
 30
0.0
 11
154.0226175664
 21
156.9816269334
 31
0.0
  0
LINE
  5
AB
330
1F
100
AcDbEntity
  8
0
  6
Continuous
 62
     7
370
    18
100
AcDbLine
 10
154.0226175664
 20
146.9816269334
 30
0.0
 11
158.5505781782
 21
146.9816269334
 31
0.0
  0
LINE
  5
AC
330
1F
100
AcDbEntity
  8
0
  6
Continuous
 62
     7
370
    18
100
AcDbLine
 10
164.5505781782
 20
146.9816269334
 30
0.0
 11
168.5226175664
 21
146.9816269334
 31
0.0
  0
LINE
  5
AD
330
1F
100
AcDbEntity
  8
0
  6
Continuous
 62
     7
370
    18
100
AcDbLine
 10
168.5226175664
 20
146.9816269334
 30
0.0
 11
169.5226175664
 21
147.9816269334
 31
0.0
  0
LINE
  5
AE
330
1F
100
AcDbEntity
  8
0
  6
Continuous
 62
     7
370
    18
100
AcDbLine
 10
169.5226175664
 20
155.9816269334
 30
0.0
 11
168.5226175664
 21
156.9816269334
 31
0.0
  0
LINE
  5
AF
330
1F
100
AcDbEntity
  8
0
  6
Continuous
 62
     7
370
    18
100
AcDbLine
 10
154.0226175664
 20
156.4816269334
 30
0.0
 11
152.5226175664
 21
156.4816269334
 31
0.0
  0
LINE
  5
B0
330
1F
100
AcDbEntity
  8
0
  6
Continuous
 62
     7
370
    18
100
AcDbLine
 10
152.5226175664
 20
147.4816269334
 30
0.0
 11
154.0226175664
 21
147.4816269334
 31
0.0
  0
LINE
  5
B1
330
1F
100
AcDbEntity
  8
0
  6
Continuous
 62
     7
370
    18
100
AcDbLine
 10
149.5226175664
 20
155.7316269334
 30
0.0
 11
149.0389446683
 21
155.7316269334
 31
0.0
  0
LINE
  5
B2
330
1F
100
AcDbEntity
  8
0
  6
Continuous
 62
     7
370
    18
100
AcDbLine
 10
148.5333634831
 20
155.7316269334
 30
0.0
 11
148.0226175664
 21
155.7316269334
 31
0.0
  0
LINE
  5
B3
330
1F
100
AcDbEntity
  8
0
  6
Continuous
 62
     7
370
    18
100
AcDbLine
 10
148.0226175664
 20
148.2316269334
 30
0.0
 11
149.5226175664
 21
148.2316269334
 31
0.0
  0
LINE
  5
B4
330
1F
100
AcDbEntity
  8
0
  6
Continuous
 62
     7
370
    18
100
AcDbLine
 10
148.0226175664
 20
155.7316269334
 30
0.0
 11
147.5226175664
 21
155.2316269334
 31
0.0
  0
LINE
  5
B5
330
1F
100
AcDbEntity
  8
0
  6
Continuous
 62
     7
370
    18
100
AcDbLine
 10
147.5226175664
 20
148.7316269334
 30
0.0
 11
148.0226175664
 21
148.2316269334
 31
0.0
  0
SPLINE
  5
B6
330
1F
100
AcDbEntity
  8
0
  6
Continuous
 62
     7
370
    18
100
AcDbSpline
210
0.0
220
0.0
230
1.0
 70
     8
 71
     3
 72
    26
 73
    22
 74
     0
 42
0.000000001
 43
0.00000001
 40
0.0
 40
0.0
 40
0.0
 40
0.0
 40
0.0604128836005898
 40
0.1171003176546984
 40
0.170099236266362
 40
0.2193845321433914
 40
0.2649100747745627
 40
0.3066501666189866
 40
0.3787126789289442
 40
0.4356599446301169
 40
0.4782621837940197
 40
0.5206987201976453
 40
0.5679143366190632
 40
0.6199685645088711
 40
0.6769019946565351
 40
0.7347927892073298
 40
0.7895749487249235
 40
0.8413622804595177
 40
0.8909107118426678
 40
0.9432004037818521
 40
1.0
 40
1.0
 40
1.0
 40
1.0
 10
140.9817909072907
 20
148.6625315541853
 30
0.0
 10
140.9576890395141
 20
148.8006334331479
 30
0.0
 10
140.9109715811758
 20
149.0683209350745
 30
0.0
 10
140.8430091529527
 20
149.5400287664945
 30
0.0
 10
140.7795239483129
 20
150.0223703508959
 30
0.0
 10
140.7205050102254
 20
150.5031561440803
 30
0.0
 10
140.6659471377205
 20
150.9674268367123
 30
0.0
 10
140.6022556308857
 20
151.524351598953
 30
0.0
 10
140.5338304071236
 20
152.134962252951
 30
0.0
 10
140.4651898229386
 20
152.7436643914628
 30
0.0
 10
140.4084200259758
 20
153.2356442096243
 30
0.0
 10
140.3554808938857
 20
153.6799908934282
 30
0.0
 10
140.2986505918589
 20
154.1343971749871
 30
0.0
 10
140.2358907027836
 20
154.6012732160824
 30
0.0
 10
140.1688108215569
 20
155.0519963456054
 30
0.0
 10
140.0999899846605
 20
155.452673821639
 30
0.0
 10
140.0315298715159
 20
155.7816117804638
 30
0.0
 10
139.9621587522273
 20
156.0370310048952
 30
0.0
 10
139.8918313750521
 20
156.2258098065683
 30
0.0
 10
139.7744869119936
 20
156.4227863963361
 30
0.0
 10
139.6241597887952
 20
156.461357778289
 30
0.0
 10
139.5458888600676
 20
156.4814407667977
 30
0.0
  0
LWPOLYLINE
  5
B7
330
1F
100
AcDbEntity
  8
0
  6
Continuous
 62
     7
370
    18
100
AcDbPolyline
 90
       26
 70
   128
 43
0.0
 10
138.1495261187
 20
147.9665704837
 10
138.1548342311
 20
147.9661556743
 10
138.1395754181
 20
148.010243568
 10
138.109759793
 20
148.0975036667
 10
138.0354759877
 20
148.3914116999
 10
137.9446334185
 20
148.8737626407
 10
137.8938649243
 20
149.1940806816
 10
137.8421482486
 20
149.5535171147
 10
137.7519852346
 20
150.2480505764
 10
137.7021581186
 20
150.6605409112
 10
137.6603793985
 20
151.0177817648
 10
137.6146686772
 20
151.4171223536
 10
137.5735922803
 20
151.7806736334
 10
137.5266738892
 20
152.197903507
 10
137.4738929715
 20
152.6650426684
 10
137.4152259236
 20
153.1748872968
 10
137.3513717988
 20
153.709813833
 10
137.2884400303
 20
154.2070338035
 10
137.2276885911
 20
154.6503816521
 10
137.1689208867
 20
155.0389447608
 10
137.0563324002
 20
155.6540881565
 10
136.9478251888
 20
156.0667511821
 10
136.8024230376
 20
156.3501639343
 10
136.6904345895
 20
156.4441367361
 10
136.5462946887
 20
156.4810916515
 10
136.5462946887
 20
156.4810916515
  0
LWPOLYLINE
  5
B8
330
1F
100
AcDbEntity
  8
0
  6
Continuous
 62
     7
370
    18
100
AcDbPolyline
 90
       22
 70
   128
 43
0.0
 10
135.1321230983
 20
147.9773415506
 10
135.1276608614
 20
148.0119799807
 10
135.0919877442
 20
148.141531233
 10
135.0466544001
 20
148.3351334709
 10
134.9972028651
 20
148.578789327
 10
134.9476303656
 20
148.8562757728
 10
134.853871208
 20
149.4695304726
 10
134.7669691084
 20
150.127352388
 10
134.6871272314
 20
150.7879362391
 10
134.613193309
 20
151.4302206349
 10
134.5319721138
 20
152.1509335628
 10
134.4400049085
 20
152.9611897762
 10
134.3389602103
 20
153.8105840388
 10
134.2433827998
 20
154.5406750363
 10
134.1564409493
 20
155.1180622794
 10
134.0746360048
 20
155.5706016253
 10
133.9832549759
 20
155.9563555636
 10
133.9315873227
 20
156.1162494636
 10
133.8675590096
 20
156.2594621273
 10
133.7498397554
 20
156.4048673553
 10
133.545990842
 20
156.4806745891
 10
133.545990842
 20
156.4806745891
  0
SPLINE
  5
B9
330
1F
100
AcDbEntity
  8
0
  6
Continuous
 62
     7
370
    18
100
AcDbSpline
210
0.0
220
0.0
230
1.0
 70
     8
 71
     3
 72
    11
 73
     7
 74
     0
 42
0.000000001
 43
0.00000001
 40
0.0
 40
0.0
 40
0.0
 40
0.0
 40
0.3218703146226722
 40
0.6193002671426436
 40
0.8927199537630316
 40
1.0
 40
1.0
 40
1.0
 40
1.0
 10
132.511389446734
 20
148.1115086643809
 30
0.0
 10
132.5386258772511
 20
148.2290229648382
 30
0.0
 10
132.5910306127268
 20
148.4551284314192
 30
0.0
 10
132.6663690720544
 20
148.8978675813397
 30
0.0
 10
132.7234362662883
 20
149.2740505284982
 30
0.0
 10
132.7553863452113
 20
149.5140077156569
 30
0.0
 10
132.764389781905
 20
149.5816269334065
 30
0.0
  0
SPLINE
  5
BA
330
1F
100
AcDbEntity
  8
0
  6
Continuous
 62
     7
370
    18
100
AcDbSpline
210
0.0
220
0.0
230
1.0
 70
     8
 71
     3
 72
    11
 73
     7
 74
     0
 42
0.000000001
 43
0.00000001
 40
0.0
 40
0.0
 40
0.0
 40
0.0
 40
0.157160321744357
 40
0.4844341018696716
 40
0.8123554093710115
 40
1.0
 40
1.0
 40
1.0
 40
1.0
 10
133.3392981512081
 20
154.3816269334065
 30
0.0
 10
133.35078463972
 20
154.4668019477912
 30
0.0
 10
133.3861908203904
 20
154.7293471063733
 30
0.0
 10
133.4446070756476
 20
155.0989370242204
 30
0.0
 10
133.5043945739711
 20
155.4377515691768
 30
0.0
 10
133.5387523376746
 20
155.5828872187491
 30
0.0
 10
133.5512571377951
 20
155.6357105719779
 30
0.0
  0
SPLINE
  5
BB
330
1F
100
AcDbEntity
  8
0
  6
Continuous
 62
     7
370
    18
100
AcDbSpline
210
0.0
220
0.0
230
1.0
 70
     8
 71
     3
 72
    15
 73
    11
 74
     0
 42
0.000000001
 43
0.00000001
 40
0.0
 40
0.0
 40
0.0
 40
0.0
 40
0.0997272385239478
 40
0.2302964941832414
 40
0.3672497145530171
 40
0.4942666002291088
 40
0.6488470132259891
 40
0.7876850486452617
 40
0.9164498152229928
 40
1.0
 40
1.0
 40
1.0
 40
1.0
 10
135.0469621424902
 20
147.4825476498874
 30
0.0
 10
135.1084565155537
 20
147.4957005871728
 30
0.0
 10
135.2504632404778
 20
147.5260741881054
 30
0.0
 10
135.3395142666841
 20
147.656156057608
 30
0.0
 10
135.4326187629818
 20
147.8448789549257
 30
0.0
 10
135.5156475134272
 20
148.1198925963272
 30
0.0
 10
135.5903978313246
 20
148.4578461216259
 30
0.0
 10
135.6594985126666
 20
148.8554210044182
 30
0.0
 10
135.7161495634777
 20
149.221303605959
 30
0.0
 10
135.75038217309
 20
149.4798742193784
 30
0.0
 10
135.7638533904501
 20
149.5816269334065
 30
0.0
  0
SPLINE
  5
BC
330
1F
100
AcDbEntity
  8
0
  6
Continuous
 62
     7
370
    18
100
AcDbSpline
210
0.0
220
0.0
230
1.0
 70
     8
 71
     3
 72
    10
 73
     6
 74
     0
 42
0.000000001
 43
0.00000001
 40
0.0
 40
0.0
 40
0.0
 40
0.0
 40
0.3645194214045946
 40
0.7331696533069129
 40
1.0
 40
1.0
 40
1.0
 40
1.0
 10
136.3389087970692
 20
154.3816269334065
 30
0.0
 10
136.3654466599423
 20
154.5696708043645
 30
0.0
 10
136.4188231183138
 20
154.9478894988459
 30
0.0
 10
136.4923818278619
 20
155.3767285464454
 30
0.0
 10
136.5351608175242
 20
155.5604380860128
 30
0.0
 10
136.5531231802261
 20
155.6375754239342
 30
0.0
  0
SPLINE
  5
BD
330
1F
100
AcDbEntity
  8
0
  6
Continuous
 62
     7
370
    18
100
AcDbSpline
210
0.0
220
0.0
230
1.0
 70
     8
 71
     3
 72
    15
 73
    11
 74
     0
 42
0.000000001
 43
0.00000001
 40
0.0
 40
0.0
 40
0.0
 40
0.0
 40
0.1306771559378546
 40
0.2430985489525241
 40
0.340150791734121
 40
0.4318660003502534
 40
0.6067891622278353
 40
0.7732653802902993
 40
0.9527094931953322
 40
0.9999999999999999
 40
0.9999999999999999
 40
0.9999999999999999
 40
0.9999999999999999
 10
138.0466961394509
 20
147.4828952449856
 30
0.0
 10
138.1196976794588
 20
147.499425316577
 30
0.0
 10
138.255502352585
 20
147.530176187983
 30
0.0
 10
138.370773088198
 20
147.696384457589
 30
0.0
 10
138.430409393768
 20
147.836879142744
 30
0.0
 10
138.4977427281413
 20
148.0461072934936
 30
0.0
 10
138.5720057444259
 20
148.3611323538333
 30
0.0
 10
138.6564812320966
 20
148.8323204112814
 30
0.0
 10
138.7200625309757
 20
149.241820341713
 30
0.0
 10
138.7565113358675
 20
149.5229840412705
 30
0.0
 10
138.7641135382041
 20
149.5816269334065
 30
0.0
  0
SPLINE
  5
BE
330
1F
100
AcDbEntity
  8
0
  6
Continuous
 62
     7
370
    18
100
AcDbSpline
210
0.0
220
0.0
230
1.0
 70
     8
 71
     3
 72
    13
 73
     9
 74
     0
 42
0.000000001
 43
0.00000001
 40
0.0
 40
0.0
 40
0.0
 40
0.0
 40
0.0615709612511284
 40
0.2714047684521617
 40
0.4898777639836634
 40
0.7239748642221541
 40
0.9758699677274586
 40
1.0
 40
1.0
 40
1.0
 40
1.0
 10
139.3390916209746
 20
154.3816269334065
 30
0.0
 10
139.3436519379029
 20
154.4165303289645
 30
0.0
 10
139.363753812794
 20
154.5703844802906
 30
0.0
 10
139.3997447864818
 20
154.8102752640445
 30
0.0
 10
139.448912740265
 20
155.1219439520054
 30
0.0
 10
139.4986952436802
 20
155.3976871678256
 30
0.0
 10
139.5343733455913
 20
155.5760964417151
 30
0.0
 10
139.5498522447939
 20
155.6412953303175
 30
0.0
 10
139.5512054053901
 20
155.6469949970586
 30
0.0
  0
SPLINE
  5
BF
330
1F
100
AcDbEntity
  8
0
  6
Continuous
 62
     7
370
    18
100
AcDbSpline
210
0.0
220
0.0
230
1.0
 70
     8
 71
     3
 72
    15
 73
    11
 74
     0
 42
0.000000001
 43
0.00000001
 40
0.0
 40
0.0
 40
0.0
 40
0.0
 40
0.1002698567606642
 40
0.2313556650928715
 40
0.3692771489859092
 40
0.497976685190185
 40
0.6559538449398755
 40
0.799642555726283
 40
0.9332557407296134
 40
1.0
 40
1.0
 40
1.0
 40
1.0
 10
139.557439815868
 20
156.481434771367
 30
0.0
 10
139.4958507835396
 20
156.468176946345
 30
0.0
 10
139.3537445514464
 20
156.4375867667565
 30
0.0
 10
139.264150985331
 20
156.3055251182939
 30
0.0
 10
139.1705199980676
 20
156.1155195476677
 30
0.0
 10
139.0864525935937
 20
155.8363049767634
 30
0.0
 10
139.010022035751
 20
155.4882753090059
 30
0.0
 10
138.9387939769065
 20
155.0716353700029
 30
0.0
 10
138.8832840791318
 20
154.7100722274702
 30
0.0
 10
138.8509434407498
 20
154.4636999324636
 30
0.0
 10
138.8401699356227
 20
154.3816269334065
 30
0.0
  0
SPLINE
  5
C0
330
1F
100
AcDbEntity
  8
0
  6
Continuous
 62
     7
370
    18
100
AcDbSpline
210
0.0
220
0.0
230
1.0
 70
     8
 71
     3
 72
    11
 73
     7
 74
     0
 42
0.000000001
 43
0.00000001
 40
0.0
 40
0.0
 40
0.0
 40
0.0
 40
0.0212888025046145
 40
0.4230958531045123
 40
0.7906125843901384
 40
1.0
 40
1.0
 40
1.0
 40
1.0
 10
138.2654032471673
 20
149.5816269334065
 30
0.0
 10
138.2638498427338
 20
149.5696023162149
 30
0.0
 10
138.2329773230675
 20
149.3306238359624
 30
0.0
 10
138.1758495506066
 20
148.964774601121
 30
0.0
 10
138.1038633764998
 20
148.5467094007645
 30
0.0
 10
138.0653647103577
 20
148.3865650383378
 30
0.0
 10
138.0513916157781
 20
148.3284406265902
 30
0.0
  0
SPLINE
  5
C1
330
1F
100
AcDbEntity
  8
0
  6
Continuous
 62
     7
370
    18
100
AcDbSpline
210
0.0
220
0.0
230
1.0
 70
     8
 71
     3
 72
    15
 73
    11
 74
     0
 42
0.000000001
 43
0.00000001
 40
0.0
 40
0.0
 40
0.0
 40
0.0
 40
0.0915821216854885
 40
0.171544300916758
 40
0.2987381460907945
 40
0.4052020051348214
 40
0.5039164862506287
 40
0.6786961693227834
 40
0.8365395168805703
 40
1.0
 40
1.0
 40
1.0
 40
1.0
 10
136.5578315237453
 20
156.4810585625913
 30
0.0
 10
136.5055431724067
 20
156.4733272382515
 30
0.0
 10
136.4076008173771
 20
156.458845540245
 30
0.0
 10
136.2759449839094
 20
156.3397229714539
 30
0.0
 10
136.1983927006856
 20
156.1934312399353
 30
0.0
 10
136.1388883677262
 20
156.0226475709991
 30
0.0
 10
136.0699313487539
 20
155.7717611157963
 30
0.0
 10
135.9977470437646
 20
155.4228994490801
 30
0.0
 10
135.9174415409319
 20
154.944728754787
 30
0.0
 10
135.8655225147664
 20
154.5715024938565
 30
0.0
 10
135.8391091692353
 20
154.3816269334065
 30
0.0
  0
SPLINE
  5
C2
330
1F
100
AcDbEntity
  8
0
  6
Continuous
 62
     7
370
    18
100
AcDbSpline
210
0.0
220
0.0
230
1.0
 70
     8
 71
     3
 72
    11
 73
     7
 74
     0
 42
0.000000001
 43
0.00000001
 40
0.0
 40
0.0
 40
0.0
 40
0.0
 40
0.2691874364034438
 40
0.5097288413520565
 40
0.7442344431948945
 40
1.0
 40
1.0
 40
1.0
 40
1.0
 10
135.26388255439
 20
149.5816269334065
 30
0.0
 10
135.2441186899653
 20
149.4356293390203
 30
0.0
 10
135.2066941658179
 20
149.1591707285407
 30
0.0
 10
135.1524413914768
 20
148.8278674259892
 30
0.0
 10
135.099380840968
 20
148.5283916683055
 30
0.0
 10
135.0664771170112
 20
148.3939304679984
 30
0.0
 10
135.0493118419786
 20
148.3237845025289
 30
0.0
  0
SPLINE
  5
C3
330
1F
100
AcDbEntity
  8
0
  6
Continuous
 62
     7
370
    18
100
AcDbSpline
210
0.0
220
0.0
230
1.0
 70
     8
 71
     3
 72
    16
 73
    12
 74
     0
 42
0.000000001
 43
0.00000001
 40
0.0
 40
0.0
 40
0.0
 40
0.0
 40
0.0781652162440342
 40
0.1495969206358673
 40
0.2728113129933102
 40
0.3817447813577929
 40
0.499988281074471
 40
0.6287565617107533
 40
0.7680456258184432
 40
0.9177770436110123
 40
1.0
 40
1.0
 40
1.0
 40
1.0
 10
133.5575184952653
 20
156.4806561259607
 30
0.0
 10
133.5130449430044
 20
156.4750647606744
 30
0.0
 10
133.4279289951741
 20
156.4643636960683
 30
0.0
 10
133.3026256408781
 20
156.3709793415935
 30
0.0
 10
133.2106969734245
 20
156.2250136398012
 30
0.0
 10
133.149309324901
 20
156.0558118461187
 30
0.0
 10
133.0845749023713
 20
155.8285253981019
 30
0.0
 10
133.0195962256153
 20
155.5315452549844
 30
0.0
 10
132.9505801351407
 20
155.1471975724704
 30
0.0
 10
132.8903874331298
 20
154.7590710312882
 30
0.0
 10
132.8529522856663
 20
154.4804073563704
 30
0.0
 10
132.8396823117408
 20
154.3816269334065
 30
0.0
  0
SPLINE
  5
C4
330
1F
100
AcDbEntity
  8
0
  6
Continuous
 62
     7
370
    18
100
AcDbSpline
210
0.0
220
0.0
230
1.0
 70
     8
 71
     3
 72
    10
 73
     6
 74
     0
 42
0.000000001
 43
0.00000001
 40
0.0
 40
0.0
 40
0.0
 40
0.0
 40
0.2239690688366639
 40
0.6532487796995607
 40
1.0
 40
1.0
 40
1.0
 40
1.0
 10
132.2646346503118
 20
149.5816269334065
 30
0.0
 10
132.2487073864871
 20
149.4646839757567
 30
0.0
 10
132.2022524643343
 20
149.1235973927923
 30
0.0
 10
132.1311755632298
 20
148.6828315616264
 30
0.0
 10
132.0761528232379
 20
148.4412597763103
 30
0.0
 10
132.0515672023944
 20
148.3333190899475
 30
0.0
  0
SPLINE
  5
C5
330
1F
100
AcDbEntity
  8
0
  6
Continuous
 62
     7
370
    18
100
AcDbSpline
210
0.0
220
0.0
230
1.0
 70
     8
 71
     3
 72
    27
 73
    23
 74
     0
 42
0.000000001
 43
0.00000001
 40
0.0
 40
0.0
 40
0.0
 40
0.0
 40
0.019207257543871
 40
0.050739998960885
 40
0.0809999784718843
 40
0.1392969094666679
 40
0.1958652087096411
 40
0.2575471926341593
 40
0.3253435922504634
 40
0.3953137760401759
 40
0.4581470552911784
 40
0.5134662390303899
 40
0.5653514006337992
 40
0.6223504140925423
 40
0.6847534209306222
 40
0.7294645931769117
 40
0.7776214790785997
 40
0.8307144677257516
 40
0.8740209722579168
 40
0.920519941173639
 40
0.9650893100354814
 40
0.9999999999999999
 40
0.9999999999999999
 40
0.9999999999999999
 40
0.9999999999999999
 10
133.458488830408
 20
155.9916022141367
 30
0.0
 10
133.4548460183717
 20
155.9916397832502
 30
0.0
 10
133.445222766405
 20
155.9917390299424
 30
0.0
 10
133.4831731644914
 20
155.9084093906258
 30
0.0
 10
133.5283053295008
 20
155.7488733152204
 30
0.0
 10
133.5945980617047
 20
155.4635549446148
 30
0.0
 10
133.6774365039547
 20
154.99447929996
 30
0.0
 10
133.7656344151099
 20
154.3982346905744
 30
0.0
 10
133.8605742150931
 20
153.6582470323977
 30
0.0
 10
133.9560766841112
 20
152.8433324879103
 30
0.0
 10
134.0456978800374
 20
152.0472863256728
 30
0.0
 10
134.1267034647378
 20
151.3258755996786
 30
0.0
 10
134.2048395960838
 20
150.6463564537066
 30
0.0
 10
134.2864679601254
 20
149.9713803575823
 30
0.0
 10
134.3650615222445
 20
149.380024221068
 30
0.0
 10
134.4392598200155
 20
148.8872801188319
 30
0.0
 10
134.5099552759999
 20
148.4775913685718
 30
0.0
 10
134.5859419012345
 20
148.1278918177414
 30
0.0
 10
134.6699777660741
 20
147.8485473432051
 30
0.0
 10
134.7633424611126
 20
147.6590686737866
 30
0.0
 10
134.8552322312632
 20
147.5263376174099
 30
0.0
 10
134.9964696026505
 20
147.4959111927115
 30
0.0
 10
135.0585064727374
 20
147.4825467401046
 30
0.0
  0
LWPOLYLINE
  5
C6
330
1F
100
AcDbEntity
  8
0
  6
Continuous
 62
     7
370
    18
100
AcDbPolyline
 90
       20
 70
   128
 43
0.0
 10
136.4533598519
 20
155.9975497413
 10
136.4485956247
 20
155.9980836304
 10
136.4623617666
 20
155.9578341366
 10
136.4904406139
 20
155.8777817165
 10
136.5608482108
 20
155.6079722814
 10
136.6477977467
 20
155.158406264
 10
136.748972439
 20
154.502271158
 10
136.8506867955
 20
153.7267941896
 10
136.9433360198
 20
152.9484804856
 10
137.0266897117
 20
152.2157834407
 10
137.107428728
 20
151.4985414084
 10
137.1980500574
 20
150.7097239845
 10
137.2989001174
 20
149.8846210582
 10
137.4049175042
 20
149.1174078896
 10
137.5135076219
 20
148.4757220349
 10
137.6276410113
 20
147.985691841
 10
137.7825567366
 20
147.6387957331
 10
137.9025554457
 20
147.5264459744
 10
138.0582654803
 20
147.4828933025
 10
138.0582654803
 20
147.4828933025
  0
SPLINE
  5
C7
330
1F
100
AcDbEntity
  8
0
  6
Continuous
 62
     7
370
    18
100
AcDbSpline
210
0.0
220
0.0
230
1.0
 70
     8
 71
     3
 72
    25
 73
    21
 74
     0
 42
0.000000001
 43
0.00000001
 40
0.0
 40
0.0
 40
0.0
 40
0.0
 40
0.0136189214664593
 40
0.0502063373805204
 40
0.0932610346514172
 40
0.1267680036421519
 40
0.1524709293266975
 40
0.2359118239957945
 40
0.2829272366971629
 40
0.3334214884507168
 40
0.3888802543993574
 40
0.4521570318843049
 40
0.523401845283553
 40
0.6026123783848201
 40
0.6897573657286606
 40
0.7849851399469573
 40
0.8357102221333402
 40
0.8884385876394333
 40
0.9431852811382381
 40
1.0
 40
1.0
 40
1.0
 40
1.0
 10
139.4627309861064
 20
155.9934271079393
 30
0.0
 10
139.4609637194228
 20
155.992740510531
 30
0.0
 10
139.4544486669953
 20
155.9902093599391
 30
0.0
 10
139.4701938039852
 20
155.9474822799512
 30
0.0
 10
139.4931420029212
 20
155.8687627094157
 30
0.0
 10
139.5240911990103
 20
155.7598253917544
 30
0.0
 10
139.5750889319921
 20
155.5517905774188
 30
0.0
 10
139.6315212287714
 20
155.2630330292643
 30
0.0
 10
139.6975347558472
 20
154.8577387776061
 30
0.0
 10
139.7535889977875
 20
154.4752366258291
 30
0.0
 10
139.8157912376288
 20
154.010568919702
 30
0.0
 10
139.8856996010199
 20
153.4453586083386
 30
0.0
 10
139.9643510411478
 20
152.7700166683931
 30
0.0
 10
140.0518552717351
 20
151.9922710405642
 30
0.0
 10
140.1483904826619
 20
151.132418110573
 30
0.0
 10
140.2344675813705
 20
150.39586645449
 30
0.0
 10
140.3076823769923
 20
149.811801158463
 30
0.0
 10
140.3660696466808
 20
149.3777884931622
 30
0.0
 10
140.4267492579804
 20
148.9641315483206
 30
0.0
 10
140.467940897933
 20
148.7260788822286
 30
0.0
 10
140.4889185047402
 20
148.6048461458179
 30
0.0
  0
SPLINE
  5
C8
330
1F
100
AcDbEntity
  8
0
  6
Continuous
 62
     7
370
    18
100
AcDbSpline
210
0.0
220
0.0
230
1.0
 70
     8
 71
     3
 72
    15
 73
    11
 74
     0
 42
0.000000001
 43
0.00000001
 40
0.0
 40
0.0
 40
0.0
 40
0.0
 40
0.0997372879327471
 40
0.2305875978752856
 40
0.3682482420123767
 40
0.4964526077768746
 40
0.6533793831389996
 40
0.7955283382112721
 40
0.9276150913031809
 40
1.0
 40
1.0
 40
1.0
 40
1.0
 10
130.5571285691971
 20
156.4812264879327
 30
0.0
 10
130.4956286250096
 20
156.468018576633
 30
0.0
 10
130.3534438444366
 20
156.4374825494094
 30
0.0
 10
130.2643387080127
 20
156.3060661416257
 30
0.0
 10
130.1708590176958
 20
156.1165439216326
 30
0.0
 10
130.0871551643167
 20
155.8387701256083
 30
0.0
 10
130.0112758675878
 20
155.4943546525848
 30
0.0
 10
129.9407406910429
 20
155.0840147556892
 30
0.0
 10
129.8848448553808
 20
154.720822775353
 30
0.0
 10
129.8518693880759
 20
154.4703106153815
 30
0.0
 10
129.8401957597148
 20
154.3816269334065
 30
0.0
  0
SPLINE
  5
C9
330
1F
100
AcDbEntity
  8
0
  6
Continuous
 62
     7
370
    18
100
AcDbSpline
210
0.0
220
0.0
230
1.0
 70
     8
 71
     3
 72
    11
 73
     7
 74
     0
 42
0.000000001
 43
0.00000001
 40
0.0
 40
0.0
 40
0.0
 40
0.0
 40
0.0034272735930512
 40
0.4044084287403384
 40
0.7721223877925799
 40
1.0
 40
1.0
 40
1.0
 40
1.0
 10
129.2656212470643
 20
149.5816269334065
 30
0.0
 10
129.2653706182126
 20
149.579682588864
 30
0.0
 10
129.2357971344119
 20
149.3502555238729
 30
0.0
 10
129.1798850385795
 20
148.9901854312982
 30
0.0
 10
129.1065327435975
 20
148.5595507910465
 30
0.0
 10
129.0666069356872
 20
148.3923567504727
 30
0.0
 10
129.0513310348667
 20
148.3283871099006
 30
0.0
  0
SPLINE
  5
CA
330
1F
100
AcDbEntity
  8
0
  6
Continuous
 62
     7
370
    18
100
AcDbSpline
210
0.0
220
0.0
230
1.0
 70
     8
 71
     3
 72
    12
 73
     8
 74
     0
 42
0.000000001
 43
0.00000001
 40
0.0
 40
0.0
 40
0.0
 40
0.0
 40
0.245159684378566
 40
0.4597567543030611
 40
0.6487347236372566
 40
0.8267986492271879
 40
1.0
 40
1.0
 40
1.0
 40
1.0
 10
127.5575631844793
 20
156.4808022924006
 30
0.0
 10
127.4842679686995
 20
156.4641025082547
 30
0.0
 10
127.3468148201596
 20
156.4327848037308
 30
0.0
 10
127.2308361481171
 20
156.2627151596021
 30
0.0
 10
127.1697043142315
 20
156.1136655679715
 30
0.0
 10
127.1157754141334
 20
155.9498801738436
 30
0.0
 10
127.0837286726743
 20
155.8037035043424
 30
0.0
 10
127.0679271139035
 20
155.7316269334065
 30
0.0
  0
SPLINE
  5
CB
330
1F
100
AcDbEntity
  8
0
  6
Continuous
 62
     7
370
    18
100
AcDbSpline
210
0.0
220
0.0
230
1.0
 70
     8
 71
     3
 72
    14
 73
    10
 74
     0
 42
0.000000001
 43
0.00000001
 40
0.0
 40
0.0
 40
0.0
 40
0.0
 40
0.145106812800885
 40
0.2733734189911663
 40
0.4347721265710434
 40
0.5688865245425949
 40
0.7371505812826639
 40
0.9539474350852662
 40
1.0
 40
1.0
 40
1.0
 40
1.0
 10
124.5576686347874
 20
156.4804230536826
 30
0.0
 10
124.5121401444188
 20
156.4745814221841
 30
0.0
 10
124.4263669210027
 20
156.4635761031065
 30
0.0
 10
124.315701252106
 20
156.3805211936604
 30
0.0
 10
124.2368047405036
 20
156.2706218263673
 30
0.0
 10
124.1866283838971
 20
156.158031316361
 30
0.0
 10
124.1354000693091
 20
156.0092039395601
 30
0.0
 10
124.0944680276306
 20
155.8628964078314
 30
0.0
 10
124.0702220581976
 20
155.7511972058962
 30
0.0
 10
124.0659740401244
 20
155.7316269334065
 30
0.0
  0
SPLINE
  5
CC
330
1F
100
AcDbEntity
  8
0
  6
Continuous
 62
     7
370
    18
100
AcDbSpline
210
0.0
220
0.0
230
1.0
 70
     8
 71
     3
 72
    27
 73
    23
 74
     0
 42
0.000000001
 43
0.00000001
 40
0.0
 40
0.0
 40
0.0
 40
0.0
 40
0.0199373541539342
 40
0.0521967675916585
 40
0.0830793545718182
 40
0.1420982825653209
 40
0.1987526176044409
 40
0.2604279081013563
 40
0.3282393795878824
 40
0.3982101554758254
 40
0.4610339902942504
 40
0.5163645865491401
 40
0.5681719980116395
 40
0.6248271148135959
 40
0.6866402725691454
 40
0.7308166046076717
 40
0.7784185010344585
 40
0.831084211715989
 40
0.8741672552570136
 40
0.9205268093211014
 40
0.9650413370986444
 40
1.0
 40
1.0
 40
1.0
 40
1.0
 10
124.4592231160808
 20
155.990840268365
 30
0.0
 10
124.4555785234544
 20
155.9907064569624
 30
0.0
 10
124.4460368383934
 20
155.9903561335127
 30
0.0
 10
124.4850641416322
 20
155.9034366880789
 30
0.0
 10
124.5311917282061
 20
155.7376218531871
 30
0.0
 10
124.5981963764551
 20
155.4453020886842
 30
0.0
 10
124.6814797586285
 20
154.9693659964852
 30
0.0
 10
124.7697850139063
 20
154.3678570441379
 30
0.0
 10
124.8647066330921
 20
153.6239410224969
 30
0.0
 10
124.9602203617103
 20
152.8070399079388
 30
0.0
 10
125.0498776042555
 20
152.01005408727
 30
0.0
 10
125.1308229800636
 20
151.2894827054816
 30
0.0
 10
125.2087620539355
 20
150.6128940210725
 30
0.0
 10
125.2899389517485
 20
149.9439380825153
 30
0.0
 10
125.3678285013629
 20
149.3608570616704
 30
0.0
 10
125.4412129089098
 20
148.8753564532219
 30
0.0
 10
125.5112015330714
 20
148.4710301602859
 30
0.0
 10
125.5866441634867
 20
148.1249654757997
 30
0.0
 10
125.6703257951987
 20
147.8480270440466
 30
0.0
 10
125.7634384540403
 20
147.6590243175244
 30
0.0
 10
125.8554348209498
 20
147.52607769157
 30
0.0
 10
125.9965145833138
 20
147.495662990895
 30
0.0
 10
126.058572741701
 20
147.482284173975
 30
0.0
  0
LWPOLYLINE
  5
CD
330
1F
100
AcDbEntity
  8
0
  6
Continuous
 62
     7
370
    18
100
AcDbPolyline
 90
       21
 70
   128
 43
0.0
 10
127.4529861742
 20
155.9979656845
 10
127.4483428911
 20
155.9985588516
 10
127.4620553483
 20
155.9587490123
 10
127.4901064062
 20
155.8790150941
 10
127.5608055835
 20
155.6080082633
 10
127.6485149913
 20
155.1541453126
 10
127.6980155559
 20
154.8489731342
 10
127.750917114
 20
154.4886274911
 10
127.8538081124
 20
153.7014255724
 10
127.947197015
 20
152.914970304
 10
128.0308496841
 20
152.1788946527
 10
128.1116012027
 20
151.4617311562
 10
128.2022330908
 20
150.6740877055
 10
128.3031012835
 20
149.85191291
 10
128.4091914063
 20
149.0893791704
 10
128.5180555232
 20
148.4524711319
 10
128.6328923374
 20
147.9684344659
 10
128.7876105214
 20
147.6318525969
 10
128.905885031
 20
147.5242312498
 10
129.0582128784
 20
147.4826837673
 10
129.0582128784
 20
147.4826837673
  0
SPLINE
  5
CE
330
1F
100
AcDbEntity
  8
0
  6
Continuous
 62
     7
370
    18
100
AcDbSpline
210
0.0
220
0.0
230
1.0
 70
     8
 71
     3
 72
    37
 73
    33
 74
     0
 42
0.000000001
 43
0.00000001
 40
0.0
 40
0.0
 40
0.0
 40
0.0
 40
0.0146848273609693
 40
0.0585374637760022
 40
0.0927204120631779
 40
0.1252394136193793
 40
0.1611768969205224
 40
0.203070597836744
 40
0.2384129611672758
 40
0.2770984707376535
 40
0.317908977692295
 40
0.3555630203861721
 40
0.3998603713539484
 40
0.4373703404291072
 40
0.4680541365455413
 40
0.4936929924334967
 40
0.5245357859780765
 40
0.5622363099052573
 40
0.5950377089233834
 40
0.6317161288843708
 40
0.6722709751460123
 40
0.7145474748167231
 40
0.7657291718517305
 40
0.8106702011603772
 40
0.8493239334892856
 40
0.8662895291710202
 40
0.8816745146310959
 40
0.8987232980020651
 40
0.916713538680021
 40
0.939499278763927
 40
0.9672639826055877
 40
1.0
 40
1.0
 40
1.0
 40
1.0
 10
130.4678201552192
 20
155.9879306718404
 30
0.0
 10
130.4646030114607
 20
155.9875061940566
 30
0.0
 10
130.4517786566629
 20
155.9858141174472
 30
0.0
 10
130.483289570181
 20
155.9093540687743
 30
0.0
 10
130.5194967871563
 20
155.7779446918295
 30
0.0
 10
130.56850825558
 20
155.5787437783594
 30
0.0
 10
130.6199542820084
 20
155.3211567291767
 30
0.0
 10
130.6737229920256
 20
155.0092584273487
 30
0.0
 10
130.7288505308055
 20
154.6480472099479
 30
0.0
 10
130.7836920683576
 20
154.2545404771878
 30
0.0
 10
130.8397648922384
 20
153.8191090230299
 30
0.0
 10
130.8985118460365
 20
153.3352080601264
 30
0.0
 10
130.9557111290482
 20
152.8432593967125
 30
0.0
 10
131.0095831930868
 20
152.3681600822486
 30
0.0
 10
131.0545511840089
 20
151.9680039994008
 30
0.0
 10
131.0963329709402
 20
151.5963244493922
 30
0.0
 10
131.141491349259
 20
151.19734705889
 30
0.0
 10
131.1901030435077
 20
150.7754049824073
 30
0.0
 10
131.2415237104793
 20
150.3425227231408
 30
0.0
 10
131.2943807126263
 20
149.9157511020541
 30
0.0
 10
131.3518963940549
 20
149.4794668151414
 30
0.0
 10
131.4165125070351
 20
149.0316756057194
 30
0.0
 10
131.4836368401784
 20
148.6232987744598
 30
0.0
 10
131.54984833624
 20
148.2859907521971
 30
0.0
 10
131.6001279911807
 20
148.0770341338214
 30
0.0
 10
131.6370028326286
 20
147.9491982941642
 30
0.0
 10
131.6623719450785
 20
147.8711441386882
 30
0.0
 10
131.6928664218187
 20
147.7895983247149
 30
0.0
 10
131.7410063721556
 20
147.6911660915361
 30
0.0
 10
131.8127688378158
 20
147.5929271678255
 30
0.0
 10
131.919681890294
 20
147.5029653541335
 30
0.0
 10
132.0093104543337
 20
147.4900303317357
 30
0.0
 10
132.0578071031585
 20
147.4830313884246
 30
0.0
  0
SPLINE
  5
CF
330
1F
100
AcDbEntity
  8
0
  6
Continuous
 62
     7
370
    18
100
AcDbSpline
210
0.0
220
0.0
230
1.0
 70
     8
 71
     3
 72
    27
 73
    23
 74
     0
 42
0.000000001
 43
0.00000001
 40
0.0
 40
0.0
 40
0.0
 40
0.0
 40
0.0190013685926715
 40
0.0527148264796944
 40
0.0849567677246881
 40
0.145508750377841
 40
0.2023010843827427
 40
0.2639305242092793
 40
0.3317120486448266
 40
0.4016311381401093
 40
0.4644084340643719
 40
0.5197134016068271
 40
0.5714056001146346
 40
0.6276854449527057
 40
0.6888855256434374
 40
0.7325070800990364
 40
0.77953122535075
 40
0.8317436690044607
 40
0.8745820821677065
 40
0.9207728678575555
 40
0.9651609826307426
 40
0.9999999999999999
 40
0.9999999999999999
 40
0.9999999999999999
 40
0.9999999999999999
 10
132.1477100708344
 20
147.9687148611184
 30
0.0
 10
132.1511548530846
 20
147.9684051499005
 30
0.0
 10
132.1607115909423
 20
147.9675459289961
 30
0.0
 10
132.1192436167584
 20
148.0579062308577
 30
0.0
 10
132.0714118446605
 20
148.2313400112859
 30
0.0
 10
132.0026965382184
 20
148.5335737529555
 30
0.0
 10
131.9185796143055
 20
149.0187831894682
 30
0.0
 10
131.830113585874
 20
149.6261670879667
 30
0.0
 10
131.7352203757076
 20
150.3735985960835
 30
0.0
 10
131.6396765730109
 20
151.1925619463272
 30
0.0
 10
131.5499974498823
 20
151.9904167395665
 30
0.0
 10
131.4691100565951
 20
152.710130738999
 30
0.0
 10
131.391357029619
 20
153.3838141979636
 30
0.0
 10
131.3106185755804
 20
154.0466502750092
 30
0.0
 10
131.2334296742911
 20
154.6217085323873
 30
0.0
 10
131.1608346310039
 20
155.1001568307308
 30
0.0
 10
131.0915363614568
 20
155.499163103683
 30
0.0
 10
131.0166206553388
 20
155.8413116921332
 30
0.0
 10
130.9333100447545
 20
156.1160166655357
 30
0.0
 10
130.8404164674345
 20
156.3044726287285
 30
0.0
 10
130.7486315022419
 20
156.4373752029202
 30
0.0
 10
130.6075964047143
 20
156.4678338783494
 30
0.0
 10
130.5455782036314
 20
156.4812276525986
 30
0.0
  0
LWPOLYLINE
  5
D0
330
1F
100
AcDbEntity
  8
0
  6
Continuous
 62
     7
370
    18
100
AcDbPolyline
 90
       26
 70
   128
 43
0.0
 10
129.1495224905
 20
147.9666693143
 10
129.1548704569
 20
147.9662821897
 10
129.1395487986
 20
148.010543691
 10
129.109696069
 20
148.0977989284
 10
129.0357681896
 20
148.3898726936
 10
128.9458622605
 20
148.8665184182
 10
128.8957806751
 20
149.1815836045
 10
128.8448066295
 20
149.5343792902
 10
128.7556920405
 20
150.2179543675
 10
128.7062266766
 20
150.6261728712
 10
128.6645430314
 20
150.981788796
 10
128.6188380333
 20
151.3804860357
 10
128.5777663231
 20
151.743703627
 10
128.5308533715
 20
152.1608130777
 10
128.4780791389
 20
152.628192183
 10
128.419420626
 20
153.1388289042
 10
128.3555773117
 20
153.6753276116
 10
128.2926689999
 20
154.1748372231
 10
128.231969059
 20
154.6206698816
 10
128.1732987889
 20
155.0116239543
 10
128.0611404288
 20
155.6318669107
 10
127.9535692503
 20
156.0504075863
 10
127.8080214136
 20
156.3431243035
 10
127.6940477107
 20
156.4418102988
 10
127.5460070425
 20
156.4808240933
 10
127.5460070425
 20
156.4808240933
  0
LWPOLYLINE
  5
D1
330
1F
100
AcDbEntity
  8
0
  6
Continuous
 62
     7
370
    18
100
AcDbPolyline
 90
       22
 70
   128
 43
0.0
 10
126.1321426164
 20
147.9772370278
 10
126.1277618633
 20
148.0119376385
 10
126.0923234982
 20
148.140655962
 10
126.0473332719
 20
148.3321019181
 10
125.9983360176
 20
148.5727580666
 10
125.9493282335
 20
148.8461976955
 10
125.8567255
 20
149.4494617556
 10
125.7706205017
 20
150.0982046303
 10
125.6912038451
 20
150.753129976
 10
125.6173473171
 20
151.3936422417
 10
125.5361321796
 20
152.1140375661
 10
125.4441729233
 20
152.9249790569
 10
125.3431402603
 20
153.7766572703
 10
125.2475857767
 20
154.510661196
 10
125.1606874519
 20
155.0921231242
 10
125.0787671238
 20
155.5498642037
 10
124.986357479
 20
155.9452744052
 10
124.9337611015
 20
156.1104275641
 10
124.8686524177
 20
156.2575361096
 10
124.7502306138
 20
156.4044666835
 10
124.5461266829
 20
156.4804418345
 10
124.5461266829
 20
156.4804418345
  0
SPLINE
  5
D2
330
1F
100
AcDbEntity
  8
0
  6
Continuous
 62
     7
370
    18
100
AcDbSpline
210
0.0
220
0.0
230
1.0
 70
     8
 71
     3
 72
    12
 73
     8
 74
     0
 42
0.000000001
 43
0.00000001
 40
0.0
 40
0.0
 40
0.0
 40
0.0
 40
0.1827004243932764
 40
0.4225316248618322
 40
0.6745923407851321
 40
0.9088606193095649
 40
1.0
 40
1.0
 40
1.0
 40
1.0
 10
126.0470252618003
 20
147.4822839412483
 30
0.0
 10
126.1084881437537
 20
147.4954925411312
 30
0.0
 10
126.2506334697248
 20
147.5260400956277
 30
0.0
 10
126.3396563555504
 20
147.6558960011895
 30
0.0
 10
126.4325407977364
 20
147.8484570668078
 30
0.0
 10
126.4960647446475
 20
148.0454064817666
 30
0.0
 10
126.5273726857166
 20
148.190882395555
 30
0.0
 10
126.5361413372186
 20
148.2316269334065
 30
0.0
  0
SPLINE
  5
D3
330
1F
100
AcDbEntity
  8
0
  6
Continuous
 62
     7
370
    18
100
AcDbSpline
210
0.0
220
0.0
230
1.0
 70
     8
 71
     3
 72
     9
 73
     5
 74
     0
 42
0.000000001
 43
0.00000001
 40
0.0
 40
0.0
 40
0.0
 40
0.0
 40
0.1072091911683279
 40
1.0
 40
1.0
 40
1.0
 40
1.0
 10
127.4959646279264
 20
155.3734039737389
 30
0.0
 10
127.4981255413891
 20
155.3858598203653
 30
0.0
 10
127.5182815880789
 20
155.5020424581663
 30
0.0
 10
127.5367168052311
 20
155.5734784363358
 30
0.0
 10
127.5531755976634
 20
155.6372558210654
 30
0.0
  0
SPLINE
  5
D4
330
1F
100
AcDbEntity
  8
0
  6
Continuous
 62
     7
370
    18
100
AcDbSpline
210
0.0
220
0.0
230
1.0
 70
     8
 71
     3
 72
    15
 73
    11
 74
     0
 42
0.000000001
 43
0.00000001
 40
0.0
 40
0.0
 40
0.0
 40
0.0
 40
0.1311888253804965
 40
0.2450071405588916
 40
0.344236797438329
 40
0.4378712008335522
 40
0.61500712720646
 40
0.7817535216260088
 40
0.961129055629003
 40
1.0
 40
1.0
 40
1.0
 40
1.0
 10
129.0466464232681
 20
147.4826948022009
 30
0.0
 10
129.1197990560173
 20
147.4992842056878
 30
0.0
 10
129.2564182941441
 20
147.5302664353107
 30
0.0
 10
129.3720381282124
 20
147.6987209108585
 30
0.0
 10
129.4324710319608
 20
147.8426396955423
 30
0.0
 10
129.5008376565415
 20
148.0576537060885
 30
0.0
 10
129.57578938673
 20
148.3792143374988
 30
0.0
 10
129.6606699731372
 20
148.8581024001558
 30
0.0
 10
129.7229044393635
 20
149.2617290330826
 30
0.0
 10
129.7580000724396
 20
149.5332648529409
 30
0.0
 10
129.7642508051484
 20
149.5816269334065
 30
0.0
  0
SPLINE
  5
D5
330
1F
100
AcDbEntity
  8
0
  6
Continuous
 62
     7
370
    18
100
AcDbSpline
210
0.0
220
0.0
230
1.0
 70
     8
 71
     3
 72
    13
 73
     9
 74
     0
 42
0.000000001
 43
0.00000001
 40
0.0
 40
0.0
 40
0.0
 40
0.0
 40
0.0742019850636818
 40
0.2822937016575987
 40
0.4986525726117612
 40
0.7310058074137932
 40
0.9818220160892935
 40
1.0
 40
1.0
 40
1.0
 40
1.0
 10
130.3391937171981
 20
154.3816269334065
 30
0.0
 10
130.3446702611007
 20
154.4234453624307
 30
0.0
 10
130.365505200344
 20
154.5825392076508
 30
0.0
 10
130.4020232602823
 20
154.8255113392557
 30
0.0
 10
130.4506232091436
 20
155.132066012203
 30
0.0
 10
130.4998444509993
 20
155.4032878814303
 30
0.0
 10
130.5348154710049
 20
155.577667368924
 30
0.0
 10
130.5498463413676
 20
155.6410241141194
 30
0.0
 10
130.5508620916222
 20
155.6453056113656
 30
0.0
  0
SPLINE
  5
D6
330
1F
100
AcDbEntity
  8
0
  6
Continuous
 62
     7
370
    18
100
AcDbSpline
210
0.0
220
0.0
230
1.0
 70
     8
 71
     3
 72
    11
 73
     7
 74
     0
 42
0.000000001
 43
0.00000001
 40
0.0
 40
0.0
 40
0.0
 40
0.0
 40
0.2544608547922004
 40
0.5069899300203553
 40
0.7559341298819956
 40
1.0
 40
1.0
 40
1.0
 40
1.0
 10
132.0462487802544
 20
147.4830469798703
 30
0.0
 10
132.0925488745619
 20
147.4904863220389
 30
0.0
 10
132.1847975687355
 20
147.505308529441
 30
0.0
 10
132.3146947642979
 20
147.6359598098179
 30
0.0
 10
132.4295549685331
 20
147.8322619135505
 30
0.0
 10
132.484373351721
 20
148.019167139967
 30
0.0
 10
132.5115113296365
 20
148.1116950404962
 30
0.0
  0
SPLINE
  5
D7
330
1F
100
AcDbEntity
  8
0
  6
Continuous
 62
     7
370
    18
100
AcDbSpline
210
0.0
220
0.0
230
1.0
 70
     8
 71
     3
 72
    18
 73
    14
 74
     0
 42
0.000000001
 43
0.00000001
 40
0.0
 40
0.0
 40
0.0
 40
0.0
 40
0.1119220139163738
 40
0.2160019714599706
 40
0.3123132019978189
 40
0.4008074268184076
 40
0.5064591765206595
 40
0.5979743596675112
 40
0.6753344605808638
 40
0.7646405529091467
 40
0.8339241904032819
 40
0.9116394007221512
 40
1.0
 40
1.0
 40
1.0
 40
1.0
 10
149.4509731001145
 20
152.8662968546261
 30
0.0
 10
149.4259676434511
 20
153.0823507711225
 30
0.0
 10
149.3777087911705
 20
153.4993203222578
 30
0.0
 10
149.3076725386115
 20
154.0647442073635
 30
0.0
 10
149.2427070506091
 20
154.5505132945625
 30
0.0
 10
149.1770830795653
 20
154.9961457737711
 30
0.0
 10
149.1118936253467
 20
155.3846909537959
 30
0.0
 10
149.0483742332591
 20
155.7011863960276
 30
0.0
 10
148.9868815319363
 20
155.9499060256769
 30
0.0
 10
148.9296997489641
 20
156.1301273002678
 30
0.0
 10
148.8616599871134
 20
156.2816082674554
 30
0.0
 10
148.7469088377504
 20
156.437554024726
 30
0.0
 10
148.6160483730506
 20
156.4662794134785
 30
0.0
 10
148.5464240905573
 20
156.4815627504728
 30
0.0
  0
LWPOLYLINE
  5
D8
330
1F
100
AcDbEntity
  8
0
  6
Continuous
 62
     7
370
    18
100
AcDbPolyline
 90
       26
 70
   128
 43
0.0
 10
147.1493625173
 20
147.966617608
 10
147.154671323
 20
147.9662039243
 10
147.1394750437
 20
148.0102847808
 10
147.1096991199
 20
148.0977199865
 10
147.0350755879
 20
148.3934193056
 10
146.9433272548
 20
148.8814214402
 10
146.8918927643
 20
149.2069972664
 10
146.8394547012
 20
149.5730936465
 10
146.7482723151
 20
150.2782945091
 10
146.6980929262
 20
150.6949317211
 10
146.6562212823
 20
151.0537481505
 10
146.6105064275
 20
151.4537095123
 10
146.5694263987
 20
151.8176029538
 10
146.5225035134
 20
152.2349434022
 10
146.4697167538
 20
152.7018006789
 10
146.4110419222
 20
153.2107766982
 10
146.3471769244
 20
153.7440285314
 10
146.2842197469
 20
154.2389118916
 10
146.2234126576
 20
154.679904202
 10
146.1645393468
 20
155.0661128647
 10
146.0514816781
 20
155.67601289
 10
145.9419461003
 20
156.0829350368
 10
145.7966379676
 20
156.357264663
 10
145.6866711632
 20
156.4465329411
 10
145.5465058042
 20
156.4813351193
 10
145.5465058042
 20
156.4813351193
  0
LWPOLYLINE
  5
D9
330
1F
100
AcDbEntity
  8
0
  6
Continuous
 62
     7
370
    18
100
AcDbPolyline
 90
       22
 70
   128
 43
0.0
 10
144.1321991013
 20
147.977313063
 10
144.1276898988
 20
148.0117107927
 10
144.0917748106
 20
148.1421000375
 10
144.0460874711
 20
148.3377514207
 10
143.9961671024
 20
148.5842986509
 10
143.946011549
 20
148.8658493484
 10
143.8510578026
 20
149.4894268705
 10
143.7633325616
 20
150.1565353336
 10
143.6830518528
 20
150.8227870367
 10
143.6090384482
 20
151.4668024728
 10
143.5278111699
 20
152.1878452393
 10
143.4358354692
 20
152.9973887504
 10
143.3347777195
 20
153.8443577609
 10
143.239176273
 20
154.5704860472
 10
143.1521894601
 20
155.1438883692
 10
143.0704985761
 20
155.5911382485
 10
142.9801496929
 20
155.9671259937
 10
142.9294148817
 20
156.1219731398
 10
142.8664675177
 20
156.261430082
 10
142.7494324957
 20
156.4053652986
 10
142.5458011727
 20
156.4809336768
 10
142.5458011727
 20
156.4809336768
  0
SPLINE
  5
DA
330
1F
100
AcDbEntity
  8
0
  6
Continuous
 62
     7
370
    18
100
AcDbSpline
210
0.0
220
0.0
230
1.0
 70
     8
 71
     3
 72
    12
 73
     8
 74
     0
 42
0.000000001
 43
0.00000001
 40
0.0
 40
0.0
 40
0.0
 40
0.0
 40
0.1869521406782654
 40
0.3582298419229815
 40
0.550624574538929
 40
0.7644483223412604
 40
1.0
 40
1.0
 40
1.0
 40
1.0
 10
141.1125105129599
 20
147.994899026463
 30
0.0
 10
141.1165069227107
 20
148.0016383148491
 30
0.0
 10
141.1241646752675
 20
148.0145518562744
 30
0.0
 10
141.1024027215414
 20
148.0962660230184
 30
0.0
 10
141.0733676631363
 20
148.2170822667767
 30
0.0
 10
141.0317927279441
 20
148.4001804479238
 30
0.0
 10
140.9989454941858
 20
148.572261021438
 30
0.0
 10
140.9817277724774
 20
148.6624614763074
 30
0.0
  0
SPLINE
  5
DB
330
1F
100
AcDbEntity
  8
0
  6
Continuous
 62
     7
370
    18
100
AcDbSpline
210
0.0
220
0.0
230
1.0
 70
     8
 71
     3
 72
    14
 73
    10
 74
     0
 42
0.000000001
 43
0.00000001
 40
0.0
 40
0.0
 40
0.0
 40
0.0
 40
0.1067597394042073
 40
0.1998718479229205
 40
0.355373689019219
 40
0.5217752588246267
 40
0.7103308038649931
 40
0.9211971908858805
 40
1.0
 40
1.0
 40
1.0
 40
1.0
 10
141.0464415354897
 20
147.4824417446166
 30
0.0
 10
141.1078923410917
 20
147.4935289473112
 30
0.0
 10
141.2229383887926
 20
147.5142860201858
 30
0.0
 10
141.3634978074285
 20
147.6725689683558
 30
0.0
 10
141.4411547023194
 20
147.8588323065721
 30
0.0
 10
141.5322224681283
 20
148.175995691209
 30
0.0
 10
141.6262183383167
 20
148.6479346668368
 30
0.0
 10
141.7040733689005
 20
149.1281879323625
 30
0.0
 10
141.7507369681482
 20
149.4846527629535
 30
0.0
 10
141.7634315271594
 20
149.5816269334065
 30
0.0
  0
SPLINE
  5
DC
330
1F
100
AcDbEntity
  8
0
  6
Continuous
 62
     7
370
    18
100
AcDbSpline
210
0.0
220
0.0
230
1.0
 70
     8
 71
     3
 72
    10
 73
     6
 74
     0
 42
0.000000001
 43
0.00000001
 40
0.0
 40
0.0
 40
0.0
 40
0.0
 40
0.1821959487011999
 40
0.6613244603929435
 40
1.0
 40
1.0
 40
1.0
 40
1.0
 10
142.3402159903017
 20
154.3816269334065
 30
0.0
 10
142.3535367123908
 20
154.4817764793603
 30
0.0
 10
142.4018875094879
 20
154.8452935877738
 30
0.0
 10
142.4742167128574
 20
155.290325865763
 30
0.0
 10
142.5293707667077
 20
155.5317993472884
 30
0.0
 10
142.5522116036045
 20
155.6318002723591
 30
0.0
  0
SPLINE
  5
DD
330
1F
100
AcDbEntity
  8
0
  6
Continuous
 62
     7
370
    18
100
AcDbSpline
210
0.0
220
0.0
230
1.0
 70
     8
 71
     3
 72
    18
 73
    14
 74
     0
 42
0.000000001
 43
0.00000001
 40
0.0
 40
0.0
 40
0.0
 40
0.0
 40
0.0767020824020509
 40
0.183193347845414
 40
0.3134010860770071
 40
0.4231238018913888
 40
0.5044711646309608
 40
0.5769020873849786
 40
0.6595196839793718
 40
0.752277847970703
 40
0.8551619157636976
 40
0.9682072942417186
 40
1.0
 40
1.0
 40
1.0
 40
1.0
 10
144.0467761709855
 20
147.482783785197
 30
0.0
 10
144.0955109450164
 20
147.4905140198176
 30
0.0
 10
144.2119078684327
 20
147.5089767201177
 30
0.0
 10
144.3174388709658
 20
147.617321110035
 30
0.0
 10
144.4076828492762
 20
147.7727593895658
 30
0.0
 10
144.475096698633
 20
147.9707044246545
 30
0.0
 10
144.521867271848
 20
148.1500383668924
 30
0.0
 10
144.5602739183214
 20
148.3200872628236
 30
0.0
 10
144.6009906300842
 20
148.5234179157891
 30
0.0
 10
144.646204825744
 20
148.7771774343794
 30
0.0
 10
144.6962392911649
 20
149.0931864484394
 30
0.0
 10
144.7362583910499
 20
149.3655749601619
 30
0.0
 10
144.7595915108197
 20
149.5427386013435
 30
0.0
 10
144.7647132508315
 20
149.5816269334065
 30
0.0
  0
SPLINE
  5
DE
330
1F
100
AcDbEntity
  8
0
  6
Continuous
 62
     7
370
    18
100
AcDbSpline
210
0.0
220
0.0
230
1.0
 70
     8
 71
     3
 72
    12
 73
     8
 74
     0
 42
0.000000001
 43
0.00000001
 40
0.0
 40
0.0
 40
0.0
 40
0.0
 40
0.2061787008549125
 40
0.4713409152812998
 40
0.7123040913682138
 40
0.9292395477028829
 40
0.9999999999999999
 40
0.9999999999999999
 40
0.9999999999999999
 40
0.9999999999999999
 10
145.3388966121049
 20
154.3816269334065
 30
0.0
 10
145.3536737284219
 20
154.488893214924
 30
0.0
 10
145.387455392101
 20
154.7341124693845
 30
0.0
 10
145.4382692636814
 20
155.0585916058275
 30
0.0
 10
145.4893917795098
 20
155.348375698081
 30
0.0
 10
145.5265163023072
 20
155.5356031094232
 30
0.0
 10
145.5461358694083
 20
155.6166224719499
 30
0.0
 10
145.5509614140209
 20
155.6365496470164
 30
0.0
  0
SPLINE
  5
DF
330
1F
100
AcDbEntity
  8
0
  6
Continuous
 62
     7
370
    18
100
AcDbSpline
210
0.0
220
0.0
230
1.0
 70
     8
 71
     3
 72
    13
 73
     9
 74
     0
 42
0.000000001
 43
0.00000001
 40
0.0
 40
0.0
 40
0.0
 40
0.0
 40
0.1857273752462461
 40
0.344180773126352
 40
0.4795985785627615
 40
0.6077529185493667
 40
0.8541861976276036
 40
1.0
 40
1.0
 40
1.0
 40
1.0
 10
147.0466401038604
 20
147.4830302850372
 30
0.0
 10
147.1194947347881
 20
147.4994785117055
 30
0.0
 10
147.2545053284892
 20
147.5299595507218
 30
0.0
 10
147.3694207849594
 20
147.6942023287952
 30
0.0
 10
147.4282949064134
 20
147.8308181454183
 30
0.0
 10
147.4945781769379
 20
148.0355248483241
 30
0.0
 10
147.5574101446458
 20
148.2903473048944
 30
0.0
 10
147.6020726385289
 20
148.5420143973248
 30
0.0
 10
147.6186754594663
 20
148.6355690403411
 30
0.0
  0
SPLINE
  5
E0
330
1F
100
AcDbEntity
  8
0
  6
Continuous
 62
     7
370
    18
100
AcDbSpline
210
0.0
220
0.0
230
1.0
 70
     8
 71
     3
 72
    12
 73
     8
 74
     0
 42
0.000000001
 43
0.00000001
 40
0.0
 40
0.0
 40
0.0
 40
0.0
 40
0.1743573431132689
 40
0.3984445285413593
 40
0.6411694700598234
 40
0.869085567788665
 40
1.0
 40
1.0
 40
1.0
 40
1.0
 10
148.5579715316675
 20
156.481548671037
 30
0.0
 10
148.4996951372417
 20
156.4698673576153
 30
0.0
 10
148.3665208751919
 20
156.4431730106152
 30
0.0
 10
148.274552819425
 20
156.3228027129156
 30
0.0
 10
148.1867728449496
 20
156.150615930283
 30
0.0
 10
148.1185689062261
 20
155.9599139913996
 30
0.0
 10
148.0846152427136
 20
155.7964686871596
 30
0.0
 10
148.0722277109699
 20
155.7368378937437
 30
0.0
  0
SPLINE
  5
E1
330
1F
100
AcDbEntity
  8
0
  6
Continuous
 62
     7
370
    18
100
AcDbSpline
210
0.0
220
0.0
230
1.0
 70
     8
 71
     3
 72
    12
 73
     8
 74
     0
 42
0.000000001
 43
0.00000001
 40
0.0
 40
0.0
 40
0.0
 40
0.0
 40
0.1211867207791579
 40
0.5465512945374961
 40
0.7602298718007028
 40
0.978452677634171
 40
1.0
 40
1.0
 40
1.0
 40
1.0
 10
147.2645114769369
 20
149.5816269334065
 30
0.0
 10
147.2557538201474
 20
149.5151915572037
 30
0.0
 10
147.2162568470082
 20
149.2155684579626
 30
0.0
 10
147.1612207359853
 20
148.8745984851945
 30
0.0
 10
147.1017409530536
 20
148.5473641696055
 30
0.0
 10
147.0672558324628
 20
148.3836985912696
 30
0.0
 10
147.0541522272851
 20
148.3275401758011
 30
0.0
 10
147.0529746510498
 20
148.3224934108402
 30
0.0
  0
SPLINE
  5
E2
330
1F
100
AcDbEntity
  8
0
  6
Continuous
 62
     7
370
    18
100
AcDbSpline
210
0.0
220
0.0
230
1.0
 70
     8
 71
     3
 72
    15
 73
    11
 74
     0
 42
0.000000001
 43
0.00000001
 40
0.0
 40
0.0
 40
0.0
 40
0.0
 40
0.0913721043707422
 40
0.1712511426804251
 40
0.2986002055674167
 40
0.4055398783987036
 40
0.5049885603623149
 40
0.6820344524623688
 40
0.8426973158009374
 40
1.0
 40
1.0
 40
1.0
 40
1.0
 10
145.5580205507768
 20
156.4812989003843
 30
0.0
 10
145.5057601284115
 20
156.473565249778
 30
0.0
 10
145.4078127613387
 20
156.4590707110723
 30
0.0
 10
145.2761764484333
 20
156.3398158724096
 30
0.0
 10
145.1985915164759
 20
156.1937121958635
 30
0.0
 10
145.1388839696736
 20
156.0226815126278
 30
0.0
 10
145.0693468499511
 20
155.7698138378194
 30
0.0
 10
144.9962238565012
 20
155.415131531249
 30
0.0
 10
144.9161144754401
 20
154.9358513266918
 30
0.0
 10
144.8647397034013
 20
154.5650622629546
 30
0.0
 10
144.8393237751525
 20
154.3816269334065
 30
0.0
  0
SPLINE
  5
E3
330
1F
100
AcDbEntity
  8
0
  6
Continuous
 62
     7
370
    18
100
AcDbSpline
210
0.0
220
0.0
230
1.0
 70
     8
 71
     3
 72
    10
 73
     6
 74
     0
 42
0.000000001
 43
0.00000001
 40
0.0
 40
0.0
 40
0.0
 40
0.0
 40
0.2802675147760896
 40
0.7485380104018426
 40
1.0
 40
1.0
 40
1.0
 40
1.0
 10
144.2639748396618
 20
149.5816269334065
 30
0.0
 10
144.2434711749069
 20
149.4317342715085
 30
0.0
 10
144.1887100213216
 20
149.0314012004402
 30
0.0
 10
144.1145736618478
 20
148.5943829424529
 30
0.0
 10
144.0662419163752
 20
148.3938266614518
 30
0.0
 10
144.0493556466475
 20
148.3237557913962
 30
0.0
  0
SPLINE
  5
E4
330
1F
100
AcDbEntity
  8
0
  6
Continuous
 62
     7
370
    18
100
AcDbSpline
210
0.0
220
0.0
230
1.0
 70
     8
 71
     3
 72
    14
 73
    10
 74
     0
 42
0.000000001
 43
0.00000001
 40
0.0
 40
0.0
 40
0.0
 40
0.0
 40
0.106834009836672
 40
0.2006535361310895
 40
0.3569103480269252
 40
0.5208833261074978
 40
0.7059689106249379
 40
0.9123406640028298
 40
1.0
 40
1.0
 40
1.0
 40
1.0
 10
142.5573225134326
 20
156.4809209685304
 30
0.0
 10
142.4973685265192
 20
156.4702782261746
 30
0.0
 10
142.384764127436
 20
156.4502892367967
 30
0.0
 10
142.2430040195357
 20
156.2944419247838
 30
0.0
 10
142.1616941774859
 20
156.1019375834783
 30
0.0
 10
142.0722718551587
 20
155.7880000810757
 30
0.0
 10
141.9796818614598
 20
155.3263265392429
 30
0.0
 10
141.9018907951112
 20
154.8462688541283
 30
0.0
 10
141.8545479660283
 20
154.4883369778285
 30
0.0
 10
141.8404336729769
 20
154.3816269334065
 30
0.0
  0
SPLINE
  5
E5
330
1F
100
AcDbEntity
  8
0
  6
Continuous
 62
     7
370
    18
100
AcDbSpline
210
0.0
220
0.0
230
1.0
 70
     8
 71
     3
 72
    11
 73
     7
 74
     0
 42
0.000000001
 43
0.00000001
 40
0.0
 40
0.0
 40
0.0
 40
0.0
 40
0.2384863874647516
 40
0.5125133465660289
 40
0.7725415259459347
 40
1.0
 40
1.0
 40
1.0
 40
1.0
 10
141.2652795749947
 20
149.5816269334065
 30
0.0
 10
141.247788052318
 20
149.4554056691155
 30
0.0
 10
141.2101983226953
 20
149.1841529437199
 30
0.0
 10
141.1544008662636
 20
148.8344251739286
 30
0.0
 10
141.1003091223969
 20
148.5326841966598
 30
0.0
 10
141.0674004428589
 20
148.3841605256572
 30
0.0
 10
141.0520454419002
 20
148.3148602333739
 30
0.0
  0
SPLINE
  5
E6
330
1F
100
AcDbEntity
  8
0
  6
Continuous
 62
     7
370
    18
100
AcDbSpline
210
0.0
220
0.0
230
1.0
 70
     8
 71
     3
 72
    11
 73
     7
 74
     0
 42
0.000000001
 43
0.00000001
 40
0.0
 40
0.0
 40
0.0
 40
0.0
 40
0.2868207367439671
 40
0.5486847770015575
 40
0.7867725342504185
 40
0.9999999999999999
 40
0.9999999999999999
 40
0.9999999999999999
 40
0.9999999999999999
 10
140.4888312934622
 20
148.6049115504427
 30
0.0
 10
140.5224038038893
 20
148.4313041099942
 30
0.0
 10
140.5866276309605
 20
148.0991950692404
 30
0.0
 10
140.7028533362592
 20
147.7604367928996
 30
0.0
 10
140.8476129569134
 20
147.5324440197661
 30
0.0
 10
140.9904670953667
 20
147.4984684682878
 30
0.0
 10
141.0579596689872
 20
147.4824164488344
 30
0.0
  0
SPLINE
  5
E7
330
1F
100
AcDbEntity
  8
0
  6
Continuous
 62
     7
370
    18
100
AcDbSpline
210
0.0
220
0.0
230
1.0
 70
     8
 71
     3
 72
    27
 73
    23
 74
     0
 42
0.000000001
 43
0.00000001
 40
0.0
 40
0.0
 40
0.0
 40
0.0
 40
0.0198199454197534
 40
0.0500454005666854
 40
0.0790989063578923
 40
0.1360383675737084
 40
0.1924880260969381
 40
0.2542245913224446
 40
0.3220597346973234
 40
0.3920736291987241
 40
0.4549625954589536
 40
0.510312614180739
 40
0.5623110530688257
 40
0.6197030227797
 40
0.6827662119200492
 40
0.7280608025226804
 40
0.7768218784524951
 40
0.8303917088410574
 40
0.8739621005412839
 40
0.9206365091137085
 40
0.9652518861764671
 40
1.0
 40
1.0
 40
1.0
 40
1.0
 10
142.4605742138824
 20
155.9889511765948
 30
0.0
 10
142.4567585197865
 20
155.9886668302697
 30
0.0
 10
142.4471238848053
 20
155.9879488552482
 30
0.0
 10
142.4827646308166
 20
155.9083064023673
 30
0.0
 10
142.5263027770579
 20
155.7560904485405
 30
0.0
 10
142.5911806304476
 20
155.480476094899
 30
0.0
 10
142.6733975328007
 20
155.019517657494
 30
0.0
 10
142.7614743256632
 20
154.4283125143438
 30
0.0
 10
142.8564325353301
 20
153.6925124149191
 30
0.0
 10
142.9519382118986
 20
152.8795865337976
 30
0.0
 10
143.0415192154522
 20
152.0845089154336
 30
0.0
 10
143.1225785131336
 20
151.3622984285478
 30
0.0
 10
143.2009253427316
 20
150.6797937481388
 30
0.0
 10
143.2830276689949
 20
149.9987866451448
 30
0.0
 10
143.362333563113
 20
149.3989960827842
 30
0.0
 10
143.4373778710493
 20
148.8987031391535
 30
0.0
 10
143.5088034060876
 20
148.4835898379634
 30
0.0
 10
143.5853590009525
 20
148.130472524093
 30
0.0
 10
143.669733211631
 20
147.8487594212841
 30
0.0
 10
143.7633827364968
 20
147.6588388493273
 30
0.0
 10
143.8548571130478
 20
147.5266039350331
 30
0.0
 10
143.996362969931
 20
147.496125055115
 30
0.0
 10
144.0583191864073
 20
147.4827803348063
 30
0.0
  0
SPLINE
  5
E8
330
1F
100
AcDbEntity
  8
0
  6
Continuous
 62
     7
370
    18
100
AcDbSpline
210
0.0
220
0.0
230
1.0
 70
     8
 71
     3
 72
    26
 73
    22
 74
     0
 42
0.000000001
 43
0.00000001
 40
0.0
 40
0.0
 40
0.0
 40
0.0
 40
0.0101472313169439
 40
0.0389650202502992
 40
0.0678207478903373
 40
0.1315274913531683
 40
0.2033459538783565
 40
0.2420383212738254
 40
0.2795058592760891
 40
0.3484111181006684
 40
0.4094326111086879
 40
0.4629610087322031
 40
0.518967709098648
 40
0.5813655037331529
 40
0.6497695435891802
 40
0.7195813410121954
 40
0.7897037498685544
 40
0.8601582104942862
 40
0.9299204136301515
 40
0.9649127839651586
 40
1.0
 40
1.0
 40
1.0
 40
1.0
 10
145.4568873323863
 20
155.9945975543478
 30
0.0
 10
145.4540311440354
 20
155.9950964566367
 30
0.0
 10
145.4430634787227
 20
155.9970122243158
 30
0.0
 10
145.4705663729218
 20
155.9439456596453
 30
0.0
 10
145.5157644864773
 20
155.7992635958118
 30
0.0
 10
145.5890795465823
 20
155.4999307350134
 30
0.0
 10
145.6699092682527
 20
155.0395234993729
 30
0.0
 10
145.7398675799345
 20
154.5719429497149
 30
0.0
 10
145.8085255112817
 20
154.0700502660357
 30
0.0
 10
145.8881770956803
 20
153.4275188341985
 30
0.0
 10
145.9753902544462
 20
152.6723586821837
 30
0.0
 10
146.0565502927355
 20
151.9501903308011
 30
0.0
 10
146.1384494558479
 20
151.2215939245665
 30
0.0
 10
146.2274002177496
 20
150.4531701849783
 30
0.0
 10
146.3230134161037
 20
149.6837757341624
 30
0.0
 10
146.4226952566613
 20
148.9776312445642
 30
0.0
 10
146.5270508234652
 20
148.3837476249776
 30
0.0
 10
146.6287417292284
 20
147.943623523988
 30
0.0
 10
146.7450047949237
 20
147.6636985376419
 30
0.0
 10
146.8999411232928
 20
147.5090070792093
 30
0.0
 10
147.005404108931
 20
147.4917002008011
 30
0.0
 10
147.0582069685431
 20
147.4830350500339
 30
0.0
  0
SPLINE
  5
E9
330
1F
100
AcDbEntity
  8
0
  6
Continuous
 62
     7
370
    18
100
AcDbSpline
210
0.0
220
0.0
230
1.0
 70
     8
 71
     3
 72
    17
 73
    13
 74
     0
 42
0.000000001
 43
0.00000001
 40
0.0
 40
0.0
 40
0.0
 40
0.0
 40
0.0066885603819883
 40
0.0820343971549512
 40
0.1924455718942717
 40
0.3388864424636864
 40
0.4258896997142108
 40
0.5221506225417558
 40
0.6277054260640393
 40
0.7425188153867318
 40
0.866570618597384
 40
0.9999999999999999
 40
0.9999999999999999
 40
0.9999999999999999
 40
0.9999999999999999
 10
148.4559514559649
 20
156.0033071325927
 30
0.0
 10
148.4549865853324
 20
156.003626454454
 30
0.0
 10
148.443152561843
 20
156.0075428990838
 30
0.0
 10
148.4760833028878
 20
155.9563581767416
 30
0.0
 10
148.5133630715404
 20
155.8213399535424
 30
0.0
 10
148.5740155265921
 20
155.5760925760271
 30
0.0
 10
148.6316467187749
 20
155.2687083027104
 30
0.0
 10
148.6842923942344
 20
154.9523485349852
 30
0.0
 10
148.7429392466389
 20
154.5564815689532
 30
0.0
 10
148.8077154302051
 20
154.0750948240822
 30
0.0
 10
148.878431776265
 20
153.5071243374865
 30
0.0
 10
148.9276472878431
 20
153.0833455004502
 30
0.0
 10
148.9531512689404
 20
152.8637389759494
 30
0.0
  0
LINE
  5
EA
330
1F
100
AcDbEntity
  8
0
  6
Continuous
 62
     7
370
    18
100
AcDbLine
 10
161.0697009631
 20
143.8987231648
 30
0.0
 11
161.5505781782
 21
144.7316269334
 31
0.0
  0
LINE
  5
EB
330
1F
100
AcDbEntity
  8
0
  6
Continuous
 62
     7
370
    18
100
AcDbLine
 10
158.5505781782
 20
144.7316269334
 30
0.0
 11
159.0314553932
 21
143.8987231648
 31
0.0
  0
LINE
  5
EC
330
1F
100
AcDbEntity
  8
0
  6
Continuous
 62
     7
370
    18
100
AcDbLine
 10
161.5505781782
 20
159.2316269334
 30
0.0
 11
161.0697009631
 21
160.0645307021
 31
0.0
  0
LINE
  5
ED
330
1F
100
AcDbEntity
  8
0
  6
Continuous
 62
     7
370
    18
100
AcDbLine
 10
159.0314553932
 20
160.0645307021
 30
0.0
 11
158.5505781782
 21
159.2316269334
 31
0.0
  0
LINE
  5
EE
330
1F
100
AcDbEntity
  8
0
  6
Continuous
 62
     7
370
    18
100
AcDbLine
 10
164.5505781782
 20
159.2316269334
 30
0.0
 11
164.0697009631
 21
160.0645307021
 31
0.0
  0
LINE
  5
EF
330
1F
100
AcDbEntity
  8
0
  6
Continuous
 62
     7
370
    18
100
AcDbLine
 10
162.0314553932
 20
160.0645307021
 30
0.0
 11
161.5505781782
 21
159.2316269334
 31
0.0
  0
LINE
  5
F0
330
1F
100
AcDbEntity
  8
0
  6
Continuous
 62
     7
370
    18
100
AcDbLine
 10
164.0697009631
 20
143.8987231648
 30
0.0
 11
164.5505781782
 21
144.7316269334
 31
0.0
  0
LINE
  5
F1
330
1F
100
AcDbEntity
  8
0
  6
Continuous
 62
     7
370
    18
100
AcDbLine
 10
161.5505781782
 20
144.7316269334
 30
0.0
 11
162.0314553932
 21
143.8987231648
 31
0.0
  0
LINE
  5
F2
330
1F
100
AcDbEntity
  8
0
  6
Continuous
 62
     7
370
    18
100
AcDbLine
 10
170.2226175664
 20
154.062303792
 30
0.0
 11
169.6226175664
 21
154.062303792
 31
0.0
  0
LINE
  5
F3
330
1F
100
AcDbEntity
  8
0
  6
Continuous
 62
     7
370
    18
100
AcDbLine
 10
169.6226175664
 20
148.4816269334
 30
0.0
 11
169.6226175664
 21
154.062303792
 31
0.0
  0
LINE
  5
F4
330
1F
100
AcDbEntity
  8
0
  6
Continuous
 62
     7
370
    18
100
AcDbLine
 10
170.2226175664
 20
148.4816269334
 30
0.0
 11
170.2226175664
 21
154.062303792
 31
0.0
  0
LINE
  5
F5
330
1F
100
AcDbEntity
  8
0
  6
Continuous
 62
     7
370
    18
100
AcDbLine
 10
169.6226175664
 20
154.062303792
 30
0.0
 11
169.6226175664
 21
154.1434079715
 31
0.0
  0
LINE
  5
F6
330
1F
100
AcDbEntity
  8
0
  6
Continuous
 62
     7
370
    18
100
AcDbLine
 10
170.2226175664
 20
154.1434079715
 30
0.0
 11
170.2226175664
 21
154.062303792
 31
0.0
  0
LINE
  5
F7
330
1F
100
AcDbEntity
  8
0
  6
Continuous
 62
     7
370
    18
100
AcDbLine
 10
170.2226175664
 20
154.769429794
 30
0.0
 11
169.6226175664
 21
154.769429794
 31
0.0
  0
LINE
  5
F8
330
1F
100
AcDbEntity
  8
0
  6
Continuous
 62
     7
370
    18
100
AcDbLine
 10
169.6226175664
 20
154.1434079715
 30
0.0
 11
169.6226175664
 21
154.769429794
 31
0.0
  0
LINE
  5
F9
330
1F
100
AcDbEntity
  8
0
  6
Continuous
 62
     7
370
    18
100
AcDbLine
 10
170.2226175664
 20
154.1816269334
 30
0.0
 11
170.2226175664
 21
154.769429794
 31
0.0
  0
LINE
  5
FA
330
1F
100
AcDbEntity
  8
0
  6
Continuous
 62
     7
370
    18
100
AcDbLine
 10
169.6226175664
 20
154.769429794
 30
0.0
 11
169.6226175664
 21
154.9168324672
 31
0.0
  0
LINE
  5
FB
330
1F
100
AcDbEntity
  8
0
  6
Continuous
 62
     7
370
    18
100
AcDbLine
 10
170.2226175664
 20
154.9168324672
 30
0.0
 11
170.2226175664
 21
154.769429794
 31
0.0
  0
LINE
  5
FC
330
1F
100
AcDbEntity
  8
0
  6
Continuous
 62
     7
370
    18
100
AcDbLine
 10
123.5226175664
 20
157.6816269334
 30
0.0
 11
123.5226175664
 21
146.2816269334
 31
0.0
  0
SPLINE
  5
FD
330
1F
100
AcDbEntity
  8
0
  6
Continuous
 62
     7
370
    18
100
AcDbSpline
210
0.0
220
0.0
230
1.0
 70
     8
 71
     3
 72
    14
 73
    10
 74
     0
 42
0.000000001
 43
0.00000001
 40
0.0
 40
0.0
 40
0.0
 40
0.0
 40
0.1250000000000001
 40
0.1250000000000001
 40
0.2500000000000002
 40
0.2500000000000002
 40
0.5000000000000002
 40
0.5000000000000002
 40
1.0
 40
1.0
 40
1.0
 40
1.0
 10
121.5226175664009
 20
146.5615254583417
 30
0.0
 10
121.5226175664009
 20
146.5127687455004
 30
0.0
 10
121.5306497968548
 20
146.4700174032015
 30
0.0
 10
121.5519200080685
 20
146.3921456916165
 30
0.0
 10
121.5654690136373
 20
146.3576185930014
 30
0.0
 10
121.6089017948105
 20
146.2649234439274
 30
0.0
 10
121.6415035979898
 20
146.2172486009943
 30
0.0
 10
121.7328772619234
 20
146.1023553999848
 30
0.0
 10
121.785519086773
 20
146.0617583049132
 30
0.0
 10
121.822617566401
 20
146.0357256983876
 30
0.0
  0
LINE
  5
FE
330
1F
100
AcDbEntity
  8
0
  6
Continuous
 62
     7
370
    18
100
AcDbLine
 10
121.5226175664
 20
146.5615254583
 30
0.0
 11
121.5226175664
 21
157.6816269334
 31
0.0
  0
LINE
  5
FF
330
1F
100
AcDbEntity
  8
0
  6
Continuous
 62
     7
370
    18
100
AcDbLine
 10
127.5226175664
 20
155.4316269334
 30
0.0
 11
127.5226175664
 21
148.5316269334
 31
0.0
  0
SPLINE
  5
100
330
1F
100
AcDbEntity
  8
0
  6
Continuous
 62
     7
370
    18
100
AcDbSpline
210
0.0
220
0.0
230
1.0
 70
     8
 71
     3
 72
    14
 73
    10
 74
     0
 42
0.000000001
 43
0.00000001
 40
0.0
 40
0.0
 40
0.0
 40
0.0
 40
0.2499999999999999
 40
0.2499999999999999
 40
0.4999999999999999
 40
0.4999999999999999
 40
0.7499999999999998
 40
0.7499999999999998
 40
1.0
 40
1.0
 40
1.0
 40
1.0
 10
121.0144543010947
 20
148.5661362156645
 30
0.0
 10
121.0566975004576
 20
148.5476849997753
 30
0.0
 10
121.1116991191665
 20
148.5355491302705
 30
0.0
 10
121.231742444352
 20
148.5267535048822
 30
0.0
 10
121.2951361404838
 20
148.5303740598694
 30
0.0
 10
121.4038390203309
 20
148.5523807170836
 30
0.0
 10
121.4487931284575
 20
148.5707428783819
 30
0.0
 10
121.5077892426927
 20
148.6163367720192
 30
0.0
 10
121.5226175664009
 20
148.6436588388847
 30
0.0
 10
121.5226175664009
 20
148.6725485118517
 30
0.0
  0
SPLINE
  5
101
330
1F
100
AcDbEntity
  8
0
  6
Continuous
 62
     7
370
    18
100
AcDbSpline
210
0.0
220
0.0
230
1.0
 70
     8
 71
     3
 72
    20
 73
    16
 74
     0
 42
0.000000001
 43
0.00000001
 40
0.0
 40
0.0
 40
0.0
 40
0.0
 40
0.1250000000000001
 40
0.1250000000000001
 40
0.2500000000000002
 40
0.2500000000000002
 40
0.3750000000000002
 40
0.3750000000000002
 40
0.5000000000000003
 40
0.5000000000000003
 40
0.6250000000000002
 40
0.6250000000000002
 40
0.75
 40
0.75
 40
1.0
 40
1.0
 40
1.0
 40
1.0
 10
121.0144543010947
 20
148.5661362156645
 30
0.0
 10
120.9180350100276
 20
148.6082507614894
 30
0.0
 10
120.8119933770803
 20
148.6512631695442
 30
0.0
 10
120.5856855339543
 20
148.732173699073
 30
0.0
 10
120.4664786349748
 20
148.769762713192
 30
0.0
 10
120.2146768564141
 20
148.8345419149778
 30
0.0
 10
120.0801581706272
 20
148.861944116155
 30
0.0
 10
119.8061078532009
 20
148.8991058714179
 30
0.0
 10
119.6667305213002
 20
148.9090660983346
 30
0.0
 10
119.3829103746964
 20
148.9092695907685
 30
0.0
 10
119.242170572034
 20
148.8993711116128
 30
0.0
 10
118.9687637932683
 20
148.862587908908
 30
0.0
 10
118.8339590106746
 20
148.8353259744831
 30
0.0
 10
118.4532943358185
 20
148.7376650590233
 30
0.0
 10
118.2238501492361
 20
148.6504660891834
 30
0.0
 10
118.030780831707
 20
148.5661362156645
 30
0.0
  0
SPLINE
  5
102
330
1F
100
AcDbEntity
  8
0
  6
Continuous
 62
     7
370
    18
100
AcDbSpline
210
0.0
220
0.0
230
1.0
 70
     8
 71
     3
 72
    14
 73
    10
 74
     0
 42
0.000000001
 43
0.00000001
 40
0.0
 40
0.0
 40
0.0
 40
0.0
 40
0.25
 40
0.25
 40
0.5
 40
0.5
 40
0.75
 40
0.75
 40
1.0
 40
1.0
 40
1.0
 40
1.0
 10
117.5226175664009
 20
148.6725485118517
 30
0.0
 10
117.5226175664009
 20
148.6436385197813
 30
0.0
 10
117.5374367783355
 20
148.6164335701674
 30
0.0
 10
117.5959442122038
 20
148.5710386033929
 30
0.0
 10
117.6402950594373
 20
148.5526905660127
 30
0.0
 10
117.749639182389
 20
148.5303814355235
 30
0.0
 10
117.8123213513873
 20
148.5267422153739
 30
0.0
 10
117.9330625551175
 20
148.5354409136822
 30
0.0
 10
117.9884531328129
 20
148.5476480916074
 30
0.0
 10
118.030780831707
 20
148.5661362156644
 30
0.0
  0
LINE
  5
103
330
1F
100
AcDbEntity
  8
0
  6
Continuous
 62
     7
370
    18
100
AcDbLine
 10
117.5226175664
 20
150.9316269334
 30
0.0
 11
121.5226175664
 21
150.9316269334
 31
0.0
  0
SPLINE
  5
104
330
1F
100
AcDbEntity
  8
0
  6
Continuous
 62
     7
370
    18
100
AcDbSpline
210
0.0
220
0.0
230
1.0
 70
     8
 71
     3
 72
    12
 73
     8
 74
     0
 42
0.000000001
 43
0.00000001
 40
0.0
 40
0.0
 40
0.0
 40
0.0
 40
0.25
 40
0.25
 40
0.5
 40
0.5
 40
1.0
 40
1.0
 40
1.0
 40
1.0
 10
117.2226175664009
 20
148.511756618827
 30
0.0
 10
117.2727702888255
 20
148.511756618827
 30
0.0
 10
117.3210290119077
 20
148.5304990608713
 30
0.0
 10
117.4010316672099
 20
148.5908956140437
 30
0.0
 10
117.4321321043976
 20
148.6308697786419
 30
0.0
 10
117.5030932801275
 20
148.7604255211119
 30
0.0
 10
117.5226175664009
 20
148.8611563001453
 30
0.0
 10
117.5226175664009
 20
148.9600379474589
 30
0.0
  0
LINE
  5
105
330
1F
100
AcDbEntity
  8
0
  6
Continuous
 62
     7
370
    18
100
AcDbLine
 10
115.8226175664
 20
148.5117566188
 30
0.0
 11
117.2226175664
 21
148.5117566188
 31
0.0
  0
SPLINE
  5
106
330
1F
100
AcDbEntity
  8
0
  6
Continuous
 62
     7
370
    18
100
AcDbSpline
210
0.0
220
0.0
230
1.0
 70
     8
 71
     3
 72
    12
 73
     8
 74
     0
 42
0.000000001
 43
0.00000001
 40
0.0
 40
0.0
 40
0.0
 40
0.0
 40
0.5000000000000011
 40
0.5000000000000011
 40
0.7500000000000006
 40
0.7500000000000006
 40
1.0
 40
1.0
 40
1.0
 40
1.0
 10
115.5226175664009
 20
148.9600379474589
 30
0.0
 10
115.5226175664009
 20
148.8609282410094
 30
0.0
 10
115.5417121053668
 20
148.7615070800613
 30
0.0
 10
115.612858712808
 20
148.6311687847954
 30
0.0
 10
115.6440521903507
 20
148.5911009526442
 30
0.0
 10
115.7237084690451
 20
148.5307843571958
 30
0.0
 10
115.7724849466847
 20
148.511756618827
 30
0.0
 10
115.8226175664009
 20
148.511756618827
 30
0.0
  0
LINE
  5
107
330
1F
100
AcDbEntity
  8
0
  6
Continuous
 62
     7
370
    18
100
AcDbLine
 10
115.5226175664
 20
148.9600379475
 30
0.0
 11
115.5226175664
 21
155.0032159194
 31
0.0
  0
SPLINE
  5
108
330
1F
100
AcDbEntity
  8
0
  6
Continuous
 62
     7
370
    18
100
AcDbSpline
210
0.0
220
0.0
230
1.0
 70
     8
 71
     3
 72
    12
 73
     8
 74
     0
 42
0.000000001
 43
0.00000001
 40
0.0
 40
0.0
 40
0.0
 40
0.0
 40
0.2500000000000009
 40
0.2500000000000009
 40
0.5000000000000019
 40
0.5000000000000019
 40
1.0
 40
1.0
 40
1.0
 40
1.0
 10
115.8226175664009
 20
155.4514972479868
 30
0.0
 10
115.7731720871223
 20
155.4514972479868
 30
0.0
 10
115.7238667419932
 20
155.4325051663725
 30
0.0
 10
115.6444956581057
 20
155.372572265927
 30
0.0
 10
115.6133256266429
 20
155.3328405351377
 30
0.0
 10
115.5413882528653
 20
155.2013520690522
 30
0.0
 10
115.5226175664009
 20
155.1014250529916
 30
0.0
 10
115.5226175664009
 20
155.0032159193541
 30
0.0
  0
LINE
  5
109
330
1F
100
AcDbEntity
  8
0
  6
Continuous
 62
     7
370
    18
100
AcDbLine
 10
117.2226175664
 20
155.451497248
 30
0.0
 11
115.8226175664
 21
155.451497248
 31
0.0
  0
SPLINE
  5
10A
330
1F
100
AcDbEntity
  8
0
  6
Continuous
 62
     7
370
    18
100
AcDbSpline
210
0.0
220
0.0
230
1.0
 70
     8
 71
     3
 72
    12
 73
     8
 74
     0
 42
0.000000001
 43
0.00000001
 40
0.0
 40
0.0
 40
0.0
 40
0.0
 40
0.5
 40
0.5
 40
0.75
 40
0.75
 40
1.0
 40
1.0
 40
1.0
 40
1.0
 10
117.5226175664009
 20
155.0032159193541
 30
0.0
 10
117.5226175664009
 20
155.1018131818448
 30
0.0
 10
117.5032383578115
 20
155.2026487617876
 30
0.0
 10
117.4319269171486
 20
155.3327159407989
 30
0.0
 10
117.4005345506639
 20
155.3727719047258
 30
0.0
 10
117.3212496978945
 20
155.4325497062143
 30
0.0
 10
117.2720863307643
 20
155.4514972479885
 30
0.0
 10
117.2226175663922
 20
155.4514972479865
 30
0.0
  0
LINE
  5
10B
330
1F
100
AcDbEntity
  8
0
  6
Continuous
 62
     7
370
    18
100
AcDbLine
 10
117.5226175664
 20
153.0316269334
 30
0.0
 11
117.5226175664
 21
155.0032159194
 31
0.0
  0
LINE
  5
10C
330
1F
100
AcDbEntity
  8
0
  6
Continuous
 62
     7
370
    18
100
AcDbLine
 10
121.5226175664
 20
153.0316269334
 30
0.0
 11
117.5226175664
 21
153.0316269334
 31
0.0
  0
LINE
  5
10D
330
1F
100
AcDbEntity
  8
0
  6
Continuous
 62
     7
370
    18
100
AcDbLine
 10
117.5226175664
 20
148.9600379475
 30
0.0
 11
117.5226175664
 21
150.9316269334
 31
0.0
  0
LINE
  5
10E
330
1F
100
AcDbEntity
  8
0
  6
Continuous
 62
     7
370
    18
100
AcDbLine
 10
117.5226175664
 20
156.6816269334
 30
0.0
 11
117.5226175664
 21
155.0032159194
 31
0.0
  0
LINE
  5
10F
330
1F
100
AcDbEntity
  8
0
  6
Continuous
 62
     7
370
    18
100
AcDbLine
 10
115.5226175664
 20
155.0032159194
 30
0.0
 11
115.5226175664
 21
156.6816269334
 31
0.0
  0
LINE
  5
110
330
1F
100
AcDbEntity
  8
0
  6
Continuous
 62
     7
370
    18
100
AcDbLine
 10
115.5226175664
 20
147.2816269334
 30
0.0
 11
115.5226175664
 21
148.9600379475
 31
0.0
  0
SPLINE
  5
111
330
1F
100
AcDbEntity
  8
0
  6
Continuous
 62
     7
370
    18
100
AcDbSpline
210
0.0
220
0.0
230
1.0
 70
     8
 71
     3
 72
    14
 73
    10
 74
     0
 42
0.000000001
 43
0.00000001
 40
0.0
 40
0.0
 40
0.0
 40
0.0
 40
0.5000000000000001
 40
0.5000000000000001
 40
0.7500000000000003
 40
0.7500000000000003
 40
0.8750000000000002
 40
0.8750000000000002
 40
1.0
 40
1.0
 40
1.0
 40
1.0
 10
117.2226175664009
 20
147.0454464731225
 30
0.0
 10
117.2607880208103
 20
147.0771043949778
 30
0.0
 10
117.3157771659077
 20
147.1265605035377
 30
0.0
 10
117.4083868121591
 20
147.258442800228
 30
0.0
 10
117.4408149685678
 20
147.3123218526117
 30
0.0
 10
117.4826498157674
 20
147.4128639666602
 30
0.0
 10
117.4954907856981
 20
147.4498708958554
 30
0.0
 10
117.5152975471986
 20
147.5314503439076
 30
0.0
 10
117.5226175664009
 20
147.5760833653473
 30
0.0
 10
117.5226175664009
 20
147.6253096814148
 30
0.0
  0
LINE
  5
112
330
1F
100
AcDbEntity
  8
0
  6
Continuous
 62
     7
370
    18
100
AcDbLine
 10
117.2226175664
 20
147.0454464731
 30
0.0
 11
117.2226175664
 21
148.5117566188
 31
0.0
  0
LINE
  5
113
330
1F
100
AcDbEntity
  8
0
  6
Continuous
 62
     7
370
    18
100
AcDbLine
 10
117.5226175664
 20
148.9600379475
 30
0.0
 11
117.5226175664
 21
147.6253096814
 31
0.0
  0
LINE
  5
114
330
1F
100
AcDbEntity
  8
0
  6
Continuous
 62
     7
370
    18
100
AcDbLine
 10
110.0226175664
 20
151.9816269334
 30
0.0
 11
110.0226175664
 21
155.1816269334
 31
0.0
  0
LINE
  5
115
330
1F
100
AcDbEntity
  8
0
  6
Continuous
 62
     7
370
    18
100
AcDbLine
 10
110.0226175664
 20
148.7816269334
 30
0.0
 11
110.0226175664
 21
151.9816269334
 31
0.0
  0
LINE
  5
116
330
1F
100
AcDbEntity
  8
0
  6
Continuous
 62
     7
370
    18
100
AcDbLine
 10
112.0226175664
 20
155.1816269334
 30
0.0
 11
112.0226175664
 21
148.7816269334
 31
0.0
  0
LINE
  5
117
330
1F
100
AcDbEntity
  8
0
  6
Continuous
 62
     7
370
    18
100
AcDbLine
 10
117.0226175664
 20
140.1816269334
 30
0.0
 11
122.0226175664
 21
140.1816269334
 31
0.0
  0
LINE
  5
118
330
1F
100
AcDbEntity
  8
0
  6
Continuous
 62
     7
370
    18
100
AcDbLine
 10
117.5226175664
 20
137.6816269334
 30
0.0
 11
121.5226175664
 21
137.6816269334
 31
0.0
  0
SPLINE
  5
119
330
1F
100
AcDbEntity
  8
0
  6
Continuous
 62
     7
370
    18
100
AcDbSpline
210
0.0
220
0.0
230
1.0
 70
    24
 71
     3
 72
    10
 73
     6
 74
     0
 42
0.000000001
 43
0.00000001
 40
0.0
 40
0.0
 40
0.0
 40
0.0
 40
0.3285228226158907
 40
0.6594475098109177
 40
1.0
 40
1.0
 40
1.0
 40
1.0
 10
171.0226175664009
 20
149.5816269334065
 30
0.0
 10
171.0416945925514
 20
149.5816269334065
 30
0.0
 10
171.079988118978
 20
149.5816269334065
 30
0.0
 10
171.1169726148005
 20
149.5816269334065
 30
0.0
 10
171.1167974319173
 20
149.5816269334065
 30
0.0
 10
171.1167085845684
 20
149.5816269334065
 30
0.0
  0
LINE
  5
11A
330
1F
100
AcDbEntity
  8
0
  6
Continuous
 62
     7
370
    18
100
AcDbLine
 10
171.0226175664
 20
149.5816269334
 30
0.0
 11
171.0226175664
 21
154.3816269334
 31
0.0
  0
SPLINE
  5
11B
330
1F
100
AcDbEntity
  8
0
  6
Continuous
 62
     7
370
    18
100
AcDbSpline
210
0.0
220
0.0
230
1.0
 70
    24
 71
     3
 72
    10
 73
     6
 74
     0
 42
0.000000001
 43
0.00000001
 40
0.0
 40
0.0
 40
0.0
 40
0.0
 40
0.3405245763346964
 40
0.6689750602990757
 40
0.9999999999999999
 40
0.9999999999999999
 40
0.9999999999999999
 40
0.9999999999999999
 10
171.1163069412877
 20
154.3816269334065
 30
0.0
 10
171.116567907195
 20
154.3816269334065
 30
0.0
 10
171.1170805858553
 20
154.3816269334065
 30
0.0
 10
171.0800724711186
 20
154.3816269334065
 30
0.0
 10
171.0418189792152
 20
154.3816269334065
 30
0.0
 10
171.0226175664009
 20
154.3816269334065
 30
0.0
  0
LINE
  5
11C
330
1F
100
AcDbEntity
  8
0
  6
Continuous
 62
     7
370
    18
100
AcDbLine
 10
171.5226175664
 20
153.9816269334
 30
0.0
 11
171.5226175664
 21
149.9816269334
 31
0.0
  0
SPLINE
  5
11D
330
1F
100
AcDbEntity
  8
0
  6
Continuous
 62
     7
370
    18
100
AcDbSpline
210
0.0
220
0.0
230
1.0
 70
    24
 71
     3
 72
    14
 73
    10
 74
     0
 42
0.000000001
 43
0.00000001
 40
0.0
 40
0.0
 40
0.0
 40
0.0
 40
0.5000000000000028
 40
0.5000000000000028
 40
0.7500000000000016
 40
0.7500000000000016
 40
0.8750000000000009
 40
0.8750000000000009
 40
1.0
 40
1.0
 40
1.0
 40
1.0
 10
170.2990107712209
 20
149.5816269334065
 30
0.0
 10
170.2990164517264
 20
149.5816269334065
 30
0.0
 10
170.3066610416319
 20
149.5816269334065
 30
0.0
 10
170.343340800529
 20
149.5816269334065
 30
0.0
 10
170.3595771123082
 20
149.5816269334065
 30
0.0
 10
170.3998326216922
 20
149.5816269334065
 30
0.0
 10
170.4161683086995
 20
149.5816269334065
 30
0.0
 10
170.4599538667279
 20
149.5816269334065
 30
0.0
 10
170.4899617532922
 20
149.5816269334065
 30
0.0
 10
170.5226175664009
 20
149.5816269334065
 30
0.0
  0
SPLINE
  5
11E
330
1F
100
AcDbEntity
  8
0
  6
Continuous
 62
     7
370
    18
100
AcDbSpline
210
0.0
220
0.0
230
1.0
 70
    24
 71
     3
 72
    14
 73
    10
 74
     0
 42
0.000000001
 43
0.00000001
 40
0.0
 40
0.0
 40
0.0
 40
0.0
 40
0.1249999999999998
 40
0.1249999999999998
 40
0.2499999999999997
 40
0.2499999999999997
 40
0.4999999999999998
 40
0.4999999999999998
 40
1.0
 40
1.0
 40
1.0
 40
1.0
 10
170.5226175664042
 20
154.3816269334065
 30
0.0
 10
170.4893464531335
 20
154.3816269334065
 30
0.0
 10
170.4598631032844
 20
154.3816269334065
 30
0.0
 10
170.416278464112
 20
154.3816269334065
 30
0.0
 10
170.3999171150608
 20
154.3816269334065
 30
0.0
 10
170.3594863385136
 20
154.3816269334065
 30
0.0
 10
170.3431401166757
 20
154.3816269334065
 30
0.0
 10
170.3067730275297
 20
154.3816269334065
 30
0.0
 10
170.2990099922723
 20
154.3816269334065
 30
0.0
 10
170.2990107686984
 20
154.3816269334065
 30
0.0
  0
LINE
  5
11F
330
1F
100
AcDbEntity
  8
0
  6
Continuous
 62
     7
370
    18
100
AcDbLine
 10
170.5226175664
 20
154.3816269334
 30
0.0
 11
170.5226175664
 21
149.5816269334
 31
0.0
  0
LINE
  5
120
330
1F
100
AcDbEntity
  8
0
  6
Continuous
 62
     7
370
    18
100
AcDbLine
 10
170.2226175664
 20
154.1434079715
 30
0.0
 11
170.2226175664
 21
154.1816269334
 31
0.0
  0
LINE
  5
121
330
1F
100
AcDbEntity
  8
0
  6
Continuous
 62
     7
370
    18
100
AcDbLine
 10
117.0226175664
 20
142.6816269334
 30
0.0
 11
122.0226175664
 21
142.6816269334
 31
0.0
  0
LINE
  5
122
330
1F
100
AcDbEntity
  8
0
  6
Continuous
 62
     7
370
    18
100
AcDbLine
 10
171.0226175664
 20
149.5816269334
 30
0.0
 11
170.5226175664
 21
149.5816269334
 31
0.0
  0
LINE
  5
123
330
1F
100
AcDbEntity
  8
0
  6
Continuous
 62
     7
370
    18
100
AcDbLine
 10
171.0226175664
 20
154.3816269334
 30
0.0
 11
170.5226175664
 21
154.3816269334
 31
0.0
  0
LINE
  5
124
330
1F
100
AcDbEntity
  8
0
  6
Continuous
 62
     7
370
    18
100
AcDbLine
 10
147.5226175664
 20
149.5816269334
 30
0.0
 11
146.8383513482
 21
149.5816269334
 31
0.0
  0
LINE
  5
125
330
1F
100
AcDbEntity
  8
0
  6
Continuous
 62
     7
370
    18
100
AcDbLine
 10
146.339910906
 20
149.5816269334
 30
0.0
 11
143.8389334283
 21
149.5816269334
 31
0.0
  0
LINE
  5
126
330
1F
100
AcDbEntity
  8
0
  6
Continuous
 62
     7
370
    18
100
AcDbLine
 10
143.3400739201
 20
149.5816269334
 30
0.0
 11
140.8384142259
 21
149.5816269334
 31
0.0
  0
LINE
  5
127
330
1F
100
AcDbEntity
  8
0
  6
Continuous
 62
     7
370
    18
100
AcDbLine
 10
140.3394097469
 20
149.5816269334
 30
0.0
 11
137.8384990853
 21
149.5816269334
 31
0.0
  0
LINE
  5
128
330
1F
100
AcDbEntity
  8
0
  6
Continuous
 62
     7
370
    18
100
AcDbLine
 10
137.3407693744
 20
149.5816269334
 30
0.0
 11
134.8390626138
 21
149.5816269334
 31
0.0
  0
LINE
  5
129
330
1F
100
AcDbEntity
  8
0
  6
Continuous
 62
     7
370
    18
100
AcDbLine
 10
134.340120369
 20
149.5816269334
 30
0.0
 11
131.8386808014
 21
149.5816269334
 31
0.0
  0
LINE
  5
12A
330
1F
100
AcDbEntity
  8
0
  6
Continuous
 62
     7
370
    18
100
AcDbLine
 10
131.3392217044
 20
149.5816269334
 30
0.0
 11
128.8386471681
 21
149.5816269334
 31
0.0
  0
LINE
  5
12B
330
1F
100
AcDbEntity
  8
0
  6
Continuous
 62
     7
370
    18
100
AcDbLine
 10
128.3407057474
 20
149.5816269334
 30
0.0
 11
127.5226175664
 21
149.5816269334
 31
0.0
  0
LINE
  5
12C
330
1F
100
AcDbEntity
  8
0
  6
Continuous
 62
     7
370
    18
100
AcDbLine
 10
147.5226175664
 20
154.3816269334
 30
0.0
 11
146.2645412036
 21
154.3816269334
 31
0.0
  0
LINE
  5
12D
330
1F
100
AcDbEntity
  8
0
  6
Continuous
 62
     7
370
    18
100
AcDbLine
 10
145.765200691
 20
154.3816269334
 30
0.0
 11
143.2640413069
 21
154.3816269334
 31
0.0
  0
LINE
  5
12E
330
1F
100
AcDbEntity
  8
0
  6
Continuous
 62
     7
370
    18
100
AcDbLine
 10
142.7652975114
 20
154.3816269334
 30
0.0
 11
140.2645124299
 21
154.3816269334
 31
0.0
  0
LINE
  5
12F
330
1F
100
AcDbEntity
  8
0
  6
Continuous
 62
     7
370
    18
100
AcDbLine
 10
139.7652293085
 20
154.3816269334
 30
0.0
 11
137.2645157371
 21
154.3816269334
 31
0.0
  0
LINE
  5
130
330
1F
100
AcDbEntity
  8
0
  6
Continuous
 62
     7
370
    18
100
AcDbLine
 10
136.7647965707
 20
154.3816269334
 30
0.0
 11
134.2642040479
 21
154.3816269334
 31
0.0
  0
LINE
  5
131
330
1F
100
AcDbEntity
  8
0
  6
Continuous
 62
     7
370
    18
100
AcDbLine
 10
133.7655534424
 20
154.3816269334
 30
0.0
 11
131.2638699647
 21
154.3816269334
 31
0.0
  0
LINE
  5
132
330
1F
100
AcDbEntity
  8
0
  6
Continuous
 62
     7
370
    18
100
AcDbLine
 10
130.7652098491
 20
154.3816269334
 30
0.0
 11
128.2645146623
 21
154.3816269334
 31
0.0
  0
LINE
  5
133
330
1F
100
AcDbEntity
  8
0
  6
Continuous
 62
     7
370
    18
100
AcDbLine
 10
127.7649025908
 20
154.3816269334
 30
0.0
 11
127.5226175664
 21
154.3816269334
 31
0.0
  0
SPLINE
  5
134
330
1F
100
AcDbEntity
  8
0
  6
Continuous
 62
     7
370
    18
100
AcDbSpline
210
0.0
220
0.0
230
1.0
 70
     8
 71
     3
 72
    14
 73
    10
 74
     0
 42
0.000000001
 43
0.00000001
 40
0.0
 40
0.0
 40
0.0
 40
0.0
 40
0.25
 40
0.25
 40
0.5
 40
0.5
 40
0.75
 40
0.75
 40
1.0
 40
1.0
 40
1.0
 40
1.0
 10
118.030780831707
 20
147.6253096814148
 30
0.0
 10
118.030780831707
 20
147.5054384577104
 30
0.0
 10
118.0041921274827
 20
147.3879858394102
 30
0.0
 10
117.9248994252097
 20
147.1809635522046
 30
0.0
 10
117.871376648922
 20
147.0899034567434
 30
0.0
 10
117.7595890704686
 20
146.9425351081856
 30
0.0
 10
117.7002481354787
 20
146.8845303940187
 30
0.0
 10
117.5932134935193
 20
146.7986039191702
 30
0.0
 10
117.5439989886468
 20
146.769186149432
 30
0.0
 10
117.5042502194621
 20
146.7492756455054
 30
0.0
  0
LINE
  5
135
330
1F
100
AcDbEntity
  8
0
  6
Continuous
 62
     7
370
    18
100
AcDbLine
 10
118.0307808317
 20
148.5661362157
 30
0.0
 11
118.0307808317
 21
147.6253096814
 31
0.0
  0
LINE
  5
136
330
1F
100
AcDbEntity
  8
0
  6
Continuous
 62
     7
370
    18
100
AcDbLine
 10
121.0144543011
 20
146.5615254583
 30
0.0
 11
121.0144543011
 21
148.5661362157
 31
0.0
  0
SPLINE
  5
137
330
1F
100
AcDbEntity
  8
0
  6
Continuous
 62
     7
370
    18
100
AcDbSpline
210
0.0
220
0.0
230
1.0
 70
     8
 71
     3
 72
    14
 73
    10
 74
     0
 42
0.000000001
 43
0.00000001
 40
0.0
 40
0.0
 40
0.0
 40
0.0
 40
0.25
 40
0.25
 40
0.5
 40
0.5
 40
0.75
 40
0.75
 40
1.0
 40
1.0
 40
1.0
 40
1.0
 10
121.5409849133398
 20
145.7384306366366
 30
0.0
 10
121.501750657642
 20
145.7549014060986
 30
0.0
 10
121.4547208621648
 20
145.77900028481
 30
0.0
 10
121.3479501055899
 20
145.8553425315969
 30
0.0
 10
121.2900802177555
 20
145.9063817321851
 30
0.0
 10
121.1766759193815
 20
146.0441444206782
 30
0.0
 10
121.1225604279499
 20
146.1297546523099
 30
0.0
 10
121.0411776128009
 20
146.3305372013726
 30
0.0
 10
121.0144543010947
 20
146.4441223208132
 30
0.0
 10
121.0144543010947
 20
146.5615254583417
 30
0.0
  0
LINE
  5
138
330
1F
100
AcDbEntity
  8
0
  6
Continuous
 62
     7
370
    18
100
AcDbLine
 10
118.0307808317
 20
147.6253096814
 30
0.0
 11
117.5226175664
 21
147.6253096814
 31
0.0
  0
LINE
  5
139
330
1F
100
AcDbEntity
  8
0
  6
Continuous
 62
     7
370
    18
100
AcDbLine
 10
121.5226175664
 20
146.5615254583
 30
0.0
 11
121.0144543011
 21
146.5615254583
 31
0.0
  0
ARC
  5
13A
330
1F
100
AcDbEntity
  8
0
  6
Continuous
 62
     7
370
    18
100
AcDbCircle
 10
121.8473555555
 20
145.7302457571
 30
0.0
 40
0.3064799546519639
100
AcDbArc
 50
94.6297513169
 51
178.4696721395
  0
ARC
  5
13B
330
1F
100
AcDbEntity
  8
0
  6
Continuous
 62
     7
370
    18
100
AcDbCircle
 10
117.1952602905
 20
146.7374426156
 30
0.0
 40
0.3092164238624765
100
AcDbArc
 50
2.1931184903
 51
84.9242393729
  0
LINE
  5
13C
330
1F
100
AcDbEntity
  8
0
  6
Continuous
 62
     7
370
    18
100
AcDbLine
 10
149.5226175664
 20
144.4760754501
 30
0.0
 11
152.5226175664
 21
144.4760754501
 31
0.0
  0
LINE
  5
13D
330
1F
100
AcDbEntity
  8
0
  6
Continuous
 62
     7
370
    18
100
AcDbLine
 10
149.5226175664
 20
144.4760754501
 30
0.0
 11
149.5226175664
 21
148.2336154826
 31
0.0
  0
LINE
  5
13E
330
1F
100
AcDbEntity
  8
0
  6
Continuous
 62
     7
370
    18
100
AcDbLine
 10
149.5226175664
 20
148.2336154826
 30
0.0
 11
152.5226175664
 21
148.2336154826
 31
0.0
  0
LINE
  5
13F
330
1F
100
AcDbEntity
  8
0
  6
Continuous
 62
     7
370
    18
100
AcDbLine
 10
152.5226175664
 20
144.4760754501
 30
0.0
 11
152.5226175664
 21
148.2336154826
 31
0.0
  0
LINE
  5
140
330
1F
100
AcDbEntity
  8
0
  6
Continuous
 62
     7
370
    18
100
AcDbLine
 10
149.5226175664
 20
148.2336154826
 30
0.0
 11
149.5226175664
 21
155.7391669659
 31
0.0
  0
LINE
  5
141
330
1F
100
AcDbEntity
  8
0
  6
Continuous
 62
     7
370
    18
100
AcDbLine
 10
149.5226175664
 20
155.7391669659
 30
0.0
 11
152.5226175664
 21
155.7391669659
 31
0.0
  0
LINE
  5
142
330
1F
100
AcDbEntity
  8
0
  6
Continuous
 62
     7
370
    18
100
AcDbLine
 10
152.5226175664
 20
148.2336154826
 30
0.0
 11
152.5226175664
 21
155.7391669659
 31
0.0
  0
LINE
  5
143
330
1F
100
AcDbEntity
  8
0
  6
Continuous
 62
     7
370
    18
100
AcDbLine
 10
149.5226175664
 20
159.4871784167
 30
0.0
 11
152.5226175664
 21
159.4871784167
 31
0.0
  0
LINE
  5
144
330
1F
100
AcDbEntity
  8
0
  6
Continuous
 62
     7
370
    18
100
AcDbLine
 10
149.5226175664
 20
155.7391669659
 30
0.0
 11
149.5226175664
 21
159.4871784167
 31
0.0
  0
LINE
  5
145
330
1F
100
AcDbEntity
  8
0
  6
Continuous
 62
     7
370
    18
100
AcDbLine
 10
152.5226175664
 20
155.7391669659
 30
0.0
 11
152.5226175664
 21
159.4871784167
 31
0.0
  0
LINE
  5
146
330
1F
100
AcDbEntity
  8
0
  6
Continuous
 62
     7
370
    18
100
AcDbLine
 10
168.5226175664
 20
146.9816269334
 30
0.0
 11
168.5226175664
 21
156.9816269334
 31
0.0
  0
LINE
  5
147
330
1F
100
AcDbEntity
  8
0
  6
Continuous
 62
     7
370
    18
100
AcDbLine
 10
154.0226175664
 20
146.9816269334
 30
0.0
 11
154.0226175664
 21
156.9816269334
 31
0.0
  0
LINE
  5
148
330
1F
100
AcDbEntity
  8
0
  6
Continuous
 62
     7
370
    18
100
AcDbLine
 10
169.5226175664
 20
155.9816269334
 30
0.0
 11
169.5226175664
 21
147.9816269334
 31
0.0
  0
LINE
  5
149
330
1F
100
AcDbEntity
  8
0
  6
Continuous
 62
     7
370
    18
100
AcDbLine
 10
148.0226175664
 20
155.7316269334
 30
0.0
 11
148.0226175664
 21
148.2316269334
 31
0.0
  0
LINE
  5
14A
330
1F
100
AcDbEntity
  8
0
  6
Continuous
 62
     7
370
    18
100
AcDbLine
 10
147.5226175664
 20
148.7316269334
 30
0.0
 11
147.5226175664
 21
155.2316269334
 31
0.0
  0
SPLINE
  5
14B
330
1F
100
AcDbEntity
  8
0
  6
Continuous
 62
     7
370
    18
100
AcDbSpline
210
0.0
220
0.0
230
1.0
 70
     8
 71
     3
 72
    12
 73
     8
 74
     0
 42
0.000000001
 43
0.00000001
 40
-0.0000243918709669
 40
-0.0000243918709669
 40
-0.0000243918709669
 40
-0.0000243918709669
 40
0.0
 40
0.1666666666667
 40
0.3333333333333
 40
0.5
 40
0.500024151650534
 40
0.500024151650534
 40
0.500024151650534
 40
0.500024151650534
 10
149.2020239699277
 20
152.8130553543216
 30
0.0
 10
149.2020366443155
 20
152.8130553538764
 30
0.0
 10
149.2886518590835
 20
152.8130538326467
 30
0.0
 10
149.4618696142286
 20
152.8338410641601
 30
0.0
 10
149.4618696142286
 20
152.8961981956787
 30
0.0
 10
149.2886519839057
 20
152.9169854122125
 30
0.0
 10
149.2020368939599
 20
152.9169839059666
 30
0.0
 10
149.2020243443943
 20
152.9169839055301
 30
0.0
  0
SPLINE
  5
14C
330
1F
100
AcDbEntity
  8
0
  6
Continuous
 62
     7
370
    18
100
AcDbSpline
210
0.0
220
0.0
230
1.0
 70
     8
 71
     3
 72
    10
 73
     6
 74
     0
 42
0.000000001
 43
0.00000001
 40
0.5000241516518151
 40
0.5000241516518151
 40
0.5000241516518151
 40
0.5000241516518151
 40
0.6666666666666999
 40
0.8333333333333001
 40
0.9999756081280591
 40
0.9999756081280591
 40
0.9999756081280591
 40
0.9999756081280591
 10
149.2020243443943
 20
152.9169839055294
 30
0.0
 10
149.1154343544896
 20
152.9169808940196
 30
0.0
 10
148.9422543719532
 20
152.8961951836226
 30
0.0
 10
148.9422543719532
 20
152.8338441061738
 30
0.0
 10
149.1154341048635
 20
152.8130583957788
 30
0.0
 10
149.2020239699277
 20
152.8130553543209
 30
0.0
  0
LINE
  5
14D
330
1F
100
AcDbEntity
  8
0
  6
Continuous
 62
     7
370
    18
100
AcDbLine
 10
158.5505781782
 20
153.8690855422
 30
0.0
 11
158.5505781782
 21
157.1000754555
 31
0.0
  0
SPLINE
  5
14E
330
1F
100
AcDbEntity
  8
0
  6
Continuous
 62
     7
370
    18
100
AcDbSpline
210
0.0
220
0.0
230
1.0
 70
     8
 71
     3
 72
     8
 73
     4
 74
     0
 42
0.000000001
 43
0.00000001
 40
0.0
 40
0.0
 40
0.0
 40
0.0
 40
1.0
 40
1.0
 40
1.0
 40
1.0
 10
159.0314553932055
 20
156.023078817735
 30
0.0
 10
158.8271558726311
 20
156.3769359673318
 30
0.0
 10
158.6592992885941
 20
156.7384116221087
 30
0.0
 10
158.5505781781636
 20
157.1000754554895
 30
0.0
  0
SPLINE
  5
14F
330
1F
100
AcDbEntity
  8
0
  6
Continuous
 62
     7
370
    18
100
AcDbSpline
210
0.0
220
0.0
230
1.0
 70
     8
 71
     3
 72
    10
 73
     6
 74
     0
 42
0.000000001
 43
0.00000001
 40
0.0
 40
0.0
 40
0.0
 40
0.0
 40
0.5
 40
0.5
 40
1.0
 40
1.0
 40
1.0
 40
1.0
 10
158.5505781781636
 20
153.8690855422253
 30
0.0
 10
158.6055201964406
 20
154.2346178820818
 30
0.0
 10
158.6752611303769
 20
154.5987912369486
 30
0.0
 10
158.8373585864196
 20
155.3163946035042
 30
0.0
 10
158.9298984276277
 20
155.6712751692483
 30
0.0
 10
159.0314553932055
 20
156.023078817735
 30
0.0
  0
SPLINE
  5
150
330
1F
100
AcDbEntity
  8
0
  6
Continuous
 62
     7
370
    18
100
AcDbSpline
210
0.0
220
0.0
230
1.0
 70
     8
 71
     3
 72
    10
 73
     6
 74
     0
 42
0.000000001
 43
0.00000001
 40
0.0
 40
0.0
 40
0.0
 40
0.0
 40
0.5
 40
0.5
 40
1.0
 40
1.0
 40
1.0
 40
1.0
 10
161.0697009631218
 20
156.023078817735
 30
0.0
 10
161.1714358857781
 20
155.6706587078452
 30
0.0
 10
161.2641541050069
 20
155.3150456947553
 30
0.0
 10
161.42655036913
 20
154.5956609166597
 30
0.0
 10
161.496049814575
 20
154.2318658141595
 30
0.0
 10
161.5505781781636
 20
153.8690855422253
 30
0.0
  0
LINE
  5
151
330
1F
100
AcDbEntity
  8
0
  6
Continuous
 62
     7
370
    18
100
AcDbLine
 10
161.5505781782
 20
150.0941683246
 30
0.0
 11
161.5505781782
 21
153.8690855422
 31
0.0
  0
SPLINE
  5
152
330
1F
100
AcDbEntity
  8
0
  6
Continuous
 62
     7
370
    18
100
AcDbSpline
210
0.0
220
0.0
230
1.0
 70
     8
 71
     3
 72
    10
 73
     6
 74
     0
 42
0.000000001
 43
0.00000001
 40
0.0
 40
0.0
 40
0.0
 40
0.0
 40
0.5
 40
0.5
 40
1.0
 40
1.0
 40
1.0
 40
1.0
 10
161.5505781781636
 20
150.0941683245899
 30
0.0
 10
161.4956361598868
 20
149.7286359847334
 30
0.0
 10
161.4258952259504
 20
149.3644626298666
 30
0.0
 10
161.2637977699077
 20
148.6468592633109
 30
0.0
 10
161.1712579286996
 20
148.2919786975669
 30
0.0
 10
161.0697009631218
 20
147.9401750490802
 30
0.0
  0
LINE
  5
153
330
1F
100
AcDbEntity
  8
0
  6
Continuous
 62
     7
370
    18
100
AcDbLine
 10
161.0697009631
 20
147.9401750491
 30
0.0
 11
159.0314553932
 21
147.9401750491
 31
0.0
  0
SPLINE
  5
154
330
1F
100
AcDbEntity
  8
0
  6
Continuous
 62
     7
370
    18
100
AcDbSpline
210
0.0
220
0.0
230
1.0
 70
     8
 71
     3
 72
    10
 73
     6
 74
     0
 42
0.000000001
 43
0.00000001
 40
0.0
 40
0.0
 40
0.0
 40
0.0
 40
0.5000000000000001
 40
0.5000000000000001
 40
1.0
 40
1.0
 40
1.0
 40
1.0
 10
159.0314553932055
 20
147.9401750490802
 30
0.0
 10
158.9297204705492
 20
148.29259515897
 30
0.0
 10
158.8370022513204
 20
148.6482081720599
 30
0.0
 10
158.6746059871973
 20
149.3675929501555
 30
0.0
 10
158.6051065417523
 20
149.7313880526557
 30
0.0
 10
158.5505781781636
 20
150.0941683245899
 30
0.0
  0
LINE
  5
155
330
1F
100
AcDbEntity
  8
0
  6
Continuous
 62
     7
370
    18
100
AcDbLine
 10
158.5505781782
 20
150.0941683246
 30
0.0
 11
158.5505781782
 21
153.8690855422
 31
0.0
  0
LINE
  5
156
330
1F
100
AcDbEntity
  8
0
  6
Continuous
 62
     7
370
    18
100
AcDbLine
 10
161.0697009631
 20
156.0230788177
 30
0.0
 11
159.0314553932
 21
156.0230788177
 31
0.0
  0
SPLINE
  5
157
330
1F
100
AcDbEntity
  8
0
  6
Continuous
 62
     7
370
    18
100
AcDbSpline
210
0.0
220
0.0
230
1.0
 70
     8
 71
     3
 72
     8
 73
     4
 74
     0
 42
0.000000001
 43
0.00000001
 40
0.0
 40
0.0
 40
0.0
 40
0.0
 40
1.0
 40
1.0
 40
1.0
 40
1.0
 10
161.0697009631218
 20
147.9401750490802
 30
0.0
 10
161.2740004836963
 20
147.5863178994832
 30
0.0
 10
161.4418570677332
 20
147.2248422447061
 30
0.0
 10
161.5505781781636
 20
146.8631784113251
 30
0.0
  0
LINE
  5
158
330
1F
100
AcDbEntity
  8
0
  6
Continuous
 62
     7
370
    18
100
AcDbLine
 10
161.5505781782
 20
144.9757198025
 30
0.0
 11
161.5505781782
 21
146.8631784113
 31
0.0
  0
SPLINE
  5
159
330
1F
100
AcDbEntity
  8
0
  6
Continuous
 62
     7
370
    18
100
AcDbSpline
210
0.0
220
0.0
230
1.0
 70
     8
 71
     3
 72
     8
 73
     4
 74
     0
 42
0.000000001
 43
0.00000001
 40
0.0
 40
0.0
 40
0.0
 40
0.0
 40
1.0
 40
1.0
 40
1.0
 40
1.0
 10
161.5505781781636
 20
144.9757198025069
 30
0.0
 10
161.4404147604633
 20
144.6092580934043
 30
0.0
 10
161.2732509998985
 20
144.2512821703316
 30
0.0
 10
161.0697009631218
 20
143.8987231647517
 30
0.0
  0
LINE
  5
15A
330
1F
100
AcDbEntity
  8
0
  6
Continuous
 62
     7
370
    18
100
AcDbLine
 10
161.0697009631
 20
143.8987231648
 30
0.0
 11
159.0314553932
 21
143.8987231648
 31
0.0
  0
SPLINE
  5
15B
330
1F
100
AcDbEntity
  8
0
  6
Continuous
 62
     7
370
    18
100
AcDbSpline
210
0.0
220
0.0
230
1.0
 70
     8
 71
     3
 72
     8
 73
     4
 74
     0
 42
0.000000001
 43
0.00000001
 40
0.0
 40
0.0
 40
0.0
 40
0.0
 40
1.0
 40
1.0
 40
1.0
 40
1.0
 10
159.0314553932055
 20
143.8987231647517
 30
0.0
 10
158.8271558726311
 20
144.2525803143488
 30
0.0
 10
158.6592992885941
 20
144.6140559691258
 30
0.0
 10
158.5505781781636
 20
144.9757198025069
 30
0.0
  0
LINE
  5
15C
330
1F
100
AcDbEntity
  8
0
  6
Continuous
 62
     7
370
    18
100
AcDbLine
 10
158.5505781782
 20
144.9757198025
 30
0.0
 11
158.5505781782
 21
146.8631784113
 31
0.0
  0
SPLINE
  5
15D
330
1F
100
AcDbEntity
  8
0
  6
Continuous
 62
     7
370
    18
100
AcDbSpline
210
0.0
220
0.0
230
1.0
 70
     8
 71
     3
 72
     8
 73
     4
 74
     0
 42
0.000000001
 43
0.00000001
 40
0.0
 40
0.0
 40
0.0
 40
0.0
 40
1.0
 40
1.0
 40
1.0
 40
1.0
 10
158.5505781781636
 20
146.8631784113251
 30
0.0
 10
158.660741595864
 20
147.2296401204277
 30
0.0
 10
158.8279053564288
 20
147.5876160435004
 30
0.0
 10
159.0314553932055
 20
147.9401750490802
 30
0.0
  0
LINE
  5
15E
330
1F
100
AcDbEntity
  8
0
  6
Continuous
 62
     7
370
    18
100
AcDbLine
 10
161.5505781782
 20
150.0941683246
 30
0.0
 11
161.5505781782
 21
146.8631784113
 31
0.0
  0
LINE
  5
15F
330
1F
100
AcDbEntity
  8
0
  6
Continuous
 62
     7
370
    18
100
AcDbLine
 10
158.5505781782
 20
146.8631784113
 30
0.0
 11
158.5505781782
 21
150.0941683246
 31
0.0
  0
SPLINE
  5
160
330
1F
100
AcDbEntity
  8
0
  6
Continuous
 62
     7
370
    18
100
AcDbSpline
210
0.0
220
0.0
230
1.0
 70
     8
 71
     3
 72
     8
 73
     4
 74
     0
 42
0.000000001
 43
0.00000001
 40
0.0
 40
0.0
 40
0.0
 40
0.0
 40
1.0
 40
1.0
 40
1.0
 40
1.0
 10
161.5505781781636
 20
157.1000754554896
 30
0.0
 10
161.4404147604633
 20
156.7336137463871
 30
0.0
 10
161.2732509998985
 20
156.3756378233147
 30
0.0
 10
161.0697009631218
 20
156.023078817735
 30
0.0
  0
LINE
  5
161
330
1F
100
AcDbEntity
  8
0
  6
Continuous
 62
     7
370
    18
100
AcDbLine
 10
161.5505781782
 20
157.1000754555
 30
0.0
 11
161.5505781782
 21
153.8690855422
 31
0.0
  0
SPLINE
  5
162
330
1F
100
AcDbEntity
  8
0
  6
Continuous
 62
     7
370
    18
100
AcDbSpline
210
0.0
220
0.0
230
1.0
 70
     8
 71
     3
 72
     8
 73
     4
 74
     0
 42
0.000000001
 43
0.00000001
 40
0.0
 40
0.0
 40
0.0
 40
0.0
 40
1.0
 40
1.0
 40
1.0
 40
1.0
 10
161.0697009631218
 20
160.0645307020613
 30
0.0
 10
161.2740004836963
 20
159.7106735524644
 30
0.0
 10
161.4418570677332
 20
159.3491978976876
 30
0.0
 10
161.5505781781636
 20
158.9875340643067
 30
0.0
  0
SPLINE
  5
163
330
1F
100
AcDbEntity
  8
0
  6
Continuous
 62
     7
370
    18
100
AcDbSpline
210
0.0
220
0.0
230
1.0
 70
     8
 71
     3
 72
     8
 73
     4
 74
     0
 42
0.000000001
 43
0.00000001
 40
0.0
 40
0.0
 40
0.0
 40
0.0
 40
1.0
 40
1.0
 40
1.0
 40
1.0
 10
158.5505781781636
 20
158.9875340643067
 30
0.0
 10
158.660741595864
 20
159.3539957734091
 30
0.0
 10
158.8279053564288
 20
159.7119716964816
 30
0.0
 10
159.0314553932055
 20
160.0645307020613
 30
0.0
  0
LINE
  5
164
330
1F
100
AcDbEntity
  8
0
  6
Continuous
 62
     7
370
    18
100
AcDbLine
 10
161.0697009631
 20
160.0645307021
 30
0.0
 11
159.0314553932
 21
160.0645307021
 31
0.0
  0
LINE
  5
165
330
1F
100
AcDbEntity
  8
0
  6
Continuous
 62
     7
370
    18
100
AcDbLine
 10
161.5505781782
 20
157.1000754555
 30
0.0
 11
161.5505781782
 21
158.9875340643
 31
0.0
  0
LINE
  5
166
330
1F
100
AcDbEntity
  8
0
  6
Continuous
 62
     7
370
    18
100
AcDbLine
 10
158.5505781782
 20
157.1000754555
 30
0.0
 11
158.5505781782
 21
158.9875340643
 31
0.0
  0
LINE
  5
167
330
1F
100
AcDbEntity
  8
0
  6
Continuous
 62
     7
370
    18
100
AcDbLine
 10
161.5505781782
 20
144.9757198025
 30
0.0
 11
161.5505781782
 21
144.7316269334
 31
0.0
  0
LINE
  5
168
330
1F
100
AcDbEntity
  8
0
  6
Continuous
 62
     7
370
    18
100
AcDbLine
 10
158.5505781782
 20
144.7316269334
 30
0.0
 11
158.5505781782
 21
144.9757198025
 31
0.0
  0
LINE
  5
169
330
1F
100
AcDbEntity
  8
0
  6
Continuous
 62
     7
370
    18
100
AcDbLine
 10
161.5505781782
 20
159.2316269334
 30
0.0
 11
161.5505781782
 21
158.9875340643
 31
0.0
  0
LINE
  5
16A
330
1F
100
AcDbEntity
  8
0
  6
Continuous
 62
     7
370
    18
100
AcDbLine
 10
158.5505781782
 20
158.9875340643
 30
0.0
 11
158.5505781782
 21
159.2316269334
 31
0.0
  0
SPLINE
  5
16B
330
1F
100
AcDbEntity
  8
0
  6
Continuous
 62
     7
370
    18
100
AcDbSpline
210
0.0
220
0.0
230
1.0
 70
     8
 71
     3
 72
    10
 73
     6
 74
     0
 42
0.000000001
 43
0.00000001
 40
0.0
 40
0.0
 40
0.0
 40
0.0
 40
0.5
 40
0.5
 40
1.0
 40
1.0
 40
1.0
 40
1.0
 10
162.0314553932055
 20
147.9401750490791
 30
0.0
 10
161.9297204705492
 20
148.2925951589689
 30
0.0
 10
161.8370022513204
 20
148.6482081720588
 30
0.0
 10
161.6746059871973
 20
149.3675929501544
 30
0.0
 10
161.6051065417523
 20
149.7313880526546
 30
0.0
 10
161.5505781781636
 20
150.0941683245888
 30
0.0
  0
SPLINE
  5
16C
330
1F
100
AcDbEntity
  8
0
  6
Continuous
 62
     7
370
    18
100
AcDbSpline
210
0.0
220
0.0
230
1.0
 70
     8
 71
     3
 72
     8
 73
     4
 74
     0
 42
0.000000001
 43
0.00000001
 40
0.0
 40
0.0
 40
0.0
 40
0.0
 40
1.0
 40
1.0
 40
1.0
 40
1.0
 10
161.5505781781636
 20
146.8631784113243
 30
0.0
 10
161.660741595864
 20
147.2296401204268
 30
0.0
 10
161.8279053564288
 20
147.5876160434994
 30
0.0
 10
162.0314553932055
 20
147.9401750490791
 30
0.0
  0
SPLINE
  5
16D
330
1F
100
AcDbEntity
  8
0
  6
Continuous
 62
     7
370
    18
100
AcDbSpline
210
0.0
220
0.0
230
1.0
 70
     8
 71
     3
 72
     8
 73
     4
 74
     0
 42
0.000000001
 43
0.00000001
 40
0.0
 40
0.0
 40
0.0
 40
0.0
 40
1.0
 40
1.0
 40
1.0
 40
1.0
 10
162.0314553932055
 20
156.0230788177339
 30
0.0
 10
161.8271558726311
 20
156.3769359673308
 30
0.0
 10
161.6592992885941
 20
156.7384116221078
 30
0.0
 10
161.5505781781636
 20
157.1000754554887
 30
0.0
  0
SPLINE
  5
16E
330
1F
100
AcDbEntity
  8
0
  6
Continuous
 62
     7
370
    18
100
AcDbSpline
210
0.0
220
0.0
230
1.0
 70
     8
 71
     3
 72
    10
 73
     6
 74
     0
 42
0.000000001
 43
0.00000001
 40
0.0
 40
0.0
 40
0.0
 40
0.0
 40
0.5
 40
0.5
 40
1.0
 40
1.0
 40
1.0
 40
1.0
 10
161.5505781781636
 20
153.8690855422242
 30
0.0
 10
161.6055201964406
 20
154.2346178820807
 30
0.0
 10
161.6752611303769
 20
154.5987912369475
 30
0.0
 10
161.8373585864196
 20
155.3163946035032
 30
0.0
 10
161.9298984276277
 20
155.6712751692472
 30
0.0
 10
162.0314553932055
 20
156.0230788177339
 30
0.0
  0
SPLINE
  5
16F
330
1F
100
AcDbEntity
  8
0
  6
Continuous
 62
     7
370
    18
100
AcDbSpline
210
0.0
220
0.0
230
1.0
 70
     8
 71
     3
 72
     8
 73
     4
 74
     0
 42
0.000000001
 43
0.00000001
 40
0.0
 40
0.0
 40
0.0
 40
0.0
 40
1.0
 40
1.0
 40
1.0
 40
1.0
 10
164.0697009631218
 20
147.9401750490791
 30
0.0
 10
164.2740004836963
 20
147.5863178994822
 30
0.0
 10
164.4418570677332
 20
147.2248422447052
 30
0.0
 10
164.5505781781636
 20
146.8631784113243
 30
0.0
  0
SPLINE
  5
170
330
1F
100
AcDbEntity
  8
0
  6
Continuous
 62
     7
370
    18
100
AcDbSpline
210
0.0
220
0.0
230
1.0
 70
     8
 71
     3
 72
    10
 73
     6
 74
     0
 42
0.000000001
 43
0.00000001
 40
0.0
 40
0.0
 40
0.0
 40
0.0
 40
0.5
 40
0.5
 40
1.0
 40
1.0
 40
1.0
 40
1.0
 10
164.5505781781636
 20
150.0941683245888
 30
0.0
 10
164.4956361598868
 20
149.7286359847323
 30
0.0
 10
164.4258952259504
 20
149.3644626298655
 30
0.0
 10
164.2637977699077
 20
148.6468592633099
 30
0.0
 10
164.1712579286996
 20
148.2919786975658
 30
0.0
 10
164.0697009631218
 20
147.9401750490791
 30
0.0
  0
LINE
  5
171
330
1F
100
AcDbEntity
  8
0
  6
Continuous
 62
     7
370
    18
100
AcDbLine
 10
164.5505781782
 20
150.0941683246
 30
0.0
 11
164.5505781782
 21
146.8631784113
 31
0.0
  0
SPLINE
  5
172
330
1F
100
AcDbEntity
  8
0
  6
Continuous
 62
     7
370
    18
100
AcDbSpline
210
0.0
220
0.0
230
1.0
 70
     8
 71
     3
 72
    10
 73
     6
 74
     0
 42
0.000000001
 43
0.00000001
 40
0.0
 40
0.0
 40
0.0
 40
0.0
 40
0.5
 40
0.5
 40
1.0
 40
1.0
 40
1.0
 40
1.0
 10
164.0697009631218
 20
156.0230788177339
 30
0.0
 10
164.1714358857782
 20
155.6706587078441
 30
0.0
 10
164.264154105007
 20
155.3150456947542
 30
0.0
 10
164.42655036913
 20
154.5956609166586
 30
0.0
 10
164.496049814575
 20
154.2318658141584
 30
0.0
 10
164.5505781781636
 20
153.8690855422242
 30
0.0
  0
SPLINE
  5
173
330
1F
100
AcDbEntity
  8
0
  6
Continuous
 62
     7
370
    18
100
AcDbSpline
210
0.0
220
0.0
230
1.0
 70
     8
 71
     3
 72
     8
 73
     4
 74
     0
 42
0.000000001
 43
0.00000001
 40
0.0
 40
0.0
 40
0.0
 40
0.0
 40
1.0
 40
1.0
 40
1.0
 40
1.0
 10
164.5505781781636
 20
157.1000754554888
 30
0.0
 10
164.4404147604633
 20
156.7336137463862
 30
0.0
 10
164.2732509998985
 20
156.3756378233136
 30
0.0
 10
164.0697009631218
 20
156.0230788177339
 30
0.0
  0
LINE
  5
174
330
1F
100
AcDbEntity
  8
0
  6
Continuous
 62
     7
370
    18
100
AcDbLine
 10
164.5505781782
 20
157.1000754555
 30
0.0
 11
164.5505781782
 21
153.8690855422
 31
0.0
  0
LINE
  5
175
330
1F
100
AcDbEntity
  8
0
  6
Continuous
 62
     7
370
    18
100
AcDbLine
 10
164.5505781782
 20
144.9757198025
 30
0.0
 11
164.5505781782
 21
146.8631784113
 31
0.0
  0
SPLINE
  5
176
330
1F
100
AcDbEntity
  8
0
  6
Continuous
 62
     7
370
    18
100
AcDbSpline
210
0.0
220
0.0
230
1.0
 70
     8
 71
     3
 72
     8
 73
     4
 74
     0
 42
0.000000001
 43
0.00000001
 40
0.0
 40
0.0
 40
0.0
 40
0.0
 40
1.0
 40
1.0
 40
1.0
 40
1.0
 10
164.5505781781636
 20
144.9757198025066
 30
0.0
 10
164.4404147604633
 20
144.6092580934041
 30
0.0
 10
164.2732509998985
 20
144.2512821703315
 30
0.0
 10
164.0697009631218
 20
143.8987231647517
 30
0.0
  0
LINE
  5
177
330
1F
100
AcDbEntity
  8
0
  6
Continuous
 62
     7
370
    18
100
AcDbLine
 10
164.0697009631
 20
143.8987231648
 30
0.0
 11
162.0314553932
 21
143.8987231648
 31
0.0
  0
SPLINE
  5
178
330
1F
100
AcDbEntity
  8
0
  6
Continuous
 62
     7
370
    18
100
AcDbSpline
210
0.0
220
0.0
230
1.0
 70
     8
 71
     3
 72
     8
 73
     4
 74
     0
 42
0.000000001
 43
0.00000001
 40
0.0
 40
0.0
 40
0.0
 40
0.0
 40
1.0
 40
1.0
 40
1.0
 40
1.0
 10
162.0314553932055
 20
143.8987231647517
 30
0.0
 10
161.8271558726311
 20
144.2525803143487
 30
0.0
 10
161.6592992885941
 20
144.6140559691256
 30
0.0
 10
161.5505781781636
 20
144.9757198025066
 30
0.0
  0
LINE
  5
179
330
1F
100
AcDbEntity
  8
0
  6
Continuous
 62
     7
370
    18
100
AcDbLine
 10
164.0697009631
 20
147.9401750491
 30
0.0
 11
162.0314553932
 21
147.9401750491
 31
0.0
  0
LINE
  5
17A
330
1F
100
AcDbEntity
  8
0
  6
Continuous
 62
     7
370
    18
100
AcDbLine
 10
164.5505781782
 20
150.0941683246
 30
0.0
 11
164.5505781782
 21
153.8690855422
 31
0.0
  0
LINE
  5
17B
330
1F
100
AcDbEntity
  8
0
  6
Continuous
 62
     7
370
    18
100
AcDbLine
 10
164.0697009631
 20
156.0230788177
 30
0.0
 11
162.0314553932
 21
156.0230788177
 31
0.0
  0
SPLINE
  5
17C
330
1F
100
AcDbEntity
  8
0
  6
Continuous
 62
     7
370
    18
100
AcDbSpline
210
0.0
220
0.0
230
1.0
 70
     8
 71
     3
 72
     8
 73
     4
 74
     0
 42
0.000000001
 43
0.00000001
 40
0.0
 40
0.0
 40
0.0
 40
0.0
 40
1.0
 40
1.0
 40
1.0
 40
1.0
 10
164.0697009631218
 20
160.0645307020613
 30
0.0
 10
164.2740004836963
 20
159.7106735524644
 30
0.0
 10
164.4418570677332
 20
159.3491978976874
 30
0.0
 10
164.5505781781636
 20
158.9875340643064
 30
0.0
  0
SPLINE
  5
17D
330
1F
100
AcDbEntity
  8
0
  6
Continuous
 62
     7
370
    18
100
AcDbSpline
210
0.0
220
0.0
230
1.0
 70
     8
 71
     3
 72
     8
 73
     4
 74
     0
 42
0.000000001
 43
0.00000001
 40
0.0
 40
0.0
 40
0.0
 40
0.0
 40
1.0
 40
1.0
 40
1.0
 40
1.0
 10
161.5505781781636
 20
158.9875340643064
 30
0.0
 10
161.660741595864
 20
159.3539957734089
 30
0.0
 10
161.8279053564288
 20
159.7119716964815
 30
0.0
 10
162.0314553932055
 20
160.0645307020613
 30
0.0
  0
LINE
  5
17E
330
1F
100
AcDbEntity
  8
0
  6
Continuous
 62
     7
370
    18
100
AcDbLine
 10
164.0697009631
 20
160.0645307021
 30
0.0
 11
162.0314553932
 21
160.0645307021
 31
0.0
  0
LINE
  5
17F
330
1F
100
AcDbEntity
  8
0
  6
Continuous
 62
     7
370
    18
100
AcDbLine
 10
164.5505781782
 20
157.1000754555
 30
0.0
 11
164.5505781782
 21
158.9875340643
 31
0.0
  0
LINE
  5
180
330
1F
100
AcDbEntity
  8
0
  6
Continuous
 62
     7
370
    18
100
AcDbLine
 10
164.5505781782
 20
159.2316269334
 30
0.0
 11
164.5505781782
 21
158.9875340643
 31
0.0
  0
LINE
  5
181
330
1F
100
AcDbEntity
  8
0
  6
Continuous
 62
     7
370
    18
100
AcDbLine
 10
164.5505781782
 20
144.9757198025
 30
0.0
 11
164.5505781782
 21
144.7316269334
 31
0.0
  0
LINE
  5
182
330
1F
100
AcDbEntity
  8
0
  6
Continuous
 62
     8
370
    18
100
AcDbLine
 10
123.2226175664
 20
145.9816269334
 30
0.0
 11
123.2226175664
 21
157.9816269334
 31
0.0
  0
SPLINE
  5
183
330
1F
100
AcDbEntity
  8
0
  6
Continuous
 62
     8
370
    18
100
AcDbSpline
210
0.0
220
0.0
230
1.0
 70
     8
 71
     3
 72
    12
 73
     8
 74
     0
 42
0.000000001
 43
0.00000001
 40
0.0
 40
0.0
 40
0.0
 40
0.0
 40
0.2212127074441522
 40
0.4440056166114585
 40
0.6719444139717988
 40
0.9017281358314243
 40
1.0
 40
1.0
 40
1.0
 40
1.0
 10
121.8226175664009
 20
146.0357256983876
 30
0.0
 10
121.8430170424502
 20
146.0285153016987
 30
0.0
 10
121.8839617153241
 20
146.0140430018709
 30
0.0
 10
121.9283720277482
 20
145.9979085829704
 30
0.0
 10
121.9583693982156
 20
145.9869049771105
 30
0.0
 10
121.9725704739107
 20
145.9816441931685
 30
0.0
 10
121.9711874559104
 20
145.9821563857766
 30
0.0
 10
121.9707731610078
 20
145.9823098174648
 30
0.0
  0
LINE
  5
184
330
1F
100
AcDbEntity
  8
0
  6
Continuous
 62
     8
370
    18
100
AcDbLine
 10
121.8226175664
 20
157.9816269334
 30
0.0
 11
121.8226175664
 21
146.0357256984
 31
0.0
  0
LINE
  5
185
330
1F
100
AcDbEntity
  8
0
  6
Continuous
 62
     8
370
    18
100
AcDbLine
 10
127.2226175664
 20
148.2316269334
 30
0.0
 11
127.2226175664
 21
155.7316269334
 31
0.0
  0
LINE
  5
186
330
1F
100
AcDbEntity
  8
0
  6
Continuous
 62
     8
370
    18
100
AcDbLine
 10
117.2226175664
 20
155.451497248
 30
0.0
 11
117.2226175664
 21
156.9816269334
 31
0.0
  0
LINE
  5
187
330
1F
100
AcDbEntity
  8
0
  6
Continuous
 62
     8
370
    18
100
AcDbLine
 10
115.8226175664
 20
156.9816269334
 30
0.0
 11
115.8226175664
 21
155.451497248
 31
0.0
  0
LINE
  5
188
330
1F
100
AcDbEntity
  8
0
  6
Continuous
 62
     8
370
    18
100
AcDbLine
 10
115.8226175664
 20
148.5117566188
 30
0.0
 11
115.8226175664
 21
146.9816269334
 31
0.0
  0
SPLINE
  5
189
330
1F
100
AcDbEntity
  8
0
  6
Continuous
 62
     8
370
    18
100
AcDbSpline
210
0.0
220
0.0
230
1.0
 70
     8
 71
     3
 72
    12
 73
     8
 74
     0
 42
0.000000001
 43
0.00000001
 40
0.0
 40
0.0
 40
0.0
 40
0.0
 40
0.2049361848410793
 40
0.4249543816969796
 40
0.6485340582329391
 40
0.7609107448283547
 40
1.0
 40
1.0
 40
1.0
 40
1.0
 10
117.0729815565857
 20
146.9817855134438
 30
0.0
 10
117.0740802716989
 20
146.9822650847106
 30
0.0
 10
117.0763585604351
 20
146.9832595206678
 30
0.0
 10
117.0980921940335
 20
146.9927124733177
 30
0.0
 10
117.1281933877899
 20
147.0056667669376
 30
0.0
 10
117.1683486047575
 20
147.0227817989506
 30
0.0
 10
117.2006465030938
 20
147.0362705652741
 30
0.0
 10
117.2226175664009
 20
147.0454464731225
 30
0.0
  0
LINE
  5
18A
330
1F
100
AcDbEntity
  8
0
  6
Continuous
 62
     8
370
    18
100
AcDbLine
 10
110.3226175664
 20
151.9816269334
 30
0.0
 11
110.3226175664
 21
148.4816269334
 31
0.0
  0
LINE
  5
18B
330
1F
100
AcDbEntity
  8
0
  6
Continuous
 62
     8
370
    18
100
AcDbLine
 10
110.3226175664
 20
155.4816269334
 30
0.0
 11
110.3226175664
 21
151.9816269334
 31
0.0
  0
LINE
  5
18C
330
1F
100
AcDbEntity
  8
0
  6
Continuous
 62
     8
370
    18
100
AcDbLine
 10
111.7226175664
 20
148.4816269334
 30
0.0
 11
111.7226175664
 21
155.4816269334
 31
0.0
  0
SPLINE
  5
18D
330
1F
100
AcDbEntity
  8
0
  6
Continuous
 62
     8
370
    18
100
AcDbSpline
210
0.0
220
0.0
230
1.0
 70
     8
 71
     3
 72
    13
 73
     9
 74
     0
 42
0.000000001
 43
0.00000001
 40
0.0
 40
0.0
 40
0.0
 40
0.0
 40
0.1192475147656745
 40
0.2387354891555226
 40
0.4548110168384675
 40
0.6724292329673877
 40
0.8950457741709288
 40
1.0
 40
1.0
 40
1.0
 40
1.0
 10
117.5042502194621
 20
146.7492756455054
 30
0.0
 10
117.4943194609868
 20
146.7442829747886
 30
0.0
 10
117.4744379189106
 20
146.7342875657597
 30
0.0
 10
117.4421467137611
 20
146.7178176235779
 30
0.0
 10
117.4100611672941
 20
146.7012476966847
 30
0.0
 10
117.3851782949402
 20
146.6882398568841
 30
0.0
 10
117.3728152454694
 20
146.6817312523123
 30
0.0
 10
117.3739412895536
 20
146.6823240611019
 30
0.0
 10
117.374302075976
 20
146.6825139980372
 30
0.0
  0
SPLINE
  5
18E
330
1F
100
AcDbEntity
  8
0
  6
Continuous
 62
     8
370
    18
100
AcDbSpline
210
0.0
220
0.0
230
1.0
 70
     8
 71
     3
 72
    12
 73
     8
 74
     0
 42
0.000000001
 43
0.00000001
 40
0.0
 40
0.0
 40
0.0
 40
0.0
 40
0.0983780195164017
 40
0.3196498299983937
 40
0.542538544202681
 40
0.7704307402621186
 40
0.9999999999999999
 40
0.9999999999999999
 40
0.9999999999999999
 40
0.9999999999999999
 10
121.6708870198877
 20
145.6823935453525
 30
0.0
 10
121.6712970093934
 20
145.6822118891482
 30
0.0
 10
121.672629147166
 20
145.6816216518666
 30
0.0
 10
121.660626281989
 20
145.6869416775132
 30
0.0
 10
121.6353399789614
 20
145.6980441237397
 30
0.0
 10
121.5965496398607
 20
145.7149242575665
 30
0.0
 10
121.5595517005977
 20
145.730576050342
 30
0.0
 10
121.5409849133398
 20
145.7384306366366
 30
0.0
  0
SPLINE
  5
18F
330
1F
100
AcDbEntity
  8
0
  6
Continuous
 62
     8
370
    18
100
AcDbSpline
210
0.0
220
0.0
230
1.0
 70
     8
 71
     3
 72
    25
 73
    21
 74
     0
 42
0.000000001
 43
0.00000001
 40
0.0
 40
0.0
 40
0.0
 40
0.0
 40
0.0559188169954295
 40
0.1118125449361117
 40
0.1677329880520194
 40
0.2236819676342009
 40
0.2796189818357641
 40
0.3355243711502757
 40
0.3914422067548002
 40
0.4473886257124315
 40
0.5033284010016388
 40
0.5592360808397174
 40
0.6151483555105489
 40
0.6710919382411452
 40
0.7270354394808132
 40
0.7829475093442522
 40
0.8388549944212428
 40
0.8947947650677343
 40
0.9507412633558071
 40
1.0
 40
1.0
 40
1.0
 40
1.0
 10
140.735357677412
 20
148.4365102256844
 30
0.0
 10
140.7133122516037
 20
148.5707117519522
 30
0.0
 10
140.6692312910922
 20
148.8390545923871
 30
0.0
 10
140.6030469306547
 20
149.3205954588599
 30
0.0
 10
140.536901901574
 20
149.8492319230044
 30
0.0
 10
140.4707819199206
 20
150.419421022966
 30
0.0
 10
140.4046506364492
 20
151.0187704350887
 30
0.0
 10
140.3384736006416
 20
151.6368802910386
 30
0.0
 10
140.2723177570139
 20
152.2616761764679
 30
0.0
 10
140.206195146416
 20
152.8810557226265
 30
0.0
 10
140.1400672864413
 20
153.4834879607033
 30
0.0
 10
140.0738959921835
 20
154.0573088460193
 30
0.0
 10
140.0077322510181
 20
154.5902790841968
 30
0.0
 10
139.9416076874124
 20
155.0734867890934
 30
0.0
 10
139.8754831155749
 20
155.4984450236785
 30
0.0
 10
139.809319253138
 20
155.8563868494097
 30
0.0
 10
139.743147997348
 20
156.1386973423657
 30
0.0
 10
139.6770195965365
 20
156.339188905791
 30
0.0
 10
139.6135232960738
 20
156.460811519425
 30
0.0
 10
139.5720349530549
 20
156.4717880876446
 30
0.0
 10
139.5526094618815
 20
156.4769274885834
 30
0.0
  0
SPLINE
  5
190
330
1F
100
AcDbEntity
  8
0
  6
Continuous
 62
     8
370
    18
100
AcDbSpline
210
0.0
220
0.0
230
1.0
 70
     8
 71
     3
 72
    31
 73
    27
 74
     0
 42
0.000000001
 43
0.00000001
 40
0.0
 40
0.0
 40
0.0
 40
0.0
 40
0.0206548258605945
 40
0.0647468529276528
 40
0.1088154710736454
 40
0.1528751899461449
 40
0.1969597970057146
 40
0.241053467467605
 40
0.2851264640982668
 40
0.3291843191038278
 40
0.3732649495080186
 40
0.4173593995177104
 40
0.4614368236197917
 40
0.5054941547991748
 40
0.5495704742588713
 40
0.5936648116590749
 40
0.6377464808569321
 40
0.6818046838819588
 40
0.7258765651359084
 40
0.7699699018393983
 40
0.814055434910989
 40
0.858115812503118
 40
0.9021833678752307
 40
0.9462748522804686
 40
0.9903637016925606
 40
0.9999999999999999
 40
0.9999999999999999
 40
0.9999999999999999
 40
0.9999999999999999
 10
138.05436705289
 20
147.4935046739207
 30
0.0
 10
138.044037119391
 20
147.4908632978211
 30
0.0
 10
138.0116557916798
 20
147.4825833543831
 30
0.0
 10
137.9572534740578
 20
147.5598887846072
 30
0.0
 10
137.8910945774802
 20
147.7201257047173
 30
0.0
 10
137.8249189175564
 20
147.9687978775621
 30
0.0
 10
137.7587877636642
 20
148.2932808099803
 30
0.0
 10
137.6926664272456
 20
148.6876401204109
 30
0.0
 10
137.6265171622246
 20
149.1442950730868
 30
0.0
 10
137.5603371028158
 20
149.6565217065207
 30
0.0
 10
137.4942005010685
 20
150.2136320507399
 30
0.0
 10
137.4280797995477
 20
150.8040568243777
 30
0.0
 10
137.3619381834909
 20
151.4167864829528
 30
0.0
 10
137.2957569803517
 20
152.040601028469
 30
0.0
 10
137.2296135323815
 20
152.6631704662175
 30
0.0
 10
137.163492736713
 20
153.2727897007618
 30
0.0
 10
137.0973576589219
 20
153.8580959964677
 30
0.0
 10
137.0311783538083
 20
154.4072610039054
 30
0.0
 10
136.9650270533277
 20
154.9088827283048
 30
0.0
 10
136.8989053885791
 20
155.354972733616
 30
0.0
 10
136.8327755522636
 20
155.7376118593873
 30
0.0
 10
136.7666007833144
 20
156.0477135221919
 30
0.0
 10
136.7004417435442
 20
156.2798506648278
 30
0.0
 10
136.6343161224333
 20
156.4229620442067
 30
0.0
 10
136.5854110697534
 20
156.4871781089392
 30
0.0
 10
136.5585265890733
 20
156.4757089676201
 30
0.0
 10
136.5537045106488
 20
156.4736518291705
 30
0.0
  0
SPLINE
  5
191
330
1F
100
AcDbEntity
  8
0
  6
Continuous
 62
     8
370
    18
100
AcDbSpline
210
0.0
220
0.0
230
1.0
 70
     8
 71
     3
 72
    31
 73
    27
 74
     0
 42
0.000000001
 43
0.00000001
 40
0.0
 40
0.0
 40
0.0
 40
0.0
 40
0.00437919100418
 40
0.048498521335533
 40
0.0926138971014481
 40
0.1367039012609926
 40
0.1807957402572538
 40
0.2249126226807492
 40
0.2690308173158983
 40
0.3131246214452225
 40
0.3572130096127548
 40
0.4013267336344002
 40
0.4454469863973307
 40
0.489545049316194
 40
0.5336309659273244
 40
0.5777409468720862
 40
0.6218624197932691
 40
0.66596491973021
 40
0.7100496235075981
 40
0.7541554381121647
 40
0.7982772504632997
 40
0.8423841140371457
 40
0.8864689794836381
 40
0.9305703731679219
 40
0.9746916184869721
 40
1.0
 40
1.0
 40
1.0
 40
1.0
 10
135.0533847287753
 20
147.4863536615894
 30
0.0
 10
135.0511950098229
 20
147.4850651242007
 30
0.0
 10
135.0269443819718
 20
147.4707948724622
 30
0.0
 10
134.9806756018284
 20
147.5247618512599
 30
0.0
 10
134.9145454881397
 20
147.6523908699747
 30
0.0
 10
134.8483767359813
 20
147.8717477684602
 30
0.0
 10
134.7822107297943
 20
148.1695817400058
 30
0.0
 10
134.7160855360886
 20
148.5406311575242
 30
0.0
 10
134.649961592994
 20
148.9763812076927
 30
0.0
 10
134.5837998581422
 20
149.4694048172414
 30
0.0
 10
134.5176268070895
 20
150.0118453853008
 30
0.0
 10
134.451498017546
 20
150.5919141188882
 30
0.0
 10
134.3853760210853
 20
151.1981654041576
 30
0.0
 10
134.3192226400157
 20
151.8193610850757
 30
0.0
 10
134.2530442716756
 20
152.443798299759
 30
0.0
 10
134.1869106308126
 20
153.0591978207801
 30
0.0
 10
134.1207896930903
 20
153.6542321763225
 30
0.0
 10
134.0546443471141
 20
154.2177264671177
 30
0.0
 10
133.9884633404141
 20
154.737693136216
 30
0.0
 10
133.9223234796291
 20
155.2040495233571
 30
0.0
 10
133.8562028540686
 20
155.6096016621621
 30
0.0
 10
133.790064545557
 20
155.9464307962129
 30
0.0
 10
133.7238842952417
 20
156.2075261674685
 30
0.0
 10
133.6577355985129
 20
156.3821055474929
 30
0.0
 10
133.6010138624723
 20
156.4731387091882
 30
0.0
 10
133.5663076451943
 20
156.4709782808136
 30
0.0
 10
133.5536565878889
 20
156.4701907647627
 30
0.0
  0
SPLINE
  5
192
330
1F
100
AcDbEntity
  8
0
  6
Continuous
 62
     8
370
    18
100
AcDbSpline
210
0.0
220
0.0
230
1.0
 70
     8
 71
     3
 72
    13
 73
     9
 74
     0
 42
0.000000001
 43
0.00000001
 40
0.0
 40
0.0
 40
0.0
 40
0.0
 40
0.2192618206185004
 40
0.4397948967374152
 40
0.5498347069448349
 40
0.6595795419018172
 40
0.8795750456016336
 40
1.0
 40
1.0
 40
1.0
 40
1.0
 10
132.2686909906281
 20
148.387395070605
 30
0.0
 10
132.3012171563163
 20
148.3837246771082
 30
0.0
 10
132.3664580707616
 20
148.3763626095839
 30
0.0
 10
132.4357220084237
 20
148.3331154047453
 30
0.0
 10
132.4780621817633
 20
148.2883652440836
 30
0.0
 10
132.5080663228159
 20
148.2364586387791
 30
0.0
 10
132.5243201302189
 20
148.1754230252595
 30
0.0
 10
132.5119969522872
 20
148.1312608818804
 30
0.0
 10
132.5076375840262
 20
148.1156383657359
 30
0.0
  0
SPLINE
  5
193
330
1F
100
AcDbEntity
  8
0
  6
Continuous
 62
     8
370
    18
100
AcDbSpline
210
0.0
220
0.0
230
1.0
 70
     8
 71
     3
 72
    11
 73
     7
 74
     0
 42
0.000000001
 43
0.00000001
 40
0.0
 40
0.0
 40
0.0
 40
0.0
 40
0.2937215759823414
 40
0.587311757571875
 40
0.8810418496933599
 40
1.0
 40
1.0
 40
1.0
 40
1.0
 10
132.2686909906282
 20
148.3873950532383
 30
0.0
 10
132.2907364716807
 20
148.4745862676667
 30
0.0
 10
132.3348175718867
 20
148.6489296921137
 30
0.0
 10
132.401001096348
 20
148.9959426540447
 30
0.0
 10
132.4540182747747
 20
149.3085005241877
 30
0.0
 10
132.4849788936748
 20
149.5205137331957
 30
0.0
 10
132.4939033494215
 20
149.5816269334065
 30
0.0
  0
SPLINE
  5
194
330
1F
100
AcDbEntity
  8
0
  6
Continuous
 62
     8
370
    18
100
AcDbSpline
210
0.0
220
0.0
230
1.0
 70
     8
 71
     3
 72
    14
 73
    10
 74
     0
 42
0.000000001
 43
0.00000001
 40
0.0
 40
0.0
 40
0.0
 40
0.0
 40
0.0508552215034061
 40
0.2321129126514579
 40
0.4133557845921543
 40
0.5947030117377963
 40
0.7760719843635271
 40
0.9573474335333005
 40
1.0
 40
1.0
 40
1.0
 40
1.0
 10
133.1100387392933
 20
154.3816269334065
 30
0.0
 10
133.1162210426248
 20
154.4243591449646
 30
0.0
 10
133.144438252004
 20
154.619397093784
 30
0.0
 10
133.1947308111993
 20
154.9204290098253
 30
0.0
 10
133.2609002202856
 20
155.2708448137715
 30
0.0
 10
133.3270286841788
 20
155.5565817344423
 30
0.0
 10
133.3931505435879
 20
155.769467916338
 30
0.0
 10
133.4424507844115
 20
155.8920729318692
 30
0.0
 10
133.4696940687899
 20
155.9176494725558
 30
0.0
 10
133.4748832185014
 20
155.9225211501729
 30
0.0
  0
SPLINE
  5
195
330
1F
100
AcDbEntity
  8
0
  6
Continuous
 62
     8
370
    18
100
AcDbSpline
210
0.0
220
0.0
230
1.0
 70
     8
 71
     3
 72
    13
 73
     9
 74
     0
 42
0.000000001
 43
0.00000001
 40
0.0
 40
0.0
 40
0.0
 40
0.0
 40
0.1729714221640567
 40
0.3466819671404909
 40
0.5204281200094745
 40
0.694093050479822
 40
0.86769849329608
 40
1.0
 40
1.0
 40
1.0
 40
1.0
 10
135.1132060545873
 20
148.0145977864267
 30
0.0
 10
135.1351760575015
 20
148.0454159288026
 30
0.0
 10
135.1792099431752
 20
148.1071839023141
 30
0.0
 10
135.2452608096021
 20
148.295216928799
 30
0.0
 10
135.3113821474447
 20
148.5469388317057
 30
0.0
 10
135.3775305849414
 20
148.8667092501909
 30
0.0
 10
135.4384552419088
 20
149.2116376276906
 30
0.0
 10
135.4772814745493
 20
149.4699217804929
 30
0.0
 10
135.4940734078023
 20
149.5816269334065
 30
0.0
  0
SPLINE
  5
196
330
1F
100
AcDbEntity
  8
0
  6
Continuous
 62
     8
370
    18
100
AcDbSpline
210
0.0
220
0.0
230
1.0
 70
     8
 71
     3
 72
    13
 73
     9
 74
     0
 42
0.000000001
 43
0.00000001
 40
0.0
 40
0.0
 40
0.0
 40
0.0
 40
0.1687198280035171
 40
0.3495025774672766
 40
0.5303146907986909
 40
0.7112246964764234
 40
0.8921239225357457
 40
1.0
 40
1.0
 40
1.0
 40
1.0
 10
136.1095979353665
 20
154.3816269334065
 30
0.0
 10
136.1301605483579
 20
154.5162841474986
 30
0.0
 10
136.1727559345967
 20
154.7952261305284
 30
0.0
 10
136.2374477040688
 20
155.1539378999702
 30
0.0
 10
136.3036067322181
 20
155.4632732896295
 30
0.0
 10
136.3697311022977
 20
155.7020068681861
 30
0.0
 10
136.4269677790313
 20
155.8591302626787
 30
0.0
 10
136.4621885356389
 20
155.9040402353719
 30
0.0
 10
136.475345744797
 20
155.9208169875182
 30
0.0
  0
SPLINE
  5
197
330
1F
100
AcDbEntity
  8
0
  6
Continuous
 62
     8
370
    18
100
AcDbSpline
210
0.0
220
0.0
230
1.0
 70
     8
 71
     3
 72
    14
 73
    10
 74
     0
 42
0.000000001
 43
0.00000001
 40
0.0
 40
0.0
 40
0.0
 40
0.0
 40
0.0740151958780194
 40
0.2548079350887053
 40
0.4357030581387711
 40
0.6166035458447149
 40
0.7974043190124318
 40
0.9781829503938215
 40
0.9999999999999999
 40
0.9999999999999999
 40
0.9999999999999999
 40
0.9999999999999999
 10
138.1285891791652
 20
148.0423965176829
 30
0.0
 10
138.137615945877
 20
148.0521114563988
 30
0.0
 10
138.168691885879
 20
148.0855565272974
 30
0.0
 10
138.2218382409193
 20
148.2234994927058
 30
0.0
 10
138.2879621883846
 20
148.4495999822279
 30
0.0
 10
138.3540873420029
 20
148.7458218896452
 30
0.0
 10
138.4202457206187
 20
149.106730043088
 30
0.0
 10
138.4670234168885
 20
149.3905175248385
 30
0.0
 10
138.491717928668
 20
149.5630475799273
 30
0.0
 10
138.4943772222219
 20
149.5816269334065
 30
0.0
  0
SPLINE
  5
198
330
1F
100
AcDbEntity
  8
0
  6
Continuous
 62
     8
370
    18
100
AcDbSpline
210
0.0
220
0.0
230
1.0
 70
     8
 71
     3
 72
    14
 73
    10
 74
     0
 42
0.000000001
 43
0.00000001
 40
0.0
 40
0.0
 40
0.0
 40
0.0
 40
0.09766182293389
 40
0.2691715544228417
 40
0.440595998818381
 40
0.6120845234635723
 40
0.7836500133048346
 40
0.9551755997362986
 40
0.9999999999999999
 40
0.9999999999999999
 40
0.9999999999999999
 40
0.9999999999999999
 10
139.1102050446474
 20
154.3816269334065
 30
0.0
 10
139.1227553556816
 20
154.466390988027
 30
0.0
 10
139.1573460138127
 20
154.7000142366616
 30
0.0
 10
139.2139833688491
 20
155.0289517045081
 30
0.0
 10
139.2801641199314
 20
155.3615439089091
 30
0.0
 10
139.346310950443
 20
155.6275933289744
 30
0.0
 10
139.4124336078162
 20
155.819157932207
 30
0.0
 10
139.4622889751218
 20
155.9260050276029
 30
0.0
 10
139.4901164252188
 20
155.9428533485745
 30
0.0
 10
139.4958818462411
 20
155.9463440623691
 30
0.0
  0
SPLINE
  5
199
330
1F
100
AcDbEntity
  8
0
  6
Continuous
 62
     8
370
    18
100
AcDbSpline
210
0.0
220
0.0
230
1.0
 70
     8
 71
     3
 72
    13
 73
     9
 74
     0
 42
0.000000001
 43
0.00000001
 40
0.0
 40
0.0
 40
0.0
 40
0.0
 40
0.2278016839582367
 40
0.4569262321480514
 40
0.5712533989052607
 40
0.6852735868689633
 40
0.9138390062790491
 40
0.9999999999999999
 40
0.9999999999999999
 40
0.9999999999999999
 40
0.9999999999999999
 10
140.735357677412
 20
148.436510198228
 30
0.0
 10
140.7678932299267
 20
148.4397214773429
 30
0.0
 10
140.8331532717449
 20
148.4461626837503
 30
0.0
 10
140.9024143550998
 20
148.4840761554443
 30
0.0
 10
140.9448220238776
 20
148.5233172457194
 30
0.0
 10
140.9746248597007
 20
148.5688171394772
 30
0.0
 10
140.9907597323943
 20
148.6179696853071
 30
0.0
 10
140.9803419094706
 20
148.652469395406
 30
0.0
 10
140.9774898769177
 20
148.6619141994682
 30
0.0
  0
SPLINE
  5
19A
330
1F
100
AcDbEntity
  8
0
  6
Continuous
 62
     8
370
    18
100
AcDbSpline
210
0.0
220
0.0
230
1.0
 70
     8
 71
     3
 72
    10
 73
     6
 74
     0
 42
0.000000001
 43
0.00000001
 40
0.0
 40
0.0
 40
0.0
 40
0.0
 40
0.4006887108033185
 40
0.8037005699021562
 40
1.0
 40
1.0
 40
1.0
 40
1.0
 10
132.2686906368655
 20
148.3873941949771
 30
0.0
 10
132.2362611923301
 20
148.383666442784
 30
0.0
 10
132.1712142809698
 20
148.3761893253078
 30
0.0
 10
132.1010695496477
 20
148.3338665994384
 30
0.0
 10
132.0713200420497
 20
148.2994913323962
 30
0.0
 10
132.0615758381736
 20
148.2882319994728
 30
0.0
  0
SPLINE
  5
19B
330
1F
100
AcDbEntity
  8
0
  6
Continuous
 62
     8
370
    18
100
AcDbSpline
210
0.0
220
0.0
230
1.0
 70
     8
 71
     3
 72
    12
 73
     8
 74
     0
 42
0.000000001
 43
0.00000001
 40
0.0
 40
0.0
 40
0.0
 40
0.0
 40
0.2723985904865318
 40
0.5463790233174676
 40
0.6830881052546108
 40
0.8194301109301951
 40
0.9999999999999999
 40
0.9999999999999999
 40
0.9999999999999999
 40
0.9999999999999999
 10
140.7353572834016
 20
148.4365088697299
 30
0.0
 10
140.7028480346645
 20
148.4397214559575
 30
0.0
 10
140.6376407531507
 20
148.4461652841806
 30
0.0
 10
140.5680487135712
 20
148.4840623390394
 30
0.0
 10
140.5263289360162
 20
148.5233375958789
 30
0.0
 10
140.4992627935583
 20
148.5609988704534
 30
0.0
 10
140.4949784661397
 20
148.5908432352885
 30
0.0
 10
140.4925373443657
 20
148.607847941445
 30
0.0
  0
SPLINE
  5
19C
330
1F
100
AcDbEntity
  8
0
  6
Continuous
 62
     8
370
    18
100
AcDbSpline
210
0.0
220
0.0
230
1.0
 70
     8
 71
     3
 72
    10
 73
     6
 74
     0
 42
0.000000001
 43
0.00000001
 40
0.0
 40
0.0
 40
0.0
 40
0.0
 40
0.4773133354429036
 40
0.9544131479408147
 40
1.0
 40
1.0
 40
1.0
 40
1.0
 10
132.2686906368655
 20
148.3873942124083
 30
0.0
 10
132.246646165357
 20
148.314308512092
 30
0.0
 10
132.2025670837878
 20
148.1681698058611
 30
0.0
 10
132.156330583767
 20
148.0606812284319
 30
0.0
 10
132.1321874355477
 20
148.040345981421
 30
0.0
 10
132.1300817569438
 20
148.0385724142727
 30
0.0
  0
SPLINE
  5
19D
330
1F
100
AcDbEntity
  8
0
  6
Continuous
 62
     8
370
    18
100
AcDbSpline
210
0.0
220
0.0
230
1.0
 70
     8
 71
     3
 72
    14
 73
    10
 74
     0
 42
0.000000001
 43
0.00000001
 40
0.0
 40
0.0
 40
0.0
 40
0.0
 40
0.0814928921233018
 40
0.2445442761488006
 40
0.4076655980312035
 40
0.5707445583957477
 40
0.7337348133437398
 40
0.8967698417137768
 40
0.9999999999999999
 40
0.9999999999999999
 40
0.9999999999999999
 40
0.9999999999999999
 10
130.5158261267764
 20
155.9603757045773
 30
0.0
 10
130.5048012569476
 20
155.9552725528015
 30
0.0
 10
130.4717177727114
 20
155.9399589895619
 30
0.0
 10
130.416591644829
 20
155.8305322708588
 30
0.0
 10
130.3504708199847
 20
155.6415501353074
 30
0.0
 10
130.2843369992001
 20
155.3799578292835
 30
0.0
 10
130.2181591508877
 20
155.0519589570517
 30
0.0
 10
130.1601037512969
 20
154.7172960132707
 30
0.0
 10
130.1241155141223
 20
154.4754066595126
 30
0.0
 10
130.1101629900743
 20
154.3816269334065
 30
0.0
  0
SPLINE
  5
19E
330
1F
100
AcDbEntity
  8
0
  6
Continuous
 62
     8
370
    18
100
AcDbSpline
210
0.0
220
0.0
230
1.0
 70
     8
 71
     3
 72
    14
 73
    10
 74
     0
 42
0.000000001
 43
0.00000001
 40
0.0
 40
0.0
 40
0.0
 40
0.0
 40
0.0108239899837529
 40
0.1915529963314638
 40
0.3722456138844681
 40
0.5530399983310977
 40
0.7338714427444392
 40
0.9146183525454966
 40
1.0
 40
1.0
 40
1.0
 40
1.0
 10
129.4945251772404
 20
149.5816269334065
 30
0.0
 10
129.4932053879661
 20
149.5723755874485
 30
0.0
 10
129.4698489740738
 20
149.408653795298
 30
0.0
 10
129.4244260037201
 20
149.131495753111
 30
0.0
 10
129.3582526875599
 20
148.7661833042601
 30
0.0
 10
129.2921208149841
 20
148.4663940108301
 30
0.0
 10
129.2259998856376
 20
148.235851669487
 30
0.0
 10
129.1714754367646
 20
148.0915134522443
 30
0.0
 10
129.1389991063552
 20
148.054484520563
 30
0.0
 10
129.1285797713457
 20
148.0426045809465
 30
0.0
  0
SPLINE
  5
19F
330
1F
100
AcDbEntity
  8
0
  6
Continuous
 62
     8
370
    18
100
AcDbSpline
210
0.0
220
0.0
230
1.0
 70
     8
 71
     3
 72
    10
 73
     6
 74
     0
 42
0.000000001
 43
0.00000001
 40
0.0
 40
0.0
 40
0.0
 40
0.0
 40
0.3318300405768941
 40
0.9520741631952983
 40
1.0
 40
1.0
 40
1.0
 40
1.0
 10
127.4754517569236
 20
155.9206703004895
 30
0.0
 10
127.4636485422844
 20
155.9059272672718
 30
0.0
 10
127.4297832066412
 20
155.8636271156964
 30
0.0
 10
127.3942381541185
 20
155.779053337586
 30
0.0
 10
127.3704927806922
 20
155.6932817976252
 30
0.0
 10
127.3687895959326
 20
155.6871296610786
 30
0.0
  0
SPLINE
  5
1A0
330
1F
100
AcDbEntity
  8
0
  6
Continuous
 62
     8
370
    18
100
AcDbSpline
210
0.0
220
0.0
230
1.0
 70
     8
 71
     3
 72
     9
 73
     5
 74
     0
 42
0.000000001
 43
0.00000001
 40
0.0
 40
0.0
 40
0.0
 40
0.0
 40
0.3463583959514999
 40
0.9999999999999999
 40
0.9999999999999999
 40
0.9999999999999999
 40
0.9999999999999999
 10
126.2183049435516
 20
148.2316269334065
 30
0.0
 10
126.2066291524636
 20
148.1963208127381
 30
0.0
 10
126.1729190093735
 20
148.0943855887589
 30
0.0
 10
126.1391809760891
 20
148.0486431663718
 30
0.0
 10
126.1171283938956
 20
148.0187440160297
 30
0.0
  0
SPLINE
  5
1A1
330
1F
100
AcDbEntity
  8
0
  6
Continuous
 62
     8
370
    18
100
AcDbSpline
210
0.0
220
0.0
230
1.0
 70
     8
 71
     3
 72
    10
 73
     6
 74
     0
 42
0.000000001
 43
0.00000001
 40
0.0
 40
0.0
 40
0.0
 40
0.0
 40
0.1227775406896021
 40
0.8572325231271675
 40
1.0
 40
1.0
 40
1.0
 40
1.0
 10
124.4745392051722
 20
155.9235969952205
 30
0.0
 10
124.4708537833748
 20
155.9202840596552
 30
0.0
 10
124.4451221763688
 20
155.8971531507146
 30
0.0
 10
124.4150874721104
 20
155.8319068692166
 30
0.0
 10
124.3887695797271
 20
155.7456630654395
 30
0.0
 10
124.3844863570938
 20
155.7316269334065
 30
0.0
  0
SPLINE
  5
1A2
330
1F
100
AcDbEntity
  8
0
  6
Continuous
 62
     8
370
    18
100
AcDbSpline
210
0.0
220
0.0
230
1.0
 70
     8
 71
     3
 72
    31
 73
    27
 74
     0
 42
0.000000001
 43
0.00000001
 40
0.0
 40
0.0
 40
0.0
 40
0.0
 40
0.0301692405426759
 40
0.0742206964395505
 40
0.1182474024038519
 40
0.1622704981808494
 40
0.2063190165057645
 40
0.2503728323612175
 40
0.2944038644631545
 40
0.338424320701108
 40
0.3824692476687895
 40
0.4265244515149841
 40
0.4705598334406967
 40
0.5145787118683849
 40
0.5586195554962391
 40
0.602675325525787
 40
0.6467151217544809
 40
0.6907338387550592
 40
0.7347703252775734
 40
0.7788257563852206
 40
0.8228697127178388
 40
0.8668896407367499
 40
0.9109216968825804
 40
0.9549759096583179
 40
0.9990236034651027
 40
1.0
 40
1.0
 40
1.0
 40
1.0
 10
124.5504731745338
 20
156.4712706825115
 30
0.0
 10
124.5655738901649
 20
156.4713498959651
 30
0.0
 10
124.6027238352984
 20
156.4715447725211
 30
0.0
 10
124.661897754664
 20
156.3741322153295
 30
0.0
 10
124.7280625452018
 20
156.193644496727
 30
0.0
 10
124.7942337036656
 20
155.9270653157546
 30
0.0
 10
124.8603615655139
 20
155.5859213435786
 30
0.0
 10
124.9264839108538
 20
155.1765980980647
 30
0.0
 10
124.9926393215506
 20
154.7066848563873
 30
0.0
 10
125.0588166050067
 20
154.1832409910909
 30
0.0
 10
125.1249489334826
 20
153.6175233246637
 30
0.0
 10
125.1910700638222
 20
153.0209854015472
 30
0.0
 10
125.2572173254405
 20
152.404709792296
 30
0.0
 10
125.32339796014
 20
151.780088042003
 30
0.0
 10
125.3895361655918
 20
151.1594855317464
 30
0.0
 10
125.4556568188583
 20
150.554456892527
 30
0.0
 10
125.5217966719341
 20
149.9763106310789
 30
0.0
 10
125.5879776817821
 20
149.4370009099021
 30
0.0
 10
125.6541230228767
 20
148.9473801184511
 30
0.0
 10
125.7202439769873
 20
148.515221925405
 30
0.0
 10
125.7863775572043
 20
148.1482226160538
 30
0.0
 10
125.852556151635
 20
147.855829425491
 30
0.0
 10
125.9187086886867
 20
147.6415643870554
 30
0.0
 10
125.9848338366309
 20
147.5199110921469
 30
0.0
 10
126.0294099880185
 20
147.4685465248498
 30
0.0
 10
126.0519604411721
 20
147.4828585570062
 30
0.0
 10
126.0524494723586
 20
147.4831689290425
 30
0.0
  0
SPLINE
  5
1A3
330
1F
100
AcDbEntity
  8
0
  6
Continuous
 62
     8
370
    18
100
AcDbSpline
210
0.0
220
0.0
230
1.0
 70
     8
 71
     3
 72
    31
 73
    27
 74
     0
 42
0.000000001
 43
0.00000001
 40
0.0
 40
0.0
 40
0.0
 40
0.0
 40
0.0147706552845767
 40
0.0587627027397572
 40
0.1027469644891975
 40
0.1467061285452248
 40
0.1906724538927619
 40
0.2346626533047128
 40
0.2786502237764998
 40
0.3226126167835939
 40
0.3665750097906812
 40
0.4105625802624518
 40
0.4545527796743819
 40
0.4985191050218993
 40
0.5424782690779125
 40
0.586462530827343
 40
0.6304545782825166
 40
0.6744252195746505
 40
0.718382214058877
 40
0.7623626208104846
 40
0.8063556666636084
 40
0.8503307359662379
 40
0.8942868606075908
 40
0.9382630320150809
 40
0.9822561902190261
 40
1.0
 40
1.0
 40
1.0
 40
1.0
 10
127.5501168598102
 20
156.4712321645111
 30
0.0
 10
127.5575239580078
 20
156.4740537471673
 30
0.0
 10
127.5869919200697
 20
156.4852789649853
 30
0.0
 10
127.6384745317563
 20
156.4169208517499
 30
0.0
 10
127.7046065642887
 20
156.2678776322714
 30
0.0
 10
127.7707805939662
 20
156.03053862085
 30
0.0
 10
127.8369403960353
 20
155.7152405196964
 30
0.0
 10
127.9030637060552
 20
155.3286643365233
 30
0.0
 10
127.9691897484981
 20
154.8790930156344
 30
0.0
 10
128.0353574797892
 20
154.374109102593
 30
0.0
 10
128.1015252148475
 20
153.8220433223741
 30
0.0
 10
128.167651245979
 20
153.2349797207577
 30
0.0
 10
128.2337745974672
 20
152.6242937949013
 30
0.0
 10
128.2999342450534
 20
152.0012856109256
 30
0.0
 10
128.3661088511623
 20
151.377855366688
 30
0.0
 10
128.4322387311812
 20
150.7661426655869
 30
0.0
 10
128.4983603840425
 20
150.1773743830664
 30
0.0
 10
128.5645116883569
 20
149.622677516036
 30
0.0
 10
128.6306909900189
 20
149.1141046172621
 30
0.0
 10
128.6968260777901
 20
148.6610473188102
 30
0.0
 10
128.7629468369836
 20
148.2705635000072
 30
0.0
 10
128.8290904208059
 20
147.9505296552461
 30
0.0
 10
128.8952711171738
 20
147.707532413904
 30
0.0
 10
128.9614146254263
 20
147.5529870593925
 30
0.0
 10
129.0143827876167
 20
147.4802958481019
 30
0.0
 10
129.0453358510103
 20
147.4901476278021
 30
0.0
 10
129.0542320648498
 20
147.4929791258608
 30
0.0
  0
SPLINE
  5
1A4
330
1F
100
AcDbEntity
  8
0
  6
Continuous
 62
     8
370
    18
100
AcDbSpline
210
0.0
220
0.0
230
1.0
 70
     8
 71
     3
 72
    30
 73
    26
 74
     0
 42
0.000000001
 43
0.00000001
 40
0.0
 40
0.0
 40
0.0
 40
0.0
 40
0.0425995822714158
 40
0.0865743935660552
 40
0.1305343058883873
 40
0.1744722933747338
 40
0.2184267540315865
 40
0.2624010001833287
 40
0.3063649883417792
 40
0.3503045507389381
 40
0.3942546695654209
 40
0.4382275302770318
 40
0.4821951031930654
 40
0.5261373002787205
 40
0.5700831009174455
 40
0.6140536060072255
 40
0.6580241751472895
 40
0.7019701367606426
 40
0.7459124869247283
 40
0.7898800634898491
 40
0.8338528618492816
 40
0.8778031942484991
 40
0.9217437441055775
 40
0.9657091505094632
 40
1.0
 40
1.0
 40
1.0
 40
1.0
 10
130.550944608299
 20
156.4799940186961
 30
0.0
 10
130.5723137672521
 20
156.4728065530548
 30
0.0
 10
130.6157419390495
 20
156.4581995910613
 30
0.0
 10
130.6811781538101
 20
156.3292298018033
 30
0.0
 10
130.7473171724263
 20
156.1236082881188
 30
0.0
 10
130.8134975893586
 20
155.8358496483319
 30
0.0
 10
130.8796449093213
 20
155.4733452967687
 30
0.0
 10
130.9457660241105
 20
155.0447373594674
 30
0.0
 10
131.01189835642
 20
154.5583675531292
 30
0.0
 10
131.0780756400965
 20
154.0222705465673
 30
0.0
 10
131.1442310460851
 20
153.446180637273
 30
0.0
 10
131.2103534100507
 20
152.8424245060053
 30
0.0
 10
131.2764812021217
 20
152.2224223390933
 30
0.0
 10
131.3426526209246
 20
151.5976816842544
 30
0.0
 10
131.4088164396963
 20
150.9805140749088
 30
0.0
 10
131.4749410231845
 20
150.3825216170771
 30
0.0
 10
131.5410655838704
 20
149.8146780165876
 30
0.0
 10
131.6072293250547
 20
149.2879629027012
 30
0.0
 10
131.6734006221467
 20
148.8142413432789
 30
0.0
 10
131.7395284707537
 20
148.4011613989274
 30
0.0
 10
131.8056511239866
 20
148.0557966097207
 30
0.0
 10
131.8718068085292
 20
147.7841087054569
 30
0.0
 10
131.9379844379856
 20
147.5974520673103
 30
0.0
 10
131.999257668979
 20
147.4935308139687
 30
0.0
 10
132.0384941984067
 20
147.4913507234121
 30
0.0
 10
132.0556871232375
 20
147.4903954367543
 30
0.0
  0
SPLINE
  5
1A5
330
1F
100
AcDbEntity
  8
0
  6
Continuous
 62
     8
370
    18
100
AcDbSpline
210
0.0
220
0.0
230
1.0
 70
     8
 71
     3
 72
    12
 73
     8
 74
     0
 42
0.000000001
 43
0.00000001
 40
0.0
 40
0.0
 40
0.0
 40
0.0
 40
0.2078480982432607
 40
0.4156029414321991
 40
0.6234570839028862
 40
0.8314172953242883
 40
1.0
 40
1.0
 40
1.0
 40
1.0
 10
140.7353572834016
 20
148.4365088422061
 30
0.0
 10
140.7574027283039
 20
148.3149316904868
 30
0.0
 10
140.8014837269947
 20
148.07183193498
 30
0.0
 10
140.8676678011428
 20
147.8000871735756
 30
0.0
 10
140.9338139187104
 20
147.6077072587197
 30
0.0
 10
140.995760496398
 20
147.4972685321838
 30
0.0
 10
141.0356943068211
 20
147.491524598706
 30
0.0
 10
141.0535731447473
 20
147.4889529719412
 30
0.0
  0
SPLINE
  5
1A6
330
1F
100
AcDbEntity
  8
0
  6
Continuous
 62
     8
370
    18
100
AcDbSpline
210
0.0
220
0.0
230
1.0
 70
     8
 71
     3
 72
    31
 73
    27
 74
     0
 42
0.000000001
 43
0.00000001
 40
0.0
 40
0.0
 40
0.0
 40
0.0
 40
0.0250600529204227
 40
0.0690745449225167
 40
0.1130775728126751
 40
0.1570565947177631
 40
0.2010477334795443
 40
0.2450610082818846
 40
0.2890677701731141
 40
0.3330492576418335
 40
0.3770361479403136
 40
0.4210473696051901
 40
0.4650572822401245
 40
0.509042212170391
 40
0.5530253117128566
 40
0.5970337213433986
 40
0.6410460759507769
 40
0.6850350639360312
 40
0.7290151687284038
 40
0.7730201167359237
 40
0.8170341117685735
 40
0.8610274703267506
 40
0.9050057146201214
 40
0.9490066931579306
 40
0.9930214663297934
 40
1.0
 40
1.0
 40
1.0
 40
1.0
 10
142.549763765264
 20
156.470389329188
 30
0.0
 10
142.5623238850251
 20
156.4721825435689
 30
0.0
 10
142.5969441054781
 20
156.4771252892087
 30
0.0
 10
142.6535761246983
 20
156.3903109933864
 30
0.0
 10
142.7197112523623
 20
156.2207831879048
 30
0.0
 10
142.7858892225331
 20
155.9654429740595
 30
0.0
 10
142.8520427103337
 20
155.6331124105249
 30
0.0
 10
142.9181646781004
 20
155.2313747912068
 30
0.0
 10
142.9842934756294
 20
154.7684240815638
 30
0.0
 10
143.0504665234338
 20
154.2519499343061
 30
0.0
 10
143.1166282632999
 20
153.6908548657516
 30
0.0
 10
143.1827521895781
 20
153.0973738020282
 30
0.0
 10
143.2488774455286
 20
152.4828531487829
 30
0.0
 10
143.3150432196884
 20
151.8586546651686
 30
0.0
 10
143.381212837781
 20
151.23686725149
 30
0.0
 10
143.4473397178921
 20
150.6294386078164
 30
0.0
 10
143.5134625560303
 20
150.0475155446927
 30
0.0
 10
143.5796200977599
 20
149.5021949518477
 30
0.0
 10
143.6457961169567
 20
149.0055221423204
 30
0.0
 10
143.7119271882092
 20
148.5661964153189
 30
0.0
 10
143.7780484957159
 20
148.1911442087495
 30
0.0
 10
143.8441979589385
 20
147.8883379328318
 30
0.0
 10
143.9103772546306
 20
147.6633932887699
 30
0.0
 10
143.9765167146285
 20
147.5300921682029
 30
0.0
 10
144.024088164546
 20
147.472990707206
 30
0.0
 10
144.0496432948911
 20
147.4865905130173
 30
0.0
 10
144.0531405644075
 20
147.4884516730134
 30
0.0
  0
SPLINE
  5
1A7
330
1F
100
AcDbEntity
  8
0
  6
Continuous
 62
     8
370
    18
100
AcDbSpline
210
0.0
220
0.0
230
1.0
 70
     8
 71
     3
 72
    31
 73
    27
 74
     0
 42
0.000000001
 43
0.00000001
 40
0.0
 40
0.0
 40
0.0
 40
0.0
 40
0.0069147474679331
 40
0.0509948322983685
 40
0.0950875848758344
 40
0.1391623201603876
 40
0.1832180678471006
 40
0.2272939077343414
 40
0.2713867729172531
 40
0.3154658189913621
 40
0.3595220904854286
 40
0.4035935030603829
 40
0.4476855887235177
 40
0.4917686113100854
 40
0.5358267466041046
 40
0.57989378085176
 40
0.6239842231791226
 40
0.6680707135303746
 40
0.7121318488878134
 40
0.756194817880568
 40
0.8002828139028723
 40
0.8443721212776313
 40
0.8884370541167305
 40
0.9324965745402478
 40
0.9765814142287284
 40
1.0
 40
1.0
 40
1.0
 40
1.0
 10
145.5536216608012
 20
156.4755324378793
 30
0.0
 10
145.5570823367466
 20
156.4772311293316
 30
0.0
 10
145.5826041060219
 20
156.4897586274279
 30
0.0
 10
145.6301581006
 20
156.4291139492732
 30
0.0
 10
145.6962805480344
 20
156.2915378591044
 30
0.0
 10
145.7624235535873
 20
156.0642995384178
 30
0.0
 10
145.8286048752262
 20
155.7597126654675
 30
0.0
 10
145.8947464594857
 20
155.3811305852761
 30
0.0
 10
145.9608671696555
 20
154.9385515403932
 30
0.0
 10
146.0270037686202
 20
154.4400959645401
 30
0.0
 10
146.0931838305121
 20
153.8939812440228
 30
0.0
 10
146.1593330883795
 20
153.3105337388935
 30
0.0
 10
146.2254544509412
 20
152.702031252684
 30
0.0
 10
146.2915855074471
 20
152.0799125607158
 30
0.0
 10
146.3577615305898
 20
151.4557747319199
 30
0.0
 10
146.4239190712801
 20
150.8420087267299
 30
0.0
 10
146.4900419096329
 20
150.2499761995757
 30
0.0
 10
146.5561687899263
 20
149.6905828508411
 30
0.0
 10
146.6223384070734
 20
149.1748419906624
 30
0.0
 10
146.6885041848277
 20
148.7143694561015
 30
0.0
 10
146.7546294273296
 20
148.3161619619837
 30
0.0
 10
146.8207534037932
 20
147.9873682253182
 30
0.0
 10
146.8869149564626
 20
147.7333270555617
 30
0.0
 10
146.9530887028577
 20
147.5670486021973
 30
0.0
 10
147.008877200756
 20
147.4848527599835
 30
0.0
 10
147.0426334301457
 20
147.4913636830386
 30
0.0
 10
147.0543442899709
 20
147.4936224811511
 30
0.0
  0
SPLINE
  5
1A8
330
1F
100
AcDbEntity
  8
0
  6
Continuous
 62
     8
370
    18
100
AcDbSpline
210
0.0
220
0.0
230
1.0
 70
     8
 71
     3
 72
    17
 73
    13
 74
     0
 42
0.000000001
 43
0.00000001
 40
0.0
 40
0.0
 40
0.0
 40
0.0
 40
0.0823396783152657
 40
0.1843281853907475
 40
0.2863288050966634
 40
0.3882773120885979
 40
0.4902031272028963
 40
0.5921866003074336
 40
0.6941918885032865
 40
0.7961451494684658
 40
0.8980497037517875
 40
1.0
 40
1.0
 40
1.0
 40
1.0
 10
148.5532787999577
 20
156.4747871615108
 30
0.0
 10
148.5710920054588
 20
156.4714453159418
 30
0.0
 10
148.6109692057734
 20
156.4639641556775
 30
0.0
 10
148.6728616421014
 20
156.3490020505092
 30
0.0
 10
148.7389844694758
 20
156.153544224855
 30
0.0
 10
148.8051402550468
 20
155.876324588836
 30
0.0
 10
148.8713173064066
 20
155.5233355956861
 30
0.0
 10
148.9374485857097
 20
155.1020255635544
 30
0.0
 10
149.0035685684816
 20
154.622059107889
 30
0.0
 10
149.069713597264
 20
154.0917933826827
 30
0.0
 10
149.1358979577795
 20
153.5215582830556
 30
0.0
 10
149.1799789182795
 20
153.1185395746456
 30
0.0
 10
149.202024344082
 20
152.9169850047699
 30
0.0
  0
SPLINE
  5
1A9
330
1F
100
AcDbEntity
  8
0
  6
Continuous
 62
     8
370
    18
100
AcDbSpline
210
0.0
220
0.0
230
1.0
 70
     8
 71
     3
 72
    10
 73
     6
 74
     0
 42
0.000000001
 43
0.00000001
 40
0.0
 40
0.0
 40
0.0
 40
0.0
 40
0.0372339016844044
 40
0.7530871189254584
 40
1.0
 40
1.0
 40
1.0
 40
1.0
 10
148.4778622189129
 20
155.9309761930884
 30
0.0
 10
148.4767147380112
 20
155.9300956574331
 30
0.0
 10
148.4535059673165
 20
155.9122860798784
 30
0.0
 10
148.4227191518512
 20
155.8474387384349
 30
0.0
 10
148.3930642354205
 20
155.7552657887799
 30
0.0
 10
148.3854588774143
 20
155.7316269334065
 30
0.0
  0
SPLINE
  5
1AA
330
1F
100
AcDbEntity
  8
0
  6
Continuous
 62
     8
370
    18
100
AcDbSpline
210
0.0
220
0.0
230
1.0
 70
     8
 71
     3
 72
    14
 73
    10
 74
     0
 42
0.000000001
 43
0.00000001
 40
0.0
 40
0.0
 40
0.0
 40
0.0
 40
0.0328639581642538
 40
0.213730942353742
 40
0.3946707232857445
 40
0.5756881149695903
 40
0.7566584976457683
 40
0.937530443018074
 40
1.0
 40
1.0
 40
1.0
 40
1.0
 10
147.4942454933122
 20
149.5816269334065
 30
0.0
 10
147.4902413126674
 20
149.5537554589721
 30
0.0
 10
147.4642001006414
 20
149.3724931634848
 30
0.0
 10
147.4160680026422
 20
149.0824390274339
 30
0.0
 10
147.3499258624915
 20
148.7256078943694
 30
0.0
 10
147.2838035070724
 20
148.4329596114958
 30
0.0
 10
147.2176720323505
 20
148.211376482338
 30
0.0
 10
147.1659306113577
 20
148.0799747835346
 30
0.0
 10
147.136276675475
 20
148.0497816631539
 30
0.0
 10
147.1286640478737
 20
148.0420306184869
 30
0.0
  0
SPLINE
  5
1AB
330
1F
100
AcDbEntity
  8
0
  6
Continuous
 62
     8
370
    18
100
AcDbSpline
210
0.0
220
0.0
230
1.0
 70
     8
 71
     3
 72
    13
 73
     9
 74
     0
 42
0.000000001
 43
0.00000001
 40
0.0
 40
0.0
 40
0.0
 40
0.0
 40
0.1196004908687107
 40
0.3005561521596433
 40
0.481479882485278
 40
0.6623006815254312
 40
0.8431508506134676
 40
1.0
 40
1.0
 40
1.0
 40
1.0
 10
145.4754511477425
 20
155.9214940097777
 30
0.0
 10
145.4608697577414
 20
155.9019533122558
 30
0.0
 10
145.4242267102082
 20
155.8528475200048
 30
0.0
 10
145.3655729407207
 20
155.6890889377011
 30
0.0
 10
145.2994418126542
 20
155.4460845410364
 30
0.0
 10
145.2332677537681
 20
155.1323325547328
 30
0.0
 10
145.1700458574776
 20
154.778419615229
 30
0.0
 10
145.128901803065
 20
154.5074722219296
 30
0.0
 10
145.10979187425
 20
154.3816269334065
 30
0.0
  0
SPLINE
  5
1AC
330
1F
100
AcDbEntity
  8
0
  6
Continuous
 62
     8
370
    18
100
AcDbSpline
210
0.0
220
0.0
230
1.0
 70
     8
 71
     3
 72
    14
 73
    10
 74
     0
 42
0.000000001
 43
0.00000001
 40
0.0
 40
0.0
 40
0.0
 40
0.0
 40
0.1339183432359176
 40
0.295821995418348
 40
0.4578116254569914
 40
0.6198476706561291
 40
0.7818176997446188
 40
0.9437181575737107
 40
1.0
 40
1.0
 40
1.0
 40
1.0
 10
144.4942196551806
 20
149.5816269334065
 30
0.0
 10
144.4759897259768
 20
149.4610564883808
 30
0.0
 10
144.4357203057982
 20
149.1947196388191
 30
0.0
 10
144.3733566591107
 20
148.8448739348368
 30
0.0
 10
144.3072226333237
 20
148.5296964701553
 30
0.0
 10
144.2411009243589
 20
148.2795896336804
 30
0.0
 10
144.1749597765404
 20
148.1042588263624
 30
0.0
 10
144.1231693979619
 20
148.0109858052585
 30
0.0
 10
144.0934717712746
 20
148.0029319456881
 30
0.0
 10
144.0858110346169
 20
148.0008543891919
 30
0.0
  0
SPLINE
  5
1AD
330
1F
100
AcDbEntity
  8
0
  6
Continuous
 62
     8
370
    18
100
AcDbSpline
210
0.0
220
0.0
230
1.0
 70
     8
 71
     3
 72
    14
 73
    10
 74
     0
 42
0.000000001
 43
0.00000001
 40
0.0
 40
0.0
 40
0.0
 40
0.0
 40
0.0549026826139873
 40
0.2360002634586296
 40
0.4171633367422621
 40
0.5982652119125226
 40
0.7792770300789856
 40
0.9603565123556845
 40
0.9999999999999999
 40
0.9999999999999999
 40
0.9999999999999999
 40
0.9999999999999999
 10
142.4752120129643
 20
155.9217071981723
 30
0.0
 10
142.4685241079969
 20
155.9150334013487
 30
0.0
 10
142.4397760166625
 20
155.8863459541485
 30
0.0
 10
142.3889909211648
 20
155.7580758056894
 30
0.0
 10
142.3228696203007
 20
155.5405357791859
 30
0.0
 10
142.2567312780628
 20
155.2511547048971
 30
0.0
 10
142.1905518106217
 20
154.8961475157258
 30
0.0
 10
142.141632887069
 20
154.6015019004455
 30
0.0
 10
142.1147701290457
 20
154.4151051725799
 30
0.0
 10
142.1099453778375
 20
154.3816269334065
 30
0.0
  0
SPLINE
  5
1AE
330
1F
100
AcDbEntity
  8
0
  6
Continuous
 62
     8
370
    18
100
AcDbSpline
210
0.0
220
0.0
230
1.0
 70
     8
 71
     3
 72
    14
 73
    10
 74
     0
 42
0.000000001
 43
0.00000001
 40
0.0
 40
0.0
 40
0.0
 40
0.0
 40
0.0796934429674218
 40
0.2500988170067776
 40
0.4204902286545228
 40
0.5909791694580585
 40
0.7614882985419011
 40
0.9319105707305795
 40
1.0
 40
1.0
 40
1.0
 40
1.0
 10
141.4938789383735
 20
149.5816269334065
 30
0.0
 10
141.4835741265012
 20
149.5113948318842
 30
0.0
 10
141.4512349381972
 20
149.2909881729098
 30
0.0
 10
141.3968183184117
 20
148.9714897854295
 30
0.0
 10
141.3306483503504
 20
148.6331697147745
 30
0.0
 10
141.2645199530814
 20
148.3601995442808
 30
0.0
 10
141.1983979940168
 20
148.1596685935612
 30
0.0
 10
141.1454755760691
 20
148.0429698593742
 30
0.0
 10
141.114610528945
 20
148.0222251908177
 30
0.0
 10
141.1057992906275
 20
148.0163030803563
 30
0.0
  0
DIMENSION
  5
1AF
330
1F
100
AcDbEntity
  8
0
  6
Continuous
 62
     7
370
    18
100
AcDbDimension
  2
_D
 10
104.9906403111
 20
148.4816269334
 30
0.0
 11
104.9906403111
 21
151.9816269334
 31
0.0
 70
   160
  1
%%c<>
 71
     2
 42
-1.0
  3
SLDDIMSTYLE0
100
AcDbAlignedDimension
 13
110.3226175664
 23
155.4816269334
 33
0.0
 14
110.3226175664
 24
148.4816269334
 34
0.0
 50
90.0
100
AcDbRotatedDimension
  0
DIMENSION
  5
1BD
330
1F
100
AcDbEntity
  8
0
  6
Continuous
 62
     7
370
    18
100
AcDbDimension
  2
_D_1
 10
96.0477216322
 20
146.9816269334
 30
0.0
 11
96.0477216322
 21
151.9816269334
 31
0.0
 70
   160
  1
%%c<>
 71
     2
 42
-1.0
  3
SLDDIMSTYLE0
100
AcDbAlignedDimension
 13
115.8226175664
 23
156.9816269334
 33
0.0
 14
115.8226175664
 24
146.9816269334
 34
0.0
 50
90.0
100
AcDbRotatedDimension
  0
DIMENSION
  5
1CA
330
1F
100
AcDbEntity
  8
0
  6
Continuous
 62
     7
370
    18
100
AcDbDimension
  2
_D_2
 10
110.0226175664
 20
170.0645307021
 30
0.0
 11
123.7656454322
 21
170.0645307021
 31
0.0
 70
   160
  1
<>
 71
     2
 42
-1.0
  3
SLDDIMSTYLE0
100
AcDbAlignedDimension
 13
115.5226175664
 23
156.6816269334
 33
0.0
 14
110.0226175664
 24
155.1816269334
 34
0.0
100
AcDbRotatedDimension
  0
DIMENSION
  5
1D6
330
1F
100
AcDbEntity
  8
0
  6
Continuous
 62
     7
370
    18
100
AcDbDimension
  2
_D_3
 10
147.5226175664
 20
126.5515727323
 30
0.0
 11
137.5226175664
 21
126.5515727323
 31
0.0
 70
   160
  1
<>st
 71
     2
 42
-1.0
  3
SLDDIMSTYLE1
100
AcDbAlignedDimension
 13
127.5226175664
 23
148.5316269334
 33
0.0
 14
147.5226175664
 24
148.7316269334
 34
0.0
100
AcDbRotatedDimension
  0
DIMENSION
  5
1E2
330
1F
100
AcDbEntity
  8
0
  6
Continuous
 62
     7
370
    18
100
AcDbDimension
  2
_D_4
 10
152.5226175664
 20
135.2896964636
 30
0.0
 11
157.6257368869
 21
135.2896964636
 31
0.0
 70
   160
  1
<>
 71
     2
 42
-1.0
  3
SLDDIMSTYLE0
100
AcDbAlignedDimension
 13
149.5226175664
 23
144.4760754501
 33
0.0
 14
152.5226175664
 24
144.4760754501
 34
0.0
100
AcDbRotatedDimension
  0
DIMENSION
  5
1EE
330
1F
100
AcDbEntity
  8
0
  6
Continuous
 62
     7
370
    18
100
AcDbDimension
  2
_D_5
 10
171.5226175664
 20
115.6816269334
 30
0.0
 11
140.7726175664
 21
115.6816269334
 31
0.0
 70
   160
  1
<>
 71
     2
 42
-1.0
  3
SLDDIMSTYLE1
100
AcDbAlignedDimension
 13
110.0226175664
 23
148.7816269334
 33
0.0
 14
171.5226175664
 24
149.9816269334
 34
0.0
100
AcDbRotatedDimension
  0
DIMENSION
  5
1F8
330
1F
100
AcDbEntity
  8
0
  6
Continuous
 62
     7
370
    18
100
AcDbDimension
  2
_D_6
 10
177.2259138889
 20
149.5816269334
 30
0.0
 11
177.2259138889
 21
163.0435041564
 31
0.0
 70
   160
  1
%%c<>
 71
     2
 42
-1.0
  3
SLDDIMSTYLE2
100
AcDbAlignedDimension
 13
171.0226175664
 23
154.3816269334
 33
0.0
 14
171.0226175664
 24
149.5816269334
 34
0.0
 50
90.0
100
AcDbRotatedDimension
  0
DIMENSION
  5
206
330
1F
100
AcDbEntity
  8
0
  6
Continuous
 62
     7
370
    18
100
AcDbDimension
  2
_D_7
 10
185.3625098885
 20
143.8987231648
 30
0.0
 11
185.3625098885
 21
151.9816269334
 31
0.0
 70
   160
  1
<>
 71
     2
 42
-1.0
  3
SLDDIMSTYLE3
100
AcDbAlignedDimension
 13
164.0697009631
 23
160.0645307021
 33
0.0
 14
164.0697009631
 24
143.8987231648
 34
0.0
 50
90.0
100
AcDbRotatedDimension
  0
DIMENSION
  5
211
330
1F
100
AcDbEntity
  8
0
  6
Continuous
 62
     7
370
    18
100
AcDbDimension
  2
_D_8
 10
152.5226175664
 20
170.0645307021
 30
0.0
 11
150.0226175664
 21
170.0645307021
 31
0.0
 70
   160
  1
<>
 71
     2
 42
-1.0
  3
SLDDIMSTYLE0
100
AcDbAlignedDimension
 13
147.5226175664
 23
155.2316269334
 33
0.0
 14
152.5226175664
 24
159.4871784167
 34
0.0
100
AcDbRotatedDimension
  0
DIMENSION
  5
21D
330
1F
100
AcDbEntity
  8
0
  6
Continuous
 62
     7
370
    18
100
AcDbDimension
  2
_D_9
 10
169.5226175664
 20
170.0645307021
 30
0.0
 11
161.0226175664
 21
170.0645307021
 31
0.0
 70
   160
  1
<>
 71
     2
 42
-1.0
  3
SLDDIMSTYLE1
100
AcDbAlignedDimension
 13
152.5226175664
 23
159.4871784167
 33
0.0
 14
169.5226175664
 24
155.9816269334
 34
0.0
100
AcDbRotatedDimension
  0
DIMENSION
  5
227
330
1F
100
AcDbEntity
  8
0
  6
Continuous
 62
     7
370
    18
100
AcDbDimension
  2
_D_10
 10
171.5226175664
 20
181.1731043299
 30
0.0
 11
162.0226175664
 21
181.1731043299
 31
0.0
 70
   160
  1
<>
 71
     2
 42
-1.0
  3
SLDDIMSTYLE1
100
AcDbAlignedDimension
 13
152.5226175664
 23
159.4871784167
 33
0.0
 14
171.5226175664
 24
153.9816269334
 34
0.0
100
AcDbRotatedDimension
  0
INSERT
  5
236
330
1F
100
AcDbEntity
  8
0
  6
Continuous
 62
     7
370
     0
100
AcDbBlockReference
  2
SW_NOTE_0
 10
175.7931034483
 20
170.5000001937
 30
0.0
  0
LEADER
  5
238
330
1F
100
AcDbEntity
  8
0
  6
Continuous
 62
     7
370
     0
100
AcDbLeader
  3
SLDDIMSTYLE4
 76
     2
 10
155.1594484867
 20
156.9816269334
 30
0.0
 10
175.7931034483
 20
170.5000001937
 30
0.0
  0
LINE
  5
239
330
1F
100
AcDbEntity
  8
0
  6
CENTERX2
 62
     7
370
    18
100
AcDbLine
 10
119.5226175664
 20
136.5561323262
 30
0.0
 11
119.5226175664
 21
150.9281489227
 31
0.0
  0
LINE
  5
23A
330
1F
100
AcDbEntity
  8
0
  6
CENTERX2
 62
     7
370
    18
100
AcDbLine
 10
173.1390339824
 20
151.9816269334
 30
0.0
 11
107.5380571979
 21
151.9816269334
 31
0.0
  0
LINE
  5
23B
330
1F
100
AcDbEntity
  8
0
  6
Continuous
 62
     7
370
    18
100
AcDbLine
 10
53.9372938151
 20
142.6816268718
 30
0.0
 11
54.4372936642
 21
140.1816269277
 31
0.0
  0
LINE
  5
23C
330
1F
100
AcDbEntity
  8
0
  6
Continuous
 62
     7
370
    18
100
AcDbLine
 10
58.4372938542
 20
140.1816269277
 30
0.0
 11
58.9372937033
 21
142.6816268718
 31
0.0
  0
LINE
  5
23D
330
1F
100
AcDbEntity
  8
0
  6
Continuous
 62
     7
370
    18
100
AcDbLine
 10
53.9372938151
 20
140.1816269277
 30
0.0
 11
54.4372936642
 21
137.6816265179
 31
0.0
  0
LINE
  5
23E
330
1F
100
AcDbEntity
  8
0
  6
Continuous
 62
     7
370
    18
100
AcDbLine
 10
58.4372938542
 20
137.6816265179
 30
0.0
 11
58.9372937033
 21
140.1816269277
 31
0.0
  0
LINE
  5
23F
330
1F
100
AcDbEntity
  8
0
  6
Continuous
 62
     7
370
    18
100
AcDbLine
 10
54.2872936862
 20
147.4674825218
 30
0.0
 11
54.2872936862
 21
142.6816268718
 31
0.0
  0
LINE
  5
240
330
1F
100
AcDbEntity
  8
0
  6
Continuous
 62
     7
370
    18
100
AcDbLine
 10
58.5872938322
 20
142.6816268718
 30
0.0
 11
58.5872938322
 21
147.4674825218
 31
0.0
  0
CIRCLE
  5
241
330
1F
100
AcDbEntity
  8
0
  6
Continuous
 62
     7
370
    18
100
AcDbCircle
 10
56.4372937592
 20
151.9816269334
 30
0.0
 40
3.500000000000007
  0
CIRCLE
  5
242
330
1F
100
AcDbEntity
  8
0
  6
Continuous
 62
     7
370
    18
100
AcDbCircle
 10
56.4372937592
 20
151.9816269334
 30
0.0
 40
3.200000000000003
  0
CIRCLE
  5
243
330
1F
100
AcDbEntity
  8
0
  6
Continuous
 62
     7
370
    18
100
AcDbCircle
 10
56.4372937592
 20
151.9816269334
 30
0.0
 40
1.5
  0
SPLINE
  5
244
330
1F
100
AcDbEntity
  8
0
  6
Continuous
 62
     7
370
    18
100
AcDbSpline
210
0.0
220
0.0
230
1.0
 70
    11
 71
     3
 72
    54
 73
    50
 74
     0
 42
0.000000001
 43
0.00000001
 40
0.0
 40
0.0
 40
0.0
 40
0.0
 40
0.0625000000000002
 40
0.0625000000000002
 40
0.0937500000000002
 40
0.0937500000000002
 40
0.1250000000000003
 40
0.1250000000000003
 40
0.1562500000000003
 40
0.1562500000000003
 40
0.1875000000000004
 40
0.1875000000000004
 40
0.2500000000000004
 40
0.2500000000000004
 40
0.3125000000000006
 40
0.3125000000000006
 40
0.3437500000000006
 40
0.3437500000000006
 40
0.3750000000000007
 40
0.3750000000000007
 40
0.4062500000000007
 40
0.4062500000000007
 40
0.4375000000000007
 40
0.4375000000000007
 40
0.5000000000000008
 40
0.5000000000000008
 40
0.5625000000000009
 40
0.5625000000000009
 40
0.593750000000001
 40
0.593750000000001
 40
0.625000000000001
 40
0.625000000000001
 40
0.656250000000001
 40
0.656250000000001
 40
0.687500000000001
 40
0.687500000000001
 40
0.7500000000000009
 40
0.7500000000000009
 40
0.8125000000000008
 40
0.8125000000000008
 40
0.8437500000000007
 40
0.8437500000000007
 40
0.8750000000000004
 40
0.8750000000000004
 40
0.9062500000000003
 40
0.9062500000000003
 40
0.9375000000000002
 40
0.9375000000000002
 40
1.0
 40
1.0
 40
1.0
 40
1.0
 10
55.56647019811836
 20
150.8164915553151
 30
0.0
 10
55.45365979874639
 20
150.9002113345254
 30
0.0
 10
55.36626515122323
 20
150.9902615278328
 30
0.0
 10
55.26688930968554
 20
151.1130181120634
 30
0.0
 10
55.24008594477947
 20
151.1506772882474
 30
0.0
 10
55.20030242755809
 20
151.2098086676277
 30
0.0
 10
55.18785738168818
 20
151.2302188128511
 30
0.0
 10
55.18171847812399
 20
151.2389951617868
 30
0.0
 10
55.18820578390573
 20
151.226875967451
 30
0.0
 10
55.21786164400853
 20
151.1785035736088
 30
0.0
 10
55.24016828201436
 20
151.1441136298241
 30
0.0
 10
55.32623693586177
 20
151.0277344332488
 30
0.0
 10
55.40672837025296
 20
150.9362731695705
 30
0.0
 10
55.61446591370275
 20
150.7647863793193
 30
0.0
 10
55.74058312853906
 20
150.6848105577874
 30
0.0
 10
55.96602489694805
 20
150.5935620254143
 30
0.0
 10
56.04521009890315
 20
150.5687437707585
 30
0.0
 10
56.21277289218913
 20
150.5324537914649
 30
0.0
 10
56.30092582410323
 20
150.5213491208586
 30
0.0
 10
56.47608491406817
 20
150.5154789040129
 30
0.0
 10
56.5658027892737
 20
150.520671791378
 30
0.0
 10
56.7378643263695
 20
150.54629442523
 30
0.0
 10
56.82117542474266
 20
150.5666408609947
 30
0.0
 10
57.05743962853408
 20
150.6457884137471
 30
0.0
 10
57.19371127716122
 20
150.721702506298
 30
0.0
 10
57.41672534840201
 20
150.8872991038426
 30
0.0
 10
57.5066458804539
 20
150.9799131763242
 30
0.0
 10
57.6049805091143
 20
151.1026955662255
 30
0.0
 10
57.63197919713098
 20
151.1411265887887
 30
0.0
 10
57.67280833020838
 20
151.2037119800139
 30
0.0
 10
57.68577829055819
 20
151.2263056705998
 30
0.0
 10
57.69315685911248
 20
151.2401660274875
 30
0.0
 10
57.68724608197648
 20
151.2305695285686
 30
0.0
 10
57.65849823839899
 20
151.1860352866081
 30
0.0
 10
57.63643883460964
 20
151.1528089367762
 30
0.0
 10
57.55024876209536
 20
151.0381174020366
 30
0.0
 10
57.47013139293952
 20
150.9473992955408
 30
0.0
 10
57.26126843425185
 20
150.7755937754942
 30
0.0
 10
57.13694465902919
 20
150.6967677779153
 30
0.0
 10
56.91095710181347
 20
150.6051114992891
 30
0.0
 10
56.8315609382519
 20
150.5801572929857
 30
0.0
 10
56.66350753261018
 20
150.54362629793
 30
0.0
 10
56.57509415531241
 20
150.5324191758008
 30
0.0
 10
56.39931900097297
 20
150.5264083806209
 30
0.0
 10
56.309254979204
 20
150.5315700692918
 30
0.0
 10
56.13664073393195
 20
150.557180699434
 30
0.0
 10
56.05297352731023
 20
150.5775742175706
 30
0.0
 10
55.81602704319276
 20
150.6568253320125
 30
0.0
 10
55.67928059749033
 20
150.7327717761047
 30
0.0
 10
55.56647019811836
 20
150.8164915553151
 30
0.0
  0
CIRCLE
  5
245
330
1F
100
AcDbEntity
  8
0
  6
Continuous
 62
     7
370
    18
100
AcDbCircle
 10
56.4372937592
 20
151.9816269334
 30
0.0
 40
1.449821465561925
  0
ARC
  5
246
330
1F
100
AcDbEntity
  8
0
  6
Continuous
 62
     7
370
    18
100
AcDbCircle
 10
56.4372937592
 20
151.9816269334
 30
0.0
 40
4.699999999999986
100
AcDbArc
 50
220.0077539135
 51
319.9922460865
  0
SPLINE
  5
247
330
1F
100
AcDbEntity
  8
0
  6
Continuous
 62
     7
370
    18
100
AcDbSpline
210
0.0
220
0.0
230
1.0
 70
    24
 71
     3
 72
    12
 73
     8
 74
     0
 42
0.000000001
 43
0.00000001
 40
0.0
 40
0.0
 40
0.0
 40
0.0
 40
0.5000000000000011
 40
0.5000000000000011
 40
0.7500000000000006
 40
0.7500000000000006
 40
1.0
 40
1.0
 40
1.0
 40
1.0
 10
60.03729375922412
 20
148.9600379474589
 30
0.0
 10
60.03729375922412
 20
148.8609282410094
 30
0.0
 10
60.03729375922412
 20
148.7615070800613
 30
0.0
 10
60.03729375922412
 20
148.6311687847954
 30
0.0
 10
60.03729375922412
 20
148.5911009526442
 30
0.0
 10
60.03729375922412
 20
148.5307843571958
 30
0.0
 10
60.03729375922412
 20
148.511756618827
 30
0.0
 10
60.03729375922412
 20
148.511756618827
 30
0.0
  0
ARC
  5
248
330
1F
100
AcDbEntity
  8
0
  6
Continuous
 62
     7
370
    18
100
AcDbCircle
 10
56.4372937592
 20
151.9816269334
 30
0.0
 40
4.999999999999991
100
AcDbArc
 50
223.9455195623
 51
316.0544804377
  0
SPLINE
  5
249
330
1F
100
AcDbEntity
  8
0
  6
Continuous
 62
     7
370
    18
100
AcDbSpline
210
0.0
220
0.0
230
1.0
 70
    24
 71
     3
 72
    12
 73
     8
 74
     0
 42
0.000000001
 43
0.00000001
 40
0.0
 40
0.0
 40
0.0
 40
0.0
 40
0.25
 40
0.25
 40
0.5
 40
0.5
 40
1.0
 40
1.0
 40
1.0
 40
1.0
 10
52.83729375922412
 20
148.511756618827
 30
0.0
 10
52.83729375922412
 20
148.511756618827
 30
0.0
 10
52.83729375922412
 20
148.5307559437361
 30
0.0
 10
52.83729375922412
 20
148.5904856930819
 30
0.0
 10
52.83729375922412
 20
148.6303490485258
 30
0.0
 10
52.83729375922412
 20
148.7617934069263
 30
0.0
 10
52.83729375922412
 20
148.8617491940466
 30
0.0
 10
52.83729375922412
 20
148.9600379474589
 30
0.0
  0
ARC
  5
24A
330
1F
100
AcDbEntity
  8
0
  6
Continuous
 62
     7
370
    18
100
AcDbCircle
 10
56.4372937592
 20
151.9816269334
 30
0.0
 40
5.000000000000031
100
AcDbArc
 50
43.9455195623
 51
136.0544804377
  0
ARC
  5
24B
330
1F
100
AcDbEntity
  8
0
  6
Continuous
 62
     7
370
    18
100
AcDbCircle
 10
56.4372937592
 20
151.9816269334
 30
0.0
 40
4.700000000000022
100
AcDbArc
 50
40.0077539135
 51
139.9922460865
  0
SPLINE
  5
24C
330
1F
100
AcDbEntity
  8
0
  6
Continuous
 62
     7
370
    18
100
AcDbSpline
210
0.0
220
0.0
230
1.0
 70
    24
 71
     3
 72
    12
 73
     8
 74
     0
 42
0.000000001
 43
0.00000001
 40
0.0
 40
0.0
 40
0.0
 40
0.0
 40
0.499999999999998
 40
0.499999999999998
 40
0.749999999999999
 40
0.749999999999999
 40
1.0
 40
1.0
 40
1.0
 40
1.0
 10
52.83729375922412
 20
155.0032159193541
 30
0.0
 10
52.83729375922412
 20
155.1017124723409
 30
0.0
 10
52.83729375922412
 20
155.2026152694539
 30
0.0
 10
52.83729375922412
 20
155.3327312075351
 30
0.0
 10
52.83729375922412
 20
155.3727864737604
 30
0.0
 10
52.83729375922412
 20
155.4325219206252
 30
0.0
 10
52.83729375922412
 20
155.4514972479866
 30
0.0
 10
52.83729375922412
 20
155.4514972479866
 30
0.0
  0
SPLINE
  5
24D
330
1F
100
AcDbEntity
  8
0
  6
Continuous
 62
     7
370
    18
100
AcDbSpline
210
0.0
220
0.0
230
1.0
 70
    24
 71
     3
 72
    12
 73
     8
 74
     0
 42
0.000000001
 43
0.00000001
 40
0.0
 40
0.0
 40
0.0
 40
0.0
 40
0.2500000000000009
 40
0.2500000000000009
 40
0.5000000000000019
 40
0.5000000000000019
 40
1.0
 40
1.0
 40
1.0
 40
1.0
 10
60.03729375922412
 20
155.4514972479868
 30
0.0
 10
60.03729375922412
 20
155.4514972479868
 30
0.0
 10
60.03729375922412
 20
155.4325051663725
 30
0.0
 10
60.03729375922412
 20
155.372572265927
 30
0.0
 10
60.03729375922412
 20
155.3328405351377
 30
0.0
 10
60.03729375922412
 20
155.2013520690522
 30
0.0
 10
60.03729375922412
 20
155.1014250529916
 30
0.0
 10
60.03729375922412
 20
155.0032159193541
 30
0.0
  0
LINE
  5
24E
330
1F
100
AcDbEntity
  8
0
  6
Continuous
 62
     7
370
    18
100
AcDbLine
 10
52.8372938211
 20
155.0032159207
 30
0.0
 11
52.8372938211
 21
148.9600379496
 31
0.0
  0
LINE
  5
24F
330
1F
100
AcDbEntity
  8
0
  6
Continuous
 62
     7
370
    18
100
AcDbLine
 10
60.0372936974
 20
148.9600379496
 30
0.0
 11
60.0372936974
 21
155.0032159207
 31
0.0
  0
LWPOLYLINE
  5
250
330
1F
100
AcDbEntity
  8
0
  6
Continuous
 62
     7
370
    18
100
AcDbPolyline
 90
        9
 70
   128
 43
0.0
 10
57.2336118134
 20
147.0454464793
 10
57.2154640035
 20
147.0370797101
 10
57.1996762814
 20
147.0184100686
 10
57.1868137272
 20
146.9901058949
 10
57.1773369379
 20
146.9531804683
 10
57.1715850315
 20
146.9089556845
 10
57.1697639466
 20
146.8590146756
 10
57.171938934
 20
146.8051451152
 10
57.1780320538
 20
146.749275656
  0
SPLINE
  5
251
330
1F
100
AcDbEntity
  8
0
  6
Continuous
 62
     7
370
    18
100
AcDbSpline
210
0.0
220
0.0
230
1.0
 70
     8
 71
     3
 72
    12
 73
     8
 74
     0
 42
0.000000001
 43
0.00000001
 40
0.0
 40
0.0
 40
0.0
 40
0.0
 40
0.5
 40
0.5
 40
0.75
 40
0.75
 40
1.0
 40
1.0
 40
1.0
 40
1.0
 10
57.17803207523816
 20
146.7492756455054
 30
0.0
 10
56.94156776465858
 20
146.705805732888
 30
0.0
 10
56.69099380263263
 20
146.6816156195104
 30
0.0
 10
56.31017080969384
 20
146.6816325964381
 30
0.0
 10
56.18260944090827
 20
146.6876954161709
 30
0.0
 10
55.93559676210985
 20
146.7106595432113
 30
0.0
 10
55.8147580602197
 20
146.7275461193035
 30
0.0
 10
55.6965554432101
 20
146.7492756455054
 30
0.0
  0
LWPOLYLINE
  5
252
330
1F
100
AcDbEntity
  8
0
  6
Continuous
 62
     7
370
    18
100
AcDbPolyline
 90
        9
 70
   128
 43
0.0
 10
55.640975705
 20
147.0454464793
 10
55.6591235149
 20
147.0370797101
 10
55.674911237
 20
147.0184100686
 10
55.6877737913
 20
146.9901058949
 10
55.6972505806
 20
146.9531804683
 10
55.703002487
 20
146.9089556845
 10
55.7048235719
 20
146.8590146756
 10
55.7026485844
 20
146.8051451152
 10
55.6965554647
 20
146.749275656
  0
LINE
  5
253
330
1F
100
AcDbEntity
  8
0
  6
Continuous
 62
     7
370
    18
100
AcDbLine
 10
53.9372938151
 20
142.6816268718
 30
0.0
 11
58.9372937033
 21
142.6816268718
 31
0.0
  0
LINE
  5
254
330
1F
100
AcDbEntity
  8
0
  6
Continuous
 62
     7
370
    18
100
AcDbLine
 10
54.4372936642
 20
137.6816265179
 30
0.0
 11
58.4372938542
 21
137.6816265179
 31
0.0
  0
LINE
  5
255
330
1F
100
AcDbEntity
  8
0
  6
Continuous
 62
     7
370
    18
100
AcDbLine
 10
53.9372938151
 20
140.1816269277
 30
0.0
 11
58.9372937033
 21
140.1816269277
 31
0.0
  0
ARC
  5
256
330
1F
100
AcDbEntity
  8
0
  6
Continuous
 62
     7
370
    18
100
AcDbCircle
 10
56.4372937592
 20
151.9816269334
 30
0.0
 40
5.999999999999982
100
AcDbArc
 50
290.9978755459
 51
249.0021244541
  0
LINE
  5
257
330
1F
100
AcDbEntity
  8
0
  6
Continuous
 62
     7
370
    18
100
AcDbLine
 10
62.9400426919
 20
148.23361548
 30
0.0
 11
62.9345413695
 21
155.7391670426
 31
0.0
  0
LINE
  5
258
330
1F
100
AcDbEntity
  8
0
  6
Continuous
 62
     7
370
    18
100
AcDbLine
 10
58.5872938322
 20
145.716299106
 30
0.0
 11
62.9400426919
 21
148.23361548
 31
0.0
  0
LINE
  5
259
330
1F
100
AcDbEntity
  8
0
  6
Continuous
 62
     7
370
    18
100
AcDbLine
 10
49.940046149
 20
148.224086915
 30
0.0
 11
54.2872936862
 21
145.7184490642
 31
0.0
  0
LINE
  5
25A
330
1F
100
AcDbEntity
  8
0
  6
Continuous
 62
     7
370
    18
100
AcDbLine
 10
62.9345413695
 20
155.7391670426
 30
0.0
 11
56.43179243
 21
159.4871783523
 31
0.0
  0
LINE
  5
25B
330
1F
100
AcDbEntity
  8
0
  6
Continuous
 62
     7
370
    18
100
AcDbLine
 10
49.9345448265
 20
155.7296382157
 30
0.0
 11
49.940046149
 21
148.224086915
 31
0.0
  0
LINE
  5
25C
330
1F
100
AcDbEntity
  8
0
  6
Continuous
 62
     7
370
    18
100
AcDbLine
 10
56.43179243
 20
159.4871783523
 30
0.0
 11
49.9345448265
 21
155.7296382157
 31
0.0
  0
LINE
  5
25D
330
1F
100
AcDbEntity
  8
0
  6
Continuous
 62
     7
370
    18
100
AcDbLine
 10
63.4372939753
 20
150.0941682966
 30
0.0
 11
63.4372939753
 21
153.8690857483
 31
0.0
  0
ARC
  5
25E
330
1F
100
AcDbEntity
  8
0
  6
Continuous
 62
     7
370
    18
100
AcDbCircle
 10
56.4372937592
 20
151.9816269334
 30
0.0
 40
7.250000000000006
100
AcDbArc
 50
315.0901851794
 51
326.3335512412
  0
ARC
  5
25F
330
1F
100
AcDbEntity
  8
0
  6
Continuous
 62
     7
370
    18
100
AcDbCircle
 10
56.4372937592
 20
151.9816269334
 30
0.0
 40
7.250000000000009
100
AcDbArc
 50
333.7504406917
 51
344.9098148206
  0
LINE
  5
260
330
1F
100
AcDbEntity
  8
0
  6
Continuous
 62
     7
370
    18
100
AcDbLine
 10
58.5872938322
 20
145.1400262663
 30
0.0
 11
61.5718809354
 21
146.863178386
 31
0.0
  0
LINE
  5
261
330
1F
100
AcDbEntity
  8
0
  6
Continuous
 62
     7
370
    18
100
AcDbLine
 10
51.3027065831
 20
146.863178386
 30
0.0
 11
54.2872936862
 21
145.1400262663
 31
0.0
  0
ARC
  5
262
330
1F
100
AcDbEntity
  8
0
  6
Continuous
 62
     7
370
    18
100
AcDbCircle
 10
56.4372937592
 20
151.9816269334
 30
0.0
 40
7.249999999999996
100
AcDbArc
 50
195.0901851794
 51
206.3335512412
  0
ARC
  5
263
330
1F
100
AcDbEntity
  8
0
  6
Continuous
 62
     7
370
    18
100
AcDbCircle
 10
56.4372937592
 20
151.9816269334
 30
0.0
 40
7.250000000000004
100
AcDbArc
 50
213.7504406917
 51
224.9098148206
  0
LINE
  5
264
330
1F
100
AcDbEntity
  8
0
  6
Continuous
 62
     7
370
    18
100
AcDbLine
 10
49.4372935432
 20
153.8690857483
 30
0.0
 11
49.4372935432
 21
150.0941682966
 31
0.0
  0
ARC
  5
265
330
1F
100
AcDbEntity
  8
0
  6
Continuous
 62
     7
370
    18
100
AcDbCircle
 10
56.4372937592
 20
151.9816269334
 30
0.0
 40
7.25
100
AcDbArc
 50
135.0901851794
 51
146.3335512412
  0
ARC
  5
266
330
1F
100
AcDbEntity
  8
0
  6
Continuous
 62
     7
370
    18
100
AcDbCircle
 10
56.4372937592
 20
151.9816269334
 30
0.0
 40
7.249999999999998
100
AcDbArc
 50
153.7504406917
 51
164.9098148206
  0
LINE
  5
267
330
1F
100
AcDbEntity
  8
0
  6
Continuous
 62
     7
370
    18
100
AcDbLine
 10
54.5718808357
 20
158.9875340356
 30
0.0
 11
51.3027065831
 21
157.100075659
 31
0.0
  0
ARC
  5
268
330
1F
100
AcDbEntity
  8
0
  6
Continuous
 62
     7
370
    18
100
AcDbCircle
 10
56.4372937592
 20
151.9816269334
 30
0.0
 40
7.250000000000003
100
AcDbArc
 50
75.0901851794
 51
86.3335512412
  0
ARC
  5
269
330
1F
100
AcDbEntity
  8
0
  6
Continuous
 62
     7
370
    18
100
AcDbCircle
 10
56.4372937592
 20
151.9816269334
 30
0.0
 40
7.250000000000006
100
AcDbArc
 50
93.7504406917
 51
104.9098148206
  0
LINE
  5
26A
330
1F
100
AcDbEntity
  8
0
  6
Continuous
 62
     7
370
    18
100
AcDbLine
 10
61.5718809354
 20
157.100075659
 30
0.0
 11
58.3027066827
 21
158.9875340356
 31
0.0
  0
ARC
  5
26B
330
1F
100
AcDbEntity
  8
0
  6
Continuous
 62
     7
370
    18
100
AcDbCircle
 10
56.4372937592
 20
151.9816269334
 30
0.0
 40
7.250000000000009
100
AcDbArc
 50
15.0901851794
 51
26.3335512412
  0
ARC
  5
26C
330
1F
100
AcDbEntity
  8
0
  6
Continuous
 62
     7
370
    18
100
AcDbCircle
 10
56.4372937592
 20
151.9816269334
 30
0.0
 40
7.250000000000004
100
AcDbArc
 50
33.7504406917
 51
44.9098148206
  0
SPLINE
  5
26D
330
1F
100
AcDbEntity
  8
0
  6
Continuous
 62
     7
370
    18
100
AcDbSpline
210
0.0
220
0.0
230
1.0
 70
    24
 71
     3
 72
     8
 73
     4
 74
     0
 42
0.000000001
 43
0.00000001
 40
0.0
 40
0.0
 40
0.0
 40
0.0
 40
1.0
 40
1.0
 40
1.0
 40
1.0
 10
49.43729375922489
 20
147.9401750490781
 30
0.0
 10
50.05019232094833
 20
147.5863178994812
 30
0.0
 10
50.67628652072133
 20
147.2248422447043
 30
0.0
 10
51.30270665539732
 20
146.8631784113235
 30
0.0
  0
SPLINE
  5
26E
330
1F
100
AcDbEntity
  8
0
  6
Continuous
 62
     7
370
    18
100
AcDbSpline
210
0.0
220
0.0
230
1.0
 70
    24
 71
     3
 72
    10
 73
     6
 74
     0
 42
0.000000001
 43
0.00000001
 40
0.0
 40
0.0
 40
0.0
 40
0.0
 40
0.5
 40
0.5
 40
1.0
 40
1.0
 40
1.0
 40
1.0
 10
49.43729375922456
 20
150.0941683245878
 30
0.0
 10
49.43729375922462
 20
149.7286359847312
 30
0.0
 10
49.43729375922467
 20
149.3644626298644
 30
0.0
 10
49.43729375922478
 20
148.6468592633088
 30
0.0
 10
49.43729375922484
 20
148.2919786975648
 30
0.0
 10
49.43729375922489
 20
147.9401750490781
 30
0.0
  0
SPLINE
  5
26F
330
1F
100
AcDbEntity
  8
0
  6
Continuous
 62
     7
370
    18
100
AcDbSpline
210
0.0
220
0.0
230
1.0
 70
    24
 71
     3
 72
    10
 73
     6
 74
     0
 42
0.000000001
 43
0.00000001
 40
0.0
 40
0.0
 40
0.0
 40
0.0
 40
0.5
 40
0.5
 40
1.0
 40
1.0
 40
1.0
 40
1.0
 10
49.43729375922365
 20
156.0230788177328
 30
0.0
 10
49.4372937592237
 20
155.670658707843
 30
0.0
 10
49.43729375922376
 20
155.3150456947531
 30
0.0
 10
49.43729375922386
 20
154.5956609166575
 30
0.0
 10
49.43729375922392
 20
154.2318658141573
 30
0.0
 10
49.43729375922398
 20
153.8690855422231
 30
0.0
  0
SPLINE
  5
270
330
1F
100
AcDbEntity
  8
0
  6
Continuous
 62
     7
370
    18
100
AcDbSpline
210
0.0
220
0.0
230
1.0
 70
    24
 71
     3
 72
     8
 73
     4
 74
     0
 42
0.000000001
 43
0.00000001
 40
0.0
 40
0.0
 40
0.0
 40
0.0
 40
1.0
 40
1.0
 40
1.0
 40
1.0
 10
51.30270665539575
 20
157.100075455488
 30
0.0
 10
50.66797635620173
 20
156.7336137463854
 30
0.0
 10
50.04794386955368
 20
156.3756378233127
 30
0.0
 10
49.43729375922364
 20
156.0230788177328
 30
0.0
  0
SPLINE
  5
271
330
1F
100
AcDbEntity
  8
0
  6
Continuous
 62
     7
370
    18
100
AcDbSpline
210
0.0
220
0.0
230
1.0
 70
    24
 71
     3
 72
     8
 73
     4
 74
     0
 42
0.000000001
 43
0.00000001
 40
0.0
 40
0.0
 40
0.0
 40
0.0
 40
1.0
 40
1.0
 40
1.0
 40
1.0
 10
58.30270665539546
 20
158.9875340643067
 30
0.0
 10
57.66797635620132
 20
159.3539957734091
 30
0.0
 10
57.04794386955318
 20
159.7119716964816
 30
0.0
 10
56.43729375922302
 20
160.0645307020613
 30
0.0
  0
SPLINE
  5
272
330
1F
100
AcDbEntity
  8
0
  6
Continuous
 62
     7
370
    18
100
AcDbSpline
210
0.0
220
0.0
230
1.0
 70
    24
 71
     3
 72
     8
 73
     4
 74
     0
 42
0.000000001
 43
0.00000001
 40
0.0
 40
0.0
 40
0.0
 40
0.0
 40
1.0
 40
1.0
 40
1.0
 40
1.0
 10
56.43729375922302
 20
160.0645307020613
 30
0.0
 10
55.8243951974997
 20
159.7106735524643
 30
0.0
 10
55.1983009977268
 20
159.3491978976872
 30
0.0
 10
54.57188086305092
 20
158.9875340643061
 30
0.0
  0
SPLINE
  5
273
330
1F
100
AcDbEntity
  8
0
  6
Continuous
 62
     7
370
    18
100
AcDbSpline
210
0.0
220
0.0
230
1.0
 70
    24
 71
     3
 72
    10
 73
     6
 74
     0
 42
0.000000001
 43
0.00000001
 40
0.0
 40
0.0
 40
0.0
 40
0.0
 40
0.5
 40
0.5
 40
1.0
 40
1.0
 40
1.0
 40
1.0
 10
63.43729375922398
 20
153.8690855422253
 30
0.0
 10
63.43729375922393
 20
154.2346178820818
 30
0.0
 10
63.43729375922387
 20
154.5987912369486
 30
0.0
 10
63.43729375922374
 20
155.3163946035042
 30
0.0
 10
63.43729375922371
 20
155.6712751692483
 30
0.0
 10
63.43729375922365
 20
156.023078817735
 30
0.0
  0
SPLINE
  5
274
330
1F
100
AcDbEntity
  8
0
  6
Continuous
 62
     7
370
    18
100
AcDbSpline
210
0.0
220
0.0
230
1.0
 70
    24
 71
     3
 72
     8
 73
     4
 74
     0
 42
0.000000001
 43
0.00000001
 40
0.0
 40
0.0
 40
0.0
 40
0.0
 40
1.0
 40
1.0
 40
1.0
 40
1.0
 10
63.43729375922365
 20
156.023078817735
 30
0.0
 10
62.82439519750022
 20
156.3769359673318
 30
0.0
 10
62.1983009977272
 20
156.7384116221087
 30
0.0
 10
61.57188086305121
 20
157.1000754554895
 30
0.0
  0
SPLINE
  5
275
330
1F
100
AcDbEntity
  8
0
  6
Continuous
 62
     7
370
    18
100
AcDbSpline
210
0.0
220
0.0
230
1.0
 70
    24
 71
     3
 72
    10
 73
     6
 74
     0
 42
0.000000001
 43
0.00000001
 40
0.0
 40
0.0
 40
0.0
 40
0.0
 40
0.5000000000000001
 40
0.5000000000000001
 40
1.0
 40
1.0
 40
1.0
 40
1.0
 10
63.43729375922489
 20
147.9401750490802
 30
0.0
 10
63.43729375922484
 20
148.29259515897
 30
0.0
 10
63.43729375922479
 20
148.6482081720599
 30
0.0
 10
63.43729375922467
 20
149.3675929501555
 30
0.0
 10
63.43729375922462
 20
149.7313880526557
 30
0.0
 10
63.43729375922457
 20
150.0941683245899
 30
0.0
  0
SPLINE
  5
276
330
1F
100
AcDbEntity
  8
0
  6
Continuous
 62
     7
370
    18
100
AcDbSpline
210
0.0
220
0.0
230
1.0
 70
    24
 71
     3
 72
     8
 73
     4
 74
     0
 42
0.000000001
 43
0.00000001
 40
0.0
 40
0.0
 40
0.0
 40
0.0
 40
1.0
 40
1.0
 40
1.0
 40
1.0
 10
61.57188086305279
 20
146.8631784113251
 30
0.0
 10
62.20661116224682
 20
147.2296401204277
 30
0.0
 10
62.82664364889486
 20
147.5876160435004
 30
0.0
 10
63.4372937592249
 20
147.9401750490802
 30
0.0
  0
SPLINE
  5
277
330
1F
100
AcDbEntity
  8
0
  6
Continuous
 62
     8
370
    18
100
AcDbSpline
210
0.0
220
0.0
230
1.0
 70
     8
 71
     3
 72
    11
 73
     7
 74
     0
 42
0.000000001
 43
0.00000001
 40
0.0
 40
0.0
 40
0.0
 40
0.0
 40
0.2651278953303545
 40
0.6624097693631688
 40
0.973836060160523
 40
1.0
 40
1.0
 40
1.0
 40
1.0
 10
55.69655546467111
 20
146.7492756560399
 30
0.0
 10
55.61709563286662
 20
146.7667740892237
 30
0.0
 10
55.41856892260226
 20
146.810493114244
 30
0.0
 10
55.17573753424657
 20
146.9558620609758
 30
0.0
 10
55.02533904093185
 20
147.1159635175742
 30
0.0
 10
54.98939045570078
 20
147.2152786432842
 30
0.0
 10
54.98660436612845
 20
147.2229757705657
 30
0.0
  0
SPLINE
  5
278
330
1F
100
AcDbEntity
  8
0
  6
Continuous
 62
     8
370
    18
100
AcDbSpline
210
0.0
220
0.0
230
1.0
 70
     8
 71
     3
 72
    11
 73
     7
 74
     0
 42
0.000000001
 43
0.00000001
 40
0.0
 40
0.0
 40
0.0
 40
0.0
 40
0.0967829554068659
 40
0.4288483436009429
 40
0.8327145289211718
 40
1.0
 40
1.0
 40
1.0
 40
1.0
 10
57.87926620585203
 20
147.2167002862273
 30
0.0
 10
57.86755184753574
 20
147.1895429578148
 30
0.0
 10
57.81564515447008
 20
147.0692079746826
 30
0.0
 10
57.63554709923126
 20
146.9056725486756
 30
0.0
 10
57.39766016454771
 20
146.7948591362694
 30
0.0
 10
57.22778658345239
 20
146.7596021329732
 30
0.0
 10
57.17803205377713
 20
146.7492756560399
 30
0.0
  0
ARC
  5
279
330
1F
100
AcDbEntity
  8
0
  6
Continuous
 62
     8
370
    18
100
AcDbCircle
 10
56.4372937592
 20
151.9816269334
 30
0.0
 40
5.699999999999989
100
AcDbArc
 50
292.1599175499
 51
247.8400824501
  0
DIMENSION
  5
27A
330
1F
100
AcDbEntity
  8
0
  6
Continuous
 62
     7
370
    18
100
AcDbDimension
  2
_D_11
 10
62.9246676034
 20
169.2100755216
 30
0.0
 11
56.4246693495
 21
169.2053112308
 31
0.0
 70
   160
  1
<>
 71
     2
 42
-1.0
  3
SLDDIMSTYLE1
100
AcDbAlignedDimension
 13
49.9345448407
 23
155.7296383842
 33
0.0
 14
62.9345413486
 24
155.7391669659
 34
0.0
 50
0.0419959664
100
AcDbRotatedDimension
  0
INSERT
  5
289
330
1F
100
AcDbEntity
  8
0
  6
Continuous
 62
     7
370
     0
100
AcDbBlockReference
  2
SW_NOTE_1
 10
63.9704433498
 20
115.45073911
 30
0.0
  0
LEADER
  5
28A
330
1F
100
AcDbEntity
  8
0
  6
Continuous
 62
     7
370
     0
100
AcDbLeader
  3
SLDDIMSTYLE4
 76
     2
 10
56.9034822902
 20
143.020057516
 30
0.0
 10
63.9704433498
 20
115.45073911
 30
0.0
  0
INSERT
  5
296
330
1F
100
AcDbEntity
  8
0
  6
Continuous
 62
     7
370
    18
100
AcDbBlockReference
  2
SW_CENTERMARKSYMBOL_0
 10
56.4372937592
 20
151.9816269334
 30
0.0
  0
ENDSEC
  0
SECTION
  2
OBJECTS
  0
DICTIONARY
  5
C
330
0
100
AcDbDictionary
281
     1
  3
ACAD_GROUP
350
D
  3
ACAD_LAYOUT
350
1A
  3
ACAD_MLINESTYLE
350
17
  3
ACAD_PLOTSETTINGS
350
19
  3
ACAD_PLOTSTYLENAME
350
E
  3
ACAD_SCALELIST
350
47
  0
DICTIONARY
  5
D
102
{ACAD_REACTORS
330
C
102
}
330
C
100
AcDbDictionary
281
     1
  0
DICTIONARY
  5
1A
102
{ACAD_REACTORS
330
C
102
}
330
C
100
AcDbDictionary
281
     1
  3
Layout1
350
1E
  3
Layout2
350
26
  3
Model
350
22
  0
DICTIONARY
  5
17
102
{ACAD_REACTORS
330
C
102
}
330
C
100
AcDbDictionary
281
     1
  3
Standard
350
18
  0
DICTIONARY
  5
19
102
{ACAD_REACTORS
330
C
102
}
330
C
100
AcDbDictionary
281
     1
  0
ACDBDICTIONARYWDFLT
  5
E
102
{ACAD_REACTORS
330
C
102
}
330
C
100
AcDbDictionary
281
     1
  3
Normal
350
F
100
AcDbDictionaryWithDefault
340
F
  0
DICTIONARY
  5
47
102
{ACAD_REACTORS
330
C
102
}
330
C
100
AcDbDictionary
281
     1
  3
A0
350
48
  3
A1
350
49
  3
A2
350
4A
  3
A3
350
4B
  3
A4
350
4C
  3
A5
350
4D
  3
A6
350
4E
  3
A7
350
4F
  3
A8
350
50
  3
A9
350
51
  3
B0
350
52
  3
B1
350
53
  3
B2
350
54
  3
B3
350
55
  3
B4
350
56
  3
B5
350
57
  3
B6
350
58
  3
B7
350
59
  3
B8
350
5A
  3
B9
350
5B
  3
C0
350
5C
  3
C1
350
5D
  3
C2
350
5E
  3
C3
350
5F
  3
C4
350
60
  3
C5
350
61
  3
C6
350
62
  3
C7
350
63
  3
C8
350
64
  3
C9
350
65
  3
D0
350
66
  3
D1
350
67
  3
D2
350
68
  0
LAYOUT
  5
1E
102
{ACAD_REACTORS
330
1A
102
}
330
1A
100
AcDbPlotSettings
  1

  2
none_device
  4

  6

 40
0.0
 41
0.0
 42
0.0
 43
0.0
 44
0.0
 45
0.0
 46
0.0
 47
0.0
 48
0.0
 49
0.0
140
0.0
141
0.0
142
1.0
143
1.0
 70
   688
 72
     1
 73
     0
 74
     5
  7

 75
    16
147
1.0
148
0.0
149
0.0
100
AcDbLayout
  1
Layout1
 70
     1
 71
     1
 10
0.0
 20
0.0
 11
420.0
 21
297.0
 12
0.0
 22
0.0
 32
0.0
 14
1.0000000000E+20
 24
1.0000000000E+20
 34
1.0000000000E+20
 15
-1.0000000000E+20
 25
-1.0000000000E+20
 35
-1.0000000000E+20
146
0.0
 13
0.0
 23
0.0
 33
0.0
 16
1.0
 26
0.0
 36
0.0
 17
0.0
 27
1.0
 37
0.0
 76
     0
330
1B
  0
LAYOUT
  5
26
102
{ACAD_REACTORS
330
1A
102
}
330
1A
100
AcDbPlotSettings
  1

  2
none_device
  4

  6

 40
0.0
 41
0.0
 42
0.0
 43
0.0
 44
0.0
 45
0.0
 46
0.0
 47
0.0
 48
0.0
 49
0.0
140
0.0
141
0.0
142
1.0
143
1.0
 70
   688
 72
     1
 73
     0
 74
     5
  7

 75
    16
147
1.0
148
0.0
149
0.0
100
AcDbLayout
  1
Layout2
 70
     1
 71
     2
 10
0.0
 20
0.0
 11
0.0
 21
0.0
 12
0.0
 22
0.0
 32
0.0
 14
0.0
 24
0.0
 34
0.0
 15
0.0
 25
0.0
 35
0.0
146
0.0
 13
0.0
 23
0.0
 33
0.0
 16
1.0
 26
0.0
 36
0.0
 17
0.0
 27
1.0
 37
0.0
 76
     0
330
23
  0
LAYOUT
  5
22
102
{ACAD_REACTORS
330
1A
102
}
330
1A
100
AcDbPlotSettings
  1

  2
none_device
  4
Letter_(8.50_x_11.00_Inches)
  6

 40
6.35
 41
6.35
 42
6.35000508
 43
6.35000508
 44
215.9
 45
279.4
 46
0.0
 47
0.0
 48
0.0
 49
0.0
140
0.0
141
0.0
142
1.0
143
1.0
 70
  1712
 72
     1
 73
     0
 74
     0
  7

 75
     0
147
1.0
148
0.0
149
0.0
100
AcDbLayout
  1
Model
 70
     1
 71
     0
 10
0.0
 20
0.0
 11
210.0
 21
297.0
 12
0.0
 22
0.0
 32
0.0
 14
0.0
 24
0.0
 34
0.0
 15
210.0
 25
297.0
 35
0.0
146
0.0
 13
0.0
 23
0.0
 33
0.0
 16
1.0
 26
0.0
 36
0.0
 17
0.0
 27
1.0
 37
0.0
 76
     0
330
1F
331
29
  0
MLINESTYLE
  5
18
102
{ACAD_REACTORS
330
17
102
}
330
17
100
AcDbMlineStyle
  2
Standard
 70
     0
  3

 62
   256
 51
90.0
 52
90.0
 71
     2
 49
0.5
 62
   256
  6
BYLAYER
 49
-0.5
 62
   256
  6
BYLAYER
  0
ACDBPLACEHOLDER
  5
F
102
{ACAD_REACTORS
330
E
102
}
330
E
  0
SCALE
  5
48
102
{ACAD_REACTORS
330
47
102
}
330
47
100
AcDbScale
 70
     0
300
1:1
140
1.0
141
1.0
290
     1
  0
SCALE
  5
49
102
{ACAD_REACTORS
330
47
102
}
330
47
100
AcDbScale
 70
     0
300
1:2
140
1.0
141
2.0
290
     0
  0
SCALE
  5
4A
102
{ACAD_REACTORS
330
47
102
}
330
47
100
AcDbScale
 70
     0
300
1:4
140
1.0
141
4.0
290
     0
  0
SCALE
  5
4B
102
{ACAD_REACTORS
330
47
102
}
330
47
100
AcDbScale
 70
     0
300
1:5
140
1.0
141
5.0
290
     0
  0
SCALE
  5
4C
102
{ACAD_REACTORS
330
47
102
}
330
47
100
AcDbScale
 70
     0
300
1:8
140
1.0
141
8.0
290
     0
  0
SCALE
  5
4D
102
{ACAD_REACTORS
330
47
102
}
330
47
100
AcDbScale
 70
     0
300
1:10
140
1.0
141
10.0
290
     0
  0
SCALE
  5
4E
102
{ACAD_REACTORS
330
47
102
}
330
47
100
AcDbScale
 70
     0
300
1:16
140
1.0
141
16.0
290
     0
  0
SCALE
  5
4F
102
{ACAD_REACTORS
330
47
102
}
330
47
100
AcDbScale
 70
     0
300
1:20
140
1.0
141
20.0
290
     0
  0
SCALE
  5
50
102
{ACAD_REACTORS
330
47
102
}
330
47
100
AcDbScale
 70
     0
300
1:30
140
1.0
141
30.0
290
     0
  0
SCALE
  5
51
102
{ACAD_REACTORS
330
47
102
}
330
47
100
AcDbScale
 70
     0
300
1:40
140
1.0
141
40.0
290
     0
  0
SCALE
  5
52
102
{ACAD_REACTORS
330
47
102
}
330
47
100
AcDbScale
 70
     0
300
1:50
140
1.0
141
50.0
290
     0
  0
SCALE
  5
53
102
{ACAD_REACTORS
330
47
102
}
330
47
100
AcDbScale
 70
     0
300
1:100
140
1.0
141
100.0
290
     0
  0
SCALE
  5
54
102
{ACAD_REACTORS
330
47
102
}
330
47
100
AcDbScale
 70
     0
300
2:1
140
2.0
141
1.0
290
     0
  0
SCALE
  5
55
102
{ACAD_REACTORS
330
47
102
}
330
47
100
AcDbScale
 70
     0
300
4:1
140
4.0
141
1.0
290
     0
  0
SCALE
  5
56
102
{ACAD_REACTORS
330
47
102
}
330
47
100
AcDbScale
 70
     0
300
8:1
140
8.0
141
1.0
290
     0
  0
SCALE
  5
57
102
{ACAD_REACTORS
330
47
102
}
330
47
100
AcDbScale
 70
     0
300
10:1
140
10.0
141
1.0
290
     0
  0
SCALE
  5
58
102
{ACAD_REACTORS
330
47
102
}
330
47
100
AcDbScale
 70
     0
300
100:1
140
100.0
141
1.0
290
     0
  0
SCALE
  5
59
102
{ACAD_REACTORS
330
47
102
}
330
47
100
AcDbScale
 70
     0
300
1/128" = 1'-0"
140
0.0078125
141
12.0
290
     0
  0
SCALE
  5
5A
102
{ACAD_REACTORS
330
47
102
}
330
47
100
AcDbScale
 70
     0
300
1/64" = 1'-0"
140
0.015625
141
12.0
290
     0
  0
SCALE
  5
5B
102
{ACAD_REACTORS
330
47
102
}
330
47
100
AcDbScale
 70
     0
300
1/32" = 1'-0"
140
0.03125
141
12.0
290
     0
  0
SCALE
  5
5C
102
{ACAD_REACTORS
330
47
102
}
330
47
100
AcDbScale
 70
     0
300
1/16" = 1'-0"
140
0.0625
141
12.0
290
     0
  0
SCALE
  5
5D
102
{ACAD_REACTORS
330
47
102
}
330
47
100
AcDbScale
 70
     0
300
3/32" = 1'-0"
140
0.09375
141
12.0
290
     0
  0
SCALE
  5
5E
102
{ACAD_REACTORS
330
47
102
}
330
47
100
AcDbScale
 70
     0
300
1/8" = 1'-0"
140
0.125
141
12.0
290
     0
  0
SCALE
  5
5F
102
{ACAD_REACTORS
330
47
102
}
330
47
100
AcDbScale
 70
     0
300
3/16" = 1'-0"
140
0.1875
141
12.0
290
     0
  0
SCALE
  5
60
102
{ACAD_REACTORS
330
47
102
}
330
47
100
AcDbScale
 70
     0
300
1/4" = 1'-0"
140
0.25
141
12.0
290
     0
  0
SCALE
  5
61
102
{ACAD_REACTORS
330
47
102
}
330
47
100
AcDbScale
 70
     0
300
3/8" = 1'-0"
140
0.375
141
12.0
290
     0
  0
SCALE
  5
62
102
{ACAD_REACTORS
330
47
102
}
330
47
100
AcDbScale
 70
     0
300
1/2" = 1'-0"
140
0.5
141
12.0
290
     0
  0
SCALE
  5
63
102
{ACAD_REACTORS
330
47
102
}
330
47
100
AcDbScale
 70
     0
300
3/4" = 1'-0"
140
0.75
141
12.0
290
     0
  0
SCALE
  5
64
102
{ACAD_REACTORS
330
47
102
}
330
47
100
AcDbScale
 70
     0
300
1" = 1'-0"
140
1.0
141
12.0
290
     0
  0
SCALE
  5
65
102
{ACAD_REACTORS
330
47
102
}
330
47
100
AcDbScale
 70
     0
300
1-1/2" = 1'-0"
140
1.5
141
12.0
290
     0
  0
SCALE
  5
66
102
{ACAD_REACTORS
330
47
102
}
330
47
100
AcDbScale
 70
     0
300
3" = 1'-0"
140
3.0
141
12.0
290
     0
  0
SCALE
  5
67
102
{ACAD_REACTORS
330
47
102
}
330
47
100
AcDbScale
 70
     0
300
6" = 1'-0"
140
6.0
141
12.0
290
     0
  0
SCALE
  5
68
102
{ACAD_REACTORS
330
47
102
}
330
47
100
AcDbScale
 70
     0
300
1'-0" = 1'-0"
140
12.0
141
12.0
290
     0
  0
ENDSEC
  0
EOF
