  0
SECTION
  2
HEADER
  9
$ACADVER
  1
AC1015
  9
$ACADMAINTVER
 70
     6
  9
$DWGCODEPAGE
  3
DOS932
  9
$INSBASE
 10
0.0
 20
0.0
 30
0.0
  9
$EXTMIN
 10
0.0
 20
0.0
 30
0.0
  9
$EXTMAX
 10
210.0
 20
297.0
 30
0.0
  9
$LIMMIN
 10
0.0
 20
0.0
  9
$LIMMAX
 10
210.0
 20
297.0
  9
$ORTHOMODE
 70
     0
  9
$REGENMODE
 70
     1
  9
$FILLMODE
 70
     1
  9
$QTEXTMODE
 70
     0
  9
$MIRRTEXT
 70
     1
  9
$LTSCALE
 40
1.0
  9
$ATTMODE
 70
     1
  9
$TEXTSIZE
 40
3.5
  9
$TRACEWID
 40
1.0
  9
$TEXTSTYLE
  7
Standard
  9
$CLAYER
  8
0
  9
$CELTYPE
  6
ByLayer
  9
$CECOLOR
 62
   256
  9
$CELTSCALE
 40
1.0
  9
$DISPSILH
 70
     0
  9
$DIMSCALE
 40
1.0
  9
$DIMASZ
 40
3.0
  9
$DIMEXO
 40
1.0
  9
$DIMDLI
 40
3.75
  9
$DIMRND
 40
0.0
  9
$DIMDLE
 40
0.0
  9
$DIMEXE
 40
1.0
  9
$DIMTP
 40
0.0
  9
$DIMTM
 40
0.0
  9
$DIMTXT
 40
3.5
  9
$DIMCEN
 40
2.5
  9
$DIMTSZ
 40
0.0
  9
$DIMTOL
 70
     0
  9
$DIMLIM
 70
     0
  9
$DIMTIH
 70
     1
  9
$DIMTOH
 70
     1
  9
$DIMSE1
 70
     0
  9
$DIMSE2
 70
     0
  9
$DIMTAD
 70
     1
  9
$DIMZIN
 70
     0
  9
$DIMBLK
  1

  9
$DIMASO
 70
     1
  9
$DIMSHO
 70
     1
  9
$DIMPOST
  1

  9
$DIMAPOST
  1

  9
$DIMALT
 70
     0
  9
$DIMALTD
 70
     3
  9
$DIMALTF
 40
0.0393700787
  9
$DIMLFAC
 40
1.0
  9
$DIMTOFL
 70
     1
  9
$DIMTVP
 40
0.0
  9
$DIMTIX
 70
     0
  9
$DIMSOXD
 70
     0
  9
$DIMSAH
 70
     0
  9
$DIMBLK1
  1

  9
$DIMBLK2
  1

  9
$DIMSTYLE
  2
ISO-25
  9
$DIMCLRD
 70
     0
  9
$DIMCLRE
 70
     0
  9
$DIMCLRT
 70
     0
  9
$DIMTFAC
 40
1.0
  9
$DIMGAP
 40
1.524
  9
$DIMJUST
 70
     0
  9
$DIMSD1
 70
     0
  9
$DIMSD2
 70
     0
  9
$DIMTOLJ
 70
     0
  9
$DIMTZIN
 70
     0
  9
$DIMALTZ
 70
     0
  9
$DIMALTTZ
 70
     0
  9
$DIMUPT
 70
     0
  9
$DIMDEC
 70
     1
  9
$DIMTDEC
 70
     3
  9
$DIMALTU
 70
     2
  9
$DIMALTTD
 70
     3
  9
$DIMTXSTY
  7
Standard
  9
$DIMAUNIT
 70
     0
  9
$DIMADEC
 70
     2
  9
$DIMALTRND
 40
0.0
  9
$DIMAZIN
 70
     0
  9
$DIMDSEP
 70
    44
  9
$DIMATFIT
 70
     3
  9
$DIMFRAC
 70
     0
  9
$DIMLDRBLK
  1

  9
$DIMLUNIT
 70
     2
  9
$DIMLWD
 70
    -2
  9
$DIMLWE
 70
    -2
  9
$DIMTMOVE
 70
     0
  9
$LUNITS
 70
     2
  9
$LUPREC
 70
     1
  9
$SKETCHINC
 40
1.0
  9
$FILLETRAD
 40
10.0
  9
$AUNITS
 70
     0
  9
$AUPREC
 70
     2
  9
$MENU
  1
.
  9
$ELEVATION
 40
0.0
  9
$PELEVATION
 40
0.0
  9
$THICKNESS
 40
0.0
  9
$LIMCHECK
 70
     0
  9
$CHAMFERA
 40
0.0
  9
$CHAMFERB
 40
0.0
  9
$CHAMFERC
 40
0.0
  9
$CHAMFERD
 40
0.0
  9
$SKPOLY
 70
     0
  9
$TDCREATE
 40
2459019.57958287
  9
$TDUCREATE
 40
2459019.20458287
  9
$TDUPDATE
 40
2459019.579585047
  9
$TDUUPDATE
 40
2459019.204585047
  9
$TDINDWG
 40
0.0000000116
  9
$TDUSRTIMER
 40
0.0000000116
  9
$USRTIMER
 70
     1
  9
$ANGBASE
 50
0.0
  9
$ANGDIR
 70
     0
  9
$PDMODE
 70
     0
  9
$PDSIZE
 40
-1.0
  9
$PLINEWID
 40
0.0
  9
$SPLFRAME
 70
     0
  9
$SPLINETYPE
 70
     6
  9
$SPLINESEGS
 70
     8
  9
$HANDSEED
  5
2B1
  9
$SURFTAB1
 70
     6
  9
$SURFTAB2
 70
     6
  9
$SURFTYPE
 70
     6
  9
$SURFU
 70
     6
  9
$SURFV
 70
     6
  9
$UCSBASE
  2

  9
$UCSNAME
  2

  9
$UCSORG
 10
0.0
 20
0.0
 30
0.0
  9
$UCSXDIR
 10
1.0
 20
0.0
 30
0.0
  9
$UCSYDIR
 10
0.0
 20
1.0
 30
0.0
  9
$UCSORTHOREF
  2

  9
$UCSORTHOVIEW
 70
     0
  9
$UCSORGTOP
 10
0.0
 20
0.0
 30
0.0
  9
$UCSORGBOTTOM
 10
0.0
 20
0.0
 30
0.0
  9
$UCSORGLEFT
 10
0.0
 20
0.0
 30
0.0
  9
$UCSORGRIGHT
 10
0.0
 20
0.0
 30
0.0
  9
$UCSORGFRONT
 10
0.0
 20
0.0
 30
0.0
  9
$UCSORGBACK
 10
0.0
 20
0.0
 30
0.0
  9
$PUCSBASE
  2

  9
$PUCSNAME
  2

  9
$PUCSORG
 10
0.0
 20
0.0
 30
0.0
  9
$PUCSXDIR
 10
1.0
 20
0.0
 30
0.0
  9
$PUCSYDIR
 10
0.0
 20
1.0
 30
0.0
  9
$PUCSORTHOREF
  2

  9
$PUCSORTHOVIEW
 70
     0
  9
$PUCSORGTOP
 10
0.0
 20
0.0
 30
0.0
  9
$PUCSORGBOTTOM
 10
0.0
 20
0.0
 30
0.0
  9
$PUCSORGLEFT
 10
0.0
 20
0.0
 30
0.0
  9
$PUCSORGRIGHT
 10
0.0
 20
0.0
 30
0.0
  9
$PUCSORGFRONT
 10
0.0
 20
0.0
 30
0.0
  9
$PUCSORGBACK
 10
0.0
 20
0.0
 30
0.0
  9
$USERI1
 70
     0
  9
$USERI2
 70
     0
  9
$USERI3
 70
     0
  9
$USERI4
 70
     0
  9
$USERI5
 70
     0
  9
$USERR1
 40
0.0
  9
$USERR2
 40
0.0
  9
$USERR3
 40
0.0
  9
$USERR4
 40
0.0
  9
$USERR5
 40
0.0
  9
$WORLDVIEW
 70
     1
  9
$SHADEDGE
 70
     3
  9
$SHADEDIF
 70
    70
  9
$TILEMODE
 70
     1
  9
$MAXACTVP
 70
    64
  9
$PINSBASE
 10
0.0
 20
0.0
 30
0.0
  9
$PLIMCHECK
 70
     0
  9
$PEXTMIN
 10
1.0000000000E+20
 20
1.0000000000E+20
 30
1.0000000000E+20
  9
$PEXTMAX
 10
-1.0000000000E+20
 20
-1.0000000000E+20
 30
-1.0000000000E+20
  9
$PLIMMIN
 10
0.0
 20
0.0
  9
$PLIMMAX
 10
420.0
 20
297.0
  9
$UNITMODE
 70
     0
  9
$VISRETAIN
 70
     1
  9
$PLINEGEN
 70
     0
  9
$PSLTSCALE
 70
     1
  9
$TREEDEPTH
 70
  3020
  9
$CMLSTYLE
  2
Standard
  9
$CMLJUST
 70
     0
  9
$CMLSCALE
 40
20.0
  9
$PROXYGRAPHICS
 70
     1
  9
$MEASUREMENT
 70
     1
  9
$CELWEIGHT
370
    -1
  9
$ENDCAPS
280
     0
  9
$JOINSTYLE
280
     0
  9
$LWDISPLAY
290
     1
  9
$INSUNITS
 70
     4
  9
$HYPERLINKBASE
  1

  9
$STYLESHEET
  1

  9
$XEDIT
290
     1
  9
$CEPSNTYPE
380
     0
  9
$PSTYLEMODE
290
     1
  9
$FINGERPRINTGUID
  2
{816B0432-5103-4748-AC0B-5617CB9395B6}
  9
$VERSIONGUID
  2
{FAEB1C32-E019-11D5-929B-00C0DF256EC4}
  9
$EXTNAMES
290
     1
  9
$PSVPSCALE
 40
0.0
  9
$OLESTARTUP
290
     0
  0
ENDSEC
  0
SECTION
  2
CLASSES
  0
CLASS
  1
ACDBDICTIONARYWDFLT
  2
AcDbDictionaryWithDefault
  3
ObjectDBX Classes
 90
        0
280
     0
281
     0
  0
CLASS
  1
VISUALSTYLE
  2
AcDbVisualStyle
  3
ObjectDBX Classes
 90
     4095
280
     0
281
     0
  0
CLASS
  1
MATERIAL
  2
AcDbMaterial
  3
ObjectDBX Classes
 90
     1153
280
     0
281
     0
  0
CLASS
  1
SCALE
  2
AcDbScale
  3
ObjectDBX Classes
 90
     1153
280
     0
281
     0
  0
CLASS
  1
TABLESTYLE
  2
AcDbTableStyle
  3
ObjectDBX Classes
 90
     4095
280
     0
281
     0
  0
CLASS
  1
MLEADERSTYLE
  2
AcDbMLeaderStyle
  3
ACDB_MLEADERSTYLE_CLASS
 90
     4095
280
     0
281
     0
  0
CLASS
  1
SUN
  2
AcDbSun
  3
SCENEOE
 90
     1153
280
     0
281
     0
  0
CLASS
  1
ACDBPLACEHOLDER
  2
AcDbPlaceHolder
  3
ObjectDBX Classes
 90
        0
280
     0
281
     0
  0
CLASS
  1
LAYOUT
  2
AcDbLayout
  3
ObjectDBX Classes
 90
        0
280
     0
281
     0
  0
ENDSEC
  0
SECTION
  2
TABLES
  0
TABLE
  2
VPORT
  5
8
330
0
100
AcDbSymbolTable
 70
     1
  0
VPORT
  5
29
330
8
100
AcDbSymbolTableRecord
100
AcDbViewportTableRecord
  2
*Active
 70
     0
 10
0.0
 20
0.0
 11
1.0
 21
1.0
 12
105.0
 22
148.5
 13
0.0
 23
0.0
 14
10.0
 24
10.0
 15
10.0
 25
10.0
 16
0.0
 26
0.0
 36
1.0
 17
0.0
 27
0.0
 37
0.0
 40
297.0
 41
0.7070707071
 42
50.0
 43
0.0
 44
0.0
 50
0.0
 51
0.0
 71
     0
 72
  2000
 73
     1
 74
     3
 75
     0
 76
     0
 77
     0
 78
     0
281
     0
 65
     1
110
0.0
120
0.0
130
0.0
111
1.0
121
0.0
131
0.0
112
0.0
122
1.0
132
0.0
 79
     0
146
0.0
  0
ENDTAB
  0
TABLE
  2
LTYPE
  5
5
330
0
100
AcDbSymbolTable
 70
     6
  0
LTYPE
  5
14
330
5
100
AcDbSymbolTableRecord
100
AcDbLinetypeTableRecord
  2
ByBlock
 70
     0
  3

 72
    65
 73
     0
 40
0.0
  0
LTYPE
  5
15
330
5
100
AcDbSymbolTableRecord
100
AcDbLinetypeTableRecord
  2
ByLayer
 70
     0
  3

 72
    65
 73
     0
 40
0.0
  0
LTYPE
  5
16
330
5
100
AcDbSymbolTableRecord
100
AcDbLinetypeTableRecord
  2
Continuous
 70
     0
  3
Solid line
 72
    65
 73
     0
 40
0.0
  0
LTYPE
  5
6E
330
5
100
AcDbSymbolTableRecord
100
AcDbLinetypeTableRecord
  2
HIDDEN
 70
     0
  3
Hidden __ __ __ __ __ __ __ __ __ __ __ __ __ __
 72
    65
 73
     2
 40
1.905
 49
1.27
 74
     0
 49
-0.635
 74
     0
  0
LTYPE
  5
6F
330
5
100
AcDbSymbolTableRecord
100
AcDbLinetypeTableRecord
  2
PHANTOM
 70
     0
  3
Phantom ______  __  __  ______  __  __  ______
 72
    65
 73
     6
 40
12.7
 49
6.35
 74
     0
 49
-1.27
 74
     0
 49
1.27
 74
     0
 49
-1.27
 74
     0
 49
1.27
 74
     0
 49
-1.27
 74
     0
  0
LTYPE
  5
70
330
5
100
AcDbSymbolTableRecord
100
AcDbLinetypeTableRecord
  2
CENTER
 70
     0
  3
Center ____ _ ____ _ ____ _ ____ _ ____ _ ____
 72
    65
 73
     4
 40
10.16
 49
6.35
 74
     0
 49
-1.27
 74
     0
 49
1.27
 74
     0
 49
-1.27
 74
     0
  0
LTYPE
  5
71
330
5
100
AcDbSymbolTableRecord
100
AcDbLinetypeTableRecord
  2
CENTERX2
 70
     0
  3
Center (2x) ________  __  ________  __  _____
 72
    65
 73
     4
 40
20.32
 49
12.7
 74
     0
 49
-2.54
 74
     0
 49
2.54
 74
     0
 49
-2.54
 74
     0
  0
LTYPE
  5
72
330
5
100
AcDbSymbolTableRecord
100
AcDbLinetypeTableRecord
  2
DOT2
 70
     0
  3
Dot (.5x) ........................................
 72
    65
 73
     2
 40
0.635
 49
0.0
 74
     0
 49
-0.635
 74
     0
  0
ENDTAB
  0
TABLE
  2
LAYER
  5
2
330
0
100
AcDbSymbolTable
 70
     1
  0
LAYER
  5
10
330
2
100
AcDbSymbolTableRecord
100
AcDbLayerTableRecord
  2
0
 70
     0
 62
     7
  6
Continuous
370
    -3
390
F
  0
ENDTAB
  0
TABLE
  2
STYLE
  5
3
330
0
100
AcDbSymbolTable
 70
     2
  0
STYLE
  5
11
330
3
100
AcDbSymbolTableRecord
100
AcDbTextStyleTableRecord
  2
Standard
 70
     0
 40
0.0
 41
1.0
 50
0.0
 71
     0
 42
3.5
  3
txt
  4
bigfont
  0
STYLE
  5
7B
330
3
100
AcDbSymbolTableRecord
100
AcDbTextStyleTableRecord
  2
SLDTEXTSTYLE0
 70
     0
 40
0.0
 41
0.7
 50
0.0
 71
     0
 42
3.5
  3
TXT
  4
bigfont
  0
ENDTAB
  0
TABLE
  2
VIEW
  5
6
330
0
100
AcDbSymbolTable
 70
     0
  0
ENDTAB
  0
TABLE
  2
UCS
  5
7
330
0
100
AcDbSymbolTable
 70
     0
  0
ENDTAB
  0
TABLE
  2
APPID
  5
9
330
0
100
AcDbSymbolTable
 70
     1
  0
APPID
  5
12
330
9
100
AcDbSymbolTableRecord
100
AcDbRegAppTableRecord
  2
ACAD
 70
     0
  0
ENDTAB
  0
TABLE
  2
DIMSTYLE
  5
A
330
0
100
AcDbSymbolTable
 70
     6
100
AcDbDimStyleTable
  0
DIMSTYLE
105
27
330
A
100
AcDbSymbolTableRecord
100
AcDbDimStyleTableRecord
  2
ISO-25
 70
     0
 41
2.5
 42
0.625
 43
3.75
 44
1.25
 73
     0
 74
     0
 77
     1
 78
     8
140
2.5
141
2.5
143
0.0393700787
147
0.625
171
     3
172
     1
178
     0
271
     2
272
     2
274
     3
278
    44
283
     0
284
     8
340
11
  0
DIMSTYLE
105
1CC
102
{ACAD_REACTORS
330
1CB
102
}
330
A
100
AcDbSymbolTableRecord
100
AcDbDimStyleTableRecord
  2
SLDDIMSTYLE0
 70
     0
 41
3.0
 44
0.0
 45
0.000000001
 73
     0
 74
     0
 77
     3
 78
    12
 79
     3
140
3.5
147
0.875
172
     1
173
     1
178
     0
271
     0
272
     3
276
     2
284
    12
289
     0
340
7B
  0
DIMSTYLE
105
1DA
102
{ACAD_REACTORS
330
1D9
102
}
330
A
100
AcDbSymbolTableRecord
100
AcDbDimStyleTableRecord
  2
SLDDIMSTYLE1
 70
     0
 41
3.0
 44
0.0
 45
0.000000001
 73
     0
 74
     0
 77
     3
 78
    12
 79
     3
140
3.5
147
0.875
173
     1
178
     0
271
     0
272
     3
276
     2
284
    12
340
7B
  0
DIMSTYLE
105
1E5
102
{ACAD_REACTORS
330
1E4
330
211
330
227
330
233
330
240
102
}
330
A
100
AcDbSymbolTableRecord
100
AcDbDimStyleTableRecord
  2
SLDDIMSTYLE2
 70
     0
 41
3.0
 44
0.0
 45
0.000000001
 73
     0
 74
     0
 77
     3
 78
    12
 79
     3
140
3.5
147
0.875
172
     1
173
     1
178
     0
271
     1
272
     3
276
     2
284
    12
289
     0
340
7B
  0
DIMSTYLE
105
1F2
102
{ACAD_REACTORS
330
1F1
330
1FD
330
207
330
21D
330
294
102
}
330
A
100
AcDbSymbolTableRecord
100
AcDbDimStyleTableRecord
  2
SLDDIMSTYLE3
 70
     0
 41
3.0
 44
0.0
 45
0.000000001
 73
     0
 74
     0
 77
     3
 78
    12
 79
     3
140
3.5
147
0.875
173
     1
178
     0
271
     1
272
     3
276
     2
284
    12
340
7B
  0
DIMSTYLE
105
253
330
A
100
AcDbSymbolTableRecord
100
AcDbDimStyleTableRecord
  2
SLDDIMSTYLE4
 70
     0
 41
3.0
 44
0.0
 45
0.000000001
146
3.0
147
0.0
173
     1
178
     0
271
     0
272
     0
276
     2
340
11
  0
ENDTAB
  0
TABLE
  2
BLOCK_RECORD
  5
1
330
0
100
AcDbSymbolTable
 70
    16
  0
BLOCK_RECORD
  5
1F
330
1
100
AcDbSymbolTableRecord
100
AcDbBlockTableRecord
  2
*Model_Space
340
22
  0
BLOCK_RECORD
  5
1B
330
1
100
AcDbSymbolTableRecord
100
AcDbBlockTableRecord
  2
*Paper_Space
340
1E
  0
BLOCK_RECORD
  5
23
330
1
100
AcDbSymbolTableRecord
100
AcDbBlockTableRecord
  2
*Paper_Space0
340
26
  0
BLOCK_RECORD
  5
1CD
330
1
100
AcDbSymbolTableRecord
100
AcDbBlockTableRecord
  2
_D
340
0
  0
BLOCK_RECORD
  5
1DB
330
1
100
AcDbSymbolTableRecord
100
AcDbBlockTableRecord
  2
_D_1
340
0
  0
BLOCK_RECORD
  5
1E6
330
1
100
AcDbSymbolTableRecord
100
AcDbBlockTableRecord
  2
_D_2
340
0
  0
BLOCK_RECORD
  5
1F3
330
1
100
AcDbSymbolTableRecord
100
AcDbBlockTableRecord
  2
_D_3
340
0
  0
BLOCK_RECORD
  5
1FE
330
1
100
AcDbSymbolTableRecord
100
AcDbBlockTableRecord
  2
_D_4
340
0
  0
BLOCK_RECORD
  5
208
330
1
100
AcDbSymbolTableRecord
100
AcDbBlockTableRecord
  2
_D_5
340
0
  0
BLOCK_RECORD
  5
212
330
1
100
AcDbSymbolTableRecord
100
AcDbBlockTableRecord
  2
_D_6
340
0
  0
BLOCK_RECORD
  5
21E
330
1
100
AcDbSymbolTableRecord
100
AcDbBlockTableRecord
  2
_D_7
340
0
  0
BLOCK_RECORD
  5
228
330
1
100
AcDbSymbolTableRecord
100
AcDbBlockTableRecord
  2
_D_8
340
0
  0
BLOCK_RECORD
  5
234
330
1
100
AcDbSymbolTableRecord
100
AcDbBlockTableRecord
  2
_D_9
340
0
  0
BLOCK_RECORD
  5
241
330
1
100
AcDbSymbolTableRecord
100
AcDbBlockTableRecord
  2
_D_10
340
0
  0
BLOCK_RECORD
  5
24D
330
1
100
AcDbSymbolTableRecord
100
AcDbBlockTableRecord
  2
SW_NOTE_0
340
0
102
{BLKREFS
331
252
102
}
  0
BLOCK_RECORD
  5
295
330
1
100
AcDbSymbolTableRecord
100
AcDbBlockTableRecord
  2
_D_11
340
0
  0
BLOCK_RECORD
  5
29E
330
1
100
AcDbSymbolTableRecord
100
AcDbBlockTableRecord
  2
SW_NOTE_1
340
0
102
{BLKREFS
331
2A3
102
}
  0
BLOCK_RECORD
  5
2A5
330
1
100
AcDbSymbolTableRecord
100
AcDbBlockTableRecord
  2
SW_CENTERMARKSYMBOL_0
340
0
102
{BLKREFS
331
2B0
102
}
  0
ENDTAB
  0
ENDSEC
  0
SECTION
  2
BLOCKS
  0
BLOCK
  5
20
330
1F
100
AcDbEntity
  8
0
100
AcDbBlockBegin
  2
*Model_Space
 70
     0
 10
0.0
 20
0.0
 30
0.0
  3
*Model_Space
  1

  0
ENDBLK
  5
21
330
1F
100
AcDbEntity
  8
0
100
AcDbBlockEnd
  0
BLOCK
  5
1C
330
1B
100
AcDbEntity
 67
     1
  8
0
100
AcDbBlockBegin
  2
*Paper_Space
 70
     0
 10
0.0
 20
0.0
 30
0.0
  3
*Paper_Space
  1

  0
ENDBLK
  5
1D
330
1B
100
AcDbEntity
 67
     1
  8
0
100
AcDbBlockEnd
  0
BLOCK
  5
24
330
23
100
AcDbEntity
  8
0
100
AcDbBlockBegin
  2
*Paper_Space0
 70
     0
 10
0.0
 20
0.0
 30
0.0
  3
*Paper_Space0
  1

  0
ENDBLK
  5
25
330
23
100
AcDbEntity
  8
0
100
AcDbBlockEnd
  0
BLOCK
  5
1CE
330
1CD
100
AcDbEntity
  8
0
100
AcDbBlockBegin
  2
_D
 70
     0
 10
0.0
 20
0.0
 30
0.0
  3
_D
  1

  0
SOLID
  5
1D0
330
1CD
100
AcDbEntity
  8
0
  6
Continuous
 62
     7
370
    18
100
AcDbTrace
 10
176.4463660206
 20
146.9725010371
 30
0.0
 11
177.1963660206
 21
149.9725010371
 31
0.0
 12
175.6963660206
 22
149.9725010371
 32
0.0
 13
175.6963660206
 23
149.9725010371
 33
0.0
  0
SOLID
  5
1D1
330
1CD
100
AcDbEntity
  8
0
  6
Continuous
 62
     7
370
    18
100
AcDbTrace
 10
176.4463660206
 20
142.1725010371
 30
0.0
 11
175.6963660206
 21
139.1725010371
 31
0.0
 12
177.1963660206
 22
139.1725010371
 32
0.0
 13
177.1963660206
 23
139.1725010371
 33
0.0
  0
LINE
  5
1D2
330
1CD
100
AcDbEntity
  8
0
  6
Continuous
 62
     7
370
    18
100
AcDbLine
 10
170.0602285682
 20
146.9725010371
 30
0.0
 11
177.4463660206
 21
146.9725010371
 31
0.0
  0
LINE
  5
1D3
330
1CD
100
AcDbEntity
  8
0
  6
Continuous
 62
     7
370
    18
100
AcDbLine
 10
170.0602285682
 20
142.1725010371
 30
0.0
 11
177.4463660206
 21
142.1725010371
 31
0.0
  0
LINE
  5
1D4
330
1CD
100
AcDbEntity
  8
0
  6
Continuous
 62
     7
370
    18
100
AcDbLine
 10
176.4463660206
 20
146.9725010371
 30
0.0
 11
176.4463660206
 21
159.2755019743
 31
0.0
  0
LINE
  5
1D5
330
1CD
100
AcDbEntity
  8
0
  6
Continuous
 62
     7
370
    18
100
AcDbLine
 10
176.4463660206
 20
146.9725010371
 30
0.0
 11
176.4463660206
 21
142.1725010371
 31
0.0
  0
LINE
  5
1D6
330
1CD
100
AcDbEntity
  8
0
  6
Continuous
 62
     7
370
    18
100
AcDbLine
 10
176.4463660206
 20
142.1725010371
 30
0.0
 11
176.4463660206
 21
137.1725010371
 31
0.0
  0
MTEXT
  5
1D7
330
1CD
100
AcDbEntity
  8
0
  6
Continuous
 62
     7
370
    18
100
AcDbMText
 10
171.9346286986
 20
153.3687659617
 30
0.0
 40
3.5
 41
0.0
 71
     1
 72
     1
  1
%%c
  7
SLDTEXTSTYLE0
 11
-7.044195017643634E-15
 21
1.0
 31
0.0
 73
     1
 44
1.0
  0
MTEXT
  5
1D8
330
1CD
100
AcDbEntity
  8
0
  6
Continuous
 62
     7
370
    18
100
AcDbMText
 10
171.9346286986
 20
157.2386964768
 30
0.0
 40
3.5
 41
0.0
 71
     1
 72
     1
  1
5
  7
SLDTEXTSTYLE0
 11
-7.044195017643634E-15
 21
1.0
 31
0.0
 73
     1
 44
1.0
  0
ENDBLK
  5
1CF
330
1CD
100
AcDbEntity
  8
0
100
AcDbBlockEnd
  0
BLOCK
  5
1DC
330
1DB
100
AcDbEntity
  8
0
100
AcDbBlockBegin
  2
_D_1
 70
     0
 10
0.0
 20
0.0
 30
0.0
  3
_D_1
  1

  0
SOLID
  5
1DE
330
1DB
100
AcDbEntity
  8
0
  6
Continuous
 62
     7
370
    18
100
AcDbTrace
 10
184.4415800638
 20
152.6554048058
 30
0.0
 11
183.6915800638
 21
149.6554048058
 31
0.0
 12
185.1915800638
 22
149.6554048058
 32
0.0
 13
185.1915800638
 23
149.6554048058
 33
0.0
  0
SOLID
  5
1DF
330
1DB
100
AcDbEntity
  8
0
  6
Continuous
 62
     7
370
    18
100
AcDbTrace
 10
184.4415800638
 20
136.4895972685
 30
0.0
 11
185.1915800638
 21
139.4895972685
 31
0.0
 12
183.6915800638
 22
139.4895972685
 32
0.0
 13
183.6915800638
 23
139.4895972685
 33
0.0
  0
LINE
  5
1E0
330
1DB
100
AcDbEntity
  8
0
  6
Continuous
 62
     7
370
    18
100
AcDbLine
 10
163.1073119649
 20
152.6554048058
 30
0.0
 11
185.4415800638
 21
152.6554048058
 31
0.0
  0
LINE
  5
1E1
330
1DB
100
AcDbEntity
  8
0
  6
Continuous
 62
     7
370
    18
100
AcDbLine
 10
163.1073119649
 20
136.4895972685
 30
0.0
 11
185.4415800638
 21
136.4895972685
 31
0.0
  0
LINE
  5
1E2
330
1DB
100
AcDbEntity
  8
0
  6
Continuous
 62
     7
370
    18
100
AcDbLine
 10
184.4415800638
 20
152.6554048058
 30
0.0
 11
184.4415800638
 21
136.4895972685
 31
0.0
  0
MTEXT
  5
1E3
330
1DB
100
AcDbEntity
  8
0
  6
Continuous
 62
     7
370
    18
100
AcDbMText
 10
179.9298432074
 20
142.5356955397
 30
0.0
 40
3.5
 41
0.0
 71
     1
 72
     1
  1
16
  7
SLDTEXTSTYLE0
 11
-7.044195017643634E-15
 21
1.0
 31
0.0
 73
     1
 44
1.0
  0
ENDBLK
  5
1DD
330
1DB
100
AcDbEntity
  8
0
100
AcDbBlockEnd
  0
BLOCK
  5
1E7
330
1E6
100
AcDbEntity
  8
0
100
AcDbBlockBegin
  2
_D_2
 70
     0
 10
0.0
 20
0.0
 30
0.0
  3
_D_2
  1

  0
SOLID
  5
1E9
330
1E6
100
AcDbEntity
  8
0
  6
Continuous
 62
     7
370
    18
100
AcDbTrace
 10
147.5602285682
 20
128.7566567316
 30
0.0
 11
144.5602285682
 21
129.5066567316
 31
0.0
 12
144.5602285682
 22
128.0066567316
 32
0.0
 13
144.5602285682
 23
128.0066567316
 33
0.0
  0
SOLID
  5
1EA
330
1E6
100
AcDbEntity
  8
0
  6
Continuous
 62
     7
370
    18
100
AcDbTrace
 10
150.5602285682
 20
128.7566567316
 30
0.0
 11
153.5602285682
 21
128.0066567316
 31
0.0
 12
153.5602285682
 22
129.5066567316
 32
0.0
 13
153.5602285682
 23
129.5066567316
 33
0.0
  0
LINE
  5
1EB
330
1E6
100
AcDbEntity
  8
0
  6
Continuous
 62
     7
370
    18
100
AcDbLine
 10
147.5602285682
 20
136.0669495538
 30
0.0
 11
147.5602285682
 21
127.7566567316
 31
0.0
  0
LINE
  5
1EC
330
1E6
100
AcDbEntity
  8
0
  6
Continuous
 62
     7
370
    18
100
AcDbLine
 10
150.5602285682
 20
136.0669495538
 30
0.0
 11
150.5602285682
 21
127.7566567316
 31
0.0
  0
LINE
  5
1ED
330
1E6
100
AcDbEntity
  8
0
  6
Continuous
 62
     7
370
    18
100
AcDbLine
 10
147.5602285682
 20
128.7566567316
 30
0.0
 11
142.5602285682
 21
128.7566567316
 31
0.0
  0
LINE
  5
1EE
330
1E6
100
AcDbEntity
  8
0
  6
Continuous
 62
     7
370
    18
100
AcDbLine
 10
147.5602285682
 20
128.7566567316
 30
0.0
 11
150.5602285682
 21
128.7566567316
 31
0.0
  0
LINE
  5
1EF
330
1E6
100
AcDbEntity
  8
0
  6
Continuous
 62
     7
370
    18
100
AcDbLine
 10
150.5602285682
 20
128.7566567316
 30
0.0
 11
158.9956597696
 21
128.7566567316
 31
0.0
  0
MTEXT
  5
1F0
330
1E6
100
AcDbEntity
  8
0
  6
Continuous
 62
     7
370
    18
100
AcDbMText
 10
156.9588542722
 20
133.2683935879
 30
0.0
 40
3.5
 41
0.0
 71
     1
 72
     1
  1
3
  7
SLDTEXTSTYLE0
 73
     1
 44
1.0
  0
ENDBLK
  5
1E8
330
1E6
100
AcDbEntity
  8
0
100
AcDbBlockEnd
  0
BLOCK
  5
1F4
330
1F3
100
AcDbEntity
  8
0
100
AcDbBlockBegin
  2
_D_3
 70
     0
 10
0.0
 20
0.0
 30
0.0
  3
_D_3
  1

  0
SOLID
  5
1F6
330
1F3
100
AcDbEntity
  8
0
  6
Continuous
 62
     7
370
    18
100
AcDbTrace
 10
145.5602285682
 20
120.2725010371
 30
0.0
 11
142.5602285682
 21
121.0225010371
 31
0.0
 12
142.5602285682
 22
119.5225010371
 32
0.0
 13
142.5602285682
 23
119.5225010371
 33
0.0
  0
SOLID
  5
1F7
330
1F3
100
AcDbEntity
  8
0
  6
Continuous
 62
     7
370
    18
100
AcDbTrace
 10
115.5602285682
 20
120.2725010371
 30
0.0
 11
118.5602285682
 21
119.5225010371
 31
0.0
 12
118.5602285682
 22
121.0225010371
 32
0.0
 13
118.5602285682
 23
121.0225010371
 33
0.0
  0
LINE
  5
1F8
330
1F3
100
AcDbEntity
  8
0
  6
Continuous
 62
     7
370
    18
100
AcDbLine
 10
145.5602285682
 20
140.3225010371
 30
0.0
 11
145.5602285682
 21
119.2725010371
 31
0.0
  0
LINE
  5
1F9
330
1F3
100
AcDbEntity
  8
0
  6
Continuous
 62
     7
370
    18
100
AcDbLine
 10
115.5602285682
 20
140.1225010371
 30
0.0
 11
115.5602285682
 21
119.2725010371
 31
0.0
  0
LINE
  5
1FA
330
1F3
100
AcDbEntity
  8
0
  6
Continuous
 62
     7
370
    18
100
AcDbLine
 10
145.5602285682
 20
120.2725010371
 30
0.0
 11
115.5602285682
 21
120.2725010371
 31
0.0
  0
MTEXT
  5
1FB
330
1F3
100
AcDbEntity
  8
0
  6
Continuous
 62
     7
370
    18
100
AcDbMText
 10
126.4866175732
 20
124.7842378935
 30
0.0
 40
3.5
 41
0.0
 71
     1
 72
     1
  1
30
  7
SLDTEXTSTYLE0
 73
     1
 44
1.0
  0
MTEXT
  5
1FC
330
1F3
100
AcDbEntity
  8
0
  6
Continuous
 62
     7
370
    18
100
AcDbMText
 10
130.5602285682
 20
124.7842378935
 30
0.0
 40
3.5
 41
0.0
 71
     1
 72
     1
  1
st
  7
SLDTEXTSTYLE0
 73
     1
 44
1.0
  0
ENDBLK
  5
1F5
330
1F3
100
AcDbEntity
  8
0
100
AcDbBlockEnd
  0
BLOCK
  5
1FF
330
1FE
100
AcDbEntity
  8
0
100
AcDbBlockBegin
  2
_D_4
 70
     0
 10
0.0
 20
0.0
 30
0.0
  3
_D_4
  1

  0
SOLID
  5
201
330
1FE
100
AcDbEntity
  8
0
  6
Continuous
 62
     7
370
    18
100
AcDbTrace
 10
96.0602285682
 20
110.1162327765
 30
0.0
 11
99.0602285682
 21
109.3662327765
 31
0.0
 12
99.0602285682
 22
110.8662327765
 32
0.0
 13
99.0602285682
 23
110.8662327765
 33
0.0
  0
SOLID
  5
202
330
1FE
100
AcDbEntity
  8
0
  6
Continuous
 62
     7
370
    18
100
AcDbTrace
 10
169.5602285682
 20
110.1162327765
 30
0.0
 11
166.5602285682
 21
110.8662327765
 31
0.0
 12
166.5602285682
 22
109.3662327765
 32
0.0
 13
166.5602285682
 23
109.3662327765
 33
0.0
  0
LINE
  5
203
330
1FE
100
AcDbEntity
  8
0
  6
Continuous
 62
     7
370
    18
100
AcDbLine
 10
96.0602285682
 20
140.3725010371
 30
0.0
 11
96.0602285682
 21
109.1162327765
 31
0.0
  0
LINE
  5
204
330
1FE
100
AcDbEntity
  8
0
  6
Continuous
 62
     7
370
    18
100
AcDbLine
 10
169.5602285682
 20
141.5725010371
 30
0.0
 11
169.5602285682
 21
109.1162327765
 31
0.0
  0
LINE
  5
205
330
1FE
100
AcDbEntity
  8
0
  6
Continuous
 62
     7
370
    18
100
AcDbLine
 10
96.0602285682
 20
110.1162327765
 30
0.0
 11
169.5602285682
 21
110.1162327765
 31
0.0
  0
MTEXT
  5
206
330
1FE
100
AcDbEntity
  8
0
  6
Continuous
 62
     7
370
    18
100
AcDbMText
 10
128.7366175732
 20
114.6279696329
 30
0.0
 40
3.5
 41
0.0
 71
     1
 72
     1
  1
73.5
  7
SLDTEXTSTYLE0
 73
     1
 44
1.0
  0
ENDBLK
  5
200
330
1FE
100
AcDbEntity
  8
0
100
AcDbBlockEnd
  0
BLOCK
  5
209
330
208
100
AcDbEntity
  8
0
100
AcDbBlockBegin
  2
_D_5
 70
     0
 10
0.0
 20
0.0
 30
0.0
  3
_D_5
  1

  0
SOLID
  5
20B
330
208
100
AcDbEntity
  8
0
  6
Continuous
 62
     7
370
    18
100
AcDbTrace
 10
150.5602285682
 20
174.6554048058
 30
0.0
 11
153.5602285682
 21
173.9054048058
 31
0.0
 12
153.5602285682
 22
175.4054048058
 32
0.0
 13
153.5602285682
 23
175.4054048058
 33
0.0
  0
SOLID
  5
20C
330
208
100
AcDbEntity
  8
0
  6
Continuous
 62
     7
370
    18
100
AcDbTrace
 10
169.5602285682
 20
174.6554048058
 30
0.0
 11
166.5602285682
 21
175.4054048058
 31
0.0
 12
166.5602285682
 22
173.9054048058
 32
0.0
 13
166.5602285682
 23
173.9054048058
 33
0.0
  0
LINE
  5
20D
330
208
100
AcDbEntity
  8
0
  6
Continuous
 62
     7
370
    18
100
AcDbLine
 10
150.5602285682
 20
153.0780525205
 30
0.0
 11
150.5602285682
 21
175.6554048058
 31
0.0
  0
LINE
  5
20E
330
208
100
AcDbEntity
  8
0
  6
Continuous
 62
     7
370
    18
100
AcDbLine
 10
169.5602285682
 20
147.5725010371
 30
0.0
 11
169.5602285682
 21
175.6554048058
 31
0.0
  0
LINE
  5
20F
330
208
100
AcDbEntity
  8
0
  6
Continuous
 62
     7
370
    18
100
AcDbLine
 10
150.5602285682
 20
174.6554048058
 30
0.0
 11
169.5602285682
 21
174.6554048058
 31
0.0
  0
MTEXT
  5
210
330
208
100
AcDbEntity
  8
0
  6
Continuous
 62
     7
370
    18
100
AcDbMText
 10
158.0234230707
 20
179.1671416622
 30
0.0
 40
3.5
 41
0.0
 71
     1
 72
     1
  1
19
  7
SLDTEXTSTYLE0
 73
     1
 44
1.0
  0
ENDBLK
  5
20A
330
208
100
AcDbEntity
  8
0
100
AcDbBlockEnd
  0
BLOCK
  5
213
330
212
100
AcDbEntity
  8
0
100
AcDbBlockBegin
  2
_D_6
 70
     0
 10
0.0
 20
0.0
 30
0.0
  3
_D_6
  1

  0
SOLID
  5
215
330
212
100
AcDbEntity
  8
0
  6
Continuous
 62
     7
370
    18
100
AcDbTrace
 10
145.5602285682
 20
164.6896337501
 30
0.0
 11
142.5602285682
 21
165.4396337501
 31
0.0
 12
142.5602285682
 22
163.9396337501
 32
0.0
 13
142.5602285682
 23
163.9396337501
 33
0.0
  0
SOLID
  5
216
330
212
100
AcDbEntity
  8
0
  6
Continuous
 62
     7
370
    18
100
AcDbTrace
 10
150.5602285682
 20
164.6896337501
 30
0.0
 11
153.5602285682
 21
163.9396337501
 31
0.0
 12
153.5602285682
 22
165.4396337501
 32
0.0
 13
153.5602285682
 23
165.4396337501
 33
0.0
  0
LINE
  5
217
330
212
100
AcDbEntity
  8
0
  6
Continuous
 62
     7
370
    18
100
AcDbLine
 10
145.5602285682
 20
148.8225010371
 30
0.0
 11
145.5602285682
 21
165.6896337501
 31
0.0
  0
LINE
  5
218
330
212
100
AcDbEntity
  8
0
  6
Continuous
 62
     7
370
    18
100
AcDbLine
 10
150.5602285682
 20
153.0780525205
 30
0.0
 11
150.5602285682
 21
165.6896337501
 31
0.0
  0
LINE
  5
219
330
212
100
AcDbEntity
  8
0
  6
Continuous
 62
     7
370
    18
100
AcDbLine
 10
145.5602285682
 20
164.6896337501
 30
0.0
 11
140.5602285682
 21
164.6896337501
 31
0.0
  0
LINE
  5
21A
330
212
100
AcDbEntity
  8
0
  6
Continuous
 62
     7
370
    18
100
AcDbLine
 10
145.5602285682
 20
164.6896337501
 30
0.0
 11
150.5602285682
 21
164.6896337501
 31
0.0
  0
LINE
  5
21B
330
212
100
AcDbEntity
  8
0
  6
Continuous
 62
     7
370
    18
100
AcDbLine
 10
150.5602285682
 20
164.6896337501
 30
0.0
 11
155.5602285682
 21
164.6896337501
 31
0.0
  0
MTEXT
  5
21C
330
212
100
AcDbEntity
  8
0
  6
Continuous
 62
     7
370
    18
100
AcDbMText
 10
147.0418258195
 20
169.2013706065
 30
0.0
 40
3.5
 41
0.0
 71
     1
 72
     1
  1
5
  7
SLDTEXTSTYLE0
 73
     1
 44
1.0
  0
ENDBLK
  5
214
330
212
100
AcDbEntity
  8
0
100
AcDbBlockEnd
  0
BLOCK
  5
21F
330
21E
100
AcDbEntity
  8
0
100
AcDbBlockBegin
  2
_D_7
 70
     0
 10
0.0
 20
0.0
 30
0.0
  3
_D_7
  1

  0
SOLID
  5
221
330
21E
100
AcDbEntity
  8
0
  6
Continuous
 62
     7
370
    18
100
AcDbTrace
 10
150.5602285682
 20
164.6896337501
 30
0.0
 11
153.5602285682
 21
163.9396337501
 31
0.0
 12
153.5602285682
 22
165.4396337501
 32
0.0
 13
153.5602285682
 23
165.4396337501
 33
0.0
  0
SOLID
  5
222
330
21E
100
AcDbEntity
  8
0
  6
Continuous
 62
     7
370
    18
100
AcDbTrace
 10
167.5602285682
 20
164.6896337501
 30
0.0
 11
164.5602285682
 21
165.4396337501
 31
0.0
 12
164.5602285682
 22
163.9396337501
 32
0.0
 13
164.5602285682
 23
163.9396337501
 33
0.0
  0
LINE
  5
223
330
21E
100
AcDbEntity
  8
0
  6
Continuous
 62
     7
370
    18
100
AcDbLine
 10
150.5602285682
 20
153.0780525205
 30
0.0
 11
150.5602285682
 21
165.6896337501
 31
0.0
  0
LINE
  5
224
330
21E
100
AcDbEntity
  8
0
  6
Continuous
 62
     7
370
    18
100
AcDbLine
 10
167.5602285682
 20
149.5725010371
 30
0.0
 11
167.5602285682
 21
165.6896337501
 31
0.0
  0
LINE
  5
225
330
21E
100
AcDbEntity
  8
0
  6
Continuous
 62
     7
370
    18
100
AcDbLine
 10
150.5602285682
 20
164.6896337501
 30
0.0
 11
167.5602285682
 21
164.6896337501
 31
0.0
  0
MTEXT
  5
226
330
21E
100
AcDbEntity
  8
0
  6
Continuous
 62
     7
370
    18
100
AcDbMText
 10
157.0234230707
 20
169.2013706065
 30
0.0
 40
3.5
 41
0.0
 71
     1
 72
     1
  1
17
  7
SLDTEXTSTYLE0
 73
     1
 44
1.0
  0
ENDBLK
  5
220
330
21E
100
AcDbEntity
  8
0
100
AcDbBlockEnd
  0
BLOCK
  5
229
330
228
100
AcDbEntity
  8
0
100
AcDbBlockBegin
  2
_D_8
 70
     0
 10
0.0
 20
0.0
 30
0.0
  3
_D_8
  1

  0
SOLID
  5
22B
330
228
100
AcDbEntity
  8
0
  6
Continuous
 62
     7
370
    18
100
AcDbTrace
 10
101.5602285682
 20
164.6896337501
 30
0.0
 11
104.5602285682
 21
163.9396337501
 31
0.0
 12
104.5602285682
 22
165.4396337501
 32
0.0
 13
104.5602285682
 23
165.4396337501
 33
0.0
  0
SOLID
  5
22C
330
228
100
AcDbEntity
  8
0
  6
Continuous
 62
     7
370
    18
100
AcDbTrace
 10
96.0602285682
 20
164.6896337501
 30
0.0
 11
93.0602285682
 21
165.4396337501
 31
0.0
 12
93.0602285682
 22
163.9396337501
 32
0.0
 13
93.0602285682
 23
163.9396337501
 33
0.0
  0
LINE
  5
22D
330
228
100
AcDbEntity
  8
0
  6
Continuous
 62
     7
370
    18
100
AcDbLine
 10
101.5602285682
 20
150.2725010371
 30
0.0
 11
101.5602285682
 21
165.6896337501
 31
0.0
  0
LINE
  5
22E
330
228
100
AcDbEntity
  8
0
  6
Continuous
 62
     7
370
    18
100
AcDbLine
 10
96.0602285682
 20
148.7725010371
 30
0.0
 11
96.0602285682
 21
165.6896337501
 31
0.0
  0
LINE
  5
22F
330
228
100
AcDbEntity
  8
0
  6
Continuous
 62
     7
370
    18
100
AcDbLine
 10
101.5602285682
 20
164.6896337501
 30
0.0
 11
111.2134452984
 21
164.6896337501
 31
0.0
  0
LINE
  5
230
330
228
100
AcDbEntity
  8
0
  6
Continuous
 62
     7
370
    18
100
AcDbLine
 10
101.5602285682
 20
164.6896337501
 30
0.0
 11
96.0602285682
 21
164.6896337501
 31
0.0
  0
LINE
  5
231
330
228
100
AcDbEntity
  8
0
  6
Continuous
 62
     7
370
    18
100
AcDbLine
 10
96.0602285682
 20
164.6896337501
 30
0.0
 11
91.0602285682
 21
164.6896337501
 31
0.0
  0
MTEXT
  5
232
330
228
100
AcDbEntity
  8
0
  6
Continuous
 62
     7
370
    18
100
AcDbMText
 10
105.1030285731
 20
169.2013706065
 30
0.0
 40
3.5
 41
0.0
 71
     1
 72
     1
  1
5.5
  7
SLDTEXTSTYLE0
 73
     1
 44
1.0
  0
ENDBLK
  5
22A
330
228
100
AcDbEntity
  8
0
100
AcDbBlockEnd
  0
BLOCK
  5
235
330
234
100
AcDbEntity
  8
0
100
AcDbBlockBegin
  2
_D_9
 70
     0
 10
0.0
 20
0.0
 30
0.0
  3
_D_9
  1

  0
SOLID
  5
237
330
234
100
AcDbEntity
  8
0
  6
Continuous
 62
     7
370
    18
100
AcDbTrace
 10
90.2185857838
 20
148.0725010371
 30
0.0
 11
90.9685857838
 21
151.0725010371
 31
0.0
 12
89.4685857838
 22
151.0725010371
 32
0.0
 13
89.4685857838
 23
151.0725010371
 33
0.0
  0
SOLID
  5
238
330
234
100
AcDbEntity
  8
0
  6
Continuous
 62
     7
370
    18
100
AcDbTrace
 10
90.2185857838
 20
141.0725010371
 30
0.0
 11
89.4685857838
 21
138.0725010371
 31
0.0
 12
90.9685857838
 22
138.0725010371
 32
0.0
 13
90.9685857838
 23
138.0725010371
 33
0.0
  0
LINE
  5
239
330
234
100
AcDbEntity
  8
0
  6
Continuous
 62
     7
370
    18
100
AcDbLine
 10
95.3602285682
 20
148.0725010371
 30
0.0
 11
89.2185857838
 21
148.0725010371
 31
0.0
  0
LINE
  5
23A
330
234
100
AcDbEntity
  8
0
  6
Continuous
 62
     7
370
    18
100
AcDbLine
 10
95.3602285682
 20
141.0725010371
 30
0.0
 11
89.2185857838
 21
141.0725010371
 31
0.0
  0
LINE
  5
23B
330
234
100
AcDbEntity
  8
0
  6
Continuous
 62
     7
370
    18
100
AcDbLine
 10
90.2185857838
 20
148.0725010371
 30
0.0
 11
90.2185857838
 21
153.0725010371
 31
0.0
  0
LINE
  5
23C
330
234
100
AcDbEntity
  8
0
  6
Continuous
 62
     7
370
    18
100
AcDbLine
 10
90.2185857838
 20
148.0725010371
 30
0.0
 11
90.2185857838
 21
141.0725010371
 31
0.0
  0
LINE
  5
23D
330
234
100
AcDbEntity
  8
0
  6
Continuous
 62
     7
370
    18
100
AcDbLine
 10
90.2185857838
 20
141.0725010371
 30
0.0
 11
90.2185857838
 21
136.0725010371
 31
0.0
  0
MTEXT
  5
23E
330
234
100
AcDbEntity
  8
0
  6
Continuous
 62
     7
370
    18
100
AcDbMText
 10
85.7068484617
 20
141.6191330309
 30
0.0
 40
3.5
 41
0.0
 71
     1
 72
     1
  1
%%c
  7
SLDTEXTSTYLE0
 11
-7.044195017643634E-15
 21
1.0
 31
0.0
 73
     1
 44
1.0
  0
MTEXT
  5
23F
330
234
100
AcDbEntity
  8
0
  6
Continuous
 62
     7
370
    18
100
AcDbMText
 10
85.7068484617
 20
145.4890635459
 30
0.0
 40
3.5
 41
0.0
 71
     1
 72
     1
  1
7
  7
SLDTEXTSTYLE0
 11
-7.044195017643634E-15
 21
1.0
 31
0.0
 73
     1
 44
1.0
  0
ENDBLK
  5
236
330
234
100
AcDbEntity
  8
0
100
AcDbBlockEnd
  0
BLOCK
  5
242
330
241
100
AcDbEntity
  8
0
100
AcDbBlockBegin
  2
_D_10
 70
     0
 10
0.0
 20
0.0
 30
0.0
  3
_D_10
  1

  0
SOLID
  5
244
330
241
100
AcDbEntity
  8
0
  6
Continuous
 62
     7
370
    18
100
AcDbTrace
 10
81.2707866964
 20
149.5725010371
 30
0.0
 11
82.0207866964
 21
152.5725010371
 31
0.0
 12
80.5207866964
 22
152.5725010371
 32
0.0
 13
80.5207866964
 23
152.5725010371
 33
0.0
  0
SOLID
  5
245
330
241
100
AcDbEntity
  8
0
  6
Continuous
 62
     7
370
    18
100
AcDbTrace
 10
81.2707866964
 20
139.5725010371
 30
0.0
 11
80.5207866964
 21
136.5725010371
 31
0.0
 12
82.0207866964
 22
136.5725010371
 32
0.0
 13
82.0207866964
 23
136.5725010371
 33
0.0
  0
LINE
  5
246
330
241
100
AcDbEntity
  8
0
  6
Continuous
 62
     7
370
    18
100
AcDbLine
 10
100.8602285682
 20
149.5725010371
 30
0.0
 11
80.2707866964
 21
149.5725010371
 31
0.0
  0
LINE
  5
247
330
241
100
AcDbEntity
  8
0
  6
Continuous
 62
     7
370
    18
100
AcDbLine
 10
100.8602285682
 20
139.5725010371
 30
0.0
 11
80.2707866964
 21
139.5725010371
 31
0.0
  0
LINE
  5
248
330
241
100
AcDbEntity
  8
0
  6
Continuous
 62
     7
370
    18
100
AcDbLine
 10
81.2707866964
 20
149.5725010371
 30
0.0
 11
81.2707866964
 21
154.5725010371
 31
0.0
  0
LINE
  5
249
330
241
100
AcDbEntity
  8
0
  6
Continuous
 62
     7
370
    18
100
AcDbLine
 10
81.2707866964
 20
149.5725010371
 30
0.0
 11
81.2707866964
 21
139.5725010371
 31
0.0
  0
LINE
  5
24A
330
241
100
AcDbEntity
  8
0
  6
Continuous
 62
     7
370
    18
100
AcDbLine
 10
81.2707866964
 20
139.5725010371
 30
0.0
 11
81.2707866964
 21
134.5725010371
 31
0.0
  0
MTEXT
  5
24B
330
241
100
AcDbEntity
  8
0
  6
Continuous
 62
     7
370
    18
100
AcDbMText
 10
76.7590493744
 20
140.6007301657
 30
0.0
 40
3.5
 41
0.0
 71
     1
 72
     1
  1
%%c
  7
SLDTEXTSTYLE0
 11
-7.044195017643634E-15
 21
1.0
 31
0.0
 73
     1
 44
1.0
  0
MTEXT
  5
24C
330
241
100
AcDbEntity
  8
0
  6
Continuous
 62
     7
370
    18
100
AcDbMText
 10
76.7590493744
 20
144.4706606808
 30
0.0
 40
3.5
 41
0.0
 71
     1
 72
     1
  1
10
  7
SLDTEXTSTYLE0
 11
-7.044195017643634E-15
 21
1.0
 31
0.0
 73
     1
 44
1.0
  0
ENDBLK
  5
243
330
241
100
AcDbEntity
  8
0
100
AcDbBlockEnd
  0
BLOCK
  5
24E
330
24D
100
AcDbEntity
  8
0
100
AcDbBlockBegin
  2
SW_NOTE_0
 70
     0
 10
0.0
 20
0.0
 30
0.0
  3
SW_NOTE_0
  1

  0
LINE
  5
250
330
24D
100
AcDbEntity
  8
0
  6
Continuous
 62
     0
370
     0
100
AcDbLine
 10
18.2080974665
 20
0.0
 30
0.0
 11
0.0
 21
0.0
 31
0.0
  0
MTEXT
  5
251
330
24D
100
AcDbEntity
  8
0
  6
Continuous
 62
     0
370
     0
100
AcDbMText
 10
0.4482717245
 20
4.5570629423
 30
0.0
 40
3.5
 41
0.0
 71
     1
 72
     1
  1
M10 P=1.0
  7
SLDTEXTSTYLE0
 73
     1
 44
1.0
  0
ENDBLK
  5
24F
330
24D
100
AcDbEntity
  8
0
100
AcDbBlockEnd
  0
BLOCK
  5
296
330
295
100
AcDbEntity
  8
0
100
AcDbBlockBegin
  2
_D_11
 70
     0
 10
0.0
 20
0.0
 30
0.0
  3
_D_11
  1

  0
SOLID
  5
298
330
295
100
AcDbEntity
  8
0
  6
Continuous
 62
     7
370
    18
100
AcDbTrace
 10
49.6638684766
 20
164.8242798035
 30
0.0
 11
46.6633195566
 21
165.5720806986
 31
0.0
 12
46.6644190084
 22
164.0720811015
 32
0.0
 13
46.6644190084
 23
164.0720811015
 33
0.0
  0
SOLID
  5
299
330
295
100
AcDbEntity
  8
0
  6
Continuous
 62
     7
370
    18
100
AcDbTrace
 10
36.6638719687
 20
164.8147512219
 30
0.0
 11
39.6644208887
 21
164.0669503268
 31
0.0
 12
39.663321437
 22
165.5669499239
 32
0.0
 13
39.663321437
 23
165.5669499239
 33
0.0
  0
LINE
  5
29A
330
295
100
AcDbEntity
  8
0
  6
Continuous
 62
     7
370
    18
100
AcDbLine
 10
49.6752252583
 20
149.330040801
 30
0.0
 11
49.6631355088
 21
165.8242795349
 31
0.0
  0
LINE
  5
29B
330
295
100
AcDbEntity
  8
0
  6
Continuous
 62
     7
370
    18
100
AcDbLine
 10
36.6752287503
 20
149.3205122193
 30
0.0
 11
36.6631390009
 21
165.8147509532
 31
0.0
  0
LINE
  5
29C
330
295
100
AcDbEntity
  8
0
  6
Continuous
 62
     7
370
    18
100
AcDbLine
 10
49.6638684766
 20
164.8242798035
 30
0.0
 11
36.6638719687
 21
164.8147512219
 31
0.0
  0
MTEXT
  5
29D
330
295
100
AcDbEntity
  8
0
  6
Continuous
 62
     7
370
    18
100
AcDbMText
 10
41.1237583144
 20
169.3297582442
 30
0.0
 40
3.5
 41
0.0
 71
     1
 72
     1
  1
13
  7
SLDTEXTSTYLE0
 11
0.9999997313790504
 21
0.0007329678212930525
 31
0.0
 73
     1
 44
1.0
  0
ENDBLK
  5
297
330
295
100
AcDbEntity
  8
0
100
AcDbBlockEnd
  0
BLOCK
  5
29F
330
29E
100
AcDbEntity
  8
0
100
AcDbBlockBegin
  2
SW_NOTE_1
 70
     0
 10
0.0
 20
0.0
 30
0.0
  3
SW_NOTE_1
  1

  0
LINE
  5
2A1
330
29E
100
AcDbEntity
  8
0
  6
Continuous
 62
     0
370
     0
100
AcDbLine
 10
34.5025414463
 20
0.0
 30
0.0
 11
0.0
 21
0.0
 31
0.0
  0
MTEXT
  5
2A2
330
29E
100
AcDbEntity
  8
0
  6
Continuous
 62
     0
370
     0
100
AcDbMText
 10
0.4690450876
 20
4.5642002562
 30
0.0
 40
3.5
 41
0.0
 71
     1
 72
     1
  1
外径φ6配管用継手
  7
SLDTEXTSTYLE0
 73
     1
 44
1.0
  0
ENDBLK
  5
2A0
330
29E
100
AcDbEntity
  8
0
100
AcDbBlockEnd
  0
BLOCK
  5
2A6
330
2A5
100
AcDbEntity
  8
0
100
AcDbBlockBegin
  2
SW_CENTERMARKSYMBOL_0
 70
     0
 10
0.0
 20
0.0
 30
0.0
  3
SW_CENTERMARKSYMBOL_0
  1

  0
LINE
  5
2A8
330
2A5
100
AcDbEntity
  8
0
  6
Continuous
 62
     0
370
    18
100
AcDbLine
 10
0.0
 20
0.0
 30
0.0
 11
0.0
 21
2.5
 31
0.0
  0
LINE
  5
2A9
330
2A5
100
AcDbEntity
  8
0
  6
Continuous
 62
     0
370
    18
100
AcDbLine
 10
0.0
 20
0.0
 30
0.0
 11
-2.5
 21
0.0
 31
0.0
  0
LINE
  5
2AA
330
2A5
100
AcDbEntity
  8
0
  6
Continuous
 62
     0
370
    18
100
AcDbLine
 10
0.0
 20
0.0
 30
0.0
 11
0.0
 21
-2.5
 31
0.0
  0
LINE
  5
2AB
330
2A5
100
AcDbEntity
  8
0
  6
Continuous
 62
     0
370
    18
100
AcDbLine
 10
0.0
 20
0.0
 30
0.0
 11
2.5
 21
0.0
 31
0.0
  0
LINE
  5
2AC
330
2A5
100
AcDbEntity
  8
0
  6
Continuous
 62
     0
370
    18
100
AcDbLine
 10
0.0
 20
5.0
 30
0.0
 11
0.0
 21
8.2
 31
0.0
  0
LINE
  5
2AD
330
2A5
100
AcDbEntity
  8
0
  6
Continuous
 62
     0
370
    18
100
AcDbLine
 10
-5.0
 20
0.0
 30
0.0
 11
-8.2
 21
0.0
 31
0.0
  0
LINE
  5
2AE
330
2A5
100
AcDbEntity
  8
0
  6
Continuous
 62
     0
370
    18
100
AcDbLine
 10
0.0
 20
-5.0
 30
0.0
 11
0.0
 21
-15.8520502817
 31
0.0
  0
LINE
  5
2AF
330
2A5
100
AcDbEntity
  8
0
  6
Continuous
 62
     0
370
    18
100
AcDbLine
 10
5.0
 20
0.0
 30
0.0
 11
8.2
 21
0.0
 31
0.0
  0
ENDBLK
  5
2A7
330
2A5
100
AcDbEntity
  8
0
100
AcDbBlockEnd
  0
ENDSEC
  0
SECTION
  2
ENTITIES
  0
LINE
  5
73
330
1F
100
AcDbEntity
  8
0
  6
Continuous
 62
     7
370
    18
100
AcDbLine
 10
20.2604743903
 20
285.0
 30
0.0
 11
196.7604743903
 21
285.0
 31
0.0
  0
LINE
  5
74
330
1F
100
AcDbEntity
  8
0
  6
Continuous
 62
     7
370
    18
100
AcDbLine
 10
20.2604743903
 20
285.0
 30
0.0
 11
20.2604743903
 21
10.0
 31
0.0
  0
LINE
  5
75
330
1F
100
AcDbEntity
  8
0
  6
Continuous
 62
     7
370
    18
100
AcDbLine
 10
20.2604743903
 20
10.0
 30
0.0
 11
196.7604743903
 21
10.0
 31
0.0
  0
LINE
  5
76
330
1F
100
AcDbEntity
  8
0
  6
Continuous
 62
     7
370
    18
100
AcDbLine
 10
196.7604743903
 20
285.0
 30
0.0
 11
196.7604743903
 21
10.0
 31
0.0
  0
LINE
  5
77
330
1F
100
AcDbEntity
  8
0
  6
Continuous
 62
     7
370
    18
100
AcDbLine
 10
127.0104743903
 20
50.75
 30
0.0
 11
196.7604743903
 21
50.75
 31
0.0
  0
LINE
  5
78
330
1F
100
AcDbEntity
  8
0
  6
Continuous
 62
     7
370
    18
100
AcDbLine
 10
127.0104743903
 20
50.75
 30
0.0
 11
127.0104743903
 21
10.0
 31
0.0
  0
LINE
  5
79
330
1F
100
AcDbEntity
  8
0
  6
Continuous
 62
     7
370
    18
100
AcDbLine
 10
127.0104743903
 20
22.75
 30
0.0
 11
196.7604743903
 21
22.75
 31
0.0
  0
LINE
  5
7A
330
1F
100
AcDbEntity
  8
0
  6
Continuous
 62
     7
370
    18
100
AcDbLine
 10
127.0104743903
 20
36.75
 30
0.0
 11
196.7604743903
 21
36.75
 31
0.0
  0
MTEXT
  5
7C
330
1F
100
AcDbEntity
  8
0
  6
Continuous
 62
     7
370
     0
100
AcDbMText
 10
162.3749499454
 20
30.4171582345
 30
0.0
 40
4.2333333333
 41
0.0
 71
     2
 72
     1
  1
VFILP-SS-30
  7
SLDTEXTSTYLE0
 73
     1
 44
1.0
  0
MTEXT
  5
7D
330
1F
100
AcDbEntity
  8
0
  6
Continuous
 62
     7
370
     0
100
AcDbMText
 10
161.0903525561
 20
43.9409718514
 30
0.0
 40
4.2333333333
 41
0.0
 71
     2
 72
     1
  1
吸着樹脂具・ミニ用
  7
SLDTEXTSTYLE0
 73
     1
 44
1.0
  0
MTEXT
  5
7E
330
1F
100
AcDbEntity
  8
0
  6
Continuous
 62
     7
370
     0
100
AcDbMText
 10
163.1934464582
 20
16.8228189052
 30
0.0
 40
4.2333333333
 41
0.0
 71
     2
 72
     1
  1
211112
  7
SLDTEXTSTYLE0
 73
     1
 44
1.0
  0
LINE
  5
7F
330
1F
100
AcDbEntity
  8
0
  6
Continuous
 62
     7
370
    18
100
AcDbLine
 10
167.6602289795
 20
141.0725010364
 30
0.0
 11
168.2602279602
 21
141.0725010364
 31
0.0
  0
LINE
  5
80
330
1F
100
AcDbEntity
  8
0
  6
Continuous
 62
     7
370
    18
100
AcDbLine
 10
168.2602279602
 20
146.7342818477
 30
0.0
 11
167.6602289795
 21
146.7342818477
 31
0.0
  0
LINE
  5
81
330
1F
100
AcDbEntity
  8
0
  6
Continuous
 62
     7
370
    18
100
AcDbLine
 10
168.2602279602
 20
147.507706596
 30
0.0
 11
167.6602289795
 21
147.507706596
 31
0.0
  0
LINE
  5
82
330
1F
100
AcDbEntity
  8
0
  6
Continuous
 62
     7
370
    18
100
AcDbLine
 10
166.5602289854
 20
149.5725013637
 30
0.0
 11
162.5881903588
 21
149.5725013637
 31
0.0
  0
LINE
  5
83
330
1F
100
AcDbEntity
  8
0
  6
Continuous
 62
     7
370
    18
100
AcDbLine
 10
156.5881893753
 20
149.5725013637
 30
0.0
 11
152.0602294027
 21
149.5725013637
 31
0.0
  0
LINE
  5
84
330
1F
100
AcDbEntity
  8
0
  6
Continuous
 62
     7
370
    18
100
AcDbLine
 10
152.0602294027
 20
139.5725010051
 30
0.0
 11
156.5881893753
 21
139.5725010051
 31
0.0
  0
LINE
  5
85
330
1F
100
AcDbEntity
  8
0
  6
Continuous
 62
     7
370
    18
100
AcDbLine
 10
162.5881903588
 20
139.5725010051
 30
0.0
 11
166.5602289854
 21
139.5725010051
 31
0.0
  0
LINE
  5
86
330
1F
100
AcDbEntity
  8
0
  6
Continuous
 62
     7
370
    18
100
AcDbLine
 10
166.5602289854
 20
139.5725010051
 30
0.0
 11
167.5602272867
 21
140.5725010526
 31
0.0
  0
LINE
  5
87
330
1F
100
AcDbEntity
  8
0
  6
Continuous
 62
     7
370
    18
100
AcDbLine
 10
167.5602272867
 20
148.5725011998
 30
0.0
 11
166.5602289854
 21
149.5725013637
 31
0.0
  0
LINE
  5
88
330
1F
100
AcDbEntity
  8
0
  6
Continuous
 62
     7
370
    18
100
AcDbLine
 10
152.0602294027
 20
149.0725012817
 30
0.0
 11
150.5602300881
 21
149.0725012817
 31
0.0
  0
LINE
  5
89
330
1F
100
AcDbEntity
  8
0
  6
Continuous
 62
     7
370
    18
100
AcDbLine
 10
150.5602300881
 20
140.0725010871
 30
0.0
 11
152.0602294027
 21
140.0725010871
 31
0.0
  0
LINE
  5
8A
330
1F
100
AcDbEntity
  8
0
  6
Continuous
 62
     7
370
    18
100
AcDbLine
 10
146.0602284192
 20
148.3225011588
 30
0.0
 11
145.5602292686
 21
147.8225010768
 31
0.0
  0
LINE
  5
8B
330
1F
100
AcDbEntity
  8
0
  6
Continuous
 62
     7
370
    18
100
AcDbLine
 10
145.5602292686
 20
141.32250103
 30
0.0
 11
146.0602284192
 21
140.8225010354
 31
0.0
  0
LINE
  5
8C
330
1F
100
AcDbEntity
  8
0
  6
Continuous
 62
     7
370
    18
100
AcDbLine
 10
147.5602277337
 20
148.3225011588
 30
0.0
 11
147.4306714504
 21
148.3225011588
 31
0.0
  0
LINE
  5
8D
330
1F
100
AcDbEntity
  8
0
  6
Continuous
 62
     7
370
    18
100
AcDbLine
 10
146.9267588823
 20
148.3225011588
 30
0.0
 11
146.0602284192
 21
148.3225011588
 31
0.0
  0
LINE
  5
8E
330
1F
100
AcDbEntity
  8
0
  6
Continuous
 62
     7
370
    18
100
AcDbLine
 10
146.0602284192
 20
140.8225010354
 30
0.0
 11
147.5602277337
 21
140.8225010354
 31
0.0
  0
SPLINE
  5
8F
330
1F
100
AcDbEntity
  8
0
  6
Continuous
 62
     7
370
    18
100
AcDbSpline
210
0.0
220
0.0
230
1.0
 70
     8
 71
     3
 72
    11
 73
     7
 74
     0
 42
0.000000001
 43
0.00000001
 40
0.0
 40
0.0
 40
0.0
 40
0.0
 40
0.108671141873971
 40
0.4018814768493382
 40
0.6996374536431736
 40
0.9999999999999999
 40
0.9999999999999999
 40
0.9999999999999999
 40
0.9999999999999999
 10
147.503834289202
 20
148.0693485909049
 30
0.0
 10
147.4855776715972
 20
148.141755229964
 30
0.0
 10
147.4180620798885
 20
148.4095253714848
 30
0.0
 10
147.2720676384284
 20
148.733395175359
 30
0.0
 10
147.0756364256918
 20
149.0205419081713
 30
0.0
 10
146.9375740463213
 20
149.053743106681
 30
0.0
 10
146.8682420222848
 20
149.0704160504881
 30
0.0
  0
SPLINE
  5
90
330
1F
100
AcDbEntity
  8
0
  6
Continuous
 62
     7
370
    18
100
AcDbSpline
210
0.0
220
0.0
230
1.0
 70
     8
 71
     3
 72
    25
 73
    21
 74
     0
 42
0.000000001
 43
0.00000001
 40
0.0
 40
0.0
 40
0.0
 40
0.0
 40
0.0343992544578251
 40
0.1057306751786298
 40
0.1820464852972084
 40
0.2215202450656039
 40
0.2583747940521566
 40
0.3221173685235169
 40
0.3725837774177816
 40
0.4098692937123087
 40
0.4485258952310441
 40
0.4964736691639787
 40
0.5538102201947613
 40
0.6205742261614663
 40
0.6927011888623804
 40
0.7662754300827345
 40
0.8418754919116583
 40
0.9197462854633932
 40
0.9596325617360265
 40
1.0
 40
1.0
 40
1.0
 40
1.0
 10
144.8765937953084
 20
140.5962316756975
 30
0.0
 10
144.8802460691839
 20
140.6002606762613
 30
0.0
 10
144.8914718177903
 20
140.6126443443558
 30
0.0
 10
144.8126526252573
 20
140.817627763415
 30
0.0
 10
144.7051134159952
 20
141.2126077720962
 30
0.0
 10
144.6076551993224
 20
141.6500432157945
 30
0.0
 10
144.5183281943924
 20
142.1013205427023
 30
0.0
 10
144.4209600225749
 20
142.6558049524527
 30
0.0
 10
144.3230968479112
 20
143.2636339852789
 30
0.0
 10
144.2411361040689
 20
143.7942582869969
 30
0.0
 10
144.1607262099569
 20
144.3267020158264
 30
0.0
 10
144.0671928107779
 20
144.9521354667452
 30
0.0
 10
143.9554313189293
 20
145.6913986086776
 30
0.0
 10
143.8280809247906
 20
146.4954619311156
 30
0.0
 10
143.6892733111453
 20
147.2875522979022
 30
0.0
 10
143.5373528360633
 20
147.9976965691659
 30
0.0
 10
143.3607317638365
 20
148.5788746826373
 30
0.0
 10
143.1772700161575
 20
148.9056612725569
 30
0.0
 10
143.0077319208189
 20
149.0508678209333
 30
0.0
 10
142.9148505776768
 20
149.063802722127
 30
0.0
 10
142.8681314705699
 20
149.0703089483921
 30
0.0
  0
SPLINE
  5
91
330
1F
100
AcDbEntity
  8
0
  6
Continuous
 62
     7
370
    18
100
AcDbSpline
210
0.0
220
0.0
230
1.0
 70
     8
 71
     3
 72
    26
 73
    22
 74
     0
 42
0.000000001
 43
0.00000001
 40
0.0
 40
0.0
 40
0.0
 40
0.0
 40
0.0251779745411544
 40
0.0870749755279757
 40
0.1529077356693444
 40
0.2219037263620938
 40
0.2870950351266568
 40
0.3462244914430427
 40
0.3992435881505891
 40
0.4460055421476709
 40
0.4905839417449206
 40
0.5389397341177901
 40
0.5911858969130006
 40
0.647384863730165
 40
0.6898173182736006
 40
0.7383282640453329
 40
0.7933322114663712
 40
0.839101929108769
 40
0.8888201569769271
 40
0.942478362447745
 40
1.0
 40
1.0
 40
1.0
 40
1.0
 10
140.8812274007886
 20
140.5918394420203
 30
0.0
 10
140.8844851711134
 20
140.594365068601
 30
0.0
 10
140.8957517752179
 20
140.6030996422397
 30
0.0
 10
140.8402280397416
 20
140.7408763302634
 30
0.0
 10
140.7360298481389
 20
141.0889180403404
 30
0.0
 10
140.6076805655962
 20
141.6359654905276
 30
0.0
 10
140.4841001123248
 20
142.2866892260821
 30
0.0
 10
140.3694820873902
 20
142.9689912908908
 30
0.0
 10
140.2666177270266
 20
143.6261446447814
 30
0.0
 10
140.1729676815557
 20
144.24524112565
 30
0.0
 10
140.0822617364632
 20
144.851756762413
 30
0.0
 10
139.9879777036696
 20
145.4771653688592
 30
0.0
 10
139.8861641651495
 20
146.1322190092937
 30
0.0
 10
139.7885379656273
 20
146.7230371884823
 30
0.0
 10
139.6919631344221
 20
147.2597098211413
 30
0.0
 10
139.5915662720867
 20
147.7493477628136
 30
0.0
 10
139.4795242056435
 20
148.1859372709031
 30
0.0
 10
139.3530980000492
 20
148.5511404867866
 30
0.0
 10
139.2145490041461
 20
148.8303190549744
 30
0.0
 10
139.0516996655864
 20
149.0328417498164
 30
0.0
 10
138.9314619444413
 20
149.0577861305541
 30
0.0
 10
138.8692539899438
 20
149.0706917219702
 30
0.0
  0
LWPOLYLINE
  5
92
330
1F
100
AcDbEntity
  8
0
  6
Continuous
 62
     7
370
    18
100
AcDbPolyline
 90
       21
 70
   128
 43
0.0
 10
136.8892957239
 20
140.588678475
 10
136.896649447
 20
140.5952923205
 10
136.8574351786
 20
140.7154888993
 10
136.7684808343
 20
140.9925923917
 10
136.6550122171
 20
141.4409775434
 10
136.5427748083
 20
141.984084269
 10
136.437852007
 20
142.5660845679
 10
136.3408230959
 20
143.1550282841
 10
136.2521146207
 20
143.7238959451
 10
136.1653898625
 20
144.2967377924
 10
136.0712946175
 20
144.9242089265
 10
135.9697227149
 20
145.5930573256
 10
135.8604599505
 20
146.2844781899
 10
135.7761398672
 20
146.7853062176
 10
135.6743667989
 20
147.3280987092
 10
135.5475970327
 20
147.8830929235
 10
135.4295928745
 20
148.2800319181
 10
135.287528929
 20
148.6320657977
 10
135.1199243932
 20
148.9045824245
 10
134.9483971267
 20
149.0380395525
 10
134.9483971267
 20
149.0380395525
  0
SPLINE
  5
93
330
1F
100
AcDbEntity
  8
0
  6
Continuous
 62
     7
370
    18
100
AcDbSpline
210
0.0
220
0.0
230
1.0
 70
     8
 71
     3
 72
    13
 73
     9
 74
     0
 42
0.000000001
 43
0.00000001
 40
0.0
 40
0.0
 40
0.0
 40
0.0
 40
0.2165872552817656
 40
0.4437752606250793
 40
0.6817298319807709
 40
0.8054047136058026
 40
0.9239686836653799
 40
1.0
 40
1.0
 40
1.0
 40
1.0
 10
136.868577521929
 20
140.0739857316856
 30
0.0
 10
136.9640010483247
 20
140.1011808617621
 30
0.0
 10
137.1595185557647
 20
140.1569021733497
 30
0.0
 10
137.3644647236819
 20
140.5537993675529
 30
0.0
 10
137.5058208428734
 20
141.0242337349038
 30
0.0
 10
137.6121690522517
 20
141.4944860352447
 30
0.0
 10
137.6819205580454
 20
141.8337414062186
 30
0.0
 10
137.7243238800984
 20
142.0773280376938
 30
0.0
 10
137.7408914982169
 20
142.172501012208
 30
0.0
  0
SPLINE
  5
94
330
1F
100
AcDbEntity
  8
0
  6
Continuous
 62
     7
370
    18
100
AcDbSpline
210
0.0
220
0.0
230
1.0
 70
     8
 71
     3
 72
    12
 73
     8
 74
     0
 42
0.000000001
 43
0.00000001
 40
0.0
 40
0.0
 40
0.0
 40
0.0
 40
0.0655492562848857
 40
0.3037521547342911
 40
0.5392034675914896
 40
0.7709205153565369
 40
1.0
 40
1.0
 40
1.0
 40
1.0
 10
138.5094766287892
 20
146.9725011237804
 30
0.0
 10
138.5223442277695
 20
147.0457703691287
 30
0.0
 10
138.5819720731191
 20
147.3852965882144
 30
0.0
 10
138.6823728781735
 20
147.8444301823299
 30
0.0
 10
138.7937858100295
 20
148.2968143943781
 30
0.0
 10
138.8635295862653
 20
148.5373533693985
 30
0.0
 10
138.8700840318297
 20
148.5598182546176
 30
0.0
 10
138.8733424960463
 20
148.5709864036087
 30
0.0
  0
SPLINE
  5
95
330
1F
100
AcDbEntity
  8
0
  6
Continuous
 62
     7
370
    18
100
AcDbSpline
210
0.0
220
0.0
230
1.0
 70
     8
 71
     3
 72
    12
 73
     8
 74
     0
 42
0.000000001
 43
0.00000001
 40
0.0
 40
0.0
 40
0.0
 40
0.0
 40
0.1906940956133686
 40
0.3890528169139249
 40
0.5951813476198761
 40
0.8100758360510277
 40
1.0
 40
1.0
 40
1.0
 40
1.0
 10
140.8690531520932
 20
140.0745576801617
 30
0.0
 10
140.9542303870229
 20
140.0959548087899
 30
0.0
 10
141.128008411349
 20
140.1396090873342
 30
0.0
 10
141.3192470135361
 20
140.4508177299313
 30
0.0
 10
141.4767547518462
 20
140.9080062968464
 30
0.0
 10
141.6122090246839
 20
141.4740564532838
 30
0.0
 10
141.700805359254
 20
141.9494609093663
 30
0.0
 10
141.7423710941165
 20
142.172501012208
 30
0.0
  0
SPLINE
  5
96
330
1F
100
AcDbEntity
  8
0
  6
Continuous
 62
     7
370
    18
100
AcDbSpline
210
0.0
220
0.0
230
1.0
 70
     8
 71
     3
 72
    14
 73
    10
 74
     0
 42
0.000000001
 43
0.00000001
 40
0.0
 40
0.0
 40
0.0
 40
0.0
 40
0.1331134302140912
 40
0.2545730672313427
 40
0.3858472788214883
 40
0.5262540061306924
 40
0.675303142766922
 40
0.8330397060301644
 40
1.0
 40
1.0
 40
1.0
 40
1.0
 10
142.5093375860541
 20
146.9725011237804
 30
0.0
 10
142.5353933017078
 20
147.1149299554624
 30
0.0
 10
142.5852236114083
 20
147.3873182823589
 30
0.0
 10
142.6544751103199
 20
147.7139237581285
 30
0.0
 10
142.7186700288283
 20
148.0032355584349
 30
0.0
 10
142.77577003957
 20
148.2473704387825
 30
0.0
 10
142.8213311787337
 20
148.4328051553973
 30
0.0
 10
142.8535965551343
 20
148.5498910387204
 30
0.0
 10
142.8658735658909
 20
148.5636055801296
 30
0.0
 10
142.8721864490597
 20
148.5706576467399
 30
0.0
  0
SPLINE
  5
97
330
1F
100
AcDbEntity
  8
0
  6
Continuous
 62
     7
370
    18
100
AcDbSpline
210
0.0
220
0.0
230
1.0
 70
     8
 71
     3
 72
    11
 73
     7
 74
     0
 42
0.000000001
 43
0.00000001
 40
0.0
 40
0.0
 40
0.0
 40
0.0
 40
0.2766525480182782
 40
0.5589147169954373
 40
0.847974053848991
 40
0.9999999999999999
 40
0.9999999999999999
 40
0.9999999999999999
 40
0.9999999999999999
 10
144.8678822039454
 20
140.0746722328384
 30
0.0
 10
144.9618001249889
 20
140.1001583598627
 30
0.0
 10
145.1515403194562
 20
140.1516473903277
 30
0.0
 10
145.3459783537484
 20
140.5081309900755
 30
0.0
 10
145.4761963655806
 20
140.9013359628374
 30
0.0
 10
145.5479972466825
 20
141.2281994930854
 30
0.0
 10
145.5727443813174
 20
141.3408573834365
 30
0.0
  0
LINE
  5
98
330
1F
100
AcDbEntity
  8
0
  6
Continuous
 62
     7
370
    18
100
AcDbLine
 10
146.8210090666
 20
148.3225011588
 30
0.0
 11
146.8754169314
 21
148.4940745258
 31
0.0
  0
SPLINE
  5
99
330
1F
100
AcDbEntity
  8
0
  6
Continuous
 62
     7
370
    18
100
AcDbSpline
210
0.0
220
0.0
230
1.0
 70
     8
 71
     3
 72
     9
 73
     5
 74
     0
 42
0.000000001
 43
0.00000001
 40
0.0
 40
0.0
 40
0.0
 40
0.0
 40
0.5117477297193568
 40
1.0
 40
1.0
 40
1.0
 40
1.0
 10
146.8810290812342
 20
149.070401149327
 30
0.0
 10
146.7842678941548
 20
149.0502778549777
 30
0.0
 10
146.5951880380848
 20
149.0109551708101
 30
0.0
 10
146.5016907678583
 20
148.7831446820136
 30
0.0
 10
146.4560405134051
 20
148.6719156936649
 30
0.0
  0
SPLINE
  5
9A
330
1F
100
AcDbEntity
  8
0
  6
Continuous
 62
     7
370
    18
100
AcDbSpline
210
0.0
220
0.0
230
1.0
 70
     8
 71
     3
 72
    12
 73
     8
 74
     0
 42
0.000000001
 43
0.00000001
 40
0.0
 40
0.0
 40
0.0
 40
0.0
 40
0.2164866754652104
 40
0.4413832369245358
 40
0.6753195078333223
 40
0.9120480013416185
 40
1.0
 40
1.0
 40
1.0
 40
1.0
 10
142.881525751838
 20
149.0703238495533
 30
0.0
 10
142.7862342934567
 20
149.042845241062
 30
0.0
 10
142.5919495770362
 20
148.9868205590071
 30
0.0
 10
142.3876009761569
 20
148.6005120284492
 30
0.0
 10
142.2207938036026
 20
148.0378758669042
 30
0.0
 10
142.0992155922079
 20
147.4830648446287
 30
0.0
 10
142.0283358639123
 20
147.0813270177406
 30
0.0
 10
142.009135407099
 20
146.9725011237804
 30
0.0
  0
SPLINE
  5
9B
330
1F
100
AcDbEntity
  8
0
  6
Continuous
 62
     7
370
    18
100
AcDbSpline
210
0.0
220
0.0
230
1.0
 70
     8
 71
     3
 72
    12
 73
     8
 74
     0
 42
0.000000001
 43
0.00000001
 40
0.0
 40
0.0
 40
0.0
 40
0.0
 40
0.0414583035894792
 40
0.2904459949444246
 40
0.5397296830075953
 40
0.7875190383000523
 40
1.0
 40
1.0
 40
1.0
 40
1.0
 10
141.241302785167
 20
142.172501012208
 30
0.0
 10
141.23346168117
 20
142.1272799542768
 30
0.0
 10
141.1785289643272
 20
141.8104730898831
 30
0.0
 10
141.0812022990777
 20
141.3585320083923
 30
0.0
 10
140.9670484148285
 20
140.8819391843201
 30
0.0
 10
140.8956819162732
 20
140.6213140289891
 30
0.0
 10
140.8859073891816
 20
140.596458058582
 30
0.0
 10
140.881395038852
 20
140.5849834526796
 30
0.0
  0
SPLINE
  5
9C
330
1F
100
AcDbEntity
  8
0
  6
Continuous
 62
     7
370
    18
100
AcDbSpline
210
0.0
220
0.0
230
1.0
 70
     8
 71
     3
 72
    13
 73
     9
 74
     0
 42
0.000000001
 43
0.00000001
 40
0.0
 40
0.0
 40
0.0
 40
0.0
 40
0.1877045256152699
 40
0.380043963417558
 40
0.576949418114269
 40
0.780002397171873
 40
0.974315395965227
 40
1.0
 40
1.0
 40
1.0
 40
1.0
 10
138.8827823816626
 20
149.0706926532928
 30
0.0
 10
138.7982472688606
 20
149.0497425556485
 30
0.0
 10
138.6270896517923
 20
149.0073250480438
 30
0.0
 10
138.4389988553599
 20
148.7120500517729
 30
0.0
 10
138.2865357256779
 20
148.2875783320513
 30
0.0
 10
138.1543570625401
 20
147.7356680560143
 30
0.0
 10
138.0613629175499
 20
147.2833084648993
 30
0.0
 10
138.0133322805888
 20
147.0049941707522
 30
0.0
 10
138.00772472907
 20
146.9725011237804
 30
0.0
  0
SPLINE
  5
9D
330
1F
100
AcDbEntity
  8
0
  6
Continuous
 62
     7
370
    18
100
AcDbSpline
210
0.0
220
0.0
230
1.0
 70
     8
 71
     3
 72
    14
 73
    10
 74
     0
 42
0.000000001
 43
0.00000001
 40
0.0
 40
0.0
 40
0.0
 40
0.0
 40
0.0712902999013207
 40
0.1975635820130757
 40
0.3359261501295304
 40
0.4857615710972471
 40
0.646423799928418
 40
0.8176184207990876
 40
1.0
 40
1.0
 40
1.0
 40
1.0
 10
137.2421123801558
 20
142.172501012208
 30
0.0
 10
137.2284212119465
 20
142.0973461576119
 30
0.0
 10
137.1904794970552
 20
141.8890729100563
 30
0.0
 10
137.1295208239895
 20
141.5822358393304
 30
0.0
 10
137.0606559976114
 20
141.2544033636435
 30
0.0
 10
136.9976725355644
 20
140.9702700232473
 30
0.0
 10
136.9452707992888
 20
140.7478798439171
 30
0.0
 10
136.9052200264237
 20
140.5989377664694
 30
0.0
 10
136.8872877292731
 20
140.5823064711133
 30
0.0
 10
136.878037896642
 20
140.5737277208734
 30
0.0
  0
SPLINE
  5
9E
330
1F
100
AcDbEntity
  8
0
  6
Continuous
 62
     7
370
    18
100
AcDbSpline
210
0.0
220
0.0
230
1.0
 70
     8
 71
     3
 72
     9
 73
     5
 74
     0
 42
0.000000001
 43
0.00000001
 40
0.0
 40
0.0
 40
0.0
 40
0.0
 40
0.5019296826555901
 40
1.0
 40
1.0
 40
1.0
 40
1.0
 10
134.9395178972571
 20
149.0525011294428
 30
0.0
 10
134.888799373848
 20
149.0601032124578
 30
0.0
 10
134.7877523045838
 20
149.0752489256475
 30
0.0
 10
134.6951995139645
 20
149.0171296272109
 30
0.0
 10
134.6491017161696
 20
148.9881821297948
 30
0.0
  0
LWPOLYLINE
  5
9F
330
1F
100
AcDbEntity
  8
0
  6
Continuous
 62
     7
370
    18
100
AcDbPolyline
 90
       20
 70
   128
 43
0.0
 10
134.9306945472
 20
148.5099973478
 10
134.9202153056
 20
148.4416419961
 10
134.9874027788
 20
148.1558307395
 10
135.0463461845
 20
147.9202345335
 10
135.1159327446
 20
147.615514169
 10
135.1915896653
 20
147.2460822523
 10
135.2631450414
 20
146.8607293763
 10
135.3875883638
 20
146.1240425096
 10
135.4861222922
 20
145.4977001385
 10
135.5585586994
 20
145.0219614752
 10
135.6334668367
 20
144.5231546503
 10
135.7264668464
 20
143.9045466804
 10
135.8376947014
 20
143.1830908959
 10
135.9673273532
 20
142.3959972425
 10
136.107752171
 20
141.6454305262
 10
136.2563148855
 20
141.0103654315
 10
136.4268903403
 20
140.5147140585
 10
136.6344877302
 20
140.1903161285
 10
136.8821077763
 20
140.0739438222
 10
136.8821077763
 20
140.0739438222
  0
SPLINE
  5
A0
330
1F
100
AcDbEntity
  8
0
  6
Continuous
 62
     7
370
    18
100
AcDbSpline
210
0.0
220
0.0
230
1.0
 70
     8
 71
     3
 72
    26
 73
    22
 74
     0
 42
0.000000001
 43
0.00000001
 40
0.0
 40
0.0
 40
0.0
 40
0.0
 40
0.0262489437442074
 40
0.089415161991863
 40
0.1574513848209603
 40
0.2293344019497499
 40
0.2970629252716023
 40
0.3580367175533198
 40
0.412053811129728
 40
0.4589988746353917
 40
0.5033400617627497
 40
0.551479941208292
 40
0.6034493899821181
 40
0.6592853473955285
 40
0.7011330835894027
 40
0.7485694977243195
 40
0.8019231303666686
 40
0.8460235870523484
 40
0.8937237940648198
 40
0.94509223496472
 40
1.0
 40
1.0
 40
1.0
 40
1.0
 10
138.8713122128337
 20
148.5526277073566
 30
0.0
 10
138.8680361334499
 20
148.5498784676083
 30
0.0
 10
138.8568764017801
 20
148.5405133777273
 30
0.0
 10
138.9155706861421
 20
148.3887475655588
 30
0.0
 10
139.0238731661307
 20
148.020108585893
 30
0.0
 10
139.157474289151
 20
147.4395586833102
 30
0.0
 10
139.2858534838061
 20
146.7451246871593
 30
0.0
 10
139.4038089274647
 20
146.0302674987727
 30
0.0
 10
139.5086922431363
 20
145.3532589701852
 30
0.0
 10
139.6030847385444
 20
144.7263707101667
 30
0.0
 10
139.6935783431302
 20
144.1213337683643
 30
0.0
 10
139.7872430924704
 20
143.5029773803403
 30
0.0
 10
139.8884930038296
 20
142.8585541098835
 30
0.0
 10
139.985445983016
 20
142.2831525158546
 30
0.0
 10
140.0808572091179
 20
141.7685570762879
 30
0.0
 10
140.1792029701277
 20
141.303847907634
 30
0.0
 10
140.2885890625307
 20
140.8918856610938
 30
0.0
 10
140.4118256962936
 20
140.5503236693962
 30
0.0
 10
140.546668124611
 20
140.293798026276
 30
0.0
 10
140.7046761204558
 20
140.1100067398849
 30
0.0
 10
140.8215415836968
 20
140.0866298159064
 30
0.0
 10
140.8819203047841
 20
140.0745520922262
 30
0.0
  0
SPLINE
  5
A1
330
1F
100
AcDbEntity
  8
0
  6
Continuous
 62
     7
370
    18
100
AcDbSpline
210
0.0
220
0.0
230
1.0
 70
     8
 71
     3
 72
    26
 73
    22
 74
     0
 42
0.000000001
 43
0.00000001
 40
0.0
 40
0.0
 40
0.0
 40
0.0
 40
0.0256473930181596
 40
0.0920830296047529
 40
0.1621360692091292
 40
0.2324041573018244
 40
0.2969765910985908
 40
0.3556801703981825
 40
0.4083637834079358
 40
0.461202056576135
 40
0.5205845096301258
 40
0.5866175635237972
 40
0.6559971072550728
 40
0.7201323440709507
 40
0.759840320768209
 40
0.7970943505792072
 40
0.8360514155729853
 40
0.8701790714192649
 40
0.9087926466744078
 40
0.9520794424964536
 40
1.0
 40
1.0
 40
1.0
 40
1.0
 10
142.8650767325251
 20
148.5518751987163
 30
0.0
 10
142.8608288281063
 20
148.5497070414022
 30
0.0
 10
142.8455773790377
 20
148.5419226052219
 30
0.0
 10
142.9153990069485
 20
148.3832512817746
 30
0.0
 10
143.0333130181961
 20
147.9825934454759
 30
0.0
 10
143.1656785873591
 20
147.3945196219445
 30
0.0
 10
143.2890797179322
 20
146.7250201629481
 30
0.0
 10
143.4025116030221
 20
146.0381371083942
 30
0.0
 10
143.508462015494
 20
145.3550065398093
 30
0.0
 10
143.6150340349643
 20
144.6463905106932
 30
0.0
 10
143.7302909404585
 20
143.8758196926645
 30
0.0
 10
143.8560666315806
 20
143.0578373570895
 30
0.0
 10
143.9849850198278
 20
142.2785356932706
 30
0.0
 10
144.0977358980267
 20
141.6795134366458
 30
0.0
 10
144.1909632489042
 20
141.2530713485729
 30
0.0
 10
144.2684463630793
 20
140.9444535877702
 30
0.0
 10
144.3471292179088
 20
140.6832257388131
 30
0.0
 10
144.4406402535682
 20
140.4494852532309
 30
0.0
 10
144.5547156080265
 20
140.2564742873842
 30
0.0
 10
144.7027633793461
 20
140.1051069721219
 30
0.0
 10
144.8202017834705
 20
140.0851609065065
 30
0.0
 10
144.8819041966288
 20
140.0746811968181
 30
0.0
  0
SPLINE
  5
A2
330
1F
100
AcDbEntity
  8
0
  6
Continuous
 62
     7
370
    18
100
AcDbSpline
210
0.0
220
0.0
230
1.0
 70
     8
 71
     3
 72
    11
 73
     7
 74
     0
 42
0.000000001
 43
0.00000001
 40
0.0
 40
0.0
 40
0.0
 40
0.0
 40
0.2500227942122697
 40
0.4999690251357011
 40
0.7498474881006278
 40
1.0
 40
1.0
 40
1.0
 40
1.0
 10
146.6430947898715
 20
148.7614497863595
 30
0.0
 10
146.6754180839904
 20
148.7491351231131
 30
0.0
 10
146.7400547740199
 20
148.7245095676812
 30
0.0
 10
146.8370373285197
 20
148.5650113981526
 30
0.0
 10
146.93412815936
 20
148.3223251979452
 30
0.0
 10
146.9987546713679
 20
148.0862814230791
 30
0.0
 10
147.0310856371014
 20
147.9681948521082
 30
0.0
  0
SPLINE
  5
A3
330
1F
100
AcDbEntity
  8
0
  6
Continuous
 62
     7
370
    18
100
AcDbSpline
210
0.0
220
0.0
230
1.0
 70
     8
 71
     3
 72
    10
 73
     6
 74
     0
 42
0.000000001
 43
0.00000001
 40
0.0
 40
0.0
 40
0.0
 40
0.0
 40
0.3941831992904793
 40
0.7606796996694444
 40
1.0
 40
1.0
 40
1.0
 40
1.0
 10
146.6531288592904
 20
148.9114718832914
 30
0.0
 10
146.6078377948155
 20
148.8943674799435
 30
0.0
 10
146.5204368264727
 20
148.8613600549057
 30
0.0
 10
146.4056419480265
 20
148.6391270184484
 30
0.0
 10
146.3363741338606
 20
148.4121611627557
 30
0.0
 10
146.3090107559054
 20
148.3225011587981
 30
0.0
  0
SPLINE
  5
A4
330
1F
100
AcDbEntity
  8
0
  6
Continuous
 62
     7
370
    18
100
AcDbSpline
210
0.0
220
0.0
230
1.0
 70
     8
 71
     3
 72
    12
 73
     8
 74
     0
 42
0.000000001
 43
0.00000001
 40
0.0
 40
0.0
 40
0.0
 40
0.0
 40
0.1505192591794498
 40
0.360870957653861
 40
0.5796952341580915
 40
0.8057390006927669
 40
0.9999999999999999
 40
0.9999999999999999
 40
0.9999999999999999
 40
0.9999999999999999
 10
145.2414263753979
 20
142.172501012208
 30
0.0
 10
145.2132223885501
 20
142.0203016718944
 30
0.0
 10
145.1456031363766
 20
141.6554027081825
 30
0.0
 10
145.0451969092896
 20
141.2047162082318
 30
0.0
 10
144.9528990341863
 20
140.831511424426
 30
0.0
 10
144.8956493689261
 20
140.6185373463373
 30
0.0
 10
144.8861559804314
 20
140.5961924423216
 30
0.0
 10
144.8817682235329
 20
140.5858648330812
 30
0.0
  0
SPLINE
  5
A5
330
1F
100
AcDbEntity
  8
0
  6
Continuous
 62
     7
370
    18
100
AcDbSpline
210
0.0
220
0.0
230
1.0
 70
     8
 71
     3
 72
    12
 73
     8
 74
     0
 42
0.000000001
 43
0.00000001
 40
0.0
 40
0.0
 40
0.0
 40
0.0
 40
0.2150186761614829
 40
0.4252102421924757
 40
0.6312323252137063
 40
0.8334015013074654
 40
0.9999999999999999
 40
0.9999999999999999
 40
0.9999999999999999
 40
0.9999999999999999
 10
134.6506160466759
 20
148.9892671205942
 30
0.0
 10
134.5971917385868
 20
148.9340982573161
 30
0.0
 10
134.4915424834286
 20
148.8249990565641
 30
0.0
 10
134.3518748639375
 20
148.4829729564538
 30
0.0
 10
134.2240213782018
 20
148.0358663190066
 30
0.0
 10
134.110637341407
 20
147.5318911594975
 30
0.0
 10
134.0398608718263
 20
147.1465755138907
 30
0.0
 10
134.0078861235469
 20
146.9725011237804
 30
0.0
  0
SPLINE
  5
A6
330
1F
100
AcDbEntity
  8
0
  6
Continuous
 62
     7
370
    18
100
AcDbSpline
210
0.0
220
0.0
230
1.0
 70
     8
 71
     3
 72
    11
 73
     7
 74
     0
 42
0.000000001
 43
0.00000001
 40
0.0
 40
0.0
 40
0.0
 40
0.0
 40
0.1482525147802916
 40
0.408767606465086
 40
0.6930354276411738
 40
1.0
 40
1.0
 40
1.0
 40
1.0
 10
133.2416740028947
 20
142.172501012208
 30
0.0
 10
133.2236278336252
 20
142.0736240626409
 30
0.0
 10
133.173870233027
 20
141.8009966871865
 30
0.0
 10
133.0896392841314
 20
141.4077081688305
 30
0.0
 10
132.9863877258522
 20
140.9904646868612
 30
0.0
 10
132.9148386641326
 20
140.7942401446666
 30
0.0
 10
132.8776907889931
 20
140.6923614530731
 30
0.0
  0
SPLINE
  5
A7
330
1F
100
AcDbEntity
  8
0
  6
Continuous
 62
     7
370
    18
100
AcDbSpline
210
0.0
220
0.0
230
1.0
 70
     8
 71
     3
 72
    16
 73
    12
 74
     0
 42
0.000000001
 43
0.00000001
 40
0.0
 40
0.0
 40
0.0
 40
0.0
 40
0.1433841061403663
 40
0.272885758367068
 40
0.3882030627042179
 40
0.4897455422978444
 40
0.604866081732637
 40
0.7040530216107769
 40
0.8077224169690747
 40
0.9745033700069774
 40
1.0
 40
1.0
 40
1.0
 40
1.0
 10
130.8827652378767
 20
149.0708183818404
 30
0.0
 10
130.8228831617198
 20
149.060527033648
 30
0.0
 10
130.7089167940064
 20
149.0409407459366
 30
0.0
 10
130.5624086962202
 20
148.8930617613711
 30
0.0
 10
130.4471330255579
 20
148.7038345672128
 30
0.0
 10
130.3514979937259
 20
148.4734151566522
 30
0.0
 10
130.2727850511729
 20
148.2167871925253
 30
0.0
 10
130.2016775932932
 20
147.936324610908
 30
0.0
 10
130.119578252322
 20
147.5663488692712
 30
0.0
 10
130.0548763089575
 20
147.2472132337239
 30
0.0
 10
130.0131305217807
 20
147.0046639447341
 30
0.0
 10
130.0075948952525
 20
146.9725011237804
 30
0.0
  0
SPLINE
  5
A8
330
1F
100
AcDbEntity
  8
0
  6
Continuous
 62
     7
370
    18
100
AcDbSpline
210
0.0
220
0.0
230
1.0
 70
     8
 71
     3
 72
    13
 73
     9
 74
     0
 42
0.000000001
 43
0.00000001
 40
0.0
 40
0.0
 40
0.0
 40
0.0
 40
0.0174160443369312
 40
0.2750656517805461
 40
0.4142563598075095
 40
0.5560625335732676
 40
0.8409371924538535
 40
1.0
 40
1.0
 40
1.0
 40
1.0
 10
129.242040288338
 20
142.172501012208
 30
0.0
 10
129.2389886616757
 20
142.1549023203237
 30
0.0
 10
129.1907918575906
 20
141.8769519683397
 30
0.0
 10
129.1192479087281
 20
141.5368023587183
 30
0.0
 10
129.0257724095133
 20
141.1482487496409
 30
0.0
 10
128.9368938400135
 20
140.8314823509123
 30
0.0
 10
128.8553394231707
 20
140.6216555226318
 30
0.0
 10
128.8689584761001
 20
140.6066482327658
 30
0.0
 10
128.8738381831734
 20
140.6012711203564
 30
0.0
  0
SPLINE
  5
A9
330
1F
100
AcDbEntity
  8
0
  6
Continuous
 62
     7
370
    18
100
AcDbSpline
210
0.0
220
0.0
230
1.0
 70
     8
 71
     3
 72
    14
 73
    10
 74
     0
 42
0.000000001
 43
0.00000001
 40
0.0
 40
0.0
 40
0.0
 40
0.0
 40
0.1082150368089775
 40
0.2175963311243194
 40
0.4382529584220431
 40
0.587420657547494
 40
0.7391179511061381
 40
0.8871489236068313
 40
1.0
 40
1.0
 40
1.0
 40
1.0
 10
126.8825177817433
 20
149.071618387932
 30
0.0
 10
126.8336677887612
 20
149.0650004589977
 30
0.0
 10
126.7354413355639
 20
149.0516932782381
 30
0.0
 10
126.5644305559097
 20
148.9128968556822
 30
0.0
 10
126.4144822525209
 20
148.6538245170164
 30
0.0
 10
126.283243327636
 20
148.2603140614993
 30
0.0
 10
126.1810634277403
 20
147.8515862236947
 30
0.0
 10
126.0907783383474
 20
147.429161140626
 30
0.0
 10
126.0337049118924
 20
147.1103924985607
 30
0.0
 10
126.0090163691728
 20
146.9725011237804
 30
0.0
  0
SPLINE
  5
AA
330
1F
100
AcDbEntity
  8
0
  6
Continuous
 62
     7
370
    18
100
AcDbSpline
210
0.0
220
0.0
230
1.0
 70
     8
 71
     3
 72
    11
 73
     7
 74
     0
 42
0.000000001
 43
0.00000001
 40
0.0
 40
0.0
 40
0.0
 40
0.0
 40
0.2435677502175386
 40
0.4932098176758071
 40
0.7452762846814116
 40
1.0
 40
1.0
 40
1.0
 40
1.0
 10
125.2425025000065
 20
142.172501012208
 30
0.0
 10
125.1961783203206
 20
141.9288298706063
 30
0.0
 10
125.1023746858227
 20
141.4354106916925
 30
0.0
 10
124.9831215591759
 20
140.934234957338
 30
0.0
 10
124.9023647839197
 20
140.621993938395
 30
0.0
 10
124.8867195782381
 20
140.5892922755115
 30
0.0
 10
124.8788559592157
 20
140.5728557119053
 30
0.0
  0
SPLINE
  5
AB
330
1F
100
AcDbEntity
  8
0
  6
Continuous
 62
     7
370
    18
100
AcDbSpline
210
0.0
220
0.0
230
1.0
 70
     8
 71
     3
 72
    11
 73
     7
 74
     0
 42
0.000000001
 43
0.00000001
 40
0.0
 40
0.0
 40
0.0
 40
0.0
 40
0.2369566574880298
 40
0.4959515503334026
 40
0.7506414601075029
 40
1.0
 40
1.0
 40
1.0
 40
1.0
 10
122.8606138161211
 20
149.0618599899952
 30
0.0
 10
122.7928337568108
 20
149.0412226667682
 30
0.0
 10
122.6509697304822
 20
148.9980286389758
 30
0.0
 10
122.4451040520557
 20
148.6583208341881
 30
0.0
 10
122.250953433471
 20
148.1471143087315
 30
0.0
 10
122.1464356602549
 20
147.6724273690184
 30
0.0
 10
122.0947295210152
 20
147.4375943043176
 30
0.0
  0
LWPOLYLINE
  5
AC
330
1F
100
AcDbEntity
  8
0
  6
Continuous
 62
     7
370
    18
100
AcDbPolyline
 90
       20
 70
   128
 43
0.0
 10
122.8723857335
 20
148.5502528348
 10
122.8673547289
 20
148.5263262265
 10
122.9361049614
 20
148.3092833632
 10
123.0596672526
 20
147.8577702627
 10
123.1306824616
 20
147.5437050075
 10
123.1978932178
 20
147.210793043
 10
123.315637537
 20
146.5577747994
 10
123.4102552539
 20
145.9827450425
 10
123.48160993
 20
145.5273664878
 10
123.5564286603
 20
145.036175786
 10
123.6492931626
 20
144.4172972669
 10
123.7602984316
 20
143.6817102921
 10
123.8895599513
 20
142.8596136947
 10
124.0321128412
 20
142.0358082368
 10
124.1883626922
 20
141.287789459
 10
124.3730975098
 20
140.6650469843
 10
124.6033311604
 20
140.2340407339
 10
124.7375948137
 20
140.1138676419
 10
124.8828997618
 20
140.0730028371
 10
124.8828997618
 20
140.0730028371
  0
SPLINE
  5
AD
330
1F
100
AcDbEntity
  8
0
  6
Continuous
 62
     7
370
    18
100
AcDbSpline
210
0.0
220
0.0
230
1.0
 70
     8
 71
     3
 72
    24
 73
    20
 74
     0
 42
0.000000001
 43
0.00000001
 40
0.0
 40
0.0
 40
0.0
 40
0.0
 40
0.0280933530261713
 40
0.096523671352785
 40
0.1693863324794636
 40
0.2426649047648363
 40
0.3095367423404671
 40
0.3696042880541902
 40
0.4226884854364356
 40
0.4755336324346828
 40
0.5349920058396586
 40
0.6010182064394048
 40
0.6703725493745287
 40
0.7346162629595654
 40
0.7933003413166153
 40
0.8498179021386774
 40
0.9178730699737851
 40
0.9572088011689389
 40
1.0
 40
1.0
 40
1.0
 40
1.0
 10
126.8681493370621
 20
148.5510249012057
 30
0.0
 10
126.8638311099812
 20
148.5481890196628
 30
0.0
 10
126.84899446406
 20
148.5384454444554
 30
0.0
 10
126.9231282812713
 20
148.3615893440366
 30
0.0
 10
127.0463405785389
 20
147.9351703957126
 30
0.0
 10
127.1842929590742
 20
147.3028780998666
 30
0.0
 10
127.3118722706378
 20
146.5915342795871
 30
0.0
 10
127.4279529003802
 20
145.8774737754155
 30
0.0
 10
127.5352582261011
 20
145.1789798982409
 30
0.0
 10
127.6421602696459
 20
144.4649830710762
 30
0.0
 10
127.7572868289698
 20
143.6968901778987
 30
0.0
 10
127.8832107729358
 20
142.8865158366439
 30
0.0
 10
128.0124218618522
 20
142.125244227091
 30
0.0
 10
128.1375611854779
 20
141.4818537630648
 30
0.0
 10
128.2573841119457
 20
140.9747366663025
 30
0.0
 10
128.3842176812352
 20
140.5546832966481
 30
0.0
 10
128.5377920794106
 20
140.2646848412736
 30
0.0
 10
128.7146492293616
 20
140.1010276129506
 30
0.0
 10
128.8245620878553
 20
140.0831203001211
 30
0.0
 10
128.8818307935088
 20
140.0737899211142
 30
0.0
  0
SPLINE
  5
AE
330
1F
100
AcDbEntity
  8
0
  6
Continuous
 62
     7
370
    18
100
AcDbSpline
210
0.0
220
0.0
230
1.0
 70
     8
 71
     3
 72
    27
 73
    23
 74
     0
 42
0.000000001
 43
0.00000001
 40
0.0
 40
0.0
 40
0.0
 40
0.0
 40
0.0231555324431171
 40
0.0824153212742342
 40
0.1396339276369771
 40
0.19396834494123
 40
0.243318018525838
 40
0.2872413425574523
 40
0.3256966390968906
 40
0.3586087921858943
 40
0.3950758331849412
 40
0.4453964148123908
 40
0.5096195201069134
 40
0.5879200079962624
 40
0.6324395224655152
 40
0.6804830389581614
 40
0.7320866868606947
 40
0.7873266728752301
 40
0.8461981827631592
 40
0.9086522473615134
 40
0.9747458850945092
 40
1.0
 40
1.0
 40
1.0
 40
1.0
 10
130.8666636018841
 20
148.5535506480281
 30
0.0
 10
130.8632870115155
 20
148.55148455042
 30
0.0
 10
130.8512690291724
 20
148.5441308824115
 30
0.0
 10
130.8918087479355
 20
148.4362719414779
 30
0.0
 10
130.9729714090766
 20
148.1901985819447
 30
0.0
 10
131.0692021394774
 20
147.8275696907237
 30
0.0
 10
131.15681920474
 20
147.4252927250438
 30
0.0
 10
131.2361820260236
 20
147.0129966970025
 30
0.0
 10
131.305899982442
 20
146.618459974225
 30
0.0
 10
131.3713868645044
 20
146.2262131370467
 30
0.0
 10
131.4441549046302
 20
145.7710760208871
 30
0.0
 10
131.5360065582669
 20
145.1740246016713
 30
0.0
 10
131.6534998262813
 20
144.3891872262182
 30
0.0
 10
131.7675151158702
 20
143.6301798976838
 30
0.0
 10
131.871482379857
 20
142.967236987241
 30
0.0
 10
131.9593961507232
 20
142.4348883725482
 30
0.0
 10
132.0539435100048
 20
141.9074513679238
 30
0.0
 10
132.155065354351
 20
141.4063196631487
 30
0.0
 10
132.2628548638247
 20
140.9526039180106
 30
0.0
 10
132.3775354780318
 20
140.5870906059843
 30
0.0
 10
132.4717729644516
 20
140.3651804322892
 30
0.0
 10
132.5277444468863
 20
140.3247738389148
 30
0.0
 10
132.5432183935135
 20
140.3136029811483
 30
0.0
  0
SPLINE
  5
AF
330
1F
100
AcDbEntity
  8
0
  6
Continuous
 62
     7
370
    18
100
AcDbSpline
210
0.0
220
0.0
230
1.0
 70
     8
 71
     3
 72
     9
 73
     5
 74
     0
 42
0.000000001
 43
0.00000001
 40
0.0
 40
0.0
 40
0.0
 40
0.0
 40
0.488460758041143
 40
1.0
 40
1.0
 40
1.0
 40
1.0
 10
132.4436330019324
 20
140.4963818467129
 30
0.0
 10
132.4915611502643
 20
140.3786306357511
 30
0.0
 10
132.5896819256652
 20
140.1375647793373
 30
0.0
 10
132.7832466825203
 20
140.0958248000182
 30
0.0
 10
132.8822626515119
 20
140.074473162638
 30
0.0
  0
LINE
  5
B0
330
1F
100
AcDbEntity
  8
0
  6
Continuous
 62
     7
370
    18
100
AcDbLine
 10
132.9534287347
 20
140.5349780079
 30
0.0
 11
132.9377275674
 21
140.5037027406
 31
0.0
  0
LWPOLYLINE
  5
B1
330
1F
100
AcDbEntity
  8
0
  6
Continuous
 62
     7
370
    18
100
AcDbPolyline
 90
       19
 70
   128
 43
0.0
 10
128.8772505491
 20
140.5996737275
 10
128.8832184641
 20
140.6328265993
 10
128.8150354071
 20
140.8412423015
 10
128.7679235234
 20
140.994722501
 10
128.7170733108
 20
141.1824194555
 10
128.6036493971
 20
141.6789268814
 10
128.4768013998
 20
142.3428318784
 10
128.3421284302
 20
143.1468044729
 10
128.2181172415
 20
143.9470736631
 10
128.1071427061
 20
144.6852692724
 10
128.0082911967
 20
145.3411983647
 10
127.9032044827
 20
146.0186722078
 10
127.7845707505
 20
146.7373058521
 10
127.6516719504
 20
147.4551176042
 10
127.5042128532
 20
148.106620586
 10
127.3414381563
 20
148.6107012578
 10
127.136680369
 20
148.9470856585
 10
126.8692576109
 20
149.0715978988
 10
126.8692576109
 20
149.0715978988
  0
SPLINE
  5
B2
330
1F
100
AcDbEntity
  8
0
  6
Continuous
 62
     7
370
    18
100
AcDbSpline
210
0.0
220
0.0
230
1.0
 70
     8
 71
     3
 72
    26
 73
    22
 74
     0
 42
0.000000001
 43
0.00000001
 40
0.0
 40
0.0
 40
0.0
 40
0.0
 40
0.0262210556548849
 40
0.0888751654396527
 40
0.1554751549591626
 40
0.2252441602626615
 40
0.2911678503969394
 40
0.3507817596712735
 40
0.4040356505228988
 40
0.4508806607894182
 40
0.4954644853271141
 40
0.5437961456908593
 40
0.5959499025837252
 40
0.6520883498221103
 40
0.694599845395459
 40
0.7433028057964138
 40
0.7985369698598169
 40
0.8445510876651545
 40
0.8946303247908065
 40
0.9487484866996261
 40
1.0
 40
1.0
 40
1.0
 40
1.0
 10
124.8811665705233
 20
140.5911560258735
 30
0.0
 10
124.8844443370507
 20
140.5939917796087
 30
0.0
 10
124.8955541888517
 20
140.6036034476391
 30
0.0
 10
124.8393264467692
 20
140.7451075966447
 30
0.0
 10
124.7342112290726
 20
141.0929685162157
 30
0.0
 10
124.6048716878147
 20
141.6490704906209
 30
0.0
 10
124.4808265484682
 20
142.3066502738182
 30
0.0
 10
124.3658559708048
 20
142.9910437482222
 30
0.0
 10
124.2628509598446
 20
143.649990300463
 30
0.0
 10
124.169477455731
 20
144.2681672554555
 30
0.0
 10
124.079298357303
 20
144.8717732812228
 30
0.0
 10
123.9856171512261
 20
145.4935220076898
 30
0.0
 10
123.8842871334941
 20
146.1441812472889
 30
0.0
 10
123.7871815731726
 20
146.7299878346859
 30
0.0
 10
123.6910337255531
 20
147.2633389780723
 30
0.0
 10
123.5909020043732
 20
147.753270805031
 30
0.0
 10
123.4787870879926
 20
148.1903376940164
 30
0.0
 10
123.352223941166
 20
148.5536629018686
 30
0.0
 10
123.2134772486732
 20
148.8300157614021
 30
0.0
 10
123.057493240685
 20
149.0271996317289
 30
0.0
 10
122.9442617871757
 20
149.0520355382682
 30
0.0
 10
122.889186327049
 20
149.0641156532709
 30
0.0
  0
SPLINE
  5
B3
330
1F
100
AcDbEntity
  8
0
  6
Continuous
 62
     7
370
    18
100
AcDbSpline
210
0.0
220
0.0
230
1.0
 70
     8
 71
     3
 72
    11
 73
     7
 74
     0
 42
0.000000001
 43
0.00000001
 40
0.0
 40
0.0
 40
0.0
 40
0.0
 40
0.2678460330725339
 40
0.5294514732864124
 40
0.786734252966496
 40
0.9999999999999999
 40
0.9999999999999999
 40
0.9999999999999999
 40
0.9999999999999999
 10
122.58839148719
 20
147.3925471627061
 30
0.0
 10
122.6259519677416
 20
147.5773339848376
 30
0.0
 10
122.7001978004583
 20
147.9426022477242
 30
0.0
 10
122.7740433801306
 20
148.3015443247273
 30
0.0
 10
122.8254732381286
 20
148.5204693479166
 30
0.0
 10
122.8522805519697
 20
148.5480943200828
 30
0.0
 10
122.8644303760319
 20
148.5606147297565
 30
0.0
  0
SPLINE
  5
B4
330
1F
100
AcDbEntity
  8
0
  6
Continuous
 62
     7
370
    18
100
AcDbSpline
210
0.0
220
0.0
230
1.0
 70
     8
 71
     3
 72
    13
 73
     9
 74
     0
 42
0.000000001
 43
0.00000001
 40
0.0
 40
0.0
 40
0.0
 40
0.0
 40
0.1885093407906946
 40
0.384227493916265
 40
0.5868160120299183
 40
0.7972828574401767
 40
0.9987980735816574
 40
1.0
 40
1.0
 40
1.0
 40
1.0
 10
124.8695748640983
 20
140.0730014401395
 30
0.0
 10
124.9543160146665
 20
140.094686984278
 30
0.0
 10
125.1270389141143
 20
140.1388873525122
 30
0.0
 10
125.3162476376516
 20
140.4475704918284
 30
0.0
 10
125.471562443492
 20
140.88555336878
 30
0.0
 10
125.6079412227153
 20
141.4639654479878
 30
0.0
 10
125.6985826770177
 20
141.9126923834181
 30
0.0
 10
125.742668206674
 20
142.1709696652073
 30
0.0
 10
125.7429295933633
 20
142.172501012208
 30
0.0
  0
SPLINE
  5
B5
330
1F
100
AcDbEntity
  8
0
  6
Continuous
 62
     7
370
    18
100
AcDbSpline
210
0.0
220
0.0
230
1.0
 70
     8
 71
     3
 72
    14
 73
    10
 74
     0
 42
0.000000001
 43
0.00000001
 40
0.0
 40
0.0
 40
0.0
 40
0.0
 40
0.1044508171490608
 40
0.2280567076285559
 40
0.3624719360465648
 40
0.5070607597866127
 40
0.6615115326943405
 40
0.8257226561973959
 40
1.0
 40
1.0
 40
1.0
 40
1.0
 10
126.5095193653195
 20
146.9725011237804
 30
0.0
 10
126.5299293138175
 20
147.0857859547909
 30
0.0
 10
126.5744921596079
 20
147.3331307462408
 30
0.0
 10
126.6396462669509
 20
147.6483934359442
 30
0.0
 10
126.7060156394067
 20
147.9570008728085
 30
0.0
 10
126.7658653759834
 20
148.2187198211553
 30
0.0
 10
126.8146150259332
 20
148.4174565909983
 30
0.0
 10
126.850518987921
 20
148.5476326223445
 30
0.0
 10
126.8655126951067
 20
148.5635912312246
 30
0.0
 10
126.8732324956744
 20
148.5718078301195
 30
0.0
  0
SPLINE
  5
B6
330
1F
100
AcDbEntity
  8
0
  6
Continuous
 62
     7
370
    18
100
AcDbSpline
210
0.0
220
0.0
230
1.0
 70
     8
 71
     3
 72
    13
 73
     9
 74
     0
 42
0.000000001
 43
0.00000001
 40
0.0
 40
0.0
 40
0.0
 40
0.0
 40
0.1192798723136857
 40
0.238538044396268
 40
0.4756604745335444
 40
0.7117087601204113
 40
0.9485508375459724
 40
1.0
 40
1.0
 40
1.0
 40
1.0
 10
128.8685156746595
 20
140.073839397626
 30
0.0
 10
128.9185335351958
 20
140.0806362132878
 30
0.0
 10
129.0185601566683
 20
140.0942286080868
 30
0.0
 10
129.1961780613079
 20
140.2498018732206
 30
0.0
 10
129.3798879666645
 20
140.5910432569787
 30
0.0
 10
129.5523962401195
 20
141.2036453218263
 30
0.0
 10
129.6679139535233
 20
141.7442598916634
 30
0.0
 10
129.7302735649722
 20
142.1076495938042
 30
0.0
 10
129.7414024143307
 20
142.172501012208
 30
0.0
  0
SPLINE
  5
B7
330
1F
100
AcDbEntity
  8
0
  6
Continuous
 62
     7
370
    18
100
AcDbSpline
210
0.0
220
0.0
230
1.0
 70
     8
 71
     3
 72
    13
 73
     9
 74
     0
 42
0.000000001
 43
0.00000001
 40
0.0
 40
0.0
 40
0.0
 40
0.0
 40
0.0373060509824551
 40
0.198740945137559
 40
0.355713714168277
 40
0.5034559194544459
 40
0.7702011266740657
 40
1.0
 40
1.0
 40
1.0
 40
1.0
 10
130.5077104612081
 20
146.9725011237804
 30
0.0
 10
130.5138407684437
 20
147.0068416980615
 30
0.0
 10
130.5464988231535
 20
147.1897846258031
 30
0.0
 10
130.6047573412025
 20
147.4797203213795
 30
0.0
 10
130.6794959182669
 20
147.8203925347301
 30
0.0
 10
130.7656345228147
 20
148.1653483961474
 30
0.0
 10
130.8565833280845
 20
148.4475831582237
 30
0.0
 10
130.8811688328084
 20
148.5185509767187
 30
0.0
 10
130.8925469188779
 20
148.5513946362678
 30
0.0
  0
SPLINE
  5
B8
330
1F
100
AcDbEntity
  8
0
  6
Continuous
 62
     7
370
    18
100
AcDbSpline
210
0.0
220
0.0
230
1.0
 70
     8
 71
     3
 72
     9
 73
     5
 74
     0
 42
0.000000001
 43
0.00000001
 40
0.0
 40
0.0
 40
0.0
 40
0.0
 40
0.511696066821681
 40
1.0
 40
1.0
 40
1.0
 40
1.0
 10
132.8689447386949
 20
140.0744811952952
 30
0.0
 10
132.9660037156979
 20
140.094729578721
 30
0.0
 10
133.1556846284432
 20
140.134300692784
 30
0.0
 10
133.2497805543896
 20
140.364049194605
 30
0.0
 10
133.2957279651253
 20
140.4762362916861
 30
0.0
  0
SPLINE
  5
B9
330
1F
100
AcDbEntity
  8
0
  6
Continuous
 62
     7
370
    18
100
AcDbSpline
210
0.0
220
0.0
230
1.0
 70
     8
 71
     3
 72
    13
 73
     9
 74
     0
 42
0.000000001
 43
0.00000001
 40
0.0
 40
0.0
 40
0.0
 40
0.0
 40
0.2085775648911186
 40
0.4024847223502619
 40
0.5821250645772426
 40
0.747416029929757
 40
0.8983071365560179
 40
1.0
 40
1.0
 40
1.0
 40
1.0
 10
133.092286136636
 20
140.2325492789876
 30
0.0
 10
133.137681581263
 20
140.2468515409084
 30
0.0
 10
133.2252795591959
 20
140.2744501079988
 30
0.0
 10
133.3517996368563
 20
140.5284495026188
 30
0.0
 10
133.4684932866766
 20
140.8859900721992
 30
0.0
 10
133.5756733081982
 20
141.3203787249003
 30
0.0
 10
133.6659977511744
 20
141.7500120142718
 30
0.0
 10
133.7204881908365
 20
142.0512282901179
 30
0.0
 10
133.7424265934913
 20
142.172501012208
 30
0.0
  0
SPLINE
  5
BA
330
1F
100
AcDbEntity
  8
0
  6
Continuous
 62
     7
370
    18
100
AcDbSpline
210
0.0
220
0.0
230
1.0
 70
     8
 71
     3
 72
    12
 73
     8
 74
     0
 42
0.000000001
 43
0.00000001
 40
0.0
 40
0.0
 40
0.0
 40
0.0
 40
0.1826985151703232
 40
0.4387372794514322
 40
0.6957976104645917
 40
0.9529896651136353
 40
1.0
 40
1.0
 40
1.0
 40
1.0
 10
134.5086210190146
 20
146.9725011237804
 30
0.0
 10
134.5350778058135
 20
147.115890679379
 30
0.0
 10
134.5986118671186
 20
147.4602303335158
 30
0.0
 10
134.6961917230618
 20
147.8981773086645
 30
0.0
 10
134.7967694637117
 20
148.2668930704112
 30
0.0
 10
134.8661466195838
 20
148.4713365807343
 30
0.0
 10
134.8953315582712
 20
148.5094027842594
 30
0.0
 10
134.8998416929333
 20
148.5152853974048
 30
0.0
  0
SPLINE
  5
BB
330
1F
100
AcDbEntity
  8
0
  6
Continuous
 62
     7
370
    18
100
AcDbSpline
210
0.0
220
0.0
230
1.0
 70
     8
 71
     3
 72
    27
 73
    23
 74
     0
 42
0.000000001
 43
0.00000001
 40
0.0
 40
0.0
 40
0.0
 40
0.0
 40
0.0650697643141866
 40
0.1258292366097331
 40
0.1823243180515232
 40
0.2345411755300951
 40
0.2823842462185105
 40
0.3258107041749211
 40
0.3648402456887094
 40
0.3994602922475248
 40
0.4552680088692525
 40
0.4931159504336983
 40
0.5179208743347841
 40
0.5482499698915889
 40
0.5858985515696593
 40
0.6309108772012423
 40
0.6832964884861308
 40
0.7404837558676852
 40
0.8004168198730485
 40
0.8635597165378994
 40
0.9301236082023235
 40
1.0
 40
1.0
 40
1.0
 40
1.0
 10
133.095025156328
 20
140.4110901611764
 30
0.0
 10
133.051955005558
 20
140.4312394707273
 30
0.0
 10
132.9686677176882
 20
140.4702033776313
 30
0.0
 10
132.8475704507756
 20
140.7318113423138
 30
0.0
 10
132.7349481366288
 20
141.0984085417185
 30
0.0
 10
132.6309169076362
 20
141.5382002906702
 30
0.0
 10
132.5354234471048
 20
142.0133988166151
 30
0.0
 10
132.4485413005574
 20
142.4973626834913
 30
0.0
 10
132.3704464516946
 20
142.9671656638955
 30
0.0
 10
132.2841492166066
 20
143.5120257561493
 30
0.0
 10
132.1984596216184
 20
144.0755931744439
 30
0.0
 10
132.1193098727232
 20
144.6040898254748
 30
0.0
 10
132.0571635614587
 20
145.0184245215519
 30
0.0
 10
131.9951113563423
 20
145.4287728156044
 30
0.0
 10
131.9195310747147
 20
145.918752668171
 30
0.0
 10
131.8290299941876
 20
146.4821806595357
 30
0.0
 10
131.725493204179
 20
147.0824465647821
 30
0.0
 10
131.6100629297573
 20
147.6734462683031
 30
0.0
 10
131.4785131375003
 20
148.2163602805766
 30
0.0
 10
131.3188214453152
 20
148.6679660342657
 30
0.0
 10
131.1176315930954
 20
149.0038642900637
 30
0.0
 10
130.9534759329424
 20
149.0481407941787
 30
0.0
 10
130.8694054155438
 20
149.0708165191952
 30
0.0
  0
LINE
  5
BC
330
1F
100
AcDbEntity
  8
0
  6
Continuous
 62
     7
370
    18
100
AcDbLine
 10
122.0949046097
 20
147.4376418018
 30
0.0
 11
122.0083754293
 21
146.9725011238
 31
0.0
  0
SPLINE
  5
BD
330
1F
100
AcDbEntity
  8
0
  6
Continuous
 62
     7
370
    18
100
AcDbSpline
210
0.0
220
0.0
230
1.0
 70
     8
 71
     3
 72
    14
 73
    10
 74
     0
 42
0.000000001
 43
0.00000001
 40
0.0
 40
0.0
 40
0.0
 40
0.0
 40
0.0089821959027455
 40
0.1335870638208217
 40
0.275314786108577
 40
0.4334565639098678
 40
0.607165209176442
 40
0.7958402149889612
 40
1.0
 40
1.0
 40
1.0
 40
1.0
 10
121.242425010243
 20
142.172501012208
 30
0.0
 10
121.2406852794156
 20
142.1627074960523
 30
0.0
 10
121.2148112575645
 20
142.0170541300062
 30
0.0
 10
121.1638492076823
 20
141.753382195079
 30
0.0
 10
121.0903654880299
 20
141.3876864590368
 30
0.0
 10
121.0199931130898
 20
141.0597245278201
 30
0.0
 10
120.9593672534389
 20
140.7924797782923
 30
0.0
 10
120.9115663555998
 20
140.6061529769651
 30
0.0
 10
120.8892687216654
 20
140.5846462354325
 30
0.0
 10
120.8776804401367
 20
140.5734689878207
 30
0.0
  0
SPLINE
  5
BE
330
1F
100
AcDbEntity
  8
0
  6
Continuous
 62
     7
370
    18
100
AcDbSpline
210
0.0
220
0.0
230
1.0
 70
     8
 71
     3
 72
    13
 73
     9
 74
     0
 42
0.000000001
 43
0.00000001
 40
0.0
 40
0.0
 40
0.0
 40
0.0
 40
0.1257713398784318
 40
0.248002617944195
 40
0.4804329307547357
 40
0.70028534675927
 40
0.9042531064808289
 40
1.0
 40
1.0
 40
1.0
 40
1.0
 10
118.8824257829054
 20
149.0717739188019
 30
0.0
 10
118.825217706412
 20
149.0625818502264
 30
0.0
 10
118.7124117781964
 20
149.0444564404689
 30
0.0
 10
118.5264547328303
 20
148.8690424151665
 30
0.0
 10
118.3559797307401
 20
148.5257263619943
 30
0.0
 10
118.2086655041295
 20
147.9811288794586
 30
0.0
 10
118.0946436498599
 20
147.4558371648561
 30
0.0
 10
118.0295491975931
 20
147.0895236885229
 30
0.0
 10
118.0087541129268
 20
146.9725011237804
 30
0.0
  0
SPLINE
  5
BF
330
1F
100
AcDbEntity
  8
0
  6
Continuous
 62
     7
370
    18
100
AcDbSpline
210
0.0
220
0.0
230
1.0
 70
     8
 71
     3
 72
    14
 73
    10
 74
     0
 42
0.000000001
 43
0.00000001
 40
0.0
 40
0.0
 40
0.0
 40
0.0
 40
0.1611500056053086
 40
0.3220150402990417
 40
0.4739195080229808
 40
0.6402894954325193
 40
0.7909544721389056
 40
0.9623970794767486
 40
1.0
 40
1.0
 40
1.0
 40
1.0
 10
117.2407882536589
 20
142.172501012208
 30
0.0
 10
117.2175529018776
 20
142.0449026739222
 30
0.0
 10
117.1711232867366
 20
141.7899316369009
 30
0.0
 10
117.1039957416684
 20
141.4750507924767
 30
0.0
 10
117.0364336265727
 20
141.1891942809577
 30
0.0
 10
116.9749629729157
 20
140.9651255480344
 30
0.0
 10
116.9260376664918
 20
140.7967952234411
 30
0.0
 10
116.8978725489873
 20
140.6985416800401
 30
0.0
 10
116.8923141811571
 20
140.6706653458933
 30
0.0
 10
116.891314346978
 20
140.665650976114
 30
0.0
  0
SPLINE
  5
C0
330
1F
100
AcDbEntity
  8
0
  6
Continuous
 62
     7
370
    18
100
AcDbSpline
210
0.0
220
0.0
230
1.0
 70
     8
 71
     3
 72
     9
 73
     5
 74
     0
 42
0.000000001
 43
0.00000001
 40
0.0
 40
0.0
 40
0.0
 40
0.0
 40
0.511310623689703
 40
0.9999999999999999
 40
0.9999999999999999
 40
0.9999999999999999
 40
0.9999999999999999
 10
114.881520696619
 20
149.0723857977335
 30
0.0
 10
114.7845013760629
 20
149.0514497605747
 30
0.0
 10
114.5947550338962
 20
149.010503931975
 30
0.0
 10
114.5009275629026
 20
148.7806411246195
 30
0.0
 10
114.4550750746219
 20
148.668309612656
 30
0.0
  0
SPLINE
  5
C1
330
1F
100
AcDbEntity
  8
0
  6
Continuous
 62
     7
370
    18
100
AcDbSpline
210
0.0
220
0.0
230
1.0
 70
     8
 71
     3
 72
    10
 73
     6
 74
     0
 42
0.000000001
 43
0.00000001
 40
0.0
 40
0.0
 40
0.0
 40
0.0
 40
0.3566781027586968
 40
0.7267757522730899
 40
1.0
 40
1.0
 40
1.0
 40
1.0
 10
110.8817798799663
 20
149.0722088464443
 30
0.0
 10
110.7947085465045
 20
149.048443699916
 30
0.0
 10
110.6172899346282
 20
149.0000192743277
 30
0.0
 10
110.440060570365
 20
148.7162091842565
 30
0.0
 10
110.3523499433557
 20
148.4398663123918
 30
0.0
 10
110.3150984986513
 20
148.3225011587981
 30
0.0
  0
SPLINE
  5
C2
330
1F
100
AcDbEntity
  8
0
  6
Continuous
 62
     7
370
    18
100
AcDbSpline
210
0.0
220
0.0
230
1.0
 70
     8
 71
     3
 72
    26
 73
    22
 74
     0
 42
0.000000001
 43
0.00000001
 40
0.0
 40
0.0
 40
0.0
 40
0.0
 40
0.0240119339486951
 40
0.0894490463714324
 40
0.1585494917111618
 40
0.2280942664437847
 40
0.2923356144078251
 40
0.3508949721723901
 40
0.403708027315225
 40
0.456946934425215
 40
0.5167970877617934
 40
0.5832196294150949
 40
0.6530677576645587
 40
0.7177121457379533
 40
0.7576735226783683
 40
0.7951273744052847
 40
0.8343490753436472
 40
0.8687885262121047
 40
0.9078232130413282
 40
0.9515927990685733
 40
1.0
 40
1.0
 40
1.0
 40
1.0
 10
110.863466352859
 20
148.5530803301279
 30
0.0
 10
110.8590946863019
 20
148.5508012742154
 30
0.0
 10
110.8428093922715
 20
148.5423113550598
 30
0.0
 10
110.9109271984531
 20
148.3931563058733
 30
0.0
 10
111.0268939567709
 20
148.0098479956864
 30
0.0
 10
111.1580210778368
 20
147.4309812946106
 30
0.0
 10
111.2802089588788
 20
146.7742004508398
 30
0.0
 10
111.393400091815
 20
146.0960310775423
 30
0.0
 10
111.4996545087679
 20
145.4138257249223
 30
0.0
 10
111.6066646947374
 20
144.7025630660001
 30
0.0
 10
111.7224346386641
 20
143.9269116274947
 30
0.0
 10
111.849186765945
 20
143.1005902483215
 30
0.0
 10
111.9788840562559
 20
142.3153682870008
 30
0.0
 10
112.0920639631969
 20
141.7080650907999
 30
0.0
 10
112.1858088398867
 20
141.2734095390728
 30
0.0
 10
112.2637138051055
 20
140.9603309279194
 30
0.0
 10
112.3427815018706
 20
140.6966773121044
 30
0.0
 10
112.4367169713456
 20
140.4604528950965
 30
0.0
 10
112.5513247064506
 20
140.2636788436236
 30
0.0
 10
112.7001671089946
 20
140.1059290252482
 30
0.0
 10
112.8184977478137
 20
140.0840568782224
 30
0.0
 10
112.8806398032992
 20
140.0725705870334
 30
0.0
  0
LINE
  5
C3
330
1F
100
AcDbEntity
  8
0
  6
Continuous
 62
     7
370
    18
100
AcDbLine
 10
114.8145600005
 20
148.6331554451
 30
0.0
 11
114.8152799128
 21
148.634288399
 31
0.0
  0
LWPOLYLINE
  5
C4
330
1F
100
AcDbEntity
  8
0
  6
Continuous
 62
     7
370
    18
100
AcDbPolyline
 90
       21
 70
   128
 43
0.0
 10
118.8720237247
 20
148.5588093609
 10
118.8684959912
 20
148.5516237416
 10
118.8811732123
 20
148.4839864396
 10
118.915021782
 20
148.3702128143
 10
118.9614043529
 20
148.2197888517
 10
119.0109993463
 20
148.0458927662
 10
119.0631501509
 20
147.8410930694
 10
119.1783402596
 20
147.3097623647
 10
119.3063397791
 20
146.6118678772
 10
119.4419328954
 20
145.7822173224
 10
119.5667604466
 20
144.9676213642
 10
119.6784590852
 20
144.2229959038
 10
119.7778644987
 20
143.5673166388
 10
119.8818361868
 20
142.9068837869
 10
119.9971173906
 20
142.2268556752
 10
120.1243890232
 20
141.5635308048
 10
120.2641565601
 20
140.967550772
 10
120.4198397013
 20
140.5041834195
 10
120.6187497142
 20
140.1927316883
 10
120.8816802378
 20
140.0736315963
 10
120.8816802378
 20
140.0736315963
  0
SPLINE
  5
C5
330
1F
100
AcDbEntity
  8
0
  6
Continuous
 62
     7
370
    18
100
AcDbSpline
210
0.0
220
0.0
230
1.0
 70
     8
 71
     3
 72
    28
 73
    24
 74
     0
 42
0.000000001
 43
0.00000001
 40
0.0
 40
0.0
 40
0.0
 40
0.0
 40
0.0670412588600023
 40
0.1296113360373568
 40
0.1875713349184942
 40
0.240906072046929
 40
0.2896478927715547
 40
0.3337286831288885
 40
0.3730839261296561
 40
0.4076923968704562
 40
0.4464495727043584
 40
0.4767483911811491
 40
0.4985345762468759
 40
0.5235670653626205
 40
0.5566348818821677
 40
0.5984690017249422
 40
0.6491385203042179
 40
0.7087647863329102
 40
0.7732359434127983
 40
0.834430309594936
 40
0.8925712049306795
 40
0.9478456993275939
 40
0.9999999999999999
 40
0.9999999999999999
 40
0.9999999999999999
 40
0.9999999999999999
 10
114.6599173794328
 20
148.7367459894065
 30
0.0
 10
114.704300486229
 20
148.7120247835951
 30
0.0
 10
114.7901066579382
 20
148.6642311029849
 30
0.0
 10
114.914281410123
 20
148.3790496931552
 30
0.0
 10
115.0296450376039
 20
147.9934571896723
 30
0.0
 10
115.1360105999717
 20
147.529408632949
 30
0.0
 10
115.2330934036982
 20
147.0319698969227
 30
0.0
 10
115.3209319286925
 20
146.5322209122236
 30
0.0
 10
115.3994848695483
 20
146.0536690735929
 30
0.0
 10
115.4745830510247
 20
145.575447215723
 30
0.0
 10
115.5436931838443
 20
145.1216159558472
 30
0.0
 10
115.6042110562876
 20
144.718410560635
 30
0.0
 10
115.6555742700487
 20
144.3751856804174
 30
0.0
 10
115.7087810773408
 20
144.0204939861184
 30
0.0
 10
115.7754167755667
 20
143.5808702766903
 30
0.0
 10
115.85934142812
 20
143.0416644496397
 30
0.0
 10
115.961270828598
 20
142.4218644294769
 30
0.0
 10
116.0784570403038
 20
141.7743573687382
 30
0.0
 10
116.2034448676263
 20
141.1842288808284
 30
0.0
 10
116.3363034328689
 20
140.7000086127492
 30
0.0
 10
116.4846778525069
 20
140.3532868887142
 30
0.0
 10
116.6593725560302
 20
140.1205094532636
 30
0.0
 10
116.8099032058576
 20
140.0884453723493
 30
0.0
 10
116.8829825023948
 20
140.0728789712209
 30
0.0
  0
SPLINE
  5
C6
330
1F
100
AcDbEntity
  8
0
  6
Continuous
 62
     7
370
    18
100
AcDbSpline
210
0.0
220
0.0
230
1.0
 70
     8
 71
     3
 72
    10
 73
     6
 74
     0
 42
0.000000001
 43
0.00000001
 40
0.0
 40
0.0
 40
0.0
 40
0.0
 40
0.3839861451330346
 40
0.7415114701445376
 40
1.0
 40
1.0
 40
1.0
 40
1.0
 10
114.6640205538659
 20
148.9150784299616
 30
0.0
 10
114.6183270526207
 20
148.9009998202795
 30
0.0
 10
114.5300888291486
 20
148.8738127701858
 30
0.0
 10
114.4116159430102
 20
148.6527959707236
 30
0.0
 10
114.3387132148527
 20
148.4201308758178
 30
0.0
 10
114.3081221512346
 20
148.3225011587981
 30
0.0
  0
SPLINE
  5
C7
330
1F
100
AcDbEntity
  8
0
  6
Continuous
 62
     7
370
    18
100
AcDbSpline
210
0.0
220
0.0
230
1.0
 70
     8
 71
     3
 72
     9
 73
     5
 74
     0
 42
0.000000001
 43
0.00000001
 40
0.0
 40
0.0
 40
0.0
 40
0.0
 40
0.4677974589311347
 40
1.0
 40
1.0
 40
1.0
 40
1.0
 10
112.9487264684229
 20
140.8225010353979
 30
0.0
 10
112.930230723544
 20
140.7524317829895
 30
0.0
 10
112.8906927899237
 20
140.6026463340293
 30
0.0
 10
112.8829819403737
 20
140.5872001316505
 30
0.0
 10
112.8788782066493
 20
140.5789796234947
 30
0.0
  0
SPLINE
  5
C8
330
1F
100
AcDbEntity
  8
0
  6
Continuous
 62
     7
370
    18
100
AcDbSpline
210
0.0
220
0.0
230
1.0
 70
     8
 71
     3
 72
    26
 73
    22
 74
     0
 42
0.000000001
 43
0.00000001
 40
0.0
 40
0.0
 40
0.0
 40
0.0
 40
0.02414684494495
 40
0.0896598415880424
 40
0.1587351425157619
 40
0.228244679757768
 40
0.2924110154734075
 40
0.3509147561643288
 40
0.4037410357766461
 40
0.4569837831991065
 40
0.5167951551645396
 40
0.5832098812933493
 40
0.6530770618658158
 40
0.7176857211802845
 40
0.7576239703267443
 40
0.7950845259526943
 40
0.8343258916142842
 40
0.8687800797595483
 40
0.9078174300372729
 40
0.951577329563606
 40
1.0
 40
1.0
 40
1.0
 40
1.0
 10
120.8865277717649
 20
140.5924305408168
 30
0.0
 10
120.8908569740453
 20
140.5946618010074
 30
0.0
 10
120.9069317693882
 20
140.6029467109275
 30
0.0
 10
120.8388091234989
 20
140.7508843132342
 30
0.0
 10
120.7227178525276
 20
141.1377124849513
 30
0.0
 10
120.5918145298893
 20
141.7153842966947
 30
0.0
 10
120.4696447206043
 20
142.3708108176561
 30
0.0
 10
120.3564454422229
 20
143.0497611752437
 30
0.0
 10
120.2502981825792
 20
143.7318862160121
 30
0.0
 10
120.143315709986
 20
144.4429057586861
 30
0.0
 10
120.0274603998669
 20
145.2187169438481
 30
0.0
 10
119.9007215540261
 20
146.0442417887004
 30
0.0
 10
119.7711303014163
 20
146.8298939737059
 30
0.0
 10
119.6578919779853
 20
147.4380691776475
 30
0.0
 10
119.5641170899817
 20
147.8716738009745
 30
0.0
 10
119.486239403201
 20
148.1838077350995
 30
0.0
 10
119.4071995597067
 20
148.4478724903197
 30
0.0
 10
119.3132759870034
 20
148.6848716402567
 30
0.0
 10
119.1986560113648
 20
148.8824174189329
 30
0.0
 10
119.0496790227412
 20
149.0401722348074
 30
0.0
 10
118.9313391554096
 20
149.0608760435452
 30
0.0
 10
118.8691762931938
 20
149.0717515670601
 30
0.0
  0
LINE
  5
C9
330
1F
100
AcDbEntity
  8
0
  6
Continuous
 62
     7
370
    18
100
AcDbLine
 10
116.9355345906
 20
140.5111164758
 30
0.0
 11
116.9349976831
 21
140.5102740363
 31
0.0
  0
LWPOLYLINE
  5
CA
330
1F
100
AcDbEntity
  8
0
  6
Continuous
 62
     7
370
    18
100
AcDbPolyline
 90
       21
 70
   128
 43
0.0
 10
112.8777098625
 20
140.5863192603
 10
112.8813313103
 20
140.5942094251
 10
112.8686806901
 20
140.6619064482
 10
112.8348680927
 20
140.775025703
 10
112.7885157025
 20
140.9248355603
 10
112.7389358139
 20
141.0985339834
 10
112.6867943226
 20
141.3037133724
 10
112.5716153315
 20
141.8360568322
 10
112.4436185478
 20
142.5334478817
 10
112.3080226376
 20
143.3626068146
 10
112.1831914193
 20
144.1777485278
 10
112.071490918
 20
144.9226713129
 10
111.9720838747
 20
145.578250228
 10
111.8680858767
 20
146.2382454746
 10
111.7527420415
 20
146.918549607
 10
111.6253720379
 20
147.58313348
 10
111.4854859902
 20
148.1790583902
 10
111.3298265978
 20
148.640810451
 10
111.1311242699
 20
148.9527508938
 10
110.8685779168
 20
149.0722544813
 10
110.8685779168
 20
149.0722544813
  0
SPLINE
  5
CB
330
1F
100
AcDbEntity
  8
0
  6
Continuous
 62
     7
370
    18
100
AcDbSpline
210
0.0
220
0.0
230
1.0
 70
     8
 71
     3
 72
    10
 73
     6
 74
     0
 42
0.000000001
 43
0.00000001
 40
0.0
 40
0.0
 40
0.0
 40
0.0
 40
0.0895406214303578
 40
0.7233961089279974
 40
1.0
 40
1.0
 40
1.0
 40
1.0
 10
110.8185793987303
 20
148.3225011587981
 30
0.0
 10
110.823251873109
 20
148.3388116308944
 30
0.0
 10
110.8610006594207
 20
148.4705834665227
 30
0.0
 10
110.8920839233445
 20
148.5367193330183
 30
0.0
 10
110.8820283058999
 20
148.5497115542738
 30
0.0
 10
110.8789733393877
 20
148.5536586814467
 30
0.0
  0
SPLINE
  5
CC
330
1F
100
AcDbEntity
  8
0
  6
Continuous
 62
     7
370
    18
100
AcDbSpline
210
0.0
220
0.0
230
1.0
 70
     8
 71
     3
 72
    11
 73
     7
 74
     0
 42
0.000000001
 43
0.00000001
 40
0.0
 40
0.0
 40
0.0
 40
0.0
 40
0.2289706197984985
 40
0.4516290990638963
 40
0.8755575067029003
 40
1.0
 40
1.0
 40
1.0
 40
1.0
 10
112.8673894113689
 20
140.0726016699244
 30
0.0
 10
112.924619062844
 20
140.0813575930732
 30
0.0
 10
113.037500689134
 20
140.0986280607283
 30
0.0
 10
113.2226647456174
 20
140.2787649563517
 30
0.0
 10
113.3522952190016
 20
140.5114305970513
 30
0.0
 10
113.4213094463837
 20
140.7649659427992
 30
0.0
 10
113.4369709311812
 20
140.8225010353979
 30
0.0
  0
SPLINE
  5
CD
330
1F
100
AcDbEntity
  8
0
  6
Continuous
 62
     7
370
    18
100
AcDbSpline
210
0.0
220
0.0
230
1.0
 70
     8
 71
     3
 72
    10
 73
     6
 74
     0
 42
0.000000001
 43
0.00000001
 40
0.0
 40
0.0
 40
0.0
 40
0.0
 40
0.0620352310836978
 40
0.8461972890414633
 40
1.0
 40
1.0
 40
1.0
 40
1.0
 10
114.8164179890244
 20
148.3225011587981
 30
0.0
 10
114.8178145049473
 20
148.3273549393605
 30
0.0
 10
114.8368638091484
 20
148.3935633806244
 30
0.0
 10
114.8522095475823
 20
148.4457733011249
 30
0.0
 10
114.8579331094221
 20
148.4734607773668
 30
0.0
 10
114.8588716300963
 20
148.4780008294527
 30
0.0
  0
SPLINE
  5
CE
330
1F
100
AcDbEntity
  8
0
  6
Continuous
 62
     7
370
    18
100
AcDbSpline
210
0.0
220
0.0
230
1.0
 70
     8
 71
     3
 72
     9
 73
     5
 74
     0
 42
0.000000001
 43
0.00000001
 40
0.0
 40
0.0
 40
0.0
 40
0.0
 40
0.5112838133217051
 40
1.0
 40
1.0
 40
1.0
 40
1.0
 10
116.8696776280939
 20
140.0728679117654
 30
0.0
 10
116.9665384626336
 20
140.0936046485192
 30
0.0
 10
117.155984777999
 20
140.1341628203477
 30
0.0
 10
117.2494679401086
 20
140.364149180224
 30
0.0
 10
117.2951546746134
 20
140.4765472370107
 30
0.0
  0
SPLINE
  5
CF
330
1F
100
AcDbEntity
  8
0
  6
Continuous
 62
     7
370
    18
100
AcDbSpline
210
0.0
220
0.0
230
1.0
 70
     8
 71
     3
 72
    14
 73
    10
 74
     0
 42
0.000000001
 43
0.00000001
 40
0.0
 40
0.0
 40
0.0
 40
0.0
 40
0.1187998718742073
 40
0.2360734084940587
 40
0.4651345388345609
 40
0.689381668070082
 40
0.8052936151810995
 40
0.9313981071635179
 40
1.0
 40
1.0
 40
1.0
 40
1.0
 10
120.8683960853903
 20
140.073687824877
 30
0.0
 10
120.9227070557174
 20
140.0813730269742
 30
0.0
 10
121.0306312115389
 20
140.096644692048
 30
0.0
 10
121.2118798449832
 20
140.2595584086037
 30
0.0
 10
121.3835314371237
 20
140.5951556887988
 30
0.0
 10
121.514039989399
 20
141.0593705184814
 30
0.0
 10
121.6162383340287
 20
141.5127955987117
 30
0.0
 10
121.6844481051708
 20
141.849764851323
 30
0.0
 10
121.7268679216407
 20
142.088415879296
 30
0.0
 10
121.7418139117597
 20
142.172501012208
 30
0.0
  0
LINE
  5
D0
330
1F
100
AcDbEntity
  8
0
  6
Continuous
 62
     7
370
    18
100
AcDbLine
 10
122.5100239522
 20
146.9725011238
 30
0.0
 11
122.5885465524
 21
147.3924922147
 31
0.0
  0
SPLINE
  5
D1
330
1F
100
AcDbEntity
  8
0
  6
Continuous
 62
     7
370
    18
100
AcDbSpline
210
0.0
220
0.0
230
1.0
 70
     8
 71
     3
 72
    28
 73
    24
 74
     0
 42
0.000000001
 43
0.00000001
 40
0.0
 40
0.0
 40
0.0
 40
0.0
 40
0.0664796982032224
 40
0.128255819177355
 40
0.185222638751018
 40
0.2374262159370395
 40
0.2848359903045834
 40
0.3273700123354861
 40
0.3649848291318357
 40
0.3976800703347499
 40
0.4336040971377284
 40
0.460723520686391
 40
0.4790672529143105
 40
0.5064452329809955
 40
0.5428313059680664
 40
0.5882518799817058
 40
0.6428127828537955
 40
0.7066021636219237
 40
0.7732900982545883
 40
0.835755894468538
 40
0.8943713776179205
 40
0.9492031978766545
 40
0.9999999999999999
 40
0.9999999999999999
 40
0.9999999999999999
 40
0.9999999999999999
 10
117.0900852435096
 20
140.4086181400251
 30
0.0
 10
117.0461416002409
 20
140.4330021280799
 30
0.0
 10
116.9613634180682
 20
140.4800448862047
 30
0.0
 10
116.8388045754464
 20
140.756602911489
 30
0.0
 10
116.7253611783229
 20
141.1327831985754
 30
0.0
 10
116.6214402018947
 20
141.5819547666776
 30
0.0
 10
116.5271042374981
 20
142.0589754003833
 30
0.0
 10
116.4423527708191
 20
142.5349709315582
 30
0.0
 10
116.3672577711149
 20
142.987221408844
 30
0.0
 10
116.296518504656
 20
143.4336127749011
 30
0.0
 10
116.2327587152713
 20
143.8491264706065
 30
0.0
 10
116.1785799869257
 20
144.208328530341
 30
0.0
 10
116.1300908497328
 20
144.5317766934646
 30
0.0
 10
116.0754182796678
 20
144.8971794683889
 30
0.0
 10
116.0026211360722
 20
145.3807562830971
 30
0.0
 10
115.9114884376494
 20
145.9720586940401
 30
0.0
 10
115.801833650383
 20
146.6470535519551
 30
0.0
 10
115.6780095812519
 20
147.3396699094606
 30
0.0
 10
115.5471923727929
 20
147.9594289467671
 30
0.0
 10
115.4107238864738
 20
148.4513195196619
 30
0.0
 10
115.2604583085325
 20
148.7984211246603
 30
0.0
 10
115.0873463970597
 20
149.0267381093225
 30
0.0
 10
114.9393611853617
 20
149.0575422735353
 30
0.0
 10
114.8681951003908
 20
149.0723559954111
 30
0.0
  0
SPLINE
  5
D2
330
1F
100
AcDbEntity
  8
0
  6
Continuous
 62
     7
370
    18
100
AcDbSpline
210
0.0
220
0.0
230
1.0
 70
     8
 71
     3
 72
    13
 73
     9
 74
     0
 42
0.000000001
 43
0.00000001
 40
0.0
 40
0.0
 40
0.0
 40
0.0
 40
0.2076534593049444
 40
0.4010088684914113
 40
0.5799963156601747
 40
0.7445343360715146
 40
0.8948983471307299
 40
1.0
 40
1.0
 40
1.0
 40
1.0
 10
117.0858653045087
 20
140.2303623589594
 30
0.0
 10
117.1315638349402
 20
140.2427779052638
 30
0.0
 10
117.2198143078262
 20
140.2667541211759
 30
0.0
 10
117.3469089769334
 20
140.517880447579
 30
0.0
 10
117.4643017362546
 20
140.8700665646811
 30
0.0
 10
117.5722449133871
 20
141.303251012147
 30
0.0
 10
117.6638838507131
 20
141.7397776325959
 30
0.0
 10
117.7194547419007
 20
142.0463666114632
 30
0.0
 10
117.7423172762445
 20
142.172501012208
 30
0.0
  0
SPLINE
  5
D3
330
1F
100
AcDbEntity
  8
0
  6
Continuous
 62
     7
370
    18
100
AcDbSpline
210
0.0
220
0.0
230
1.0
 70
     8
 71
     3
 72
    12
 73
     8
 74
     0
 42
0.000000001
 43
0.00000001
 40
0.0
 40
0.0
 40
0.0
 40
0.0
 40
0.1482581334717146
 40
0.3586699980902833
 40
0.5772883912542364
 40
0.8033398804714813
 40
1.0
 40
1.0
 40
1.0
 40
1.0
 10
118.5087699873492
 20
146.9725011237804
 30
0.0
 10
118.536624802234
 20
147.1230908261857
 30
0.0
 10
118.6040119071949
 20
147.4874014175126
 30
0.0
 10
118.7044886171609
 20
147.9413752902341
 30
0.0
 10
118.7973776892998
 20
148.3140354341427
 30
0.0
 10
118.8550903281032
 20
148.5263133008526
 30
0.0
 10
118.8648636576364
 20
148.5499647098746
 30
0.0
 10
118.8694105499252
 20
148.5609681666736
 30
0.0
  0
LINE
  5
D4
330
1F
100
AcDbEntity
  8
0
  6
Continuous
 62
     7
370
    18
100
AcDbLine
 10
159.1073126315
 20
136.4895970882
 30
0.0
 11
159.5881880044
 21
137.3225009856
 31
0.0
  0
LINE
  5
D5
330
1F
100
AcDbEntity
  8
0
  6
Continuous
 62
     7
370
    18
100
AcDbLine
 10
156.5881893753
 20
137.3225009856
 30
0.0
 11
157.0690647482
 21
136.4895970882
 31
0.0
  0
LINE
  5
D6
330
1F
100
AcDbEntity
  8
0
  6
Continuous
 62
     7
370
    18
100
AcDbLine
 10
159.5881880044
 20
151.8225012668
 30
0.0
 11
159.1073126315
 21
152.6554044657
 31
0.0
  0
LINE
  5
D7
330
1F
100
AcDbEntity
  8
0
  6
Continuous
 62
     7
370
    18
100
AcDbLine
 10
157.0690647482
 20
152.6554044657
 30
0.0
 11
156.5881893753
 21
151.8225012668
 31
0.0
  0
LINE
  5
D8
330
1F
100
AcDbEntity
  8
0
  6
Continuous
 62
     7
370
    18
100
AcDbLine
 10
162.5881903588
 20
151.8225012668
 30
0.0
 11
162.1073112606
 21
152.6554044657
 31
0.0
  0
LINE
  5
D9
330
1F
100
AcDbEntity
  8
0
  6
Continuous
 62
     7
370
    18
100
AcDbLine
 10
160.0690671026
 20
152.6554044657
 30
0.0
 11
159.5881880044
 21
151.8225012668
 31
0.0
  0
LINE
  5
DA
330
1F
100
AcDbEntity
  8
0
  6
Continuous
 62
     7
370
    18
100
AcDbLine
 10
162.1073112606
 20
136.4895970882
 30
0.0
 11
162.5881903588
 21
137.3225009856
 31
0.0
  0
LINE
  5
DB
330
1F
100
AcDbEntity
  8
0
  6
Continuous
 62
     7
370
    18
100
AcDbLine
 10
159.5881880044
 20
137.3225009856
 30
0.0
 11
160.0690671026
 21
136.4895970882
 31
0.0
  0
ARC
  5
DC
330
1F
100
AcDbEntity
  8
0
  6
Continuous
 62
     7
370
    18
100
AcDbCircle
 10
109.2602285682
 20
150.2725010371
 30
0.0
 40
0.3000000000000114
100
AcDbArc
 50
0.0
 51
90.0
  0
ARC
  5
DD
330
1F
100
AcDbEntity
  8
0
  6
Continuous
 62
     7
370
    18
100
AcDbCircle
 10
109.2602285682
 20
138.8725010371
 30
0.0
 40
0.3000000000000114
100
AcDbArc
 50
270.0
 51
0.0
  0
LINE
  5
DE
330
1F
100
AcDbEntity
  8
0
  6
Continuous
 62
     7
370
    18
100
AcDbLine
 10
109.2602285339
 20
150.5725005963
 30
0.0
 11
107.8602281182
 21
150.5725005963
 31
0.0
  0
LINE
  5
DF
330
1F
100
AcDbEntity
  8
0
  6
Continuous
 62
     7
370
    18
100
AcDbLine
 10
107.9981653734
 20
138.5725009576
 30
0.0
 11
109.2602285339
 21
138.5725009576
 31
0.0
  0
ARC
  5
E0
330
1F
100
AcDbEntity
  8
0
  6
Continuous
 62
     7
370
    18
100
AcDbCircle
 10
107.8602285682
 20
150.2725010371
 30
0.0
 40
0.2999999999999972
100
AcDbArc
 50
90.0
 51
180.0
  0
ARC
  5
E1
330
1F
100
AcDbEntity
  8
0
  6
Continuous
 62
     7
370
    18
100
AcDbCircle
 10
115.2602285682
 20
148.0225010371
 30
0.0
 40
0.3000000000000114
100
AcDbArc
 50
0.0
 51
48.0054694548
  0
ARC
  5
E2
330
1F
100
AcDbEntity
  8
0
  6
Continuous
 62
     7
370
    18
100
AcDbCircle
 10
115.2602285682
 20
141.1225010371
 30
0.0
 40
0.2999999999999972
100
AcDbArc
 50
270.0
 51
0.0
  0
LINE
  5
E3
330
1F
100
AcDbEntity
  8
0
  6
Continuous
 62
     7
370
    18
100
AcDbLine
 10
114.9254025209
 20
148.3225011588
 30
0.0
 11
111.4371303252
 21
148.3225011588
 31
0.0
  0
LINE
  5
E4
330
1F
100
AcDbEntity
  8
0
  6
Continuous
 62
     7
370
    18
100
AcDbLine
 10
110.9268926798
 20
148.3225011588
 30
0.0
 11
109.5602289556
 21
148.3225011588
 31
0.0
  0
LINE
  5
E5
330
1F
100
AcDbEntity
  8
0
  6
Continuous
 62
     7
370
    18
100
AcDbLine
 10
109.5602289556
 20
140.8225010354
 30
0.0
 11
112.3086089051
 21
140.8225010354
 31
0.0
  0
LINE
  5
E6
330
1F
100
AcDbEntity
  8
0
  6
Continuous
 62
     7
370
    18
100
AcDbLine
 10
112.8201788074
 20
140.8225010354
 30
0.0
 11
115.2602285861
 21
140.8225010354
 31
0.0
  0
ARC
  5
E7
330
1F
100
AcDbEntity
  8
0
  6
Continuous
 62
     7
370
    18
100
AcDbCircle
 10
101.8602285682
 20
139.8725010371
 30
0.0
 40
0.2999999999999972
100
AcDbArc
 50
180.0
 51
270.0
  0
ARC
  5
E8
330
1F
100
AcDbEntity
  8
0
  6
Continuous
 62
     7
370
    18
100
AcDbCircle
 10
103.2602285682
 20
149.2725010371
 30
0.0
 40
0.2999999999999829
100
AcDbArc
 50
0.0
 51
90.0
  0
ARC
  5
E9
330
1F
100
AcDbEntity
  8
0
  6
Continuous
 62
     7
370
    18
100
AcDbCircle
 10
101.8602285682
 20
149.2725010371
 30
0.0
 40
0.2999999999999972
100
AcDbArc
 50
90.0
 51
180.0
  0
LINE
  5
EA
330
1F
100
AcDbEntity
  8
0
  6
Continuous
 62
     7
370
    18
100
AcDbLine
 10
101.8602289974
 20
139.5725010051
 30
0.0
 11
103.1241194128
 21
139.5725010051
 31
0.0
  0
LINE
  5
EB
330
1F
100
AcDbEntity
  8
0
  6
Continuous
 62
     7
370
    18
100
AcDbLine
 10
107.5602286278
 20
148.3225011588
 30
0.0
 11
103.5602289035
 21
148.3225011588
 31
0.0
  0
LINE
  5
EC
330
1F
100
AcDbEntity
  8
0
  6
Continuous
 62
     7
370
    18
100
AcDbLine
 10
103.2602284818
 20
149.5725013637
 30
0.0
 11
101.8602289974
 21
149.5725013637
 31
0.0
  0
ARC
  5
ED
330
1F
100
AcDbEntity
  8
0
  6
Continuous
 62
     7
370
    18
100
AcDbCircle
 10
97.7602285682
 20
147.7725010371
 30
0.0
 40
0.3000000000000114
100
AcDbArc
 50
0.0
 51
90.0
  0
ARC
  5
EE
330
1F
100
AcDbEntity
  8
0
  6
Continuous
 62
     7
370
    18
100
AcDbCircle
 10
97.7602285682
 20
141.3725010371
 30
0.0
 40
0.3000000000000114
100
AcDbArc
 50
270.0
 51
0.0
  0
LINE
  5
EF
330
1F
100
AcDbEntity
  8
0
  6
Continuous
 62
     7
370
    18
100
AcDbLine
 10
97.7602285116
 20
148.0725011178
 30
0.0
 11
96.3602290272
 21
148.0725011178
 31
0.0
  0
LINE
  5
F0
330
1F
100
AcDbEntity
  8
0
  6
Continuous
 62
     7
370
    18
100
AcDbLine
 10
96.3602290272
 20
141.0725010364
 30
0.0
 11
97.7602285116
 21
141.0725010364
 31
0.0
  0
ARC
  5
F1
330
1F
100
AcDbEntity
  8
0
  6
Continuous
 62
     7
370
    18
100
AcDbCircle
 10
96.3602285682
 20
141.3725010371
 30
0.0
 40
0.3000000000000114
100
AcDbArc
 50
180.0
 51
270.0
  0
ARC
  5
F2
330
1F
100
AcDbEntity
  8
0
  6
Continuous
 62
     7
370
    18
100
AcDbCircle
 10
96.3602285682
 20
147.7725010371
 30
0.0
 40
0.3000000000000114
100
AcDbArc
 50
90.0
 51
180.0
  0
ARC
  5
F3
330
1F
100
AcDbEntity
  8
0
  6
Continuous
 62
     7
370
    18
100
AcDbCircle
 10
168.5602285682
 20
142.3725010371
 30
0.0
 40
0.3000000000000114
100
AcDbArc
 50
180.0
 51
221.8420367925
  0
ARC
  5
F4
330
1F
100
AcDbEntity
  8
0
  6
Continuous
 62
     7
370
    18
100
AcDbCircle
 10
168.5602285682
 20
146.7725010371
 30
0.0
 40
0.3000000000000229
100
AcDbArc
 50
138.1836777598
 51
180.0
  0
LINE
  5
F5
330
1F
100
AcDbEntity
  8
0
  6
Continuous
 62
     7
370
    18
100
AcDbLine
 10
169.160228294
 20
142.1725010122
 30
0.0
 11
169.5602276145
 21
142.5725010312
 31
0.0
  0
LINE
  5
F6
330
1F
100
AcDbEntity
  8
0
  6
Continuous
 62
     7
370
    18
100
AcDbLine
 10
169.5602276145
 20
146.572500872
 30
0.0
 11
169.160228294
 21
146.9725011238
 31
0.0
  0
LINE
  5
F7
330
1F
100
AcDbEntity
  8
0
  6
Continuous
 62
     7
370
    18
100
AcDbLine
 10
103.0602288215
 20
132.7725010314
 30
0.0
 11
103.5602289035
 21
130.2725006216
 31
0.0
  0
LINE
  5
F8
330
1F
100
AcDbEntity
  8
0
  6
Continuous
 62
     7
370
    18
100
AcDbLine
 10
107.5602286278
 20
130.2725006216
 30
0.0
 11
108.0602287098
 21
132.7725010314
 31
0.0
  0
LINE
  5
F9
330
1F
100
AcDbEntity
  8
0
  6
Continuous
 62
     7
370
    18
100
AcDbLine
 10
103.0602288215
 20
135.2725009755
 30
0.0
 11
103.5602289035
 21
132.7725010314
 31
0.0
  0
LINE
  5
FA
330
1F
100
AcDbEntity
  8
0
  6
Continuous
 62
     7
370
    18
100
AcDbLine
 10
107.5602286278
 20
132.7725010314
 30
0.0
 11
108.0602287098
 21
135.2725009755
 31
0.0
  0
LINE
  5
FB
330
1F
100
AcDbEntity
  8
0
  6
Continuous
 62
     7
370
    18
100
AcDbLine
 10
101.5602276443
 20
147.0725009539
 30
0.0
 11
98.060228002
 21
147.0725009539
 31
0.0
  0
LINE
  5
FC
330
1F
100
AcDbEntity
  8
0
  6
Continuous
 62
     7
370
    18
100
AcDbLine
 10
98.060228002
 20
142.0725010657
 30
0.0
 11
101.5602276443
 21
142.0725010657
 31
0.0
  0
LINE
  5
FD
330
1F
100
AcDbEntity
  8
0
  6
Continuous
 62
     7
370
    18
100
AcDbLine
 10
103.410228227
 20
139.2787794438
 30
0.0
 11
103.410228227
 21
135.2725009755
 31
0.0
  0
LINE
  5
FE
330
1F
100
AcDbEntity
  8
0
  6
Continuous
 62
     7
370
    18
100
AcDbLine
 10
107.710228373
 20
135.2725009755
 30
0.0
 11
107.710228373
 21
138.2770607569
 31
0.0
  0
LINE
  5
FF
330
1F
100
AcDbEntity
  8
0
  6
Continuous
 62
     7
370
    18
100
AcDbLine
 10
167.6602289795
 20
146.0725012557
 30
0.0
 11
167.5602272867
 21
146.0725012557
 31
0.0
  0
LINE
  5
100
330
1F
100
AcDbEntity
  8
0
  6
Continuous
 62
     7
370
    18
100
AcDbLine
 10
167.5602272867
 20
143.0725009967
 30
0.0
 11
167.6602289795
 21
143.0725009967
 31
0.0
  0
SPLINE
  5
101
330
1F
100
AcDbEntity
  8
0
  6
Continuous
 62
     7
370
    18
100
AcDbSpline
210
0.0
220
0.0
230
1.0
 70
     8
 71
     3
 72
    13
 73
     9
 74
     0
 42
0.000000001
 43
0.00000001
 40
0.0
 40
0.0
 40
0.0
 40
0.0
 40
0.1736508891015039
 40
0.4115938457431313
 40
0.6192488302441547
 40
0.7895606059578898
 40
0.9335905583296984
 40
1.0
 40
1.0
 40
1.0
 40
1.0
 10
107.7138977839439
 20
138.275595320845
 30
0.0
 10
107.7147516191833
 20
138.3021367517603
 30
0.0
 10
107.7167754114692
 20
138.3650462460822
 30
0.0
 10
107.7626009562898
 20
138.4509670239621
 30
0.0
 10
107.8296087112217
 20
138.5175636704903
 30
0.0
 10
107.9005167273068
 20
138.5543715775254
 30
0.0
 10
107.9568149714305
 20
138.5701855023033
 30
0.0
 10
107.9887603471136
 20
138.5708755132564
 30
0.0
 10
107.998841513583
 20
138.5710932635609
 30
0.0
  0
SPLINE
  5
102
330
1F
100
AcDbEntity
  8
0
  6
Continuous
 62
     7
370
    18
100
AcDbSpline
210
0.0
220
0.0
230
1.0
 70
     8
 71
     3
 72
    12
 73
     8
 74
     0
 42
0.000000001
 43
0.00000001
 40
0.0
 40
0.0
 40
0.0
 40
0.0
 40
0.2287322607406307
 40
0.4611015039510127
 40
0.700450968979891
 40
0.9572045521615332
 40
1.0
 40
1.0
 40
1.0
 40
1.0
 10
103.122270737478
 20
139.5713623468671
 30
0.0
 10
103.1566023104914
 20
139.5668942891263
 30
0.0
 10
103.225811349471
 20
139.5578871288009
 30
0.0
 10
103.3169991109148
 20
139.4985028244419
 30
0.0
 10
103.3828024763669
 20
139.4108350786658
 30
0.0
 10
103.4122330148504
 20
139.3307637943318
 30
0.0
 10
103.4084717388747
 20
139.2859327248558
 30
0.0
 10
103.4079343794673
 20
139.2795278779138
 30
0.0
  0
LINE
  5
103
330
1F
100
AcDbEntity
  8
0
  6
Continuous
 62
     7
370
    18
100
AcDbLine
 10
168.2602279602
 20
146.653178087
 30
0.0
 11
167.6602289795
 21
146.653178087
 31
0.0
  0
LINE
  5
104
330
1F
100
AcDbEntity
  8
0
  6
Continuous
 62
     7
370
    18
100
AcDbLine
 10
167.6602289795
 20
141.0725010364
 30
0.0
 11
167.6602289795
 21
146.653178087
 31
0.0
  0
LINE
  5
105
330
1F
100
AcDbEntity
  8
0
  6
Continuous
 62
     7
370
    18
100
AcDbLine
 10
168.2602279602
 20
141.0725010364
 30
0.0
 11
168.2602279602
 21
146.653178087
 31
0.0
  0
LINE
  5
106
330
1F
100
AcDbEntity
  8
0
  6
Continuous
 62
     7
370
    18
100
AcDbLine
 10
167.6602289795
 20
146.653178087
 30
0.0
 11
167.6602289795
 21
146.7342818477
 31
0.0
  0
LINE
  5
107
330
1F
100
AcDbEntity
  8
0
  6
Continuous
 62
     7
370
    18
100
AcDbLine
 10
168.2602279602
 20
146.7342818477
 30
0.0
 11
168.2602279602
 21
146.653178087
 31
0.0
  0
LINE
  5
108
330
1F
100
AcDbEntity
  8
0
  6
Continuous
 62
     7
370
    18
100
AcDbLine
 10
168.2602279602
 20
147.3603038439
 30
0.0
 11
167.6602289795
 21
147.3603038439
 31
0.0
  0
LINE
  5
109
330
1F
100
AcDbEntity
  8
0
  6
Continuous
 62
     7
370
    18
100
AcDbLine
 10
167.6602289795
 20
146.7342818477
 30
0.0
 11
167.6602289795
 21
147.3603038439
 31
0.0
  0
LINE
  5
10A
330
1F
100
AcDbEntity
  8
0
  6
Continuous
 62
     7
370
    18
100
AcDbLine
 10
168.2602279602
 20
146.7725009979
 30
0.0
 11
168.2602279602
 21
147.3603038439
 31
0.0
  0
LINE
  5
10B
330
1F
100
AcDbEntity
  8
0
  6
Continuous
 62
     7
370
    18
100
AcDbLine
 10
167.6602289795
 20
147.3603038439
 30
0.0
 11
167.6602289795
 21
147.507706596
 31
0.0
  0
LINE
  5
10C
330
1F
100
AcDbEntity
  8
0
  6
Continuous
 62
     7
370
    18
100
AcDbLine
 10
168.2602279602
 20
147.507706596
 30
0.0
 11
168.2602279602
 21
147.3603038439
 31
0.0
  0
LINE
  5
10D
330
1F
100
AcDbEntity
  8
0
  6
Continuous
 62
     7
370
    18
100
AcDbLine
 10
147.5602277337
 20
137.0669495636
 30
0.0
 11
150.5602300881
 21
137.0669495636
 31
0.0
  0
LINE
  5
10E
330
1F
100
AcDbEntity
  8
0
  6
Continuous
 62
     7
370
    18
100
AcDbLine
 10
147.5602277337
 20
137.0669495636
 30
0.0
 11
147.5602277337
 21
140.8244895837
 31
0.0
  0
LINE
  5
10F
330
1F
100
AcDbEntity
  8
0
  6
Continuous
 62
     7
370
    18
100
AcDbLine
 10
147.5602277337
 20
140.8244895837
 30
0.0
 11
150.5602300881
 21
140.8244895837
 31
0.0
  0
LINE
  5
110
330
1F
100
AcDbEntity
  8
0
  6
Continuous
 62
     7
370
    18
100
AcDbLine
 10
150.5602300881
 20
137.0669495636
 30
0.0
 11
150.5602300881
 21
140.8244895837
 31
0.0
  0
LINE
  5
111
330
1F
100
AcDbEntity
  8
0
  6
Continuous
 62
     7
370
    18
100
AcDbLine
 10
147.5602277337
 20
148.3300411464
 30
0.0
 11
150.5602300881
 21
148.3300411464
 31
0.0
  0
LINE
  5
112
330
1F
100
AcDbEntity
  8
0
  6
Continuous
 62
     7
370
    18
100
AcDbLine
 10
150.5602300881
 20
140.8244895837
 30
0.0
 11
150.5602300881
 21
148.3300411464
 31
0.0
  0
LINE
  5
113
330
1F
100
AcDbEntity
  8
0
  6
Continuous
 62
     7
370
    18
100
AcDbLine
 10
147.5602277337
 20
140.8244895837
 30
0.0
 11
147.5602277337
 21
148.3300411464
 31
0.0
  0
LINE
  5
114
330
1F
100
AcDbEntity
  8
0
  6
Continuous
 62
     7
370
    18
100
AcDbLine
 10
147.5602277337
 20
152.078052456
 30
0.0
 11
150.5602300881
 21
152.078052456
 31
0.0
  0
LINE
  5
115
330
1F
100
AcDbEntity
  8
0
  6
Continuous
 62
     7
370
    18
100
AcDbLine
 10
150.5602300881
 20
148.3300411464
 30
0.0
 11
150.5602300881
 21
152.078052456
 31
0.0
  0
LINE
  5
116
330
1F
100
AcDbEntity
  8
0
  6
Continuous
 62
     7
370
    18
100
AcDbLine
 10
147.5602277337
 20
148.3300411464
 30
0.0
 11
147.5602277337
 21
152.078052456
 31
0.0
  0
LINE
  5
117
330
1F
100
AcDbEntity
  8
0
  6
Continuous
 62
     7
370
    18
100
AcDbLine
 10
166.5602289854
 20
139.5725010051
 30
0.0
 11
166.5602289854
 21
149.5725013637
 31
0.0
  0
LINE
  5
118
330
1F
100
AcDbEntity
  8
0
  6
Continuous
 62
     7
370
    18
100
AcDbLine
 10
152.0602294027
 20
139.5725010051
 30
0.0
 11
152.0602294027
 21
149.5725013637
 31
0.0
  0
LINE
  5
119
330
1F
100
AcDbEntity
  8
0
  6
Continuous
 62
     7
370
    18
100
AcDbLine
 10
167.5602272867
 20
148.5725011998
 30
0.0
 11
167.5602272867
 21
140.5725010526
 31
0.0
  0
LINE
  5
11A
330
1F
100
AcDbEntity
  8
0
  6
Continuous
 62
     7
370
    18
100
AcDbLine
 10
145.5602292686
 20
141.32250103
 30
0.0
 11
145.5602292686
 21
147.8225010768
 31
0.0
  0
LINE
  5
11B
330
1F
100
AcDbEntity
  8
0
  6
Continuous
 62
     7
370
    18
100
AcDbLine
 10
146.0602284192
 20
148.3225011588
 30
0.0
 11
146.0602284192
 21
140.8225010354
 31
0.0
  0
SPLINE
  5
11C
330
1F
100
AcDbEntity
  8
0
  6
Continuous
 62
     7
370
    18
100
AcDbSpline
210
0.0
220
0.0
230
1.0
 70
     8
 71
     3
 72
    28
 73
    24
 74
     0
 42
0.000000001
 43
0.00000001
 40
0.0
 40
0.0
 40
0.0
 40
0.0
 40
0.0302412292749999
 40
0.0808076494284729
 40
0.1314120614785934
 40
0.1820001332609009
 40
0.2325457346625474
 40
0.2831082207108269
 40
0.3337093251869171
 40
0.3843016440924011
 40
0.4348509238638314
 40
0.4854062586042809
 40
0.53600351723622
 40
0.5866006211795255
 40
0.637155542874541
 40
0.6877043315683623
 40
0.7382964664206012
 40
0.7888976440897038
 40
0.8394600061080332
 40
0.890004313651827
 40
0.9405903352431215
 40
0.9911938733031632
 40
1.0
 40
1.0
 40
1.0
 40
1.0
 10
134.9448357491582
 20
149.0325866588298
 30
0.0
 10
134.9642669149861
 20
149.0189807843279
 30
0.0
 10
135.0161889721858
 20
148.9826244997694
 30
0.0
 10
135.1005596490961
 20
148.8049633135172
 30
0.0
 10
135.1978981590273
 20
148.5201697318742
 30
0.0
 10
135.2952627009942
 20
148.1402532213175
 30
0.0
 10
135.3927268776329
 20
147.6776161147189
 30
0.0
 10
135.490144692457
 20
147.139994508126
 30
0.0
 10
135.5874896444853
 20
146.5433950970343
 30
0.0
 10
135.6848461375615
 20
145.9016138811102
 30
0.0
 10
135.7822974564431
 20
145.2286428797517
 30
0.0
 10
135.8797324693124
 20
144.5398697152366
 30
0.0
 10
135.9770818737244
 20
143.8520593388598
 30
0.0
 10
136.0744313306844
 20
143.1807451662129
 30
0.0
 10
136.1718664962444
 20
142.5414843535161
 30
0.0
 10
136.2693182426711
 20
141.9511936357617
 30
0.0
 10
136.3666746887531
 20
141.422253995437
 30
0.0
 10
136.4640191309544
 20
140.9652841208827
 30
0.0
 10
136.561436334047
 20
140.5920710239866
 30
0.0
 10
136.6588990669516
 20
140.3119880360686
 30
0.0
 10
136.7562724851185
 20
140.14167569346
 30
0.0
 10
136.8268069807645
 20
140.0658878224605
 30
0.0
 10
136.8649518381025
 20
140.0795815081796
 30
0.0
 10
136.8706059424966
 20
140.0816112845112
 30
0.0
  0
SPLINE
  5
11D
330
1F
100
AcDbEntity
  8
0
  6
Continuous
 62
     7
370
    18
100
AcDbSpline
210
0.0
220
0.0
230
1.0
 70
     8
 71
     3
 72
    29
 73
    25
 74
     0
 42
0.000000001
 43
0.00000001
 40
0.0
 40
0.0
 40
0.0
 40
0.0
 40
0.0082191473594287
 40
0.0572725182577196
 40
0.1063111670571055
 40
0.1553909573898964
 40
0.2044857106309546
 40
0.2535463086799537
 40
0.3025818837102304
 40
0.3516551017429967
 40
0.4007511320622031
 40
0.4498190550481646
 40
0.4988537667875958
 40
0.547919852944431
 40
0.59701571286498
 40
0.6460906440727938
 40
0.6951268015903102
 40
0.7441855543764471
 40
0.7932797572198732
 40
0.8423610658090726
 40
0.891400821787478
 40
0.9404524297197032
 40
0.9895435702732994
 40
1.0
 40
1.0
 40
1.0
 40
1.0
 10
138.8826519965022
 20
149.0632942267601
 30
0.0
 10
138.8880868862306
 20
149.0651951279063
 30
0.0
 10
138.9259581893703
 20
149.0784409538837
 30
0.0
 10
138.9963396724471
 20
149.0027838880504
 30
0.0
 10
139.093796393354
 20
148.8270121562788
 30
0.0
 10
139.1911612707697
 20
148.5419752518834
 30
0.0
 10
139.2885033060998
 20
148.1686116372026
 30
0.0
 10
139.3859067026844
 20
147.7117635668302
 30
0.0
 10
139.483377369983
 20
147.1798159683994
 30
0.0
 10
139.5807529785049
 20
146.5863274779923
 30
0.0
 10
139.6780939815932
 20
145.9467709999475
 30
0.0
 10
139.7754805398687
 20
145.2755697618651
 30
0.0
 10
139.8729537233144
 20
144.5874816303049
 30
0.0
 10
139.9703443395576
 20
143.8991939297305
 30
0.0
 10
140.0676854810198
 20
143.2264835739442
 30
0.0
 10
140.1650578047343
 20
142.5845470252697
 30
0.0
 10
140.2625268020724
 20
141.9893273921257
 30
0.0
 10
140.3599346187673
 20
141.4562131940359
 30
0.0
 10
140.4572775455418
 20
140.9947713150964
 30
0.0
 10
140.5546388363719
 20
140.6158718169289
 30
0.0
 10
140.6520964180429
 20
140.3271110133586
 30
0.0
 10
140.7495266649578
 20
140.1495240286586
 30
0.0
 10
140.8213197718827
 20
140.0695944633925
 30
0.0
 10
140.8607064259304
 20
140.081453944436
 30
0.0
 10
140.8676226406186
 20
140.0835364446882
 30
0.0
  0
SPLINE
  5
11E
330
1F
100
AcDbEntity
  8
0
  6
Continuous
 62
     7
370
    18
100
AcDbSpline
210
0.0
220
0.0
230
1.0
 70
     8
 71
     3
 72
    29
 73
    25
 74
     0
 42
0.000000001
 43
0.00000001
 40
0.0
 40
0.0
 40
0.0
 40
0.0
 40
0.0060372646293912
 40
0.0550172379353567
 40
0.1039561768386437
 40
0.1529097902762907
 40
0.2019019853589886
 40
0.2508876890514501
 40
0.2998315774457642
 40
0.3487784696088651
 40
0.3977666695086469
 40
0.4467569992360941
 40
0.4957071433801096
 40
0.5446483586336531
 40
0.5936313422400363
 40
0.642625060432675
 40
0.6915822172852566
 40
0.7405193772047965
 40
0.7894961799494562
 40
0.8384919228146052
 40
0.8874563886410345
 40
0.9363915390495842
 40
0.9853614838603042
 40
1.0
 40
1.0
 40
1.0
 40
1.0
 10
142.8801865099757
 20
149.0646632709447
 30
0.0
 10
142.8841868260339
 20
149.0662530371493
 30
0.0
 10
142.9206414712915
 20
149.0807404831873
 30
0.0
 10
142.9895349498996
 20
149.0099094683027
 30
0.0
 10
143.0869971360268
 20
148.8440661096962
 30
0.0
 10
143.1844184353664
 20
148.5651243078599
 30
0.0
 10
143.2817641173991
 20
148.1968640820246
 30
0.0
 10
143.379118490123
 20
147.7448641718707
 30
0.0
 10
143.4765662972038
 20
147.219064287104
 30
0.0
 10
143.5740058066507
 20
146.6293391944917
 30
0.0
 10
143.6713565761011
 20
145.9920909866697
 30
0.0
 10
143.7687046139428
 20
145.3223417882498
 30
0.0
 10
143.8661351873291
 20
144.6350484072073
 30
0.0
 10
143.9635905578681
 20
143.9462028982087
 30
0.0
 10
144.0609490883686
 20
143.2722014028237
 30
0.0
 10
144.1582928886894
 20
142.6280123425301
 30
0.0
 10
144.2557052357659
 20
142.0284554543072
 30
0.0
 10
144.353172149587
 20
141.4899707521093
 30
0.0
 10
144.4505413819838
 20
141.0240733254854
 30
0.0
 10
144.5478827365466
 20
140.6400600145353
 30
0.0
 10
144.6452778022586
 20
140.344264482781
 30
0.0
 10
144.742749520066
 20
140.1569726528882
 30
0.0
 10
144.8173589553434
 20
140.0720414020344
 30
0.0
 10
144.8595038217934
 20
140.0830628956964
 30
0.0
 10
144.8692028193562
 20
140.085599324191
 30
0.0
  0
SPLINE
  5
11F
330
1F
100
AcDbEntity
  8
0
  6
Continuous
 62
     7
370
    18
100
AcDbSpline
210
0.0
220
0.0
230
1.0
 70
     8
 71
     3
 72
    12
 73
     8
 74
     0
 42
0.000000001
 43
0.00000001
 40
-0.0000535874195746
 40
-0.0000535874195746
 40
-0.0000535874195746
 40
-0.0000535874195746
 40
0.0
 40
0.1666666666667
 40
0.3333333333333
 40
0.5
 40
0.5000528013495562
 40
0.5000528013495562
 40
0.5000528013495562
 40
0.5000528013495562
 10
147.2749992084539
 20
147.807299609151
 30
0.0
 10
147.2750270532925
 20
147.8072996007915
 30
0.0
 10
147.3616574385094
 20
147.8072865957732
 30
0.0
 10
147.534890364104
 20
147.8881695605984
 30
0.0
 10
147.534890364104
 20
148.1307794525585
 30
0.0
 10
147.3616578469633
 20
148.2116622266755
 30
0.0
 10
147.2750278702004
 20
148.2116494124874
 30
0.0
 10
147.2750004338158
 20
148.2116494043713
 30
0.0
  0
SPLINE
  5
120
330
1F
100
AcDbEntity
  8
0
  6
Continuous
 62
     7
370
    18
100
AcDbSpline
210
0.0
220
0.0
230
1.0
 70
     8
 71
     3
 72
    10
 73
     6
 74
     0
 42
0.000000001
 43
0.00000001
 40
0.500052801348885
 40
0.500052801348885
 40
0.500052801348885
 40
0.500052801348885
 40
0.6666666666666999
 40
0.8333333333333001
 40
0.9999464125808109
 40
0.9999464125808109
 40
0.9999464125808109
 40
0.9999464125808109
 10
147.2750004338158
 20
148.2116494043696
 30
0.0
 10
147.1884253341693
 20
148.2116237942558
 30
0.0
 10
147.0152751218344
 20
148.130753832298
 30
0.0
 10
147.0152751218344
 20
147.8881955622728
 30
0.0
 10
147.1884245173917
 20
147.807325600376
 30
0.0
 10
147.274999208454
 20
147.8072996091496
 30
0.0
  0
SPLINE
  5
121
330
1F
100
AcDbEntity
  8
0
  6
Continuous
 62
     7
370
    18
100
AcDbSpline
210
0.0
220
0.0
230
1.0
 70
     8
 71
     3
 72
    29
 73
    25
 74
     0
 42
0.000000001
 43
0.00000001
 40
0.0
 40
0.0
 40
0.0
 40
0.0
 40
0.0029072002707661
 40
0.0518418172231914
 40
0.1007720972021141
 40
0.1496608249771375
 40
0.1985495357810421
 40
0.2474798124799485
 40
0.2964144316003881
 40
0.345309642223273
 40
0.3941930409635804
 40
0.4431178555808141
 40
0.492055528832463
 40
0.5409578503754032
 40
0.5898376689797779
 40
0.638756111952365
 40
0.6876954434566129
 40
0.7366050725560989
 40
0.7854834513132914
 40
0.8343949145879117
 40
0.88333441963592
 40
0.9322511595718749
 40
0.9811303982663899
 40
0.9999999999999999
 40
0.9999999999999999
 40
0.9999999999999999
 40
0.9999999999999999
 10
128.8729785724371
 20
140.0767476851959
 30
0.0
 10
128.8710482030954
 20
140.0758458056511
 30
0.0
 10
128.8366254439923
 20
140.0597632966514
 30
0.0
 10
128.7698023419906
 20
140.1262394736783
 30
0.0
 10
128.6724421361345
 20
140.2810000829529
 30
0.0
 10
128.5750005062013
 20
140.5473047053459
 30
0.0
 10
128.477556220381
 20
140.9076377183719
 30
0.0
 10
128.3802038046844
 20
141.3538556438429
 30
0.0
 10
128.2828570493174
 20
141.8735348633305
 30
0.0
 10
128.1854310168173
 20
142.4557983448726
 30
0.0
 10
128.087972316037
 20
143.0891090775777
 30
0.0
 10
127.9906113099316
 20
143.756942609123
 30
0.0
 10
127.8932683367154
 20
144.4434098294753
 30
0.0
 10
127.7958604850043
 20
145.1330079420538
 30
0.0
 10
127.6983915555306
 20
145.8092714098647
 30
0.0
 10
127.6010191511527
 20
146.4561590149865
 30
0.0
 10
127.5036780855423
 20
147.0598223669188
 30
0.0
 10
127.4062874131278
 20
147.6064538052701
 30
0.0
 10
127.308814220382
 20
148.0810321740792
 30
0.0
 10
127.211427902841
 20
148.4715697146591
 30
0.0
 10
127.1140857996617
 20
148.7743945454945
 30
0.0
 10
127.0167145173135
 20
148.974192109379
 30
0.0
 10
126.9391864399934
 20
149.070360724366
 30
0.0
 10
126.8942160496516
 20
149.0614937640302
 30
0.0
 10
126.881690767297
 20
149.0590241127555
 30
0.0
  0
LINE
  5
122
330
1F
100
AcDbEntity
  8
0
  6
Continuous
 62
     7
370
    18
100
AcDbLine
 10
156.5881893753
 20
139.4540524897
 30
0.0
 11
156.5881893753
 21
142.6850424004
 31
0.0
  0
SPLINE
  5
123
330
1F
100
AcDbEntity
  8
0
  6
Continuous
 62
     7
370
    18
100
AcDbSpline
210
0.0
220
0.0
230
1.0
 70
     8
 71
     3
 72
    10
 73
     6
 74
     0
 42
0.000000001
 43
0.00000001
 40
0.0
 40
0.0
 40
0.0
 40
0.0
 40
0.5000000000000001
 40
0.5000000000000001
 40
1.0
 40
1.0
 40
1.0
 40
1.0
 10
157.0690663950098
 20
140.5310491528116
 30
0.0
 10
156.9673314723535
 20
140.8834692627014
 30
0.0
 10
156.8746132531247
 20
141.2390822757913
 30
0.0
 10
156.7122169890016
 20
141.9584670538869
 30
0.0
 10
156.6427175435566
 20
142.3222621563871
 30
0.0
 10
156.5881891799679
 20
142.6850424283214
 30
0.0
  0
SPLINE
  5
124
330
1F
100
AcDbEntity
  8
0
  6
Continuous
 62
     7
370
    18
100
AcDbSpline
210
0.0
220
0.0
230
1.0
 70
     8
 71
     3
 72
     8
 73
     4
 74
     0
 42
0.000000001
 43
0.00000001
 40
0.0
 40
0.0
 40
0.0
 40
0.0
 40
1.0
 40
1.0
 40
1.0
 40
1.0
 10
156.5881891799679
 20
139.4540525150565
 30
0.0
 10
156.6983525976683
 20
139.8205142241591
 30
0.0
 10
156.8655163582331
 20
140.1784901472318
 30
0.0
 10
157.0690663950098
 20
140.5310491528116
 30
0.0
  0
SPLINE
  5
125
330
1F
100
AcDbEntity
  8
0
  6
Continuous
 62
     7
370
    18
100
AcDbSpline
210
0.0
220
0.0
230
1.0
 70
     8
 71
     3
 72
     8
 73
     4
 74
     0
 42
0.000000001
 43
0.00000001
 40
0.0
 40
0.0
 40
0.0
 40
0.0
 40
1.0
 40
1.0
 40
1.0
 40
1.0
 10
159.1073119649261
 20
140.5310491528116
 30
0.0
 10
159.3116114855005
 20
140.1771920032146
 30
0.0
 10
159.4794680695375
 20
139.8157163484375
 30
0.0
 10
159.5881891799679
 20
139.4540525150565
 30
0.0
  0
SPLINE
  5
126
330
1F
100
AcDbEntity
  8
0
  6
Continuous
 62
     7
370
    18
100
AcDbSpline
210
0.0
220
0.0
230
1.0
 70
     8
 71
     3
 72
    10
 73
     6
 74
     0
 42
0.000000001
 43
0.00000001
 40
0.0
 40
0.0
 40
0.0
 40
0.0
 40
0.5
 40
0.5
 40
1.0
 40
1.0
 40
1.0
 40
1.0
 10
159.5881891799679
 20
142.6850424283214
 30
0.0
 10
159.533247161691
 20
142.3195100884648
 30
0.0
 10
159.4635062277547
 20
141.955336733598
 30
0.0
 10
159.301408771712
 20
141.2377333670424
 30
0.0
 10
159.208868930504
 20
140.8828528012983
 30
0.0
 10
159.1073119649261
 20
140.5310491528116
 30
0.0
  0
LINE
  5
127
330
1F
100
AcDbEntity
  8
0
  6
Continuous
 62
     7
370
    18
100
AcDbLine
 10
159.5881880044
 20
142.6850424004
 30
0.0
 11
159.5881880044
 21
139.4540524897
 31
0.0
  0
LINE
  5
128
330
1F
100
AcDbEntity
  8
0
  6
Continuous
 62
     7
370
    18
100
AcDbLine
 10
156.5881893753
 20
146.459959852
 30
0.0
 11
156.5881893753
 21
149.6909497627
 31
0.0
  0
SPLINE
  5
129
330
1F
100
AcDbEntity
  8
0
  6
Continuous
 62
     7
370
    18
100
AcDbSpline
210
0.0
220
0.0
230
1.0
 70
     8
 71
     3
 72
     8
 73
     4
 74
     0
 42
0.000000001
 43
0.00000001
 40
0.0
 40
0.0
 40
0.0
 40
0.0
 40
1.0
 40
1.0
 40
1.0
 40
1.0
 10
157.0690663950098
 20
148.6139529214664
 30
0.0
 10
156.8647668744354
 20
148.9678100710632
 30
0.0
 10
156.6969102903984
 20
149.3292857258401
 30
0.0
 10
156.5881891799679
 20
149.690949559221
 30
0.0
  0
SPLINE
  5
12A
330
1F
100
AcDbEntity
  8
0
  6
Continuous
 62
     7
370
    18
100
AcDbSpline
210
0.0
220
0.0
230
1.0
 70
     8
 71
     3
 72
    10
 73
     6
 74
     0
 42
0.000000001
 43
0.00000001
 40
0.0
 40
0.0
 40
0.0
 40
0.0
 40
0.5
 40
0.5
 40
1.0
 40
1.0
 40
1.0
 40
1.0
 10
156.5881891799679
 20
146.4599596459567
 30
0.0
 10
156.6431311982448
 20
146.8254919858132
 30
0.0
 10
156.7128721321812
 20
147.1896653406801
 30
0.0
 10
156.8749695882239
 20
147.9072687072357
 30
0.0
 10
156.9675094294319
 20
148.2621492729797
 30
0.0
 10
157.0690663950098
 20
148.6139529214664
 30
0.0
  0
LINE
  5
12B
330
1F
100
AcDbEntity
  8
0
  6
Continuous
 62
     7
370
    18
100
AcDbLine
 10
159.5881880044
 20
137.5665938803
 30
0.0
 11
159.5881880044
 21
139.4540524897
 31
0.0
  0
SPLINE
  5
12C
330
1F
100
AcDbEntity
  8
0
  6
Continuous
 62
     7
370
    18
100
AcDbSpline
210
0.0
220
0.0
230
1.0
 70
     8
 71
     3
 72
     8
 73
     4
 74
     0
 42
0.000000001
 43
0.00000001
 40
0.0
 40
0.0
 40
0.0
 40
0.0
 40
1.0
 40
1.0
 40
1.0
 40
1.0
 10
159.5881891799679
 20
137.5665939062383
 30
0.0
 10
159.4780257622676
 20
137.2001321971357
 30
0.0
 10
159.3108620017028
 20
136.842156274063
 30
0.0
 10
159.1073119649261
 20
136.4895972684832
 30
0.0
  0
LINE
  5
12D
330
1F
100
AcDbEntity
  8
0
  6
Continuous
 62
     7
370
    18
100
AcDbLine
 10
159.1073126315
 20
136.4895970882
 30
0.0
 11
157.0690647482
 21
136.4895970882
 31
0.0
  0
SPLINE
  5
12E
330
1F
100
AcDbEntity
  8
0
  6
Continuous
 62
     7
370
    18
100
AcDbSpline
210
0.0
220
0.0
230
1.0
 70
     8
 71
     3
 72
     8
 73
     4
 74
     0
 42
0.000000001
 43
0.00000001
 40
0.0
 40
0.0
 40
0.0
 40
0.0
 40
1.0
 40
1.0
 40
1.0
 40
1.0
 10
157.0690663950098
 20
136.4895972684832
 30
0.0
 10
156.8647668744354
 20
136.8434544180802
 30
0.0
 10
156.6969102903984
 20
137.2049300728573
 30
0.0
 10
156.5881891799679
 20
137.5665939062383
 30
0.0
  0
LINE
  5
12F
330
1F
100
AcDbEntity
  8
0
  6
Continuous
 62
     7
370
    18
100
AcDbLine
 10
156.5881893753
 20
137.5665938803
 30
0.0
 11
156.5881893753
 21
139.4540524897
 31
0.0
  0
LINE
  5
130
330
1F
100
AcDbEntity
  8
0
  6
Continuous
 62
     7
370
    18
100
AcDbLine
 10
159.1073126315
 20
140.5310491654
 30
0.0
 11
157.0690647482
 21
140.5310491654
 31
0.0
  0
SPLINE
  5
131
330
1F
100
AcDbEntity
  8
0
  6
Continuous
 62
     7
370
    18
100
AcDbSpline
210
0.0
220
0.0
230
1.0
 70
     8
 71
     3
 72
    10
 73
     6
 74
     0
 42
0.000000001
 43
0.00000001
 40
0.0
 40
0.0
 40
0.0
 40
0.0
 40
0.5
 40
0.5
 40
1.0
 40
1.0
 40
1.0
 40
1.0
 10
159.1073119649261
 20
148.6139529214664
 30
0.0
 10
159.2090468875824
 20
148.2615328115766
 30
0.0
 10
159.3017651068112
 20
147.9059197984867
 30
0.0
 10
159.4641613709343
 20
147.1865350203911
 30
0.0
 10
159.5336608163793
 20
146.8227399178909
 30
0.0
 10
159.5881891799679
 20
146.4599596459567
 30
0.0
  0
SPLINE
  5
132
330
1F
100
AcDbEntity
  8
0
  6
Continuous
 62
     7
370
    18
100
AcDbSpline
210
0.0
220
0.0
230
1.0
 70
     8
 71
     3
 72
     8
 73
     4
 74
     0
 42
0.000000001
 43
0.00000001
 40
0.0
 40
0.0
 40
0.0
 40
0.0
 40
1.0
 40
1.0
 40
1.0
 40
1.0
 10
159.5881891799679
 20
149.690949559221
 30
0.0
 10
159.4780257622676
 20
149.3244878501186
 30
0.0
 10
159.3108620017028
 20
148.9665119270461
 30
0.0
 10
159.1073119649261
 20
148.6139529214664
 30
0.0
  0
LINE
  5
133
330
1F
100
AcDbEntity
  8
0
  6
Continuous
 62
     7
370
    18
100
AcDbLine
 10
159.5881880044
 20
149.6909497627
 30
0.0
 11
159.5881880044
 21
146.459959852
 31
0.0
  0
LINE
  5
134
330
1F
100
AcDbEntity
  8
0
  6
Continuous
 62
     7
370
    18
100
AcDbLine
 10
159.5881880044
 20
142.6850424004
 30
0.0
 11
159.5881880044
 21
146.459959852
 31
0.0
  0
LINE
  5
135
330
1F
100
AcDbEntity
  8
0
  6
Continuous
 62
     7
370
    18
100
AcDbLine
 10
156.5881893753
 20
142.6850424004
 30
0.0
 11
156.5881893753
 21
146.459959852
 31
0.0
  0
LINE
  5
136
330
1F
100
AcDbEntity
  8
0
  6
Continuous
 62
     7
370
    18
100
AcDbLine
 10
159.1073126315
 20
148.6139529706
 30
0.0
 11
157.0690647482
 21
148.6139529706
 31
0.0
  0
SPLINE
  5
137
330
1F
100
AcDbEntity
  8
0
  6
Continuous
 62
     7
370
    18
100
AcDbSpline
210
0.0
220
0.0
230
1.0
 70
     8
 71
     3
 72
     8
 73
     4
 74
     0
 42
0.000000001
 43
0.00000001
 40
0.0
 40
0.0
 40
0.0
 40
0.0
 40
1.0
 40
1.0
 40
1.0
 40
1.0
 10
159.1073119649261
 20
152.6554048057927
 30
0.0
 10
159.3116114855005
 20
152.3015476561959
 30
0.0
 10
159.4794680695375
 20
151.940072001419
 30
0.0
 10
159.5881891799679
 20
151.5784081680381
 30
0.0
  0
SPLINE
  5
138
330
1F
100
AcDbEntity
  8
0
  6
Continuous
 62
     7
370
    18
100
AcDbSpline
210
0.0
220
0.0
230
1.0
 70
     8
 71
     3
 72
     8
 73
     4
 74
     0
 42
0.000000001
 43
0.00000001
 40
0.0
 40
0.0
 40
0.0
 40
0.0
 40
1.0
 40
1.0
 40
1.0
 40
1.0
 10
156.5881891799679
 20
151.5784081680381
 30
0.0
 10
156.6983525976683
 20
151.9448698771406
 30
0.0
 10
156.8655163582331
 20
152.302845800213
 30
0.0
 10
157.0690663950098
 20
152.6554048057927
 30
0.0
  0
LINE
  5
139
330
1F
100
AcDbEntity
  8
0
  6
Continuous
 62
     7
370
    18
100
AcDbLine
 10
159.1073126315
 20
152.6554044657
 30
0.0
 11
157.0690647482
 21
152.6554044657
 31
0.0
  0
LINE
  5
13A
330
1F
100
AcDbEntity
  8
0
  6
Continuous
 62
     7
370
    18
100
AcDbLine
 10
156.5881893753
 20
149.6909497627
 30
0.0
 11
156.5881893753
 21
151.5784081393
 31
0.0
  0
LINE
  5
13B
330
1F
100
AcDbEntity
  8
0
  6
Continuous
 62
     7
370
    18
100
AcDbLine
 10
159.5881880044
 20
149.6909497627
 30
0.0
 11
159.5881880044
 21
151.5784081393
 31
0.0
  0
LINE
  5
13C
330
1F
100
AcDbEntity
  8
0
  6
Continuous
 62
     7
370
    18
100
AcDbLine
 10
159.5881880044
 20
137.5665938803
 30
0.0
 11
159.5881880044
 21
137.3225009856
 31
0.0
  0
LINE
  5
13D
330
1F
100
AcDbEntity
  8
0
  6
Continuous
 62
     7
370
    18
100
AcDbLine
 10
156.5881893753
 20
137.3225009856
 30
0.0
 11
156.5881893753
 21
137.5665938803
 31
0.0
  0
LINE
  5
13E
330
1F
100
AcDbEntity
  8
0
  6
Continuous
 62
     7
370
    18
100
AcDbLine
 10
159.5881880044
 20
151.8225012668
 30
0.0
 11
159.5881880044
 21
151.5784081393
 31
0.0
  0
LINE
  5
13F
330
1F
100
AcDbEntity
  8
0
  6
Continuous
 62
     7
370
    18
100
AcDbLine
 10
156.5881893753
 20
151.5784081393
 30
0.0
 11
156.5881893753
 21
151.8225012668
 31
0.0
  0
SPLINE
  5
140
330
1F
100
AcDbEntity
  8
0
  6
Continuous
 62
     7
370
    18
100
AcDbSpline
210
0.0
220
0.0
230
1.0
 70
     8
 71
     3
 72
     8
 73
     4
 74
     0
 42
0.000000001
 43
0.00000001
 40
0.0
 40
0.0
 40
0.0
 40
0.0
 40
1.0
 40
1.0
 40
1.0
 40
1.0
 10
162.1073119649261
 20
140.5310491528106
 30
0.0
 10
162.3116114855005
 20
140.1771920032136
 30
0.0
 10
162.4794680695375
 20
139.8157163484366
 30
0.0
 10
162.5881891799679
 20
139.4540525150557
 30
0.0
  0
SPLINE
  5
141
330
1F
100
AcDbEntity
  8
0
  6
Continuous
 62
     7
370
    18
100
AcDbSpline
210
0.0
220
0.0
230
1.0
 70
     8
 71
     3
 72
    10
 73
     6
 74
     0
 42
0.000000001
 43
0.00000001
 40
0.0
 40
0.0
 40
0.0
 40
0.0
 40
0.5
 40
0.5
 40
1.0
 40
1.0
 40
1.0
 40
1.0
 10
162.5881891799679
 20
142.6850424283203
 30
0.0
 10
162.533247161691
 20
142.3195100884637
 30
0.0
 10
162.4635062277547
 20
141.9553367335969
 30
0.0
 10
162.301408771712
 20
141.2377333670413
 30
0.0
 10
162.208868930504
 20
140.8828528012972
 30
0.0
 10
162.1073119649261
 20
140.5310491528105
 30
0.0
  0
LINE
  5
142
330
1F
100
AcDbEntity
  8
0
  6
Continuous
 62
     7
370
    18
100
AcDbLine
 10
162.5881903588
 20
142.6850424004
 30
0.0
 11
162.5881903588
 21
139.4540524897
 31
0.0
  0
LINE
  5
143
330
1F
100
AcDbEntity
  8
0
  6
Continuous
 62
     7
370
    18
100
AcDbLine
 10
162.5881903588
 20
137.5665938803
 30
0.0
 11
162.5881903588
 21
139.4540524897
 31
0.0
  0
SPLINE
  5
144
330
1F
100
AcDbEntity
  8
0
  6
Continuous
 62
     7
370
    18
100
AcDbSpline
210
0.0
220
0.0
230
1.0
 70
     8
 71
     3
 72
     8
 73
     4
 74
     0
 42
0.000000001
 43
0.00000001
 40
0.0
 40
0.0
 40
0.0
 40
0.0
 40
1.0
 40
1.0
 40
1.0
 40
1.0
 10
162.5881891799679
 20
137.566593906238
 30
0.0
 10
162.4780257622676
 20
137.2001321971355
 30
0.0
 10
162.3108620017028
 20
136.8421562740629
 30
0.0
 10
162.1073119649261
 20
136.4895972684832
 30
0.0
  0
LINE
  5
145
330
1F
100
AcDbEntity
  8
0
  6
Continuous
 62
     7
370
    18
100
AcDbLine
 10
162.1073112606
 20
136.4895970882
 30
0.0
 11
160.0690671026
 21
136.4895970882
 31
0.0
  0
SPLINE
  5
146
330
1F
100
AcDbEntity
  8
0
  6
Continuous
 62
     7
370
    18
100
AcDbSpline
210
0.0
220
0.0
230
1.0
 70
     8
 71
     3
 72
     8
 73
     4
 74
     0
 42
0.000000001
 43
0.00000001
 40
0.0
 40
0.0
 40
0.0
 40
0.0
 40
1.0
 40
1.0
 40
1.0
 40
1.0
 10
160.0690663950098
 20
136.4895972684832
 30
0.0
 10
159.8647668744354
 20
136.8434544180801
 30
0.0
 10
159.6969102903984
 20
137.2049300728571
 30
0.0
 10
159.5881891799679
 20
137.566593906238
 30
0.0
  0
SPLINE
  5
147
330
1F
100
AcDbEntity
  8
0
  6
Continuous
 62
     7
370
    18
100
AcDbSpline
210
0.0
220
0.0
230
1.0
 70
     8
 71
     3
 72
     8
 73
     4
 74
     0
 42
0.000000001
 43
0.00000001
 40
0.0
 40
0.0
 40
0.0
 40
0.0
 40
1.0
 40
1.0
 40
1.0
 40
1.0
 10
159.5881891799679
 20
139.4540525150557
 30
0.0
 10
159.6983525976683
 20
139.8205142241582
 30
0.0
 10
159.8655163582331
 20
140.1784901472308
 30
0.0
 10
160.0690663950098
 20
140.5310491528106
 30
0.0
  0
LINE
  5
148
330
1F
100
AcDbEntity
  8
0
  6
Continuous
 62
     7
370
    18
100
AcDbLine
 10
162.1073112606
 20
140.5310491654
 30
0.0
 11
160.0690671026
 21
140.5310491654
 31
0.0
  0
SPLINE
  5
149
330
1F
100
AcDbEntity
  8
0
  6
Continuous
 62
     7
370
    18
100
AcDbSpline
210
0.0
220
0.0
230
1.0
 70
     8
 71
     3
 72
    10
 73
     6
 74
     0
 42
0.000000001
 43
0.00000001
 40
0.0
 40
0.0
 40
0.0
 40
0.0
 40
0.5
 40
0.5
 40
1.0
 40
1.0
 40
1.0
 40
1.0
 10
160.0690663950098
 20
140.5310491528106
 30
0.0
 10
159.9673314723535
 20
140.8834692627003
 30
0.0
 10
159.8746132531247
 20
141.2390822757903
 30
0.0
 10
159.7122169890016
 20
141.9584670538858
 30
0.0
 10
159.6427175435566
 20
142.322262156386
 30
0.0
 10
159.5881891799679
 20
142.6850424283203
 30
0.0
  0
SPLINE
  5
14A
330
1F
100
AcDbEntity
  8
0
  6
Continuous
 62
     7
370
    18
100
AcDbSpline
210
0.0
220
0.0
230
1.0
 70
     8
 71
     3
 72
    10
 73
     6
 74
     0
 42
0.000000001
 43
0.00000001
 40
0.0
 40
0.0
 40
0.0
 40
0.0
 40
0.5
 40
0.5
 40
1.0
 40
1.0
 40
1.0
 40
1.0
 10
162.1073119649261
 20
148.6139529214653
 30
0.0
 10
162.2090468875824
 20
148.2615328115755
 30
0.0
 10
162.3017651068112
 20
147.9059197984856
 30
0.0
 10
162.4641613709343
 20
147.18653502039
 30
0.0
 10
162.5336608163793
 20
146.8227399178898
 30
0.0
 10
162.5881891799679
 20
146.4599596459556
 30
0.0
  0
SPLINE
  5
14B
330
1F
100
AcDbEntity
  8
0
  6
Continuous
 62
     7
370
    18
100
AcDbSpline
210
0.0
220
0.0
230
1.0
 70
     8
 71
     3
 72
     8
 73
     4
 74
     0
 42
0.000000001
 43
0.00000001
 40
0.0
 40
0.0
 40
0.0
 40
0.0
 40
1.0
 40
1.0
 40
1.0
 40
1.0
 10
162.5881891799679
 20
149.6909495592202
 30
0.0
 10
162.4780257622676
 20
149.3244878501177
 30
0.0
 10
162.3108620017028
 20
148.9665119270451
 30
0.0
 10
162.1073119649261
 20
148.6139529214653
 30
0.0
  0
LINE
  5
14C
330
1F
100
AcDbEntity
  8
0
  6
Continuous
 62
     7
370
    18
100
AcDbLine
 10
162.5881903588
 20
149.6909497627
 30
0.0
 11
162.5881903588
 21
146.459959852
 31
0.0
  0
SPLINE
  5
14D
330
1F
100
AcDbEntity
  8
0
  6
Continuous
 62
     7
370
    18
100
AcDbSpline
210
0.0
220
0.0
230
1.0
 70
     8
 71
     3
 72
     8
 73
     4
 74
     0
 42
0.000000001
 43
0.00000001
 40
0.0
 40
0.0
 40
0.0
 40
0.0
 40
1.0
 40
1.0
 40
1.0
 40
1.0
 10
160.0690663950098
 20
148.6139529214653
 30
0.0
 10
159.8647668744354
 20
148.9678100710622
 30
0.0
 10
159.6969102903984
 20
149.3292857258392
 30
0.0
 10
159.5881891799679
 20
149.6909495592202
 30
0.0
  0
SPLINE
  5
14E
330
1F
100
AcDbEntity
  8
0
  6
Continuous
 62
     7
370
    18
100
AcDbSpline
210
0.0
220
0.0
230
1.0
 70
     8
 71
     3
 72
    10
 73
     6
 74
     0
 42
0.000000001
 43
0.00000001
 40
0.0
 40
0.0
 40
0.0
 40
0.0
 40
0.5
 40
0.5
 40
1.0
 40
1.0
 40
1.0
 40
1.0
 10
159.5881891799679
 20
146.4599596459556
 30
0.0
 10
159.6431311982448
 20
146.8254919858121
 30
0.0
 10
159.7128721321812
 20
147.1896653406789
 30
0.0
 10
159.8749695882239
 20
147.9072687072346
 30
0.0
 10
159.9675094294319
 20
148.2621492729787
 30
0.0
 10
160.0690663950098
 20
148.6139529214653
 30
0.0
  0
LINE
  5
14F
330
1F
100
AcDbEntity
  8
0
  6
Continuous
 62
     7
370
    18
100
AcDbLine
 10
162.5881903588
 20
142.6850424004
 30
0.0
 11
162.5881903588
 21
146.459959852
 31
0.0
  0
LINE
  5
150
330
1F
100
AcDbEntity
  8
0
  6
Continuous
 62
     7
370
    18
100
AcDbLine
 10
162.1073112606
 20
148.6139529706
 30
0.0
 11
160.0690671026
 21
148.6139529706
 31
0.0
  0
SPLINE
  5
151
330
1F
100
AcDbEntity
  8
0
  6
Continuous
 62
     7
370
    18
100
AcDbSpline
210
0.0
220
0.0
230
1.0
 70
     8
 71
     3
 72
     8
 73
     4
 74
     0
 42
0.000000001
 43
0.00000001
 40
0.0
 40
0.0
 40
0.0
 40
0.0
 40
1.0
 40
1.0
 40
1.0
 40
1.0
 10
162.1073119649261
 20
152.6554048057927
 30
0.0
 10
162.3116114855005
 20
152.3015476561958
 30
0.0
 10
162.4794680695375
 20
151.9400720014188
 30
0.0
 10
162.5881891799679
 20
151.5784081680378
 30
0.0
  0
SPLINE
  5
152
330
1F
100
AcDbEntity
  8
0
  6
Continuous
 62
     7
370
    18
100
AcDbSpline
210
0.0
220
0.0
230
1.0
 70
     8
 71
     3
 72
     8
 73
     4
 74
     0
 42
0.000000001
 43
0.00000001
 40
0.0
 40
0.0
 40
0.0
 40
0.0
 40
1.0
 40
1.0
 40
1.0
 40
1.0
 10
159.5881891799679
 20
151.5784081680378
 30
0.0
 10
159.6983525976683
 20
151.9448698771403
 30
0.0
 10
159.8655163582331
 20
152.3028458002129
 30
0.0
 10
160.0690663950098
 20
152.6554048057927
 30
0.0
  0
LINE
  5
153
330
1F
100
AcDbEntity
  8
0
  6
Continuous
 62
     7
370
    18
100
AcDbLine
 10
162.1073112606
 20
152.6554044657
 30
0.0
 11
160.0690671026
 21
152.6554044657
 31
0.0
  0
LINE
  5
154
330
1F
100
AcDbEntity
  8
0
  6
Continuous
 62
     7
370
    18
100
AcDbLine
 10
162.5881903588
 20
149.6909497627
 30
0.0
 11
162.5881903588
 21
151.5784081393
 31
0.0
  0
LINE
  5
155
330
1F
100
AcDbEntity
  8
0
  6
Continuous
 62
     7
370
    18
100
AcDbLine
 10
162.5881903588
 20
151.8225012668
 30
0.0
 11
162.5881903588
 21
151.5784081393
 31
0.0
  0
LINE
  5
156
330
1F
100
AcDbEntity
  8
0
  6
Continuous
 62
     7
370
    18
100
AcDbLine
 10
162.5881903588
 20
137.5665938803
 30
0.0
 11
162.5881903588
 21
137.3225009856
 31
0.0
  0
LINE
  5
157
330
1F
100
AcDbEntity
  8
0
  6
Continuous
 62
     7
370
    18
100
AcDbLine
 10
109.5602289556
 20
150.2725011059
 30
0.0
 11
109.5602289556
 21
138.8725011465
 31
0.0
  0
SPLINE
  5
158
330
1F
100
AcDbEntity
  8
0
  6
Continuous
 62
     7
370
    18
100
AcDbSpline
210
0.0
220
0.0
230
1.0
 70
     8
 71
     3
 72
    14
 73
    10
 74
     0
 42
0.000000001
 43
0.00000001
 40
0.0
 40
0.0
 40
0.0
 40
0.0
 40
0.1249999999999997
 40
0.1249999999999997
 40
0.2499999999999993
 40
0.2499999999999993
 40
0.5000000000000002
 40
0.5000000000000002
 40
1.0
 40
1.0
 40
1.0
 40
1.0
 10
107.5602285682052
 20
139.1523995620731
 30
0.0
 10
107.5602285682052
 20
139.1036428492318
 30
0.0
 10
107.5682607986591
 20
139.0608915069329
 30
0.0
 10
107.5895310098728
 20
138.983019795348
 30
0.0
 10
107.6030800154415
 20
138.9484926967328
 30
0.0
 10
107.6465127966149
 20
138.8557975476588
 30
0.0
 10
107.679114599794
 20
138.8081227047257
 30
0.0
 10
107.7704882637277
 20
138.6932295037162
 30
0.0
 10
107.8231300885773
 20
138.6526324086446
 30
0.0
 10
107.8602285682053
 20
138.626599802119
 30
0.0
  0
LINE
  5
159
330
1F
100
AcDbEntity
  8
0
  6
Continuous
 62
     7
370
    18
100
AcDbLine
 10
107.5602286278
 20
139.1523996689
 30
0.0
 11
107.5602286278
 21
150.2725011059
 31
0.0
  0
LINE
  5
15A
330
1F
100
AcDbEntity
  8
0
  6
Continuous
 62
     7
370
    18
100
AcDbLine
 10
115.5602285421
 20
148.0225012028
 30
0.0
 11
115.5602285421
 21
147.8884782963
 31
0.0
  0
LINE
  5
15B
330
1F
100
AcDbEntity
  8
0
  6
Continuous
 62
     7
370
    18
100
AcDbLine
 10
115.5602285421
 20
145.0107425307
 30
0.0
 11
115.5602285421
 21
141.1225010369
 31
0.0
  0
LINE
  5
15C
330
1F
100
AcDbEntity
  8
0
  6
Continuous
 62
     7
370
    18
100
AcDbLine
 10
101.5602276443
 20
139.8725010776
 30
0.0
 11
101.5602276443
 21
141.5509120533
 31
0.0
  0
SPLINE
  5
15D
330
1F
100
AcDbEntity
  8
0
  6
Continuous
 62
     7
370
    18
100
AcDbSpline
210
0.0
220
0.0
230
1.0
 70
     8
 71
     3
 72
    12
 73
     8
 74
     0
 42
0.000000001
 43
0.00000001
 40
0.0
 40
0.0
 40
0.0
 40
0.0
 40
0.4999999999999999
 40
0.4999999999999999
 40
0.7499999999999999
 40
0.7499999999999999
 40
1.0
 40
1.0
 40
1.0
 40
1.0
 10
101.5602285682051
 20
141.5509120511903
 30
0.0
 10
101.5602285682051
 20
141.452419175248
 30
0.0
 10
101.5795196903738
 20
141.3517187363807
 30
0.0
 10
101.6508408314339
 20
141.2215156698895
 30
0.0
 10
101.6820606121991
 20
141.1815561404232
 30
0.0
 10
101.7617697831013
 20
141.1214367268889
 30
0.0
 10
101.8103691417628
 20
141.1026307225584
 30
0.0
 10
101.8602285682051
 20
141.1026307225584
 30
0.0
  0
LINE
  5
15E
330
1F
100
AcDbEntity
  8
0
  6
Continuous
 62
     7
370
    18
100
AcDbLine
 10
103.5602289035
 20
141.5509120533
 30
0.0
 11
103.5602289035
 21
143.5225009308
 31
0.0
  0
SPLINE
  5
15F
330
1F
100
AcDbEntity
  8
0
  6
Continuous
 62
     7
370
    18
100
AcDbSpline
210
0.0
220
0.0
230
1.0
 70
     8
 71
     3
 72
    12
 73
     8
 74
     0
 42
0.000000001
 43
0.00000001
 40
0.0
 40
0.0
 40
0.0
 40
0.0
 40
0.2500000000000011
 40
0.2500000000000011
 40
0.5000000000000021
 40
0.5000000000000021
 40
1.0
 40
1.0
 40
1.0
 40
1.0
 10
103.2602285682052
 20
141.1026307225584
 30
0.0
 10
103.3103812906298
 20
141.1026307225584
 30
0.0
 10
103.358640013712
 20
141.1213731646028
 30
0.0
 10
103.4386426690143
 20
141.1817697177752
 30
0.0
 10
103.4697431062019
 20
141.2217438823733
 30
0.0
 10
103.5407042819317
 20
141.3512996248434
 30
0.0
 10
103.5602285682051
 20
141.4520304038768
 30
0.0
 10
103.5602285682051
 20
141.5509120511903
 30
0.0
  0
LINE
  5
160
330
1F
100
AcDbEntity
  8
0
  6
Continuous
 62
     7
370
    18
100
AcDbLine
 10
101.8602289974
 20
141.1026307223
 30
0.0
 11
103.2602284818
 21
141.1026307223
 31
0.0
  0
LINE
  5
161
330
1F
100
AcDbEntity
  8
0
  6
Continuous
 62
     7
370
    18
100
AcDbLine
 10
101.5602276443
 20
141.5509120533
 30
0.0
 11
101.5602276443
 21
147.5940900245
 31
0.0
  0
SPLINE
  5
162
330
1F
100
AcDbEntity
  8
0
  6
Continuous
 62
     7
370
    18
100
AcDbSpline
210
0.0
220
0.0
230
1.0
 70
     8
 71
     3
 72
    12
 73
     8
 74
     0
 42
0.000000001
 43
0.00000001
 40
0.0
 40
0.0
 40
0.0
 40
0.0
 40
0.2499999999999969
 40
0.2499999999999969
 40
0.4999999999999939
 40
0.4999999999999939
 40
1.0
 40
1.0
 40
1.0
 40
1.0
 10
101.8602285682051
 20
148.0423713517174
 30
0.0
 10
101.8103259870274
 20
148.0423713517174
 30
0.0
 10
101.7616413338018
 20
148.0235315604002
 30
0.0
 10
101.6817376874754
 20
147.9631389215969
 30
0.0
 10
101.6505999849814
 20
147.9231483717969
 30
0.0
 10
101.579367855682
 20
147.79280148104
 30
0.0
 10
101.5602285682051
 20
147.692784676843
 30
0.0
 10
101.5602285682051
 20
147.5940900230856
 30
0.0
  0
LINE
  5
163
330
1F
100
AcDbEntity
  8
0
  6
Continuous
 62
     7
370
    18
100
AcDbLine
 10
103.2602284818
 20
148.0423714355
 30
0.0
 11
101.8602289974
 21
148.0423714355
 31
0.0
  0
SPLINE
  5
164
330
1F
100
AcDbEntity
  8
0
  6
Continuous
 62
     7
370
    18
100
AcDbSpline
210
0.0
220
0.0
230
1.0
 70
     8
 71
     3
 72
    12
 73
     8
 74
     0
 42
0.000000001
 43
0.00000001
 40
0.0
 40
0.0
 40
0.0
 40
0.0
 40
0.499999999999998
 40
0.499999999999998
 40
0.749999999999999
 40
0.749999999999999
 40
1.0
 40
1.0
 40
1.0
 40
1.0
 10
103.5602285682052
 20
147.5940900230856
 30
0.0
 10
103.5602285682052
 20
147.6926872855763
 30
0.0
 10
103.5408493596158
 20
147.793522865519
 30
0.0
 10
103.4695379189529
 20
147.9235900445304
 30
0.0
 10
103.4381455524682
 20
147.9636460084572
 30
0.0
 10
103.3588606996988
 20
148.0234238099458
 30
0.0
 10
103.3096973325686
 20
148.0423713517199
 30
0.0
 10
103.2602285681965
 20
148.0423713517179
 30
0.0
  0
LINE
  5
165
330
1F
100
AcDbEntity
  8
0
  6
Continuous
 62
     7
370
    18
100
AcDbLine
 10
103.5602289035
 20
145.6225010888
 30
0.0
 11
103.5602289035
 21
147.5940900245
 31
0.0
  0
LINE
  5
166
330
1F
100
AcDbEntity
  8
0
  6
Continuous
 62
     7
370
    18
100
AcDbLine
 10
107.5602286278
 20
145.6225010888
 30
0.0
 11
103.5602289035
 21
145.6225010888
 31
0.0
  0
LINE
  5
167
330
1F
100
AcDbEntity
  8
0
  6
Continuous
 62
     7
370
    18
100
AcDbLine
 10
103.5602289035
 20
143.5225009308
 30
0.0
 11
107.5602286278
 21
143.5225009308
 31
0.0
  0
LINE
  5
168
330
1F
100
AcDbEntity
  8
0
  6
Continuous
 62
     7
370
    18
100
AcDbLine
 10
103.5602289035
 20
149.272500942
 30
0.0
 11
103.5602289035
 21
147.5940900245
 31
0.0
  0
LINE
  5
169
330
1F
100
AcDbEntity
  8
0
  6
Continuous
 62
     7
370
    18
100
AcDbLine
 10
103.5602289035
 20
141.5509120533
 30
0.0
 11
103.5602289035
 21
140.2161837877
 31
0.0
  0
SPLINE
  5
16A
330
1F
100
AcDbEntity
  8
0
  6
Continuous
 62
     7
370
    18
100
AcDbSpline
210
0.0
220
0.0
230
1.0
 70
     8
 71
     3
 72
    14
 73
    10
 74
     0
 42
0.000000001
 43
0.00000001
 40
0.0
 40
0.0
 40
0.0
 40
0.0
 40
0.5000000000000009
 40
0.5000000000000009
 40
0.7500000000000007
 40
0.7500000000000007
 40
0.8750000000000003
 40
0.8750000000000003
 40
1.0
 40
1.0
 40
1.0
 40
1.0
 10
103.2602285682052
 20
139.6363205768539
 30
0.0
 10
103.2983990226145
 20
139.6679784987092
 30
0.0
 10
103.353388167712
 20
139.7174346072691
 30
0.0
 10
103.4459978139634
 20
139.8493169039594
 30
0.0
 10
103.4784259703722
 20
139.9031959563432
 30
0.0
 10
103.5202608175717
 20
140.0037380703916
 30
0.0
 10
103.5331017875024
 20
140.0407449995868
 30
0.0
 10
103.5529085490029
 20
140.122324447639
 30
0.0
 10
103.5602285682051
 20
140.1669574690788
 30
0.0
 10
103.5602285682051
 20
140.2161837851463
 30
0.0
  0
LINE
  5
16B
330
1F
100
AcDbEntity
  8
0
  6
Continuous
 62
     7
370
    18
100
AcDbLine
 10
103.2602284818
 20
139.636320583
 30
0.0
 11
103.2602284818
 21
141.1026307223
 31
0.0
  0
LINE
  5
16C
330
1F
100
AcDbEntity
  8
0
  6
Continuous
 62
     7
370
    18
100
AcDbLine
 10
101.5602276443
 20
147.5940900245
 30
0.0
 11
101.5602276443
 21
149.272500942
 31
0.0
  0
SPLINE
  5
16D
330
1F
100
AcDbEntity
  8
0
  6
Continuous
 62
     7
370
    18
100
AcDbSpline
210
0.0
220
0.0
230
1.0
 70
     8
 71
     3
 72
    14
 73
    10
 74
     0
 42
0.000000001
 43
0.00000001
 40
0.0
 40
0.0
 40
0.0
 40
0.0
 40
0.25
 40
0.25
 40
0.5
 40
0.5
 40
0.75
 40
0.75
 40
1.0
 40
1.0
 40
1.0
 40
1.0
 10
107.052065302899
 20
141.1570103193959
 30
0.0
 10
107.0943085022619
 20
141.1385591035067
 30
0.0
 10
107.1493101209708
 20
141.1264232340019
 30
0.0
 10
107.2693534461563
 20
141.1176276086136
 30
0.0
 10
107.332747142288
 20
141.1212481636008
 30
0.0
 10
107.4414500221352
 20
141.1432548208151
 30
0.0
 10
107.4864041302618
 20
141.1616169821133
 30
0.0
 10
107.545400244497
 20
141.2072108757506
 30
0.0
 10
107.5602285682052
 20
141.2345329426161
 30
0.0
 10
107.5602285682052
 20
141.2634226155831
 30
0.0
  0
SPLINE
  5
16E
330
1F
100
AcDbEntity
  8
0
  6
Continuous
 62
     7
370
    18
100
AcDbSpline
210
0.0
220
0.0
230
1.0
 70
     8
 71
     3
 72
    20
 73
    16
 74
     0
 42
0.000000001
 43
0.00000001
 40
0.0
 40
0.0
 40
0.0
 40
0.0
 40
0.125
 40
0.125
 40
0.25
 40
0.25
 40
0.375
 40
0.375
 40
0.5
 40
0.5
 40
0.625
 40
0.625
 40
0.75
 40
0.75
 40
1.0
 40
1.0
 40
1.0
 40
1.0
 10
107.052065302899
 20
141.1570103193959
 30
0.0
 10
106.9556460118319
 20
141.1991248652209
 30
0.0
 10
106.8496043788845
 20
141.2421372732756
 30
0.0
 10
106.6232965357586
 20
141.3230478028045
 30
0.0
 10
106.5040896367791
 20
141.3606368169235
 30
0.0
 10
106.2522878582184
 20
141.4254160187093
 30
0.0
 10
106.1177691724315
 20
141.4528182198864
 30
0.0
 10
105.8437188550052
 20
141.4899799751494
 30
0.0
 10
105.7043415231045
 20
141.4999402020661
 30
0.0
 10
105.4205213765007
 20
141.5001436944999
 30
0.0
 10
105.2797815738383
 20
141.4902452153443
 30
0.0
 10
105.0063747950726
 20
141.4534620126394
 30
0.0
 10
104.8715700124789
 20
141.4262000782145
 30
0.0
 10
104.4909053376228
 20
141.3285391627547
 30
0.0
 10
104.2614611510404
 20
141.2413401929148
 30
0.0
 10
104.0683918335113
 20
141.1570103193959
 30
0.0
  0
SPLINE
  5
16F
330
1F
100
AcDbEntity
  8
0
  6
Continuous
 62
     7
370
    18
100
AcDbSpline
210
0.0
220
0.0
230
1.0
 70
     8
 71
     3
 72
    14
 73
    10
 74
     0
 42
0.000000001
 43
0.00000001
 40
0.0
 40
0.0
 40
0.0
 40
0.0
 40
0.25
 40
0.25
 40
0.5
 40
0.5
 40
0.75
 40
0.75
 40
1.0
 40
1.0
 40
1.0
 40
1.0
 10
103.5602285682051
 20
141.2634226155831
 30
0.0
 10
103.5602285682051
 20
141.2345126235127
 30
0.0
 10
103.5750477801398
 20
141.2073076738988
 30
0.0
 10
103.6335552140081
 20
141.1619127071243
 30
0.0
 10
103.6779060612416
 20
141.1435646697441
 30
0.0
 10
103.7872501841933
 20
141.121255539255
 30
0.0
 10
103.8499323531916
 20
141.1176163191054
 30
0.0
 10
103.9706735569218
 20
141.1263150174136
 30
0.0
 10
104.0260641346172
 20
141.1385221953389
 30
0.0
 10
104.0683918335113
 20
141.1570103193959
 30
0.0
  0
LINE
  5
170
330
1F
100
AcDbEntity
  8
0
  6
Continuous
 62
     7
370
    18
100
AcDbLine
 10
98.060228002
 20
147.7725011618
 30
0.0
 11
98.060228002
 21
141.3725010324
 31
0.0
  0
LINE
  5
171
330
1F
100
AcDbEntity
  8
0
  6
Continuous
 62
     7
370
    18
100
AcDbLine
 10
96.0602276741
 20
144.5725010098
 30
0.0
 11
96.0602276741
 21
147.7725011618
 31
0.0
  0
LINE
  5
172
330
1F
100
AcDbEntity
  8
0
  6
Continuous
 62
     7
370
    18
100
AcDbLine
 10
96.0602276741
 20
141.3725010324
 30
0.0
 11
96.0602276741
 21
144.5725010098
 31
0.0
  0
LINE
  5
173
330
1F
100
AcDbEntity
  8
0
  6
Continuous
 62
     7
370
    18
100
AcDbLine
 10
169.0602303265
 20
142.1725010122
 30
0.0
 11
168.5602293133
 21
142.1725010122
 31
0.0
  0
LINE
  5
174
330
1F
100
AcDbEntity
  8
0
  6
Continuous
 62
     7
370
    18
100
AcDbLine
 10
168.5602293133
 20
146.9725011238
 30
0.0
 11
168.5602293133
 21
142.1725010122
 31
0.0
  0
LINE
  5
175
330
1F
100
AcDbEntity
  8
0
  6
Continuous
 62
     7
370
    18
100
AcDbLine
 10
169.0602303265
 20
146.9725011238
 30
0.0
 11
168.5602293133
 21
146.9725011238
 31
0.0
  0
LINE
  5
176
330
1F
100
AcDbEntity
  8
0
  6
Continuous
 62
     7
370
    18
100
AcDbLine
 10
169.0602303265
 20
142.1725010122
 30
0.0
 11
169.0602303265
 21
146.9725011238
 31
0.0
  0
SPLINE
  5
177
330
1F
100
AcDbEntity
  8
0
  6
Continuous
 62
     7
370
    18
100
AcDbSpline
210
0.0
220
0.0
230
1.0
 70
    24
 71
     3
 72
    13
 73
     9
 74
     0
 42
0.000000001
 43
0.00000001
 40
0.0
 40
0.0
 40
0.0
 40
0.0
 40
0.538068181219387
 40
0.808451762972017
 40
0.8895237193162239
 40
0.9426022550266905
 40
0.9829554280466071
 40
0.9999999999999999
 40
0.9999999999999999
 40
0.9999999999999999
 40
0.9999999999999999
 10
168.3366448401301
 20
142.172501012208
 30
0.0
 10
168.3415225302312
 20
142.1725010122079
 30
0.0
 10
168.348851298776
 20
142.1725010122079
 30
0.0
 10
168.4155158938076
 20
142.172501012208
 30
0.0
 10
168.4773604819743
 20
142.172501012208
 30
0.0
 10
168.5134208753332
 20
142.172501012208
 30
0.0
 10
168.5409338728048
 20
142.172501012208
 30
0.0
 10
168.555811362065
 20
142.172501012208
 30
0.0
 10
168.5602293132632
 20
142.172501012208
 30
0.0
  0
SPLINE
  5
178
330
1F
100
AcDbEntity
  8
0
  6
Continuous
 62
     7
370
    18
100
AcDbSpline
210
0.0
220
0.0
230
1.0
 70
    24
 71
     3
 72
    14
 73
    10
 74
     0
 42
0.000000001
 43
0.00000001
 40
0.0
 40
0.0
 40
0.0
 40
0.0
 40
0.125
 40
0.125
 40
0.2500000000000001
 40
0.2500000000000001
 40
0.5000000000000001
 40
0.5000000000000001
 40
1.0
 40
1.0
 40
1.0
 40
1.0
 10
168.5602285682085
 20
146.9725010371379
 30
0.0
 10
168.5269565855997
 20
146.9725010371379
 30
0.0
 10
168.4974726700713
 20
146.9725010371379
 30
0.0
 10
168.4538874844985
 20
146.9725010371379
 30
0.0
 10
168.4375260546327
 20
146.9725010371379
 30
0.0
 10
168.3970951263788
 20
146.9725010371379
 30
0.0
 10
168.3807490417117
 20
146.9725010371379
 30
0.0
 10
168.3443824815905
 20
146.9725010371379
 30
0.0
 10
168.3366200004087
 20
146.9725010371379
 30
0.0
 10
168.3366217707023
 20
146.9725010371379
 30
0.0
  0
LINE
  5
179
330
1F
100
AcDbEntity
  8
0
  6
Continuous
 62
     7
370
    18
100
AcDbLine
 10
168.2602279602
 20
146.7342818477
 30
0.0
 11
168.2602279602
 21
146.7725009979
 31
0.0
  0
SPLINE
  5
17A
330
1F
100
AcDbEntity
  8
0
  6
Continuous
 62
     7
370
    18
100
AcDbSpline
210
0.0
220
0.0
230
1.0
 70
    24
 71
     3
 72
     9
 73
     5
 74
     0
 42
0.000000001
 43
0.00000001
 40
0.0
 40
0.0
 40
0.0
 40
0.0
 40
0.6608276331949122
 40
1.0
 40
1.0
 40
1.0
 40
1.0
 10
169.0602303265422
 20
142.172501012208
 30
0.0
 10
169.1017779140977
 20
142.1725010122079
 30
0.0
 10
169.1646499634318
 20
142.1725010122079
 30
0.0
 10
169.1434390356576
 20
142.172501012208
 30
0.0
 10
169.1362448750823
 20
142.172501012208
 30
0.0
  0
SPLINE
  5
17B
330
1F
100
AcDbEntity
  8
0
  6
Continuous
 62
     7
370
    18
100
AcDbSpline
210
0.0
220
0.0
230
1.0
 70
    24
 71
     3
 72
     9
 73
     5
 74
     0
 42
0.000000001
 43
0.00000001
 40
0.0
 40
0.0
 40
0.0
 40
0.0
 40
0.3391723668050878
 40
1.0
 40
1.0
 40
1.0
 40
1.0
 10
169.1362448750823
 20
146.9725011237804
 30
0.0
 10
169.1434390356576
 20
146.9725011237804
 30
0.0
 10
169.1646499634318
 20
146.9725011237804
 30
0.0
 10
169.1017779140977
 20
146.9725011237804
 30
0.0
 10
169.0602303265422
 20
146.9725011237804
 30
0.0
  0
LINE
  5
17C
330
1F
100
AcDbEntity
  8
0
  6
Continuous
 62
     7
370
    18
100
AcDbLine
 10
169.5602276145
 20
146.572500872
 30
0.0
 11
169.5602276145
 21
142.5725010312
 31
0.0
  0
LINE
  5
17D
330
1F
100
AcDbEntity
  8
0
  6
Continuous
 62
     7
370
    18
100
AcDbLine
 10
103.5602289035
 20
130.2725006216
 30
0.0
 11
107.5602286278
 21
130.2725006216
 31
0.0
  0
LINE
  5
17E
330
1F
100
AcDbEntity
  8
0
  6
Continuous
 62
     7
370
    18
100
AcDbLine
 10
103.0602288215
 20
132.7725010314
 30
0.0
 11
108.0602287098
 21
132.7725010314
 31
0.0
  0
LINE
  5
17F
330
1F
100
AcDbEntity
  8
0
  6
Continuous
 62
     7
370
    18
100
AcDbLine
 10
103.0602288215
 20
135.2725009755
 30
0.0
 11
108.0602287098
 21
135.2725009755
 31
0.0
  0
LINE
  5
180
330
1F
100
AcDbEntity
  8
0
  6
Continuous
 62
     7
370
    18
100
AcDbLine
 10
145.5602292686
 20
142.1725010122
 30
0.0
 11
144.5085574656
 21
142.1725010122
 31
0.0
  0
LINE
  5
181
330
1F
100
AcDbEntity
  8
0
  6
Continuous
 62
     7
370
    18
100
AcDbLine
 10
144.0078244327
 20
142.1725010122
 30
0.0
 11
140.508897674
 21
142.1725010122
 31
0.0
  0
LINE
  5
182
330
1F
100
AcDbEntity
  8
0
  6
Continuous
 62
     7
370
    18
100
AcDbLine
 10
140.0072035163
 20
142.1725010122
 30
0.0
 11
136.5088076114
 21
142.1725010122
 31
0.0
  0
LINE
  5
183
330
1F
100
AcDbEntity
  8
0
  6
Continuous
 62
     7
370
    18
100
AcDbLine
 10
136.0091418742
 20
142.1725010122
 30
0.0
 11
132.508259338
 21
142.1725010122
 31
0.0
  0
LINE
  5
184
330
1F
100
AcDbEntity
  8
0
  6
Continuous
 62
     7
370
    18
100
AcDbLine
 10
132.0079882412
 20
142.1725010122
 30
0.0
 11
128.5093455358
 21
142.1725010122
 31
0.0
  0
LINE
  5
185
330
1F
100
AcDbEntity
  8
0
  6
Continuous
 62
     7
370
    18
100
AcDbLine
 10
128.0073300718
 20
142.1725010122
 30
0.0
 11
124.5091618753
 21
142.1725010122
 31
0.0
  0
LINE
  5
186
330
1F
100
AcDbEntity
  8
0
  6
Continuous
 62
     7
370
    18
100
AcDbLine
 10
124.0084591104
 20
142.1725010122
 30
0.0
 11
120.5095101164
 21
142.1725010122
 31
0.0
  0
LINE
  5
187
330
1F
100
AcDbEntity
  8
0
  6
Continuous
 62
     7
370
    18
100
AcDbLine
 10
120.0075463408
 20
142.1725010122
 30
0.0
 11
116.508176156
 21
142.1725010122
 31
0.0
  0
LINE
  5
188
330
1F
100
AcDbEntity
  8
0
  6
Continuous
 62
     7
370
    18
100
AcDbLine
 10
116.0088573365
 20
142.1725010122
 30
0.0
 11
115.5602285421
 21
142.1725010122
 31
0.0
  0
LINE
  5
189
330
1F
100
AcDbEntity
  8
0
  6
Continuous
 62
     7
370
    18
100
AcDbLine
 10
145.5602292686
 20
146.9725011238
 30
0.0
 11
143.7407211183
 21
146.9725011238
 31
0.0
  0
LINE
  5
18A
330
1F
100
AcDbEntity
  8
0
  6
Continuous
 62
     7
370
    18
100
AcDbLine
 10
143.2404723733
 20
146.9725011238
 30
0.0
 11
139.7423242002
 21
146.9725011238
 31
0.0
  0
LINE
  5
18B
330
1F
100
AcDbEntity
  8
0
  6
Continuous
 62
     7
370
    18
100
AcDbLine
 10
139.2405182837
 20
146.9725011238
 30
0.0
 11
135.7410420446
 21
146.9725011238
 31
0.0
  0
LINE
  5
18C
330
1F
100
AcDbEntity
  8
0
  6
Continuous
 62
     7
370
    18
100
AcDbLine
 10
135.2423914491
 20
146.9725011238
 30
0.0
 11
131.7425436123
 21
146.9725011238
 31
0.0
  0
LINE
  5
18D
330
1F
100
AcDbEntity
  8
0
  6
Continuous
 62
     7
370
    18
100
AcDbLine
 10
131.2424578487
 20
146.9725011238
 30
0.0
 11
127.7410258322
 21
146.9725011238
 31
0.0
  0
LINE
  5
18E
330
1F
100
AcDbEntity
  8
0
  6
Continuous
 62
     7
370
    18
100
AcDbLine
 10
127.2404110773
 20
146.9725011238
 30
0.0
 11
123.7421879328
 21
146.9725011238
 31
0.0
  0
LINE
  5
18F
330
1F
100
AcDbEntity
  8
0
  6
Continuous
 62
     7
370
    18
100
AcDbLine
 10
123.2408593192
 20
146.9725011238
 30
0.0
 11
119.7417760982
 21
146.9725011238
 31
0.0
  0
LINE
  5
190
330
1F
100
AcDbEntity
  8
0
  6
Continuous
 62
     7
370
    18
100
AcDbLine
 10
119.240196726
 20
146.9725011238
 30
0.0
 11
115.740855063
 21
146.9725011238
 31
0.0
  0
SPLINE
  5
191
330
1F
100
AcDbEntity
  8
0
  6
Continuous
 62
     7
370
    18
100
AcDbSpline
210
0.0
220
0.0
230
1.0
 70
     8
 71
     3
 72
    14
 73
    10
 74
     0
 42
0.000000001
 43
0.00000001
 40
0.0
 40
0.0
 40
0.0
 40
0.0
 40
0.2500000000000001
 40
0.2500000000000001
 40
0.5000000000000001
 40
0.5000000000000001
 40
0.7500000000000002
 40
0.7500000000000002
 40
1.0
 40
1.0
 40
1.0
 40
1.0
 10
104.0683918335113
 20
140.2161837851463
 30
0.0
 10
104.0683918335113
 20
140.0963125614418
 30
0.0
 10
104.041803129287
 20
139.9788599431416
 30
0.0
 10
103.962510427014
 20
139.771837655936
 30
0.0
 10
103.9089876507263
 20
139.6807775604748
 30
0.0
 10
103.7972000722729
 20
139.533409211917
 30
0.0
 10
103.737859137283
 20
139.4754044977501
 30
0.0
 10
103.6308244953236
 20
139.3894780229017
 30
0.0
 10
103.5816099904511
 20
139.3600602531635
 30
0.0
 10
103.5418612212664
 20
139.3401497492369
 30
0.0
  0
LINE
  5
192
330
1F
100
AcDbEntity
  8
0
  6
Continuous
 62
     7
370
    18
100
AcDbLine
 10
104.0683920278
 20
141.15701032
 30
0.0
 11
104.0683920278
 21
140.2161837877
 31
0.0
  0
LINE
  5
193
330
1F
100
AcDbEntity
  8
0
  6
Continuous
 62
     7
370
    18
100
AcDbLine
 10
107.0520655035
 20
139.1523996689
 30
0.0
 11
107.0520655035
 21
141.15701032
 31
0.0
  0
SPLINE
  5
194
330
1F
100
AcDbEntity
  8
0
  6
Continuous
 62
     7
370
    18
100
AcDbSpline
210
0.0
220
0.0
230
1.0
 70
     8
 71
     3
 72
    14
 73
    10
 74
     0
 42
0.000000001
 43
0.00000001
 40
0.0
 40
0.0
 40
0.0
 40
0.0
 40
0.2499999999999998
 40
0.2499999999999998
 40
0.4999999999999999
 40
0.4999999999999999
 40
0.7499999999999999
 40
0.7499999999999999
 40
1.0
 40
1.0
 40
1.0
 40
1.0
 10
107.5785959151441
 20
138.3293047403681
 30
0.0
 10
107.5393616594463
 20
138.3457755098301
 30
0.0
 10
107.4923318639691
 20
138.3698743885414
 30
0.0
 10
107.3855611073941
 20
138.4462166353283
 30
0.0
 10
107.3276912195598
 20
138.4972558359165
 30
0.0
 10
107.2142869211858
 20
138.6350185244096
 30
0.0
 10
107.1601714297541
 20
138.7206287560414
 30
0.0
 10
107.0787886146052
 20
138.921411305104
 30
0.0
 10
107.052065302899
 20
139.0349964245447
 30
0.0
 10
107.052065302899
 20
139.1523995620731
 30
0.0
  0
LINE
  5
195
330
1F
100
AcDbEntity
  8
0
  6
Continuous
 62
     7
370
    18
100
AcDbLine
 10
104.0683920278
 20
140.2161837877
 30
0.0
 11
103.5602289035
 21
140.2161837877
 31
0.0
  0
LINE
  5
196
330
1F
100
AcDbEntity
  8
0
  6
Continuous
 62
     7
370
    18
100
AcDbLine
 10
107.5602286278
 20
139.1523996689
 30
0.0
 11
107.0520655035
 21
139.1523996689
 31
0.0
  0
ARC
  5
197
330
1F
100
AcDbEntity
  8
0
  6
Continuous
 62
     7
370
    18
100
AcDbCircle
 10
107.8849672391
 20
138.3211195735
 30
0.0
 40
0.3064803863169581
100
AcDbArc
 50
94.6299570779
 51
178.4696292788
  0
ARC
  5
198
330
1F
100
AcDbEntity
  8
0
  6
Continuous
 62
     7
370
    18
100
AcDbCircle
 10
103.2328711472
 20
139.328316435
 30
0.0
 40
0.3092167184161023
100
AcDbArc
 50
2.1931710729
 51
84.9242333098
  0
LINE
  5
199
330
1F
100
AcDbEntity
  8
0
  6
Continuous
 62
     8
370
    18
100
AcDbLine
 10
134.9214893549
 20
149.0530236014
 30
0.0
 11
134.9448357492
 21
149.0325866588
 31
0.0
  0
LINE
  5
19A
330
1F
100
AcDbEntity
  8
0
  6
Continuous
 62
     8
370
    18
100
AcDbLine
 10
136.8706059425
 20
140.0816112845
 30
0.0
 11
136.8798726021
 21
140.0842827833
 31
0.0
  0
LINE
  5
19B
330
1F
100
AcDbEntity
  8
0
  6
Continuous
 62
     8
370
    18
100
AcDbLine
 10
138.8718523799
 20
149.0602543899
 30
0.0
 11
138.8826519965
 21
149.0632942268
 31
0.0
  0
LINE
  5
19C
330
1F
100
AcDbEntity
  8
0
  6
Continuous
 62
     8
370
    18
100
AcDbLine
 10
140.8676226406
 20
140.0835364447
 30
0.0
 11
140.8807840912
 21
140.0864103897
 31
0.0
  0
LINE
  5
19D
330
1F
100
AcDbEntity
  8
0
  6
Continuous
 62
     8
370
    18
100
AcDbLine
 10
142.8709068118
 20
149.0614595213
 30
0.0
 11
142.88018651
 21
149.0646632709
 31
0.0
  0
LINE
  5
19E
330
1F
100
AcDbEntity
  8
0
  6
Continuous
 62
     8
370
    18
100
AcDbLine
 10
144.8692028194
 20
140.0855993242
 30
0.0
 11
144.8797249018
 21
140.087220524
 31
0.0
  0
SPLINE
  5
19F
330
1F
100
AcDbEntity
  8
0
  6
Continuous
 62
     8
370
    18
100
AcDbSpline
210
0.0
220
0.0
230
1.0
 70
     8
 71
     3
 72
    12
 73
     8
 74
     0
 42
0.000000001
 43
0.00000001
 40
0.0
 40
0.0
 40
0.0
 40
0.0
 40
0.0182444931647715
 40
0.26386750547277
 40
0.5093060749265892
 40
0.7545716413807144
 40
1.0
 40
1.0
 40
1.0
 40
1.0
 10
146.8781810968011
 20
149.0668109008018
 30
0.0
 10
146.8805932613813
 20
149.0678807229327
 30
0.0
 10
146.9154800540599
 20
149.083353408002
 30
0.0
 10
146.9827697159403
 20
149.016531146732
 30
0.0
 10
147.0801687826625
 20
148.8581861884762
 30
0.0
 10
147.1776471020009
 20
148.5922042327458
 30
0.0
 10
147.2425424454861
 20
148.3385301004914
 30
0.0
 10
147.2750008820384
 20
148.2116509550158
 30
0.0
  0
SPLINE
  5
1A0
330
1F
100
AcDbEntity
  8
0
  6
Continuous
 62
     8
370
    18
100
AcDbSpline
210
0.0
220
0.0
230
1.0
 70
     8
 71
     3
 72
    10
 73
     6
 74
     0
 42
0.000000001
 43
0.00000001
 40
0.0
 40
0.0
 40
0.0
 40
0.0
 40
0.3859094721081633
 40
0.8308657251613728
 40
0.9999999999999999
 40
0.9999999999999999
 40
0.9999999999999999
 40
0.9999999999999999
 10
146.8724199353545
 20
148.5653425888065
 30
0.0
 10
146.8442935280906
 20
148.5595408053859
 30
0.0
 10
146.7837371814433
 20
148.547049526116
 30
0.0
 10
146.7107368380704
 20
148.4573393503356
 30
0.0
 10
146.6659502408743
 20
148.3516189289029
 30
0.0
 10
146.6536150096743
 20
148.3225011587981
 30
0.0
  0
SPLINE
  5
1A1
330
1F
100
AcDbEntity
  8
0
  6
Continuous
 62
     8
370
    18
100
AcDbSpline
210
0.0
220
0.0
230
1.0
 70
     8
 71
     3
 72
    14
 73
    10
 74
     0
 42
0.000000001
 43
0.00000001
 40
0.0
 40
0.0
 40
0.0
 40
0.0
 40
0.0676775331730862
 40
0.2351620691893019
 40
0.4027043206840558
 40
0.5701353346683109
 40
0.737473666434332
 40
0.9049352723987207
 40
0.9999999999999999
 40
0.9999999999999999
 40
0.9999999999999999
 40
0.9999999999999999
 10
145.4638671844094
 20
142.172501012208
 30
0.0
 10
145.4507358903701
 20
142.1050607771691
 30
0.0
 10
145.4051080116247
 20
141.8707232581318
 30
0.0
 10
145.3270659112993
 20
141.5315412634707
 30
0.0
 10
145.2297213601072
 20
141.1653768940833
 30
0.0
 10
145.1323230950531
 20
140.8798016410081
 30
0.0
 10
145.0348513839646
 20
140.6858166232869
 30
0.0
 10
144.951522554985
 20
140.5852352367705
 30
0.0
 10
144.9006568468495
 20
140.5857446339652
 30
0.0
 10
144.8822376101105
 20
140.5859290943388
 30
0.0
  0
SPLINE
  5
1A2
330
1F
100
AcDbEntity
  8
0
  6
Continuous
 62
     8
370
    18
100
AcDbSpline
210
0.0
220
0.0
230
1.0
 70
     8
 71
     3
 72
    14
 73
    10
 74
     0
 42
0.000000001
 43
0.00000001
 40
0.0
 40
0.0
 40
0.0
 40
0.0
 40
0.129413881668631
 40
0.2959393169908273
 40
0.4623802808377395
 40
0.6289482270807686
 40
0.7955932971175452
 40
0.9621434303572014
 40
1.0
 40
1.0
 40
1.0
 40
1.0
 10
142.870429974684
 20
148.5625402391795
 30
0.0
 10
142.8452202412066
 20
148.5592287456004
 30
0.0
 10
142.7875714696017
 20
148.551656133332
 30
0.0
 10
142.6974258154961
 20
148.4313517832162
 30
0.0
 10
142.5999555206882
 20
148.2193556962249
 30
0.0
 10
142.5025800754044
 20
147.9195494284904
 30
0.0
 10
142.4052374821481
 20
147.5392303658007
 30
0.0
 10
142.3329172428715
 20
147.2188034347019
 30
0.0
 10
142.293044500072
 20
147.0109888420771
 30
0.0
 10
142.2856599806636
 20
146.9725011237804
 30
0.0
  0
SPLINE
  5
1A3
330
1F
100
AcDbEntity
  8
0
  6
Continuous
 62
     8
370
    18
100
AcDbSpline
210
0.0
220
0.0
230
1.0
 70
     8
 71
     3
 72
    14
 73
    10
 74
     0
 42
0.000000001
 43
0.00000001
 40
0.0
 40
0.0
 40
0.0
 40
0.0
 40
0.0563489973410473
 40
0.2235343366071788
 40
0.3908537416992378
 40
0.5581584035888388
 40
0.7253216658369182
 40
0.8924849614035641
 40
1.0
 40
1.0
 40
1.0
 40
1.0
 10
141.4640844582408
 20
142.172501012208
 30
0.0
 10
141.4531395015568
 20
142.1158712511676
 30
0.0
 10
141.4097212732476
 20
141.8912231356075
 30
0.0
 10
141.3338081730422
 20
141.5590772869855
 30
0.0
 10
141.2364630618861
 20
141.1882958341816
 30
0.0
 10
141.1391092979185
 20
140.8978793976841
 30
0.0
 10
141.0416679088256
 20
140.6954848444247
 30
0.0
 10
140.9558322736227
 20
140.5875902342656
 30
0.0
 10
140.9025411745479
 20
140.5857568023156
 30
0.0
 10
140.881681886205
 20
140.5850391574111
 30
0.0
  0
SPLINE
  5
1A4
330
1F
100
AcDbEntity
  8
0
  6
Continuous
 62
     8
370
    18
100
AcDbSpline
210
0.0
220
0.0
230
1.0
 70
     8
 71
     3
 72
    14
 73
    10
 74
     0
 42
0.000000001
 43
0.00000001
 40
0.0
 40
0.0
 40
0.0
 40
0.0
 40
0.1184625211214323
 40
0.2850419122072224
 40
0.4514799346155827
 40
0.6179281777132787
 40
0.7845159401389649
 40
0.9511111398210645
 40
1.0
 40
1.0
 40
1.0
 40
1.0
 10
138.870816749224
 20
148.5613555968646
 30
0.0
 10
138.8477311991926
 20
148.5594373068951
 30
0.0
 10
138.7921832565773
 20
148.5548215597717
 30
0.0
 10
138.7042155174909
 20
148.441362353208
 30
0.0
 10
138.6067657108374
 20
148.2377022907808
 30
0.0
 10
138.509328259
 20
147.9433853069155
 30
0.0
 10
138.4119724976177
 20
147.5677206743827
 30
0.0
 10
138.3375439100515
 20
147.2395859553984
 30
0.0
 10
138.2955136344136
 20
147.0218914811094
 30
0.0
 10
138.285977837333
 20
146.9725011237804
 30
0.0
  0
SPLINE
  5
1A5
330
1F
100
AcDbEntity
  8
0
  6
Continuous
 62
     8
370
    18
100
AcDbSpline
210
0.0
220
0.0
230
1.0
 70
     8
 71
     3
 72
    14
 73
    10
 74
     0
 42
0.000000001
 43
0.00000001
 40
0.0
 40
0.0
 40
0.0
 40
0.0
 40
0.045079036001486
 40
0.2121379491901365
 40
0.3793149809381146
 40
0.5465815158763137
 40
0.7137643928599575
 40
0.8808241774591589
 40
1.0
 40
1.0
 40
1.0
 40
1.0
 10
137.4642868309109
 20
142.172501012208
 30
0.0
 10
137.4555325653269
 20
142.1269201880997
 30
0.0
 10
137.414335767161
 20
141.91242086854
 30
0.0
 10
137.3405799487334
 20
141.5864937293967
 30
0.0
 10
137.2432029658488
 20
141.2110286262483
 30
0.0
 10
137.1458596743963
 20
140.9160736179089
 30
0.0
 10
137.0484832312273
 20
140.707105230859
 30
0.0
 10
136.9603301733792
 20
140.5899651814055
 30
0.0
 10
136.9047445338747
 20
140.5853413229575
 30
0.0
 10
136.8816011368125
 20
140.5834161532019
 30
0.0
  0
SPLINE
  5
1A6
330
1F
100
AcDbEntity
  8
0
  6
Continuous
 62
     8
370
    18
100
AcDbSpline
210
0.0
220
0.0
230
1.0
 70
     8
 71
     3
 72
     9
 73
     5
 74
     0
 42
0.000000001
 43
0.00000001
 40
0.0
 40
0.0
 40
0.0
 40
0.0
 40
0.2477403198971007
 40
1.0
 40
1.0
 40
1.0
 40
1.0
 10
134.9378266154616
 20
148.5424772226159
 30
0.0
 10
134.9271266774163
 20
148.5520842604067
 30
0.0
 10
134.8839365416734
 20
148.5908629210412
 30
0.0
 10
134.840790608174
 20
148.5669881632581
 30
0.0
 10
134.8083336620419
 20
148.5490281456057
 30
0.0
  0
SPLINE
  5
1A7
330
1F
100
AcDbEntity
  8
0
  6
Continuous
 62
     8
370
    18
100
AcDbSpline
210
0.0
220
0.0
230
1.0
 70
     8
 71
     3
 72
    16
 73
    12
 74
     0
 42
0.000000001
 43
0.00000001
 40
0.0
 40
0.0
 40
0.0
 40
0.0
 40
0.0381945119127221
 40
0.1184141539622426
 40
0.1984164902396443
 40
0.358784240171159
 40
0.5191533074703636
 40
0.5991542058269379
 40
0.6793752268219709
 40
0.8401480842369052
 40
1.0
 40
1.0
 40
1.0
 40
1.0
 10
134.6510463177054
 20
148.9854924701993
 30
0.0
 10
134.6443811734283
 20
148.9814937037083
 30
0.0
 10
134.623717277463
 20
148.9690963584559
 30
0.0
 10
134.5994112611342
 20
148.9359474451832
 30
0.0
 10
134.5680582643496
 20
148.8793881926661
 30
0.0
 10
134.5533198298012
 20
148.7974307759458
 30
0.0
 10
134.5683097191907
 20
148.7161225743033
 30
0.0
 10
134.5989644140255
 20
148.658526883329
 30
0.0
 10
134.6411763884085
 20
148.6090510444379
 30
0.0
 10
134.7105497290016
 20
148.5611869221031
 30
0.0
 10
134.7758014926628
 20
148.5530733027615
 30
0.0
 10
134.8083336620419
 20
148.5490281456057
 30
0.0
  0
SPLINE
  5
1A8
330
1F
100
AcDbEntity
  8
0
  6
Continuous
 62
     8
370
    18
100
AcDbSpline
210
0.0
220
0.0
230
1.0
 70
     8
 71
     3
 72
    13
 73
     9
 74
     0
 42
0.000000001
 43
0.00000001
 40
0.0
 40
0.0
 40
0.0
 40
0.0
 40
0.1866544461014802
 40
0.3731856407503752
 40
0.5598478632741235
 40
0.7466495650749232
 40
0.9333913315688845
 40
1.0
 40
1.0
 40
1.0
 40
1.0
 10
122.3416671405374
 20
147.2479751654808
 30
0.0
 10
122.3741254084571
 20
147.3937991635932
 30
0.0
 10
122.4390205114896
 20
147.6853508694805
 30
0.0
 10
122.5365000614519
 20
148.0323712626788
 30
0.0
 10
122.6338933215833
 20
148.3027725956437
 30
0.0
 10
122.7312355412315
 20
148.4799343549929
 30
0.0
 10
122.8077376142501
 20
148.5677447110118
 30
0.0
 10
122.8518243401444
 20
148.5621119451646
 30
0.0
 10
122.8634152344256
 20
148.5606310279016
 30
0.0
  0
SPLINE
  5
1A9
330
1F
100
AcDbEntity
  8
0
  6
Continuous
 62
     8
370
    18
100
AcDbSpline
210
0.0
220
0.0
230
1.0
 70
     8
 71
     3
 72
    14
 73
    10
 74
     0
 42
0.000000001
 43
0.00000001
 40
0.0
 40
0.0
 40
0.0
 40
0.0
 40
0.1647195974671674
 40
0.3295373737963521
 40
0.494459849506214
 40
0.6593189144128153
 40
0.824045260071762
 40
0.9888385771606644
 40
0.9999999999999999
 40
0.9999999999999999
 40
0.9999999999999999
 40
0.9999999999999999
 10
124.873958599457
 20
140.5729100196529
 30
0.0
 10
124.9064274884422
 20
140.5814060892837
 30
0.0
 10
124.9713846190496
 20
140.5984032925111
 30
0.0
 10
125.0687856818491
 20
140.7440860163549
 30
0.0
 10
125.1661256405991
 20
140.9712578636784
 30
0.0
 10
125.2634957859703
 20
141.2812630301435
 30
0.0
 10
125.3609581479269
 20
141.6740728738184
 30
0.0
 10
125.4280891522347
 20
141.9781131498782
 30
0.0
 10
125.4627278921441
 20
142.1609058346765
 30
0.0
 10
125.4649251482277
 20
142.172501012208
 30
0.0
  0
SPLINE
  5
1AA
330
1F
100
AcDbEntity
  8
0
  6
Continuous
 62
     8
370
    18
100
AcDbSpline
210
0.0
220
0.0
230
1.0
 70
     8
 71
     3
 72
    14
 73
    10
 74
     0
 42
0.000000001
 43
0.00000001
 40
0.0
 40
0.0
 40
0.0
 40
0.0
 40
0.0836655281277031
 40
0.2513935391815725
 40
0.4189900726158437
 40
0.5865367001777013
 40
0.7542230229543238
 40
0.9219602543519686
 40
1.0
 40
1.0
 40
1.0
 40
1.0
 10
126.2863064898937
 20
146.9725011237804
 30
0.0
 10
126.3025039146578
 20
147.0550159505413
 30
0.0
 10
126.3511730383482
 20
147.3029519260691
 30
0.0
 10
126.4322455629413
 20
147.6527675667422
 30
0.0
 10
126.5296703470274
 20
148.0122886618443
 30
0.0
 10
126.6271298917379
 20
148.2874964021623
 30
0.0
 10
126.7244977322772
 20
148.4710722591801
 30
0.0
 10
126.8044938462666
 20
148.5643940235909
 30
0.0
 10
126.8521029200664
 20
148.5608345691737
 30
0.0
 10
126.8672198771327
 20
148.5597043619398
 30
0.0
  0
SPLINE
  5
1AB
330
1F
100
AcDbEntity
  8
0
  6
Continuous
 62
     8
370
    18
100
AcDbSpline
210
0.0
220
0.0
230
1.0
 70
     8
 71
     3
 72
    14
 73
    10
 74
     0
 42
0.000000001
 43
0.00000001
 40
0.0
 40
0.0
 40
0.0
 40
0.0
 40
0.1482381089735555
 40
0.3140496248926226
 40
0.4800009720176538
 40
0.6459956450000012
 40
0.811871092235972
 40
0.9776705015174578
 40
1.0
 40
1.0
 40
1.0
 40
1.0
 10
128.8775308771818
 20
140.5780559261237
 30
0.0
 10
128.906545184091
 20
140.5837277846756
 30
0.0
 10
128.9680134007625
 20
140.5957438921599
 30
0.0
 10
129.0620291834646
 20
140.7308943259299
 30
0.0
 10
129.1593878322254
 20
140.952668814769
 30
0.0
 10
129.2567338281696
 20
141.2582287675562
 30
0.0
 10
129.354133283844
 20
141.6447406159309
 30
0.0
 10
129.4234917125303
 20
141.9560306916582
 30
0.0
 10
129.4603003175713
 20
142.1495336535719
 30
0.0
 10
129.4646692245095
 20
142.172501012208
 30
0.0
  0
SPLINE
  5
1AC
330
1F
100
AcDbEntity
  8
0
  6
Continuous
 62
     8
370
    18
100
AcDbSpline
210
0.0
220
0.0
230
1.0
 70
     8
 71
     3
 72
    13
 73
     9
 74
     0
 42
0.000000001
 43
0.00000001
 40
0.0
 40
0.0
 40
0.0
 40
0.0
 40
0.0793169554509254
 40
0.2635395746829455
 40
0.4477061987119935
 40
0.6317194289057597
 40
0.8157875307596604
 40
1.0
 40
1.0
 40
1.0
 40
1.0
 10
130.2861618592231
 20
146.9725011237804
 30
0.0
 10
130.3001510361728
 20
147.0441425955877
 30
0.0
 10
130.3466316621943
 20
147.2821795058853
 30
0.0
 10
130.4255014088187
 20
147.6245142793117
 30
0.0
 10
130.5228690802334
 20
147.9899361791699
 30
0.0
 10
130.6203296938632
 20
148.2702424345367
 30
0.0
 10
130.7177504108311
 20
148.4689120048183
 30
0.0
 10
130.7826441384198
 20
148.5249411529088
 30
0.0
 10
130.8151037215083
 20
148.5529667087738
 30
0.0
  0
SPLINE
  5
1AD
330
1F
100
AcDbEntity
  8
0
  6
Continuous
 62
     8
370
    18
100
AcDbSpline
210
0.0
220
0.0
230
1.0
 70
     8
 71
     3
 72
    14
 73
    10
 74
     0
 42
0.000000001
 43
0.00000001
 40
0.0
 40
0.0
 40
0.0
 40
0.0
 40
0.1409374453341437
 40
0.3060184212990944
 40
0.4711580024824414
 40
0.636423753952086
 40
0.8016600787296616
 40
0.9667555571763252
 40
1.0
 40
1.0
 40
1.0
 40
1.0
 10
132.8747282518833
 20
140.5799956964236
 30
0.0
 10
132.9024167542545
 20
140.5838242461642
 30
0.0
 10
132.9625369853519
 20
140.5921372019205
 30
0.0
 10
133.0552295174737
 20
140.7179076500566
 30
0.0
 10
133.152644616915
 20
140.9339273138055
 30
0.0
 10
133.2499907678651
 20
141.2349805404323
 30
0.0
 10
133.3473435373018
 20
141.6165918060782
 30
0.0
 10
133.4188671254063
 20
141.9343382931092
 30
0.0
 10
133.4578642795377
 20
142.1383122321114
 30
0.0
 10
133.4644007279365
 20
142.172501012208
 30
0.0
  0
SPLINE
  5
1AE
330
1F
100
AcDbEntity
  8
0
  6
Continuous
 62
     8
370
    18
100
AcDbSpline
210
0.0
220
0.0
230
1.0
 70
     8
 71
     3
 72
    13
 73
     9
 74
     0
 42
0.000000001
 43
0.00000001
 40
0.0
 40
0.0
 40
0.0
 40
0.0
 40
0.0677506478764749
 40
0.254263925930656
 40
0.4408370755054016
 40
0.6272708509638892
 40
0.8135738922146378
 40
0.9999999999999999
 40
0.9999999999999999
 40
0.9999999999999999
 40
0.9999999999999999
 10
134.2859455167143
 20
146.9725011237804
 30
0.0
 10
134.297749028549
 20
147.0333329063309
 30
0.0
 10
134.3420468670628
 20
147.2616307652803
 30
0.0
 10
134.4187636564706
 20
147.5965127857392
 30
0.0
 10
134.5161052246058
 20
147.966590563613
 30
0.0
 10
134.6134987440007
 20
148.2532639637183
 30
0.0
 10
134.7109781082598
 20
148.4595551084613
 30
0.0
 10
134.7758734267072
 20
148.5191972357411
 30
0.0
 10
134.8083317993968
 20
148.5490281456057
 30
0.0
  0
SPLINE
  5
1AF
330
1F
100
AcDbEntity
  8
0
  6
Continuous
 62
     8
370
    18
100
AcDbSpline
210
0.0
220
0.0
230
1.0
 70
     8
 71
     3
 72
    13
 73
     9
 74
     0
 42
0.000000001
 43
0.00000001
 40
0.0
 40
0.0
 40
0.0
 40
0.0
 40
0.2296883652045286
 40
0.4606992020378923
 40
0.5759624278225975
 40
0.6909144658328208
 40
0.9213428515249784
 40
1.0
 40
1.0
 40
1.0
 40
1.0
 10
122.3416659763842
 20
147.2479719058518
 30
0.0
 10
122.3091418427288
 20
147.2507075555515
 30
0.0
 10
122.2439063119318
 20
147.2561946059408
 30
0.0
 10
122.1746866588808
 20
147.2883858508997
 30
0.0
 10
122.1322894288514
 20
147.3216996268773
 30
0.0
 10
122.1025579079075
 20
147.3603187601627
 30
0.0
 10
122.0864425373332
 20
147.4012635220309
 30
0.0
 10
122.0964524985378
 20
147.4297970244618
 30
0.0
 10
122.0989998678504
 20
147.4370583281759
 30
0.0
  0
SPLINE
  5
1B0
330
1F
100
AcDbEntity
  8
0
  6
Continuous
 62
     8
370
    18
100
AcDbSpline
210
0.0
220
0.0
230
1.0
 70
     8
 71
     3
 72
    29
 73
    25
 74
     0
 42
0.000000001
 43
0.00000001
 40
0.0
 40
0.0
 40
0.0
 40
0.0
 40
0.0068602231250548
 40
0.0554852341203124
 40
0.1040777897844667
 40
0.1526433119803591
 40
0.2012447917297626
 40
0.2498707253220495
 40
0.2984705088409718
 40
0.3470357655730671
 40
0.3956301095541285
 40
0.4442554924655561
 40
0.4928620934196285
 40
0.5414293250000616
 40
0.5900164204410798
 40
0.6386398155849208
 40
0.6872525202506827
 40
0.7358237925591912
 40
0.7844039328907048
 40
0.833023958701883
 40
0.8816418326221324
 40
0.9302187584929039
 40
0.9787926700463767
 40
1.0
 40
1.0
 40
1.0
 40
1.0
 10
132.8741629390805
 20
140.0807250146661
 30
0.0
 10
132.8695806672496
 20
140.0787769911065
 30
0.0
 10
132.8325194200123
 20
140.0630214476921
 30
0.0
 10
132.7630615274112
 20
140.1327913078246
 30
0.0
 10
132.6656564678856
 20
140.2951103775839
 30
0.0
 10
132.5681862113812
 20
140.5698013750253
 30
0.0
 10
132.4708065803909
 20
140.9365518352004
 30
0.0
 10
132.3734658614284
 20
141.387330954724
 30
0.0
 10
132.2760830835194
 20
141.9110443949444
 30
0.0
 10
132.1786103782463
 20
142.4981310733955
 30
0.0
 10
132.08121557776
 20
143.1345964779971
 30
0.0
 10
131.9838741236227
 20
143.8039672575542
 30
0.0
 10
131.8865049703502
 20
144.4910109732355
 30
0.0
 10
131.7890379915504
 20
145.1801777702846
 30
0.0
 10
131.6916256478687
 20
145.8546493066167
 30
0.0
 10
131.5942819197363
 20
146.4994207577745
 30
0.0
 10
131.4969233029946
 20
147.1001070842111
 30
0.0
 10
131.3994679810208
 20
147.6418926251967
 30
0.0
 10
131.3020373270351
 20
148.1097367579739
 30
0.0
 10
131.204689614244
 20
148.4951774407587
 30
0.0
 10
131.1073377656652
 20
148.7924342004772
 30
0.0
 10
131.0099019262688
 20
148.985780155353
 30
0.0
 10
130.9307661955703
 20
149.0746768589534
 30
0.0
 10
130.8841736001935
 20
149.0618081596547
 30
0.0
 10
130.870013569185
 20
149.0578972124402
 30
0.0
  0
LINE
  5
1B1
330
1F
100
AcDbEntity
  8
0
  6
Continuous
 62
     8
370
    18
100
AcDbLine
 10
126.8816907673
 20
149.0590241128
 30
0.0
 11
126.8709833517
 21
149.0583442473
 31
0.0
  0
SPLINE
  5
1B2
330
1F
100
AcDbEntity
  8
0
  6
Continuous
 62
     8
370
    18
100
AcDbSpline
210
0.0
220
0.0
230
1.0
 70
     8
 71
     3
 72
    29
 73
    25
 74
     0
 42
0.000000001
 43
0.00000001
 40
0.0
 40
0.0
 40
0.0
 40
0.0
 40
0.0004209079495501
 40
0.0488624598774129
 40
0.0973300821579205
 40
0.1457733288504888
 40
0.194180737782879
 40
0.2426150916256233
 40
0.2910817817640938
 40
0.3395316998078052
 40
0.3879416727548464
 40
0.4363689246595092
 40
0.4848333745931763
 40
0.5332891344176616
 40
0.581703408128031
 40
0.6301235368930034
 40
0.6785840749979621
 40
0.7270447480720023
 40
0.7754652729023148
 40
0.8238800034175274
 40
0.872335972856222
 40
0.9208003023298805
 40
0.9692276986055636
 40
1.0
 40
1.0
 40
1.0
 40
1.0
 10
124.8748047060161
 20
140.0734062162135
 30
0.0
 10
124.8745223590161
 20
140.0732566491917
 30
0.0
 10
124.8417451948522
 20
140.0558936780083
 30
0.0
 10
124.7765394376051
 20
140.1191624100359
 30
0.0
 10
124.6791908660056
 20
140.2670579325709
 30
0.0
 10
124.5818137426197
 20
140.5267482420885
 30
0.0
 10
124.4843412936847
 20
140.8788794977395
 30
0.0
 10
124.3869425231807
 20
141.3201966332265
 30
0.0
 10
124.2896005711758
 20
141.8359120259328
 30
0.0
 10
124.1922342709142
 20
142.4144272497372
 30
0.0
 10
124.094769664531
 20
143.0438242094219
 30
0.0
 10
123.997352915285
 20
143.7099123179619
 30
0.0
 10
123.9000084170218
 20
144.3957153990306
 30
0.0
 10
123.8026519156543
 20
145.0855934962598
 30
0.0
 10
123.705200237058
 20
145.763720275369
 30
0.0
 10
123.6077650259479
 20
146.4130704550362
 30
0.0
 10
123.5104156022934
 20
147.0195982274331
 30
0.0
 10
123.4130661804324
 20
147.570076262598
 30
0.0
 10
123.315631131947
 20
148.0513460495073
 30
0.0
 10
123.2181799539787
 20
148.4483805667681
 30
0.0
 10
123.1208229233007
 20
148.7561094193425
 30
0.0
 10
123.0234802360796
 20
148.963615456775
 30
0.0
 10
122.9378829675531
 20
149.0714156388666
 30
0.0
 10
122.8847688719586
 20
149.0625706474604
 30
0.0
 10
122.8641318871467
 20
149.0591340088193
 30
0.0
  0
SPLINE
  5
1B3
330
1F
100
AcDbEntity
  8
0
  6
Continuous
 62
     8
370
    18
100
AcDbSpline
210
0.0
220
0.0
230
1.0
 70
     8
 71
     3
 72
    12
 73
     8
 74
     0
 42
0.000000001
 43
0.00000001
 40
0.0
 40
0.0
 40
0.0
 40
0.0
 40
0.2781203421324148
 40
0.5578426678999399
 40
0.6974105688431418
 40
0.8366019769485495
 40
1.0
 40
1.0
 40
1.0
 40
1.0
 10
122.3416671405374
 20
147.2479751654808
 30
0.0
 10
122.3741612459522
 20
147.2507125510077
 30
0.0
 10
122.4393366240515
 20
147.2562030895053
 30
0.0
 10
122.5089329822634
 20
147.2883725707805
 30
0.0
 10
122.5505471586766
 20
147.3217315318273
 30
0.0
 10
122.576639619801
 20
147.3521999247547
 30
0.0
 10
122.5807694763109
 20
147.3758658228874
 30
0.0
 10
122.5829995951443
 20
147.3886453867797
 30
0.0
  0
LINE
  5
1B4
330
1F
100
AcDbEntity
  8
0
  6
Continuous
 62
     8
370
    18
100
AcDbLine
 10
122.3416659764
 20
147.2479719059
 30
0.0
 11
122.2861551928
 21
146.9725011238
 31
0.0
  0
SPLINE
  5
1B5
330
1F
100
AcDbEntity
  8
0
  6
Continuous
 62
     8
370
    18
100
AcDbSpline
210
0.0
220
0.0
230
1.0
 70
     8
 71
     3
 72
    15
 73
    11
 74
     0
 42
0.000000001
 43
0.00000001
 40
0.0
 40
0.0
 40
0.0
 40
0.0
 40
0.0001791815868229
 40
0.1659224888287703
 40
0.3316855237384445
 40
0.4975853605563517
 40
0.6634846962658099
 40
0.8292464507252544
 40
0.9949881507530502
 40
1.0
 40
1.0
 40
1.0
 40
1.0
 10
121.4652085459619
 20
142.172501012208
 30
0.0
 10
121.465173543814
 20
142.1723151651241
 30
0.0
 10
121.432761488589
 20
142.0002204134301
 30
0.0
 10
121.3676656308763
 20
141.7046639642538
 30
0.0
 10
121.2702750108314
 20
141.3066301165946
 30
0.0
 10
121.1729141310057
 20
140.9915332253827
 30
0.0
 10
121.0755651970555
 20
140.7537974000759
 30
0.0
 10
120.9781384218851
 20
140.6158147098765
 30
0.0
 10
120.9121833626254
 20
140.559515135519
 30
0.0
 10
120.8787667359272
 20
140.5743912690899
 30
0.0
 10
120.8777859124183
 20
140.5748279038724
 30
0.0
  0
SPLINE
  5
1B6
330
1F
100
AcDbEntity
  8
0
  6
Continuous
 62
     8
370
    18
100
AcDbSpline
210
0.0
220
0.0
230
1.0
 70
     8
 71
     3
 72
    14
 73
    10
 74
     0
 42
0.000000001
 43
0.00000001
 40
0.0
 40
0.0
 40
0.0
 40
0.0
 40
0.0552154287019059
 40
0.2228074906083314
 40
0.3903921829711596
 40
0.5578365229822252
 40
0.725270427443734
 40
0.8928467147422043
 40
1.0
 40
1.0
 40
1.0
 40
1.0
 10
118.8675307626198
 20
148.5611162469629
 30
0.0
 10
118.8568247673018
 20
148.5630763296786
 30
0.0
 10
118.8136235098392
 20
148.5709857332916
 30
0.0
 10
118.7380260633292
 20
148.4893377428956
 30
0.0
 10
118.6406705099709
 20
148.3190043322826
 30
0.0
 10
118.5432330748698
 20
148.0556931372083
 30
0.0
 10
118.4457833382527
 20
147.7077688736793
 30
0.0
 10
118.3601428941576
 20
147.3447106732524
 30
0.0
 10
118.3069244183861
 20
147.07694015584
 30
0.0
 10
118.2861675174734
 20
146.9725011237804
 30
0.0
  0
SPLINE
  5
1B7
330
1F
100
AcDbEntity
  8
0
  6
Continuous
 62
     8
370
    18
100
AcDbSpline
210
0.0
220
0.0
230
1.0
 70
     8
 71
     3
 72
    13
 73
     9
 74
     0
 42
0.000000001
 43
0.00000001
 40
0.0
 40
0.0
 40
0.0
 40
0.0
 40
0.156438421706822
 40
0.3250589268390204
 40
0.4937867801882377
 40
0.6626164583239346
 40
0.8313745522714489
 40
1.0
 40
1.0
 40
1.0
 40
1.0
 10
117.4647773864507
 20
142.172501012208
 30
0.0
 10
117.434684045177
 20
142.0248870046282
 30
0.0
 10
117.3721539511459
 20
141.7181640757802
 30
0.0
 10
117.277044671275
 20
141.3325086337415
 30
0.0
 10
117.1796550508054
 20
141.0092801535777
 30
0.0
 10
117.0823143858949
 20
140.7710246220099
 30
0.0
 10
116.9849378338608
 20
140.612625313254
 30
0.0
 10
116.9199706078347
 20
140.586488722388
 30
0.0
 10
116.8874997661277
 20
140.5734255649056
 30
0.0
  0
SPLINE
  5
1B8
330
1F
100
AcDbEntity
  8
0
  6
Continuous
 62
     8
370
    18
100
AcDbSpline
210
0.0
220
0.0
230
1.0
 70
     8
 71
     3
 72
    10
 73
     6
 74
     0
 42
0.000000001
 43
0.00000001
 40
0.0
 40
0.0
 40
0.0
 40
0.0
 40
0.0227966954696615
 40
0.5180564725275111
 40
1.0
 40
1.0
 40
1.0
 40
1.0
 10
114.8466736326753
 20
148.5661435262207
 30
0.0
 10
114.8451782188232
 20
148.5664041589338
 30
0.0
 10
114.811194836177
 20
148.5723270552642
 30
0.0
 10
114.7456575256385
 20
148.5015442202393
 30
0.0
 10
114.6816406650571
 20
148.3816375271936
 30
0.0
 10
114.6500684103756
 20
148.3225011587981
 30
0.0
  0
SPLINE
  5
1B9
330
1F
100
AcDbEntity
  8
0
  6
Continuous
 62
     8
370
    18
100
AcDbSpline
210
0.0
220
0.0
230
1.0
 70
     8
 71
     3
 72
    11
 73
     7
 74
     0
 42
0.000000001
 43
0.00000001
 40
0.0
 40
0.0
 40
0.0
 40
0.0
 40
0.0442973299099873
 40
0.4898267121048219
 40
0.9350253849546253
 40
0.9999999999999999
 40
0.9999999999999999
 40
0.9999999999999999
 40
0.9999999999999999
 10
113.0987485653548
 20
140.8225010353979
 30
0.0
 10
113.0955197543977
 20
140.814276815192
 30
0.0
 10
113.0598165222079
 20
140.7233358318137
 30
0.0
 10
112.9917125573139
 20
140.6374788440281
 30
0.0
 10
112.9220102785759
 20
140.56373282762
 30
0.0
 10
112.8847909220574
 20
140.5769502886514
 30
0.0
 10
112.8800507417708
 20
140.5786336371582
 30
0.0
  0
SPLINE
  5
1BA
330
1F
100
AcDbEntity
  8
0
  6
Continuous
 62
     8
370
    18
100
AcDbSpline
210
0.0
220
0.0
230
1.0
 70
     8
 71
     3
 72
    10
 73
     6
 74
     0
 42
0.000000001
 43
0.00000001
 40
0.0
 40
0.0
 40
0.0
 40
0.0
 40
0.4901204954096436
 40
0.980656297259632
 40
1.0
 40
1.0
 40
1.0
 40
1.0
 10
110.848958675453
 20
148.5691242241208
 30
0.0
 10
110.8164865619661
 20
148.5497171732965
 30
0.0
 10
110.7515148195589
 20
148.510886626971
 30
0.0
 10
110.6853451328701
 20
148.4131804373181
 30
0.0
 10
110.6516070754754
 20
148.3258155882942
 30
0.0
 10
110.6503271280615
 20
148.3225011587981
 30
0.0
  0
SPLINE
  5
1BB
330
1F
100
AcDbEntity
  8
0
  6
Continuous
 62
     8
370
    18
100
AcDbSpline
210
0.0
220
0.0
230
1.0
 70
     8
 71
     3
 72
    28
 73
    24
 74
     0
 42
0.000000001
 43
0.00000001
 40
0.0
 40
0.0
 40
0.0
 40
0.0
 40
0.037813722531505
 40
0.0863433700311064
 40
0.1348728618539851
 40
0.1833618942366918
 40
0.2318450367971769
 40
0.2803697723499006
 40
0.3289031839257006
 40
0.3773993163231014
 40
0.4258781898310184
 40
0.474397056648427
 40
0.5229327141492142
 40
0.5714359869047453
 40
0.6199122760412267
 40
0.6684244605046745
 40
0.71696104093178
 40
0.7654715300649305
 40
0.8139475417887321
 40
0.8624526024923831
 40
0.9109886395390473
 40
0.9595059235802258
 40
1.0
 40
1.0
 40
1.0
 40
1.0
 10
110.8704009807496
 20
149.0630697780196
 30
0.0
 10
110.8957231703904
 20
149.0615144303855
 30
0.0
 10
110.9535435341043
 20
149.0579629695056
 30
0.0
 10
111.0437483272633
 20
148.9279315489108
 30
0.0
 10
111.1410990132242
 20
148.7004397195143
 30
0.0
 10
111.2385338333479
 20
148.3738651938526
 30
0.0
 10
111.3359857244316
 20
147.9564450747645
 30
0.0
 10
111.4333420423613
 20
147.4600135411882
 30
0.0
 10
111.530686762291
 20
146.8975487259828
 30
0.0
 10
111.6281027996813
 20
146.2813040888677
 30
0.0
 10
111.7255675424129
 20
145.6238859087331
 30
0.0
 10
111.8229338100411
 20
144.9419611345347
 30
0.0
 10
111.9202757380609
 20
144.2516335335908
 30
0.0
 10
112.0176746539805
 20
143.568539053573
 30
0.0
 10
112.1151465616867
 20
142.9093215979574
 30
0.0
 10
112.2125257261473
 20
142.289676403328
 30
0.0
 10
112.3098665987208
 20
141.7224683449328
 30
0.0
 10
112.4072493120822
 20
141.2204891422755
 30
0.0
 10
112.5047220412528
 20
140.7981792414289
 30
0.0
 10
112.6021169173018
 20
140.4652505624109
 30
0.0
 10
112.6994579674577
 20
140.229728822524
 30
0.0
 10
112.7914868522728
 20
140.0905214477716
 30
0.0
 10
112.8511069448506
 20
140.0832929788358
 30
0.0
 10
112.8782300061374
 20
140.0800045202393
 30
0.0
  0
SPLINE
  5
1BC
330
1F
100
AcDbEntity
  8
0
  6
Continuous
 62
     8
370
    18
100
AcDbSpline
210
0.0
220
0.0
230
1.0
 70
     8
 71
     3
 72
    28
 73
    24
 74
     0
 42
0.000000001
 43
0.00000001
 40
0.0
 40
0.0
 40
0.0
 40
0.0
 40
0.0335102992768063
 40
0.0821799707848539
 40
0.1308791729646046
 40
0.1795576234442979
 40
0.2281975926394495
 40
0.2768599952270643
 40
0.3255575567746779
 40
0.3742423488168166
 40
0.4228858755869044
 40
0.4715411897708151
 40
0.5202357167497385
 40
0.5689259349973688
 40
0.6175747785528503
 40
0.6662236326598064
 40
0.7149138363682109
 40
0.7636083599450333
 40
0.8122636796095442
 40
0.8609072300216813
 40
0.909592003256963
 40
0.9582895609094998
 40
1.0
 40
1.0
 40
1.0
 40
1.0
 10
114.8724805812179
 20
149.0608243592922
 30
0.0
 10
114.8948503773806
 20
149.0611964071428
 30
0.0
 10
114.9497096067754
 20
149.0621088096624
 30
0.0
 10
115.0370119080395
 20
148.9401810460508
 30
0.0
 10
115.1343522860049
 20
148.718851222774
 30
0.0
 10
115.2317247797316
 20
148.3984762325251
 30
0.0
 10
115.329193760545
 20
147.9887909224384
 30
0.0
 10
115.4266016314126
 20
147.4969378076845
 30
0.0
 10
115.5239442838913
 20
146.9379716208408
 30
0.0
 10
115.6213052761103
 20
146.3247767450679
 30
0.0
 10
115.7187640735583
 20
145.6703752843764
 30
0.0
 10
115.8161900590386
 20
144.9895698697073
 30
0.0
 10
115.9135368056517
 20
144.2993175437244
 30
0.0
 10
116.0108893314872
 20
143.6153065131714
 30
0.0
 10
116.1083330828031
 20
142.9533329662413
 30
0.0
 10
116.2057767591019
 20
142.330444327432
 30
0.0
 10
116.3031293492774
 20
141.7598569583188
 30
0.0
 10
116.4004760503865
 20
141.2536255466564
 30
0.0
 10
116.4979021732718
 20
140.8241650813822
 30
0.0
 10
116.5953604680564
 20
140.4842407575379
 30
0.0
 10
116.6927230962652
 20
140.2429601556493
 30
0.0
 10
116.7854265375766
 20
140.0974355151093
 30
0.0
 10
116.8457534925562
 20
140.0850371642653
 30
0.0
 10
116.8735858068629
 20
140.0793170877639
 30
0.0
  0
LWPOLYLINE
  5
1BD
330
1F
100
AcDbEntity
  8
0
  6
Continuous
 62
     8
370
    18
100
AcDbPolyline
 90
       23
 70
   128
 43
0.0
 10
118.8702654749
 20
149.0594506585
 10
118.9328125752
 20
149.0539018386
 10
119.0302084274
 20
148.9385463619
 10
119.1276042505
 20
148.7208920852
 10
119.2250001027
 20
148.4077278846
 10
119.3223959549
 20
148.0058458955
 10
119.4197918071
 20
147.5225062431
 10
119.5171876593
 20
146.9694864326
 10
119.6145835115
 20
146.3610822656
 10
119.7119793637
 20
145.7116193459
 10
119.809375216
 20
145.0354777598
 10
119.9067710682
 20
144.3480310817
 10
120.004166804
 20
143.6655003899
 10
120.1015626562
 20
143.0041342364
 10
120.1989585084
 20
142.3801329774
 10
120.2963543606
 20
141.8078553951
 10
120.3937502128
 20
141.2992707309
 10
120.491146065
 20
140.8661888826
 10
120.5885420336
 20
140.5203986186
 10
120.685937653
 20
140.2708890354
 10
120.7833335052
 20
140.1210693265
 10
120.8807293574
 20
140.0736872428
 10
120.8807293574
 20
140.0736872428
  0
LINE
  5
1BE
330
1F
100
AcDbEntity
  8
0
  6
Continuous
 62
     8
370
    18
100
AcDbLine
 10
109.2602285339
 20
138.5725009576
 30
0.0
 11
109.2602285339
 21
150.5725005963
 31
0.0
  0
SPLINE
  5
1BF
330
1F
100
AcDbEntity
  8
0
  6
Continuous
 62
     8
370
    18
100
AcDbSpline
210
0.0
220
0.0
230
1.0
 70
     8
 71
     3
 72
     9
 73
     5
 74
     0
 42
0.000000001
 43
0.00000001
 40
0.0
 40
0.0
 40
0.0
 40
0.0
 40
0.9006771536102383
 40
1.0
 40
1.0
 40
1.0
 40
1.0
 10
107.8602281181901
 20
138.6265998561773
 30
0.0
 10
107.9464402286786
 20
138.5954654164395
 30
0.0
 10
108.0421594440967
 20
138.5608976030859
 30
0.0
 10
108.0021401987518
 20
138.5754553109817
 30
0.0
 10
107.9981653733938
 20
138.5769012239669
 30
0.0
  0
LINE
  5
1C0
330
1F
100
AcDbEntity
  8
0
  6
Continuous
 62
     8
370
    18
100
AcDbLine
 10
107.8602281182
 20
150.5725005963
 30
0.0
 11
107.8602281182
 21
138.6265998562
 31
0.0
  0
LINE
  5
1C1
330
1F
100
AcDbEntity
  8
0
  6
Continuous
 62
     8
370
    18
100
AcDbLine
 10
115.2602285861
 20
140.8225010354
 30
0.0
 11
115.2602285861
 21
146.8852036022
 31
0.0
  0
LINE
  5
1C2
330
1F
100
AcDbEntity
  8
0
  6
Continuous
 62
     8
370
    18
100
AcDbLine
 10
101.8602289974
 20
141.1026307223
 30
0.0
 11
101.8602289974
 21
139.5725010051
 31
0.0
  0
LINE
  5
1C3
330
1F
100
AcDbEntity
  8
0
  6
Continuous
 62
     8
370
    18
100
AcDbLine
 10
103.2602284818
 20
148.0423714355
 30
0.0
 11
103.2602284818
 21
149.5725013637
 31
0.0
  0
LINE
  5
1C4
330
1F
100
AcDbEntity
  8
0
  6
Continuous
 62
     8
370
    18
100
AcDbLine
 10
101.8602289974
 20
149.5725013637
 30
0.0
 11
101.8602289974
 21
148.0423714355
 31
0.0
  0
SPLINE
  5
1C5
330
1F
100
AcDbEntity
  8
0
  6
Continuous
 62
     8
370
    18
100
AcDbSpline
210
0.0
220
0.0
230
1.0
 70
     8
 71
     3
 72
     9
 73
     5
 74
     0
 42
0.000000001
 43
0.00000001
 40
0.0
 40
0.0
 40
0.0
 40
0.0
 40
0.7597089706139732
 40
0.9999999999999999
 40
0.9999999999999999
 40
0.9999999999999999
 40
0.9999999999999999
 10
103.1241194127886
 20
139.5784841705952
 30
0.0
 10
103.1331074213016
 20
139.5826103627296
 30
0.0
 10
103.1449382787228
 20
139.5880416427249
 30
0.0
 10
103.2378924324851
 20
139.6269671361604
 30
0.0
 10
103.2602284817784
 20
139.6363205830474
 30
0.0
  0
LINE
  5
1C6
330
1F
100
AcDbEntity
  8
0
  6
Continuous
 62
     8
370
    18
100
AcDbLine
 10
97.7602285116
 20
141.0725010364
 30
0.0
 11
97.7602285116
 21
148.0725011178
 31
0.0
  0
LINE
  5
1C7
330
1F
100
AcDbEntity
  8
0
  6
Continuous
 62
     8
370
    18
100
AcDbLine
 10
96.3602290272
 20
144.5725010098
 30
0.0
 11
96.3602290272
 21
141.0725010364
 31
0.0
  0
LINE
  5
1C8
330
1F
100
AcDbEntity
  8
0
  6
Continuous
 62
     8
370
    18
100
AcDbLine
 10
96.3602290272
 20
148.0725011178
 30
0.0
 11
96.3602290272
 21
144.5725010098
 31
0.0
  0
SPLINE
  5
1C9
330
1F
100
AcDbEntity
  8
0
  6
Continuous
 62
     8
370
    18
100
AcDbSpline
210
0.0
220
0.0
230
1.0
 70
     8
 71
     3
 72
     9
 73
     5
 74
     0
 42
0.000000001
 43
0.00000001
 40
0.0
 40
0.0
 40
0.0
 40
0.0
 40
0.2394824052815307
 40
1.0
 40
1.0
 40
1.0
 40
1.0
 10
103.5418613596647
 20
139.3401497597713
 30
0.0
 10
103.5222627780986
 20
139.3302363036506
 30
0.0
 10
103.4404255277041
 20
139.288840961437
 30
0.0
 10
103.4301273323377
 20
139.283125870797
 30
0.0
 10
103.4222953735678
 20
139.2787794438098
 30
0.0
  0
SPLINE
  5
1CA
330
1F
100
AcDbEntity
  8
0
  6
Continuous
 62
     8
370
    18
100
AcDbSpline
210
0.0
220
0.0
230
1.0
 70
     8
 71
     3
 72
     9
 73
     5
 74
     0
 42
0.000000001
 43
0.00000001
 40
0.0
 40
0.0
 40
0.0
 40
0.0
 40
0.0980442181905
 40
1.0
 40
1.0
 40
1.0
 40
1.0
 10
107.6997807963579
 20
138.2770607569162
 30
0.0
 10
107.7032122356449
 20
138.2755673011835
 30
0.0
 10
107.7382111305344
 20
138.2603348299548
 30
0.0
 10
107.6542896427508
 20
138.2965974310247
 30
0.0
 10
107.5785961716263
 20
138.3293046937231
 30
0.0
  0
DIMENSION
  5
1CB
330
1F
100
AcDbEntity
  8
0
  6
Continuous
 62
     7
370
    18
100
AcDbDimension
  2
_D
 10
176.4463660206
 20
142.1725010371
 30
0.0
 11
176.4463660206
 21
156.322133968
 31
0.0
 70
   160
  1
%%c<>
 71
     2
 42
-1.0
  3
SLDDIMSTYLE0
100
AcDbAlignedDimension
 13
169.0602285682
 23
146.9725010371
 33
0.0
 14
169.0602285682
 24
142.1725010371
 34
0.0
 50
90.0
100
AcDbRotatedDimension
  0
DIMENSION
  5
1D9
330
1F
100
AcDbEntity
  8
0
  6
Continuous
 62
     7
370
    18
100
AcDbDimension
  2
_D_1
 10
184.4415800638
 20
136.4895972685
 30
0.0
 11
184.4415800638
 21
144.5725010371
 31
0.0
 70
   160
  1
<>
 71
     2
 42
-1.0
  3
SLDDIMSTYLE1
100
AcDbAlignedDimension
 13
162.1073119649
 23
152.6554048058
 33
0.0
 14
162.1073119649
 24
136.4895972685
 34
0.0
 50
90.0
100
AcDbRotatedDimension
  0
DIMENSION
  5
1E4
330
1F
100
AcDbEntity
  8
0
  6
Continuous
 62
     7
370
    18
100
AcDbDimension
  2
_D_2
 10
150.5602285682
 20
128.7566567316
 30
0.0
 11
157.9772570209
 21
128.7566567316
 31
0.0
 70
   160
  1
<>
 71
     2
 42
-1.0
  3
SLDDIMSTYLE2
100
AcDbAlignedDimension
 13
147.5602285682
 23
137.0669495538
 33
0.0
 14
150.5602285682
 24
137.0669495538
 34
0.0
100
AcDbRotatedDimension
  0
DIMENSION
  5
1F1
330
1F
100
AcDbEntity
  8
0
  6
Continuous
 62
     7
370
    18
100
AcDbDimension
  2
_D_3
 10
115.5602285682
 20
120.2725010371
 30
0.0
 11
130.5602285682
 21
120.2725010371
 31
0.0
 70
   160
  1
<>st
 71
     2
 42
-1.0
  3
SLDDIMSTYLE3
100
AcDbAlignedDimension
 13
145.5602285682
 23
141.3225010371
 33
0.0
 14
115.5602285682
 24
141.1225010371
 34
0.0
100
AcDbRotatedDimension
  0
DIMENSION
  5
1FD
330
1F
100
AcDbEntity
  8
0
  6
Continuous
 62
     7
370
    18
100
AcDbDimension
  2
_D_4
 10
169.5602285682
 20
110.1162327765
 30
0.0
 11
132.8102285682
 21
110.1162327765
 31
0.0
 70
   160
  1
<>
 71
     2
 42
-1.0
  3
SLDDIMSTYLE3
100
AcDbAlignedDimension
 13
96.0602285682
 23
141.3725010371
 33
0.0
 14
169.5602285682
 24
142.5725010371
 34
0.0
100
AcDbRotatedDimension
  0
DIMENSION
  5
207
330
1F
100
AcDbEntity
  8
0
  6
Continuous
 62
     7
370
    18
100
AcDbDimension
  2
_D_5
 10
169.5602285682
 20
174.6554048058
 30
0.0
 11
160.0602285682
 21
174.6554048058
 31
0.0
 70
   160
  1
<>
 71
     2
 42
-1.0
  3
SLDDIMSTYLE3
100
AcDbAlignedDimension
 13
150.5602285682
 23
152.0780525205
 33
0.0
 14
169.5602285682
 24
146.5725010371
 34
0.0
100
AcDbRotatedDimension
  0
DIMENSION
  5
211
330
1F
100
AcDbEntity
  8
0
  6
Continuous
 62
     7
370
    18
100
AcDbDimension
  2
_D_6
 10
150.5602285682
 20
164.6896337501
 30
0.0
 11
148.0602285682
 21
164.6896337501
 31
0.0
 70
   160
  1
<>
 71
     2
 42
-1.0
  3
SLDDIMSTYLE2
100
AcDbAlignedDimension
 13
145.5602285682
 23
147.8225010371
 33
0.0
 14
150.5602285682
 24
152.0780525205
 34
0.0
100
AcDbRotatedDimension
  0
DIMENSION
  5
21D
330
1F
100
AcDbEntity
  8
0
  6
Continuous
 62
     7
370
    18
100
AcDbDimension
  2
_D_7
 10
167.5602285682
 20
164.6896337501
 30
0.0
 11
159.0602285682
 21
164.6896337501
 31
0.0
 70
   160
  1
<>
 71
     2
 42
-1.0
  3
SLDDIMSTYLE3
100
AcDbAlignedDimension
 13
150.5602285682
 23
152.0780525205
 33
0.0
 14
167.5602285682
 24
148.5725010371
 34
0.0
100
AcDbRotatedDimension
  0
DIMENSION
  5
227
330
1F
100
AcDbEntity
  8
0
  6
Continuous
 62
     7
370
    18
100
AcDbDimension
  2
_D_8
 10
96.0602285682
 20
164.6896337501
 30
0.0
 11
108.1582369357
 21
164.6896337501
 31
0.0
 70
   160
  1
<>
 71
     2
 42
-1.0
  3
SLDDIMSTYLE2
100
AcDbAlignedDimension
 13
101.5602285682
 23
149.2725010371
 33
0.0
 14
96.0602285682
 24
147.7725010371
 34
0.0
100
AcDbRotatedDimension
  0
DIMENSION
  5
233
330
1F
100
AcDbEntity
  8
0
  6
Continuous
 62
     7
370
    18
100
AcDbDimension
  2
_D_9
 10
90.2185857838
 20
141.0725010371
 30
0.0
 11
90.2185857838
 21
144.5725010371
 31
0.0
 70
   160
  1
%%c<>
 71
     2
 42
-1.0
  3
SLDDIMSTYLE2
100
AcDbAlignedDimension
 13
96.3602285682
 23
148.0725010371
 33
0.0
 14
96.3602285682
 24
141.0725010371
 34
0.0
 50
90.0
100
AcDbRotatedDimension
  0
DIMENSION
  5
240
330
1F
100
AcDbEntity
  8
0
  6
Continuous
 62
     7
370
    18
100
AcDbDimension
  2
_D_10
 10
81.2707866964
 20
139.5725010371
 30
0.0
 11
81.2707866964
 21
144.5725010371
 31
0.0
 70
   160
  1
%%c<>
 71
     2
 42
-1.0
  3
SLDDIMSTYLE2
100
AcDbAlignedDimension
 13
101.8602285682
 23
149.5725010371
 33
0.0
 14
101.8602285682
 24
139.5725010371
 34
0.0
 50
90.0
100
AcDbRotatedDimension
  0
INSERT
  5
252
330
1F
100
AcDbEntity
  8
0
  6
Continuous
 62
     7
370
     0
100
AcDbBlockReference
  2
SW_NOTE_0
 10
172.8374384236
 20
163.8497538883
 30
0.0
  0
LEADER
  5
254
330
1F
100
AcDbEntity
  8
0
  6
Continuous
 62
     7
370
     0
100
AcDbLeader
  3
SLDDIMSTYLE4
 76
     2
 10
154.7247614973
 20
149.5725010371
 30
0.0
 10
172.8374384236
 20
163.8497538883
 30
0.0
  0
LINE
  5
255
330
1F
100
AcDbEntity
  8
0
  6
Continuous
 62
     7
370
    18
100
AcDbLine
 10
40.6787106926
 20
132.7725010314
 30
0.0
 11
41.1787105417
 21
130.2725006216
 31
0.0
  0
LINE
  5
256
330
1F
100
AcDbEntity
  8
0
  6
Continuous
 62
     7
370
    18
100
AcDbLine
 10
45.1787107317
 20
130.2725006216
 30
0.0
 11
45.6787105809
 21
132.7725010314
 31
0.0
  0
LINE
  5
257
330
1F
100
AcDbEntity
  8
0
  6
Continuous
 62
     7
370
    18
100
AcDbLine
 10
40.6787106926
 20
135.2725009755
 30
0.0
 11
41.1787105417
 21
132.7725010314
 31
0.0
  0
LINE
  5
258
330
1F
100
AcDbEntity
  8
0
  6
Continuous
 62
     7
370
    18
100
AcDbLine
 10
45.1787107317
 20
132.7725010314
 30
0.0
 11
45.6787105809
 21
135.2725009755
 31
0.0
  0
LINE
  5
259
330
1F
100
AcDbEntity
  8
0
  6
Continuous
 62
     7
370
    18
100
AcDbLine
 10
41.0287105637
 20
140.0583566255
 30
0.0
 11
41.0287105637
 21
135.2725009755
 31
0.0
  0
LINE
  5
25A
330
1F
100
AcDbEntity
  8
0
  6
Continuous
 62
     7
370
    18
100
AcDbLine
 10
45.3287107097
 20
135.2725009755
 30
0.0
 11
45.3287107097
 21
140.0583566255
 31
0.0
  0
LINE
  5
25B
330
1F
100
AcDbEntity
  8
0
  6
Continuous
 62
     7
370
    18
100
AcDbLine
 10
49.6814595694
 20
140.8244895837
 30
0.0
 11
49.675958247
 21
148.3300411464
 31
0.0
  0
LINE
  5
25C
330
1F
100
AcDbEntity
  8
0
  6
Continuous
 62
     7
370
    18
100
AcDbLine
 10
45.3287107097
 20
138.3071732097
 30
0.0
 11
49.6814595694
 21
140.8244895837
 31
0.0
  0
LINE
  5
25D
330
1F
100
AcDbEntity
  8
0
  6
Continuous
 62
     7
370
    18
100
AcDbLine
 10
49.675958247
 20
148.3300411464
 30
0.0
 11
43.1732093075
 21
152.078052456
 31
0.0
  0
LINE
  5
25E
330
1F
100
AcDbEntity
  8
0
  6
Continuous
 62
     7
370
    18
100
AcDbLine
 10
36.675961704
 20
148.3205123194
 30
0.0
 11
36.6814630265
 21
140.8149610187
 31
0.0
  0
LINE
  5
25F
330
1F
100
AcDbEntity
  8
0
  6
Continuous
 62
     7
370
    18
100
AcDbLine
 10
43.1732093075
 20
152.078052456
 30
0.0
 11
36.675961704
 21
148.3205123194
 31
0.0
  0
LINE
  5
260
330
1F
100
AcDbEntity
  8
0
  6
Continuous
 62
     7
370
    18
100
AcDbLine
 10
36.6814630265
 20
140.8149610187
 30
0.0
 11
41.0287105637
 21
138.3093231679
 31
0.0
  0
ARC
  5
261
330
1F
100
AcDbEntity
  8
0
  6
Continuous
 62
     7
370
    18
100
AcDbCircle
 10
43.1787106367
 20
144.5725010371
 30
0.0
 40
7.249999999999992
100
AcDbArc
 50
135.0901851794
 51
146.3335512412
  0
ARC
  5
262
330
1F
100
AcDbEntity
  8
0
  6
Continuous
 62
     7
370
    18
100
AcDbCircle
 10
43.1787106367
 20
144.5725010371
 30
0.0
 40
7.249999999999995
100
AcDbArc
 50
153.7504406917
 51
164.9098148206
  0
SPLINE
  5
263
330
1F
100
AcDbEntity
  8
0
  6
Continuous
 62
     7
370
    18
100
AcDbSpline
210
0.0
220
0.0
230
1.0
 70
    24
 71
     3
 72
    10
 73
     6
 74
     0
 42
0.000000001
 43
0.00000001
 40
0.0
 40
0.0
 40
0.0
 40
0.0
 40
0.5
 40
0.5
 40
1.0
 40
1.0
 40
1.0
 40
1.0
 10
36.17871063673271
 20
148.6139529214643
 30
0.0
 10
36.17871063673277
 20
148.2615328115745
 30
0.0
 10
36.17871063673282
 20
147.9059197984845
 30
0.0
 10
36.17871063673293
 20
147.186535020389
 30
0.0
 10
36.17871063673299
 20
146.8227399178888
 30
0.0
 10
36.17871063673304
 20
146.4599596459545
 30
0.0
  0
SPLINE
  5
264
330
1F
100
AcDbEntity
  8
0
  6
Continuous
 62
     7
370
    18
100
AcDbSpline
210
0.0
220
0.0
230
1.0
 70
    24
 71
     3
 72
     8
 73
     4
 74
     0
 42
0.000000001
 43
0.00000001
 40
0.0
 40
0.0
 40
0.0
 40
0.0
 40
1.0
 40
1.0
 40
1.0
 40
1.0
 10
38.04412353290482
 20
149.6909495592194
 30
0.0
 10
37.40939323371079
 20
149.3244878501168
 30
0.0
 10
36.78936074706275
 20
148.9665119270441
 30
0.0
 10
36.1787106367327
 20
148.6139529214643
 30
0.0
  0
LINE
  5
265
330
1F
100
AcDbEntity
  8
0
  6
Continuous
 62
     7
370
    18
100
AcDbLine
 10
50.1787108528
 20
142.6850424004
 30
0.0
 11
50.1787108528
 21
146.459959852
 31
0.0
  0
ARC
  5
266
330
1F
100
AcDbEntity
  8
0
  6
Continuous
 62
     7
370
    18
100
AcDbCircle
 10
43.1787106367
 20
144.5725010371
 30
0.0
 40
7.249999999999997
100
AcDbArc
 50
315.0901851794
 51
326.3335512412
  0
ARC
  5
267
330
1F
100
AcDbEntity
  8
0
  6
Continuous
 62
     7
370
    18
100
AcDbCircle
 10
43.1787106367
 20
144.5725010371
 30
0.0
 40
7.250000000000002
100
AcDbArc
 50
333.7504406917
 51
344.9098148206
  0
LINE
  5
268
330
1F
100
AcDbEntity
  8
0
  6
Continuous
 62
     7
370
    18
100
AcDbLine
 10
45.3287107097
 20
137.73090037
 30
0.0
 11
48.3132978129
 21
139.4540524897
 31
0.0
  0
LINE
  5
269
330
1F
100
AcDbEntity
  8
0
  6
Continuous
 62
     7
370
    18
100
AcDbLine
 10
38.0441234606
 20
139.4540524897
 30
0.0
 11
41.0287105637
 21
137.73090037
 31
0.0
  0
ARC
  5
26A
330
1F
100
AcDbEntity
  8
0
  6
Continuous
 62
     7
370
    18
100
AcDbCircle
 10
43.1787106367
 20
144.5725010371
 30
0.0
 40
7.250000000000009
100
AcDbArc
 50
195.0901851794
 51
206.3335512412
  0
ARC
  5
26B
330
1F
100
AcDbEntity
  8
0
  6
Continuous
 62
     7
370
    18
100
AcDbCircle
 10
43.1787106367
 20
144.5725010371
 30
0.0
 40
7.250000000000004
100
AcDbArc
 50
213.7504406917
 51
224.9098148206
  0
LINE
  5
26C
330
1F
100
AcDbEntity
  8
0
  6
Continuous
 62
     7
370
    18
100
AcDbLine
 10
36.1787104207
 20
146.459959852
 30
0.0
 11
36.1787104207
 21
142.6850424004
 31
0.0
  0
LINE
  5
26D
330
1F
100
AcDbEntity
  8
0
  6
Continuous
 62
     7
370
    18
100
AcDbLine
 10
41.3132977132
 20
151.5784081393
 30
0.0
 11
38.0441234606
 21
149.6909497627
 31
0.0
  0
ARC
  5
26E
330
1F
100
AcDbEntity
  8
0
  6
Continuous
 62
     7
370
    18
100
AcDbCircle
 10
43.1787106367
 20
144.5725010371
 30
0.0
 40
7.250000000000008
100
AcDbArc
 50
75.0901851794
 51
86.3335512412
  0
ARC
  5
26F
330
1F
100
AcDbEntity
  8
0
  6
Continuous
 62
     7
370
    18
100
AcDbCircle
 10
43.1787106367
 20
144.5725010371
 30
0.0
 40
7.24999999999998
100
AcDbArc
 50
93.7504406917
 51
104.9098148206
  0
LINE
  5
270
330
1F
100
AcDbEntity
  8
0
  6
Continuous
 62
     7
370
    18
100
AcDbLine
 10
48.3132978129
 20
149.6909497627
 30
0.0
 11
45.0441235602
 21
151.5784081393
 31
0.0
  0
ARC
  5
271
330
1F
100
AcDbEntity
  8
0
  6
Continuous
 62
     7
370
    18
100
AcDbCircle
 10
43.1787106367
 20
144.5725010371
 30
0.0
 40
7.249999999999995
100
AcDbArc
 50
15.0901851794
 51
26.3335512412
  0
ARC
  5
272
330
1F
100
AcDbEntity
  8
0
  6
Continuous
 62
     7
370
    18
100
AcDbCircle
 10
43.1787106367
 20
144.5725010371
 30
0.0
 40
7.250000000000004
100
AcDbArc
 50
33.7504406917
 51
44.9098148206
  0
SPLINE
  5
273
330
1F
100
AcDbEntity
  8
0
  6
Continuous
 62
     7
370
    18
100
AcDbSpline
210
0.0
220
0.0
230
1.0
 70
    24
 71
     3
 72
     8
 73
     4
 74
     0
 42
0.000000001
 43
0.00000001
 40
0.0
 40
0.0
 40
0.0
 40
0.0
 40
1.0
 40
1.0
 40
1.0
 40
1.0
 10
36.17871063673395
 20
140.5310491528095
 30
0.0
 10
36.79160919845739
 20
140.1771920032127
 30
0.0
 10
37.41770339823039
 20
139.8157163484358
 30
0.0
 10
38.04412353290639
 20
139.4540525150549
 30
0.0
  0
SPLINE
  5
274
330
1F
100
AcDbEntity
  8
0
  6
Continuous
 62
     7
370
    18
100
AcDbSpline
210
0.0
220
0.0
230
1.0
 70
    24
 71
     3
 72
    10
 73
     6
 74
     0
 42
0.000000001
 43
0.00000001
 40
0.0
 40
0.0
 40
0.0
 40
0.0
 40
0.5
 40
0.5
 40
1.0
 40
1.0
 40
1.0
 40
1.0
 10
36.17871063673363
 20
142.6850424283192
 30
0.0
 10
36.17871063673368
 20
142.3195100884627
 30
0.0
 10
36.17871063673374
 20
141.9553367335959
 30
0.0
 10
36.17871063673385
 20
141.2377333670402
 30
0.0
 10
36.1787106367339
 20
140.8828528012962
 30
0.0
 10
36.17871063673396
 20
140.5310491528095
 30
0.0
  0
SPLINE
  5
275
330
1F
100
AcDbEntity
  8
0
  6
Continuous
 62
     7
370
    18
100
AcDbSpline
210
0.0
220
0.0
230
1.0
 70
    24
 71
     3
 72
     8
 73
     4
 74
     0
 42
0.000000001
 43
0.00000001
 40
0.0
 40
0.0
 40
0.0
 40
0.0
 40
1.0
 40
1.0
 40
1.0
 40
1.0
 10
45.04412353290453
 20
151.5784081680381
 30
0.0
 10
44.40939323371039
 20
151.9448698771406
 30
0.0
 10
43.78936074706225
 20
152.302845800213
 30
0.0
 10
43.17871063673208
 20
152.6554048057927
 30
0.0
  0
SPLINE
  5
276
330
1F
100
AcDbEntity
  8
0
  6
Continuous
 62
     7
370
    18
100
AcDbSpline
210
0.0
220
0.0
230
1.0
 70
    24
 71
     3
 72
     8
 73
     4
 74
     0
 42
0.000000001
 43
0.00000001
 40
0.0
 40
0.0
 40
0.0
 40
0.0
 40
1.0
 40
1.0
 40
1.0
 40
1.0
 10
43.17871063673209
 20
152.6554048057927
 30
0.0
 10
42.56581207500877
 20
152.3015476561957
 30
0.0
 10
41.93971787523587
 20
151.9400720014186
 30
0.0
 10
41.31329774055999
 20
151.5784081680376
 30
0.0
  0
SPLINE
  5
277
330
1F
100
AcDbEntity
  8
0
  6
Continuous
 62
     7
370
    18
100
AcDbSpline
210
0.0
220
0.0
230
1.0
 70
    24
 71
     3
 72
    10
 73
     6
 74
     0
 42
0.000000001
 43
0.00000001
 40
0.0
 40
0.0
 40
0.0
 40
0.0
 40
0.5000000000000001
 40
0.5000000000000001
 40
1.0
 40
1.0
 40
1.0
 40
1.0
 10
50.17871063673396
 20
140.5310491528116
 30
0.0
 10
50.1787106367339
 20
140.8834692627014
 30
0.0
 10
50.17871063673385
 20
141.2390822757913
 30
0.0
 10
50.17871063673374
 20
141.9584670538869
 30
0.0
 10
50.17871063673368
 20
142.3222621563871
 30
0.0
 10
50.17871063673363
 20
142.6850424283214
 30
0.0
  0
SPLINE
  5
278
330
1F
100
AcDbEntity
  8
0
  6
Continuous
 62
     7
370
    18
100
AcDbSpline
210
0.0
220
0.0
230
1.0
 70
    24
 71
     3
 72
     8
 73
     4
 74
     0
 42
0.000000001
 43
0.00000001
 40
0.0
 40
0.0
 40
0.0
 40
0.0
 40
1.0
 40
1.0
 40
1.0
 40
1.0
 10
48.31329774056186
 20
139.4540525150565
 30
0.0
 10
48.94802803975588
 20
139.8205142241591
 30
0.0
 10
49.56806052640393
 20
140.1784901472318
 30
0.0
 10
50.17871063673397
 20
140.5310491528116
 30
0.0
  0
SPLINE
  5
279
330
1F
100
AcDbEntity
  8
0
  6
Continuous
 62
     7
370
    18
100
AcDbSpline
210
0.0
220
0.0
230
1.0
 70
    24
 71
     3
 72
    10
 73
     6
 74
     0
 42
0.000000001
 43
0.00000001
 40
0.0
 40
0.0
 40
0.0
 40
0.0
 40
0.5
 40
0.5
 40
1.0
 40
1.0
 40
1.0
 40
1.0
 10
50.17871063673304
 20
146.4599596459567
 30
0.0
 10
50.17871063673299
 20
146.8254919858132
 30
0.0
 10
50.17871063673293
 20
147.1896653406801
 30
0.0
 10
50.17871063673282
 20
147.9072687072357
 30
0.0
 10
50.17871063673277
 20
148.2621492729797
 30
0.0
 10
50.17871063673271
 20
148.6139529214664
 30
0.0
  0
SPLINE
  5
27A
330
1F
100
AcDbEntity
  8
0
  6
Continuous
 62
     7
370
    18
100
AcDbSpline
210
0.0
220
0.0
230
1.0
 70
    24
 71
     3
 72
     8
 73
     4
 74
     0
 42
0.000000001
 43
0.00000001
 40
0.0
 40
0.0
 40
0.0
 40
0.0
 40
1.0
 40
1.0
 40
1.0
 40
1.0
 10
50.17871063673271
 20
148.6139529214664
 30
0.0
 10
49.56581207500928
 20
148.9678100710632
 30
0.0
 10
48.93971787523628
 20
149.3292857258401
 30
0.0
 10
48.31329774056028
 20
149.690949559221
 30
0.0
  0
CIRCLE
  5
27B
330
1F
100
AcDbEntity
  8
0
  6
Continuous
 62
     7
370
    18
100
AcDbCircle
 10
43.1787106367
 20
144.5725010371
 30
0.0
 40
3.5
  0
CIRCLE
  5
27C
330
1F
100
AcDbEntity
  8
0
  6
Continuous
 62
     7
370
    18
100
AcDbCircle
 10
43.1787106367
 20
144.5725010371
 30
0.0
 40
3.199999999999996
  0
CIRCLE
  5
27D
330
1F
100
AcDbEntity
  8
0
  6
Continuous
 62
     7
370
    18
100
AcDbCircle
 10
43.1787106367
 20
144.5725010371
 30
0.0
 40
1.5
  0
SPLINE
  5
27E
330
1F
100
AcDbEntity
  8
0
  6
Continuous
 62
     7
370
    18
100
AcDbSpline
210
0.0
220
0.0
230
1.0
 70
     8
 71
     3
 72
    22
 73
    18
 74
     0
 42
0.000000001
 43
0.00000001
 40
0.0
 40
0.0
 40
0.0
 40
0.0
 40
0.0990731800419032
 40
0.1569584582190773
 40
0.2012304161831991
 40
0.245671423210834
 40
0.307701025827241
 40
0.4083992995555064
 40
0.4922732647993414
 40
0.5588332853579804
 40
0.6256940991748747
 40
0.6861587654482484
 40
0.7498065654361165
 40
0.845053789355435
 40
0.9421365296701901
 40
0.9875289731044069
 40
1.0
 40
1.0
 40
1.0
 40
1.0
 10
42.30788706760303
 20
143.4073657118622
 30
0.0
 10
42.2085664130413
 20
143.4952649103855
 30
0.0
 10
42.05121588888605
 20
143.6345207884452
 30
0.0
 10
41.94959186705796
 20
143.7885968811681
 30
0.0
 10
41.91794468283992
 20
143.8393426435744
 30
0.0
 10
41.93846861556037
 20
143.8015330739636
 30
0.0
 10
42.03822858653363
 20
143.6473139175768
 30
0.0
 10
42.25285562680111
 20
143.4178693281387
 30
0.0
 10
42.58086516464399
 20
143.2197579710262
 30
0.0
 10
42.93834305318515
 20
143.1137280031594
 30
0.0
 10
43.29053179337293
 20
143.0991522666779
 30
0.0
 10
43.62043805042426
 20
143.1651724745959
 30
0.0
 10
43.94546396328207
 20
143.3080697125847
 30
0.0
 10
44.23066345635586
 20
143.5359304662947
 30
0.0
 10
44.38315009131814
 20
143.7410393106776
 30
0.0
 10
44.43501500407409
 20
143.8303373297838
 30
0.0
 10
44.42868404280819
 20
143.8207330929116
 30
0.0
 10
44.427319562113
 20
143.8186631393526
 30
0.0
  0
CIRCLE
  5
27F
330
1F
100
AcDbEntity
  8
0
  6
Continuous
 62
     7
370
    18
100
AcDbCircle
 10
43.1787106367
 20
144.5725010371
 30
0.0
 40
1.449821465561925
  0
ARC
  5
280
330
1F
100
AcDbEntity
  8
0
  6
Continuous
 62
     7
370
    18
100
AcDbCircle
 10
43.1787106367
 20
144.5725010371
 30
0.0
 40
4.999999999999991
100
AcDbArc
 50
43.9455195623
 51
136.0544804377
  0
SPLINE
  5
281
330
1F
100
AcDbEntity
  8
0
  6
Continuous
 62
     7
370
    18
100
AcDbSpline
210
0.0
220
0.0
230
1.0
 70
    24
 71
     3
 72
    12
 73
     8
 74
     0
 42
0.000000001
 43
0.00000001
 40
0.0
 40
0.0
 40
0.0
 40
0.0
 40
0.2499999999999969
 40
0.2499999999999969
 40
0.4999999999999939
 40
0.4999999999999939
 40
1.0
 40
1.0
 40
1.0
 40
1.0
 10
46.77871063673319
 20
148.0423713517174
 30
0.0
 10
46.77871063673319
 20
148.0423713517174
 30
0.0
 10
46.77871063673319
 20
148.0235315604002
 30
0.0
 10
46.77871063673319
 20
147.9631389215969
 30
0.0
 10
46.77871063673319
 20
147.9231483717969
 30
0.0
 10
46.77871063673319
 20
147.79280148104
 30
0.0
 10
46.77871063673319
 20
147.692784676843
 30
0.0
 10
46.77871063673319
 20
147.5940900230856
 30
0.0
  0
ARC
  5
282
330
1F
100
AcDbEntity
  8
0
  6
Continuous
 62
     7
370
    18
100
AcDbCircle
 10
43.1787106367
 20
144.5725010371
 30
0.0
 40
4.700000000000004
100
AcDbArc
 50
40.0077539135
 51
139.9922460865
  0
SPLINE
  5
283
330
1F
100
AcDbEntity
  8
0
  6
Continuous
 62
     7
370
    18
100
AcDbSpline
210
0.0
220
0.0
230
1.0
 70
    24
 71
     3
 72
    12
 73
     8
 74
     0
 42
0.000000001
 43
0.00000001
 40
0.0
 40
0.0
 40
0.0
 40
0.0
 40
0.4999999999999958
 40
0.4999999999999958
 40
0.7499999999999979
 40
0.7499999999999979
 40
1.0
 40
1.0
 40
1.0
 40
1.0
 10
39.57871063673319
 20
147.5940900230856
 30
0.0
 10
39.57871063673318
 20
147.693042886398
 30
0.0
 10
39.57871063673319
 20
147.792848830821
 30
0.0
 10
39.57871063673319
 20
147.923288874775
 30
0.0
 10
39.57871063673319
 20
147.9632571232632
 30
0.0
 10
39.57871063673319
 20
148.0237413844077
 30
0.0
 10
39.57871063673318
 20
148.0423713517175
 30
0.0
 10
39.57871063673319
 20
148.0423713517175
 30
0.0
  0
ARC
  5
284
330
1F
100
AcDbEntity
  8
0
  6
Continuous
 62
     7
370
    18
100
AcDbCircle
 10
43.1787106367
 20
144.5725010371
 30
0.0
 40
4.700000000000022
100
AcDbArc
 50
220.0077539135
 51
319.9922460865
  0
SPLINE
  5
285
330
1F
100
AcDbEntity
  8
0
  6
Continuous
 62
     7
370
    18
100
AcDbSpline
210
0.0
220
0.0
230
1.0
 70
    24
 71
     3
 72
    12
 73
     8
 74
     0
 42
0.000000001
 43
0.00000001
 40
0.0
 40
0.0
 40
0.0
 40
0.0
 40
0.4999999999999999
 40
0.4999999999999999
 40
0.7499999999999999
 40
0.7499999999999999
 40
1.0
 40
1.0
 40
1.0
 40
1.0
 10
46.77871063673319
 20
141.5509120511903
 30
0.0
 10
46.77871063673319
 20
141.452419175248
 30
0.0
 10
46.77871063673319
 20
141.3517187363807
 30
0.0
 10
46.77871063673319
 20
141.2215156698895
 30
0.0
 10
46.77871063673319
 20
141.1815561404232
 30
0.0
 10
46.77871063673319
 20
141.1214367268889
 30
0.0
 10
46.77871063673319
 20
141.1026307225584
 30
0.0
 10
46.77871063673319
 20
141.1026307225584
 30
0.0
  0
ARC
  5
286
330
1F
100
AcDbEntity
  8
0
  6
Continuous
 62
     7
370
    18
100
AcDbCircle
 10
43.1787106367
 20
144.5725010371
 30
0.0
 40
5.000000000000012
100
AcDbArc
 50
223.9455195623
 51
316.0544804377
  0
SPLINE
  5
287
330
1F
100
AcDbEntity
  8
0
  6
Continuous
 62
     7
370
    18
100
AcDbSpline
210
0.0
220
0.0
230
1.0
 70
    24
 71
     3
 72
    12
 73
     8
 74
     0
 42
0.000000001
 43
0.00000001
 40
0.0
 40
0.0
 40
0.0
 40
0.0
 40
0.2500000000000021
 40
0.2500000000000021
 40
0.5000000000000042
 40
0.5000000000000042
 40
1.0
 40
1.0
 40
1.0
 40
1.0
 10
39.57871063673319
 20
141.1026307225579
 30
0.0
 10
39.57871063673319
 20
141.1026307225579
 30
0.0
 10
39.57871063673319
 20
141.1215690550824
 30
0.0
 10
39.57871063673319
 20
141.1818904380397
 30
0.0
 10
39.57871063673319
 20
141.2217866506271
 30
0.0
 10
39.57871063673319
 20
141.3520013302038
 30
0.0
 10
39.57871063673319
 20
141.4520221342594
 30
0.0
 10
39.57871063673319
 20
141.5509120511903
 30
0.0
  0
LINE
  5
288
330
1F
100
AcDbEntity
  8
0
  6
Continuous
 62
     7
370
    18
100
AcDbLine
 10
46.7787105749
 20
141.5509120533
 30
0.0
 11
46.7787105749
 21
147.5940900245
 31
0.0
  0
LINE
  5
289
330
1F
100
AcDbEntity
  8
0
  6
Continuous
 62
     7
370
    18
100
AcDbLine
 10
39.5787106986
 20
147.5940900245
 30
0.0
 11
39.5787106986
 21
141.5509120533
 31
0.0
  0
LWPOLYLINE
  5
28A
330
1F
100
AcDbEntity
  8
0
  6
Continuous
 62
     7
370
    18
100
AcDbPolyline
 90
        9
 70
   128
 43
0.0
 10
43.9750286909
 20
139.636320583
 10
43.956880881
 20
139.6279538139
 10
43.941093159
 20
139.6092841723
 10
43.9282306047
 20
139.5809799987
 10
43.9187538154
 20
139.544054572
 10
43.913001909
 20
139.4998297882
 10
43.9111808241
 20
139.4498887793
 10
43.9133558115
 20
139.3960192189
 10
43.9194489313
 20
139.3401497598
  0
SPLINE
  5
28B
330
1F
100
AcDbEntity
  8
0
  6
Continuous
 62
     7
370
    18
100
AcDbSpline
210
0.0
220
0.0
230
1.0
 70
     8
 71
     3
 72
    12
 73
     8
 74
     0
 42
0.000000001
 43
0.00000001
 40
0.0
 40
0.0
 40
0.0
 40
0.0
 40
0.5
 40
0.5
 40
0.75
 40
0.75
 40
1.0
 40
1.0
 40
1.0
 40
1.0
 10
43.91944895274724
 20
139.3401497492369
 30
0.0
 10
43.68298464216765
 20
139.2966798366194
 30
0.0
 10
43.43241068014169
 20
139.2724897232418
 30
0.0
 10
43.05158768720288
 20
139.2725067001695
 30
0.0
 10
42.9240263184173
 20
139.2785695199023
 30
0.0
 10
42.67701363961887
 20
139.3015336469427
 30
0.0
 10
42.55617493772871
 20
139.318420223035
 30
0.0
 10
42.43797232071911
 20
139.3401497492369
 30
0.0
  0
LWPOLYLINE
  5
28C
330
1F
100
AcDbEntity
  8
0
  6
Continuous
 62
     7
370
    18
100
AcDbPolyline
 90
        9
 70
   128
 43
0.0
 10
42.3823925825
 20
139.636320583
 10
42.4005403924
 20
139.6279538139
 10
42.4163281145
 20
139.6092841723
 10
42.4291906688
 20
139.5809799987
 10
42.4386674581
 20
139.544054572
 10
42.4444193645
 20
139.4998297882
 10
42.4462404494
 20
139.4498887793
 10
42.4440654619
 20
139.3960192189
 10
42.4379723422
 20
139.3401497598
  0
LINE
  5
28D
330
1F
100
AcDbEntity
  8
0
  6
Continuous
 62
     7
370
    18
100
AcDbLine
 10
41.1787105417
 20
130.2725006216
 30
0.0
 11
45.1787107317
 21
130.2725006216
 31
0.0
  0
LINE
  5
28E
330
1F
100
AcDbEntity
  8
0
  6
Continuous
 62
     7
370
    18
100
AcDbLine
 10
40.6787106926
 20
132.7725010314
 30
0.0
 11
45.6787105809
 21
132.7725010314
 31
0.0
  0
LINE
  5
28F
330
1F
100
AcDbEntity
  8
0
  6
Continuous
 62
     7
370
    18
100
AcDbLine
 10
40.6787106926
 20
135.2725009755
 30
0.0
 11
45.6787105809
 21
135.2725009755
 31
0.0
  0
ARC
  5
290
330
1F
100
AcDbEntity
  8
0
  6
Continuous
 62
     7
370
    18
100
AcDbCircle
 10
43.1787106367
 20
144.5725010371
 30
0.0
 40
6.000000000000012
100
AcDbArc
 50
290.9978755459
 51
249.0021244541
  0
SPLINE
  5
291
330
1F
100
AcDbEntity
  8
0
  6
Continuous
 62
     8
370
    18
100
AcDbSpline
210
0.0
220
0.0
230
1.0
 70
     8
 71
     3
 72
    11
 73
     7
 74
     0
 42
0.000000001
 43
0.00000001
 40
0.0
 40
0.0
 40
0.0
 40
0.0
 40
0.2607412160876833
 40
0.6514497193283609
 40
0.9577231939072193
 40
1.0
 40
1.0
 40
1.0
 40
1.0
 10
42.43797234218017
 20
139.3401497597713
 30
0.0
 10
42.35853853045663
 20
139.3576684093767
 30
0.0
 10
42.16007687131069
 20
139.4014379351144
 30
0.0
 10
41.916624747539
 20
139.5463245056492
 30
0.0
 10
41.76427639567072
 20
139.7112519868951
 30
0.0
 10
41.72703558429303
 20
139.8159050510458
 30
0.0
 10
41.7225185242054
 20
139.8285987642501
 30
0.0
  0
SPLINE
  5
292
330
1F
100
AcDbEntity
  8
0
  6
Continuous
 62
     8
370
    18
100
AcDbSpline
210
0.0
220
0.0
230
1.0
 70
     8
 71
     3
 72
    11
 73
     7
 74
     0
 42
0.000000001
 43
0.00000001
 40
0.0
 40
0.0
 40
0.0
 40
0.0
 40
0.0772383045800863
 40
0.4164893530396815
 40
0.8290945567393043
 40
1.0
 40
1.0
 40
1.0
 40
1.0
 10
44.61253692121626
 20
139.7901471326966
 30
0.0
 10
44.60329212766987
 20
139.7690162415585
 30
0.0
 10
44.55344175738984
 20
139.6550728914668
 30
0.0
 10
44.37648268950556
 20
139.4969725539828
 30
0.0
 10
44.13912359472756
 20
139.3856918720292
 30
0.0
 10
43.96921403600128
 20
139.3504668712213
 30
0.0
 10
43.9194489312862
 20
139.3401497597713
 30
0.0
  0
ARC
  5
293
330
1F
100
AcDbEntity
  8
0
  6
Continuous
 62
     8
370
    18
100
AcDbCircle
 10
43.1787106367
 20
144.5725010371
 30
0.0
 40
5.700000000000036
100
AcDbArc
 50
292.1599175499
 51
247.8400824501
  0
DIMENSION
  5
294
330
1F
100
AcDbEntity
  8
0
  6
Continuous
 62
     7
370
    18
100
AcDbDimension
  2
_D_11
 10
36.6638719687
 20
164.8147512219
 30
0.0
 11
43.1638702227
 21
164.8195155127
 31
0.0
 70
   160
  1
<>
 71
     2
 42
-1.0
  3
SLDDIMSTYLE3
100
AcDbAlignedDimension
 13
49.6759582261
 23
148.3300410696
 33
0.0
 14
36.6759617182
 24
148.320512488
 34
0.0
 50
0.0419959664
100
AcDbRotatedDimension
  0
INSERT
  5
2A3
330
1F
100
AcDbEntity
  8
0
  6
Continuous
 62
     7
370
     0
100
AcDbBlockReference
  2
SW_NOTE_1
 10
53.0098522167
 20
110.0320198981
 30
0.0
  0
LEADER
  5
2A4
330
1F
100
AcDbEntity
  8
0
  6
Continuous
 62
     7
370
     0
100
AcDbLeader
  3
SLDDIMSTYLE4
 76
     2
 10
43.579252757
 20
133.7629750313
 30
0.0
 10
53.0098522167
 20
110.0320198981
 30
0.0
  0
INSERT
  5
2B0
330
1F
100
AcDbEntity
  8
0
  6
Continuous
 62
     7
370
    18
100
AcDbBlockReference
  2
SW_CENTERMARKSYMBOL_0
 10
43.1787106367
 20
144.5725010371
 30
0.0
  0
ENDSEC
  0
SECTION
  2
OBJECTS
  0
DICTIONARY
  5
C
330
0
100
AcDbDictionary
281
     1
  3
ACAD_GROUP
350
D
  3
ACAD_LAYOUT
350
1A
  3
ACAD_MLINESTYLE
350
17
  3
ACAD_PLOTSETTINGS
350
19
  3
ACAD_PLOTSTYLENAME
350
E
  3
ACAD_SCALELIST
350
47
  0
DICTIONARY
  5
D
102
{ACAD_REACTORS
330
C
102
}
330
C
100
AcDbDictionary
281
     1
  0
DICTIONARY
  5
1A
102
{ACAD_REACTORS
330
C
102
}
330
C
100
AcDbDictionary
281
     1
  3
Layout1
350
1E
  3
Layout2
350
26
  3
Model
350
22
  0
DICTIONARY
  5
17
102
{ACAD_REACTORS
330
C
102
}
330
C
100
AcDbDictionary
281
     1
  3
Standard
350
18
  0
DICTIONARY
  5
19
102
{ACAD_REACTORS
330
C
102
}
330
C
100
AcDbDictionary
281
     1
  0
ACDBDICTIONARYWDFLT
  5
E
102
{ACAD_REACTORS
330
C
102
}
330
C
100
AcDbDictionary
281
     1
  3
Normal
350
F
100
AcDbDictionaryWithDefault
340
F
  0
DICTIONARY
  5
47
102
{ACAD_REACTORS
330
C
102
}
330
C
100
AcDbDictionary
281
     1
  3
A0
350
48
  3
A1
350
49
  3
A2
350
4A
  3
A3
350
4B
  3
A4
350
4C
  3
A5
350
4D
  3
A6
350
4E
  3
A7
350
4F
  3
A8
350
50
  3
A9
350
51
  3
B0
350
52
  3
B1
350
53
  3
B2
350
54
  3
B3
350
55
  3
B4
350
56
  3
B5
350
57
  3
B6
350
58
  3
B7
350
59
  3
B8
350
5A
  3
B9
350
5B
  3
C0
350
5C
  3
C1
350
5D
  3
C2
350
5E
  3
C3
350
5F
  3
C4
350
60
  3
C5
350
61
  3
C6
350
62
  3
C7
350
63
  3
C8
350
64
  3
C9
350
65
  3
D0
350
66
  3
D1
350
67
  3
D2
350
68
  0
LAYOUT
  5
1E
102
{ACAD_REACTORS
330
1A
102
}
330
1A
100
AcDbPlotSettings
  1

  2
none_device
  4

  6

 40
0.0
 41
0.0
 42
0.0
 43
0.0
 44
0.0
 45
0.0
 46
0.0
 47
0.0
 48
0.0
 49
0.0
140
0.0
141
0.0
142
1.0
143
1.0
 70
   688
 72
     1
 73
     0
 74
     5
  7

 75
    16
147
1.0
148
0.0
149
0.0
100
AcDbLayout
  1
Layout1
 70
     1
 71
     1
 10
0.0
 20
0.0
 11
420.0
 21
297.0
 12
0.0
 22
0.0
 32
0.0
 14
1.0000000000E+20
 24
1.0000000000E+20
 34
1.0000000000E+20
 15
-1.0000000000E+20
 25
-1.0000000000E+20
 35
-1.0000000000E+20
146
0.0
 13
0.0
 23
0.0
 33
0.0
 16
1.0
 26
0.0
 36
0.0
 17
0.0
 27
1.0
 37
0.0
 76
     0
330
1B
  0
LAYOUT
  5
26
102
{ACAD_REACTORS
330
1A
102
}
330
1A
100
AcDbPlotSettings
  1

  2
none_device
  4

  6

 40
0.0
 41
0.0
 42
0.0
 43
0.0
 44
0.0
 45
0.0
 46
0.0
 47
0.0
 48
0.0
 49
0.0
140
0.0
141
0.0
142
1.0
143
1.0
 70
   688
 72
     1
 73
     0
 74
     5
  7

 75
    16
147
1.0
148
0.0
149
0.0
100
AcDbLayout
  1
Layout2
 70
     1
 71
     2
 10
0.0
 20
0.0
 11
0.0
 21
0.0
 12
0.0
 22
0.0
 32
0.0
 14
0.0
 24
0.0
 34
0.0
 15
0.0
 25
0.0
 35
0.0
146
0.0
 13
0.0
 23
0.0
 33
0.0
 16
1.0
 26
0.0
 36
0.0
 17
0.0
 27
1.0
 37
0.0
 76
     0
330
23
  0
LAYOUT
  5
22
102
{ACAD_REACTORS
330
1A
102
}
330
1A
100
AcDbPlotSettings
  1

  2
none_device
  4
Letter_(8.50_x_11.00_Inches)
  6

 40
6.35
 41
6.35
 42
6.35000508
 43
6.35000508
 44
215.9
 45
279.4
 46
0.0
 47
0.0
 48
0.0
 49
0.0
140
0.0
141
0.0
142
1.0
143
1.0
 70
  1712
 72
     1
 73
     0
 74
     0
  7

 75
     0
147
1.0
148
0.0
149
0.0
100
AcDbLayout
  1
Model
 70
     1
 71
     0
 10
0.0
 20
0.0
 11
210.0
 21
297.0
 12
0.0
 22
0.0
 32
0.0
 14
0.0
 24
0.0
 34
0.0
 15
210.0
 25
297.0
 35
0.0
146
0.0
 13
0.0
 23
0.0
 33
0.0
 16
1.0
 26
0.0
 36
0.0
 17
0.0
 27
1.0
 37
0.0
 76
     0
330
1F
331
29
  0
MLINESTYLE
  5
18
102
{ACAD_REACTORS
330
17
102
}
330
17
100
AcDbMlineStyle
  2
Standard
 70
     0
  3

 62
   256
 51
90.0
 52
90.0
 71
     2
 49
0.5
 62
   256
  6
BYLAYER
 49
-0.5
 62
   256
  6
BYLAYER
  0
ACDBPLACEHOLDER
  5
F
102
{ACAD_REACTORS
330
E
102
}
330
E
  0
SCALE
  5
48
102
{ACAD_REACTORS
330
47
102
}
330
47
100
AcDbScale
 70
     0
300
1:1
140
1.0
141
1.0
290
     1
  0
SCALE
  5
49
102
{ACAD_REACTORS
330
47
102
}
330
47
100
AcDbScale
 70
     0
300
1:2
140
1.0
141
2.0
290
     0
  0
SCALE
  5
4A
102
{ACAD_REACTORS
330
47
102
}
330
47
100
AcDbScale
 70
     0
300
1:4
140
1.0
141
4.0
290
     0
  0
SCALE
  5
4B
102
{ACAD_REACTORS
330
47
102
}
330
47
100
AcDbScale
 70
     0
300
1:5
140
1.0
141
5.0
290
     0
  0
SCALE
  5
4C
102
{ACAD_REACTORS
330
47
102
}
330
47
100
AcDbScale
 70
     0
300
1:8
140
1.0
141
8.0
290
     0
  0
SCALE
  5
4D
102
{ACAD_REACTORS
330
47
102
}
330
47
100
AcDbScale
 70
     0
300
1:10
140
1.0
141
10.0
290
     0
  0
SCALE
  5
4E
102
{ACAD_REACTORS
330
47
102
}
330
47
100
AcDbScale
 70
     0
300
1:16
140
1.0
141
16.0
290
     0
  0
SCALE
  5
4F
102
{ACAD_REACTORS
330
47
102
}
330
47
100
AcDbScale
 70
     0
300
1:20
140
1.0
141
20.0
290
     0
  0
SCALE
  5
50
102
{ACAD_REACTORS
330
47
102
}
330
47
100
AcDbScale
 70
     0
300
1:30
140
1.0
141
30.0
290
     0
  0
SCALE
  5
51
102
{ACAD_REACTORS
330
47
102
}
330
47
100
AcDbScale
 70
     0
300
1:40
140
1.0
141
40.0
290
     0
  0
SCALE
  5
52
102
{ACAD_REACTORS
330
47
102
}
330
47
100
AcDbScale
 70
     0
300
1:50
140
1.0
141
50.0
290
     0
  0
SCALE
  5
53
102
{ACAD_REACTORS
330
47
102
}
330
47
100
AcDbScale
 70
     0
300
1:100
140
1.0
141
100.0
290
     0
  0
SCALE
  5
54
102
{ACAD_REACTORS
330
47
102
}
330
47
100
AcDbScale
 70
     0
300
2:1
140
2.0
141
1.0
290
     0
  0
SCALE
  5
55
102
{ACAD_REACTORS
330
47
102
}
330
47
100
AcDbScale
 70
     0
300
4:1
140
4.0
141
1.0
290
     0
  0
SCALE
  5
56
102
{ACAD_REACTORS
330
47
102
}
330
47
100
AcDbScale
 70
     0
300
8:1
140
8.0
141
1.0
290
     0
  0
SCALE
  5
57
102
{ACAD_REACTORS
330
47
102
}
330
47
100
AcDbScale
 70
     0
300
10:1
140
10.0
141
1.0
290
     0
  0
SCALE
  5
58
102
{ACAD_REACTORS
330
47
102
}
330
47
100
AcDbScale
 70
     0
300
100:1
140
100.0
141
1.0
290
     0
  0
SCALE
  5
59
102
{ACAD_REACTORS
330
47
102
}
330
47
100
AcDbScale
 70
     0
300
1/128" = 1'-0"
140
0.0078125
141
12.0
290
     0
  0
SCALE
  5
5A
102
{ACAD_REACTORS
330
47
102
}
330
47
100
AcDbScale
 70
     0
300
1/64" = 1'-0"
140
0.015625
141
12.0
290
     0
  0
SCALE
  5
5B
102
{ACAD_REACTORS
330
47
102
}
330
47
100
AcDbScale
 70
     0
300
1/32" = 1'-0"
140
0.03125
141
12.0
290
     0
  0
SCALE
  5
5C
102
{ACAD_REACTORS
330
47
102
}
330
47
100
AcDbScale
 70
     0
300
1/16" = 1'-0"
140
0.0625
141
12.0
290
     0
  0
SCALE
  5
5D
102
{ACAD_REACTORS
330
47
102
}
330
47
100
AcDbScale
 70
     0
300
3/32" = 1'-0"
140
0.09375
141
12.0
290
     0
  0
SCALE
  5
5E
102
{ACAD_REACTORS
330
47
102
}
330
47
100
AcDbScale
 70
     0
300
1/8" = 1'-0"
140
0.125
141
12.0
290
     0
  0
SCALE
  5
5F
102
{ACAD_REACTORS
330
47
102
}
330
47
100
AcDbScale
 70
     0
300
3/16" = 1'-0"
140
0.1875
141
12.0
290
     0
  0
SCALE
  5
60
102
{ACAD_REACTORS
330
47
102
}
330
47
100
AcDbScale
 70
     0
300
1/4" = 1'-0"
140
0.25
141
12.0
290
     0
  0
SCALE
  5
61
102
{ACAD_REACTORS
330
47
102
}
330
47
100
AcDbScale
 70
     0
300
3/8" = 1'-0"
140
0.375
141
12.0
290
     0
  0
SCALE
  5
62
102
{ACAD_REACTORS
330
47
102
}
330
47
100
AcDbScale
 70
     0
300
1/2" = 1'-0"
140
0.5
141
12.0
290
     0
  0
SCALE
  5
63
102
{ACAD_REACTORS
330
47
102
}
330
47
100
AcDbScale
 70
     0
300
3/4" = 1'-0"
140
0.75
141
12.0
290
     0
  0
SCALE
  5
64
102
{ACAD_REACTORS
330
47
102
}
330
47
100
AcDbScale
 70
     0
300
1" = 1'-0"
140
1.0
141
12.0
290
     0
  0
SCALE
  5
65
102
{ACAD_REACTORS
330
47
102
}
330
47
100
AcDbScale
 70
     0
300
1-1/2" = 1'-0"
140
1.5
141
12.0
290
     0
  0
SCALE
  5
66
102
{ACAD_REACTORS
330
47
102
}
330
47
100
AcDbScale
 70
     0
300
3" = 1'-0"
140
3.0
141
12.0
290
     0
  0
SCALE
  5
67
102
{ACAD_REACTORS
330
47
102
}
330
47
100
AcDbScale
 70
     0
300
6" = 1'-0"
140
6.0
141
12.0
290
     0
  0
SCALE
  5
68
102
{ACAD_REACTORS
330
47
102
}
330
47
100
AcDbScale
 70
     0
300
1'-0" = 1'-0"
140
12.0
141
12.0
290
     0
  0
ENDSEC
  0
EOF
