  0
SECTION
  2
HEADER
  9
$ACADVER
  1
AC1015
  9
$ACADMAINTVER
 70
     6
  9
$DWGCODEPAGE
  3
DOS932
  9
$INSBASE
 10
0.0
 20
0.0
 30
0.0
  9
$EXTMIN
 10
0.0
 20
0.0
 30
0.0
  9
$EXTMAX
 10
210.0
 20
297.0
 30
0.0
  9
$LIMMIN
 10
0.0
 20
0.0
  9
$LIMMAX
 10
210.0
 20
297.0
  9
$ORTHOMODE
 70
     0
  9
$REGENMODE
 70
     1
  9
$FILLMODE
 70
     1
  9
$QTEXTMODE
 70
     0
  9
$MIRRTEXT
 70
     1
  9
$LTSCALE
 40
1.0
  9
$ATTMODE
 70
     1
  9
$TEXTSIZE
 40
3.5
  9
$TRACEWID
 40
1.0
  9
$TEXTSTYLE
  7
STANDARD
  9
$CLAYER
  8
0
  9
$CELTYPE
  6
ByLayer
  9
$CECOLOR
 62
   256
  9
$CELTSCALE
 40
1.0
  9
$DISPSILH
 70
     0
  9
$DIMSCALE
 40
1.0
  9
$DIMASZ
 40
3.0
  9
$DIMEXO
 40
1.0
  9
$DIMDLI
 40
3.75
  9
$DIMRND
 40
0.0
  9
$DIMDLE
 40
0.0
  9
$DIMEXE
 40
1.0
  9
$DIMTP
 40
0.0
  9
$DIMTM
 40
0.0
  9
$DIMTXT
 40
3.5
  9
$DIMCEN
 40
2.5
  9
$DIMTSZ
 40
0.0
  9
$DIMTOL
 70
     0
  9
$DIMLIM
 70
     0
  9
$DIMTIH
 70
     1
  9
$DIMTOH
 70
     1
  9
$DIMSE1
 70
     0
  9
$DIMSE2
 70
     0
  9
$DIMTAD
 70
     1
  9
$DIMZIN
 70
     0
  9
$DIMBLK
  1

  9
$DIMASO
 70
     1
  9
$DIMSHO
 70
     1
  9
$DIMPOST
  1

  9
$DIMAPOST
  1

  9
$DIMALT
 70
     0
  9
$DIMALTD
 70
     3
  9
$DIMALTF
 40
0.0393700787
  9
$DIMLFAC
 40
1.0
  9
$DIMTOFL
 70
     1
  9
$DIMTVP
 40
0.0
  9
$DIMTIX
 70
     0
  9
$DIMSOXD
 70
     0
  9
$DIMSAH
 70
     0
  9
$DIMBLK1
  1

  9
$DIMBLK2
  1

  9
$DIMSTYLE
  2
ISO-25
  9
$DIMCLRD
 70
     0
  9
$DIMCLRE
 70
     0
  9
$DIMCLRT
 70
     0
  9
$DIMTFAC
 40
1.0
  9
$DIMGAP
 40
1.524
  9
$DIMJUST
 70
     0
  9
$DIMSD1
 70
     0
  9
$DIMSD2
 70
     0
  9
$DIMTOLJ
 70
     0
  9
$DIMTZIN
 70
     0
  9
$DIMALTZ
 70
     0
  9
$DIMALTTZ
 70
     0
  9
$DIMUPT
 70
     0
  9
$DIMDEC
 70
     1
  9
$DIMTDEC
 70
     3
  9
$DIMALTU
 70
     2
  9
$DIMALTTD
 70
     3
  9
$DIMTXSTY
  7
STANDARD
  9
$DIMAUNIT
 70
     0
  9
$DIMADEC
 70
     2
  9
$DIMALTRND
 40
0.0
  9
$DIMAZIN
 70
     0
  9
$DIMDSEP
 70
    44
  9
$DIMATFIT
 70
     3
  9
$DIMFRAC
 70
     0
  9
$DIMLDRBLK
  1

  9
$DIMLUNIT
 70
     2
  9
$DIMLWD
 70
    -2
  9
$DIMLWE
 70
    -2
  9
$DIMTMOVE
 70
     0
  9
$LUNITS
 70
     2
  9
$LUPREC
 70
     1
  9
$SKETCHINC
 40
1.0
  9
$FILLETRAD
 40
10.0
  9
$AUNITS
 70
     0
  9
$AUPREC
 70
     2
  9
$MENU
  1
.
  9
$ELEVATION
 40
0.0
  9
$PELEVATION
 40
0.0
  9
$THICKNESS
 40
0.0
  9
$LIMCHECK
 70
     0
  9
$CHAMFERA
 40
0.0
  9
$CHAMFERB
 40
0.0
  9
$CHAMFERC
 40
0.0
  9
$CHAMFERD
 40
0.0
  9
$SKPOLY
 70
     0
  9
$TDCREATE
 40
2459290.555647165
  9
$TDUCREATE
 40
2459290.180647165
  9
$TDUPDATE
 40
2459290.555649514
  9
$TDUUPDATE
 40
2459290.180649514
  9
$TDINDWG
 40
0.0000000116
  9
$TDUSRTIMER
 40
0.0000000116
  9
$USRTIMER
 70
     1
  9
$ANGBASE
 50
0.0
  9
$ANGDIR
 70
     0
  9
$PDMODE
 70
     0
  9
$PDSIZE
 40
-1.0
  9
$PLINEWID
 40
0.0
  9
$SPLFRAME
 70
     0
  9
$SPLINETYPE
 70
     6
  9
$SPLINESEGS
 70
     8
  9
$HANDSEED
  5
250
  9
$SURFTAB1
 70
     6
  9
$SURFTAB2
 70
     6
  9
$SURFTYPE
 70
     6
  9
$SURFU
 70
     6
  9
$SURFV
 70
     6
  9
$UCSBASE
  2

  9
$UCSNAME
  2

  9
$UCSORG
 10
0.0
 20
0.0
 30
0.0
  9
$UCSXDIR
 10
1.0
 20
0.0
 30
0.0
  9
$UCSYDIR
 10
0.0
 20
1.0
 30
0.0
  9
$UCSORTHOREF
  2

  9
$UCSORTHOVIEW
 70
     0
  9
$UCSORGTOP
 10
0.0
 20
0.0
 30
0.0
  9
$UCSORGBOTTOM
 10
0.0
 20
0.0
 30
0.0
  9
$UCSORGLEFT
 10
0.0
 20
0.0
 30
0.0
  9
$UCSORGRIGHT
 10
0.0
 20
0.0
 30
0.0
  9
$UCSORGFRONT
 10
0.0
 20
0.0
 30
0.0
  9
$UCSORGBACK
 10
0.0
 20
0.0
 30
0.0
  9
$PUCSBASE
  2

  9
$PUCSNAME
  2

  9
$PUCSORG
 10
0.0
 20
0.0
 30
0.0
  9
$PUCSXDIR
 10
1.0
 20
0.0
 30
0.0
  9
$PUCSYDIR
 10
0.0
 20
1.0
 30
0.0
  9
$PUCSORTHOREF
  2

  9
$PUCSORTHOVIEW
 70
     0
  9
$PUCSORGTOP
 10
0.0
 20
0.0
 30
0.0
  9
$PUCSORGBOTTOM
 10
0.0
 20
0.0
 30
0.0
  9
$PUCSORGLEFT
 10
0.0
 20
0.0
 30
0.0
  9
$PUCSORGRIGHT
 10
0.0
 20
0.0
 30
0.0
  9
$PUCSORGFRONT
 10
0.0
 20
0.0
 30
0.0
  9
$PUCSORGBACK
 10
0.0
 20
0.0
 30
0.0
  9
$USERI1
 70
     0
  9
$USERI2
 70
     0
  9
$USERI3
 70
     0
  9
$USERI4
 70
     0
  9
$USERI5
 70
     0
  9
$USERR1
 40
0.0
  9
$USERR2
 40
0.0
  9
$USERR3
 40
0.0
  9
$USERR4
 40
0.0
  9
$USERR5
 40
0.0
  9
$WORLDVIEW
 70
     1
  9
$SHADEDGE
 70
     3
  9
$SHADEDIF
 70
    70
  9
$TILEMODE
 70
     1
  9
$MAXACTVP
 70
    64
  9
$PINSBASE
 10
0.0
 20
0.0
 30
0.0
  9
$PLIMCHECK
 70
     0
  9
$PEXTMIN
 10
1.0000000000E+20
 20
1.0000000000E+20
 30
1.0000000000E+20
  9
$PEXTMAX
 10
-1.0000000000E+20
 20
-1.0000000000E+20
 30
-1.0000000000E+20
  9
$PLIMMIN
 10
0.0
 20
0.0
  9
$PLIMMAX
 10
420.0
 20
297.0
  9
$UNITMODE
 70
     0
  9
$VISRETAIN
 70
     1
  9
$PLINEGEN
 70
     0
  9
$PSLTSCALE
 70
     1
  9
$TREEDEPTH
 70
  3020
  9
$CMLSTYLE
  2
Standard
  9
$CMLJUST
 70
     0
  9
$CMLSCALE
 40
20.0
  9
$PROXYGRAPHICS
 70
     1
  9
$MEASUREMENT
 70
     1
  9
$CELWEIGHT
370
    -1
  9
$ENDCAPS
280
     0
  9
$JOINSTYLE
280
     0
  9
$LWDISPLAY
290
     1
  9
$INSUNITS
 70
     4
  9
$HYPERLINKBASE
  1

  9
$STYLESHEET
  1

  9
$XEDIT
290
     1
  9
$CEPSNTYPE
380
     0
  9
$PSTYLEMODE
290
     1
  9
$FINGERPRINTGUID
  2
{ACC1624C-C5D0-4E56-82DA-5D217067AB51}
  9
$VERSIONGUID
  2
{FAEB1C32-E019-11D5-929B-00C0DF256EC4}
  9
$EXTNAMES
290
     1
  9
$PSVPSCALE
 40
0.0
  9
$OLESTARTUP
290
     0
  0
ENDSEC
  0
SECTION
  2
CLASSES
  0
CLASS
  1
ACDBDICTIONARYWDFLT
  2
AcDbDictionaryWithDefault
  3
ObjectDBX Classes
 90
        0
280
     0
281
     0
  0
CLASS
  1
VISUALSTYLE
  2
AcDbVisualStyle
  3
ObjectDBX Classes
 90
     4095
280
     0
281
     0
  0
CLASS
  1
MATERIAL
  2
AcDbMaterial
  3
ObjectDBX Classes
 90
     1153
280
     0
281
     0
  0
CLASS
  1
SCALE
  2
AcDbScale
  3
ObjectDBX Classes
 90
     1153
280
     0
281
     0
  0
CLASS
  1
TABLESTYLE
  2
AcDbTableStyle
  3
ObjectDBX Classes
 90
     4095
280
     0
281
     0
  0
CLASS
  1
MLEADERSTYLE
  2
AcDbMLeaderStyle
  3
ACDB_MLEADERSTYLE_CLASS
 90
     4095
280
     0
281
     0
  0
CLASS
  1
SUN
  2
AcDbSun
  3
SCENEOE
 90
     1153
280
     0
281
     0
  0
CLASS
  1
ACDBPLACEHOLDER
  2
AcDbPlaceHolder
  3
ObjectDBX Classes
 90
        0
280
     0
281
     0
  0
CLASS
  1
LAYOUT
  2
AcDbLayout
  3
ObjectDBX Classes
 90
        0
280
     0
281
     0
  0
ENDSEC
  0
SECTION
  2
TABLES
  0
TABLE
  2
VPORT
  5
8
330
0
100
AcDbSymbolTable
 70
     1
  0
VPORT
  5
29
330
8
100
AcDbSymbolTableRecord
100
AcDbViewportTableRecord
  2
*Active
 70
     0
 10
0.0
 20
0.0
 11
1.0
 21
1.0
 12
105.0
 22
148.5
 13
0.0
 23
0.0
 14
10.0
 24
10.0
 15
10.0
 25
10.0
 16
0.0
 26
0.0
 36
1.0
 17
0.0
 27
0.0
 37
0.0
 40
297.0
 41
0.7070707071
 42
50.0
 43
0.0
 44
0.0
 50
0.0
 51
0.0
 71
     0
 72
  2000
 73
     1
 74
     3
 75
     0
 76
     0
 77
     0
 78
     0
281
     0
 65
     1
110
0.0
120
0.0
130
0.0
111
1.0
121
0.0
131
0.0
112
0.0
122
1.0
132
0.0
 79
     0
146
0.0
  0
ENDTAB
  0
TABLE
  2
LTYPE
  5
5
330
0
100
AcDbSymbolTable
 70
     8
  0
LTYPE
  5
14
330
5
100
AcDbSymbolTableRecord
100
AcDbLinetypeTableRecord
  2
ByBlock
 70
     0
  3

 72
    65
 73
     0
 40
0.0
  0
LTYPE
  5
15
330
5
100
AcDbSymbolTableRecord
100
AcDbLinetypeTableRecord
  2
ByLayer
 70
     0
  3

 72
    65
 73
     0
 40
0.0
  0
LTYPE
  5
16
330
5
100
AcDbSymbolTableRecord
100
AcDbLinetypeTableRecord
  2
Continuous
 70
     0
  3
Solid line
 72
    65
 73
     0
 40
0.0
  0
LTYPE
  5
6E
330
5
100
AcDbSymbolTableRecord
100
AcDbLinetypeTableRecord
  2
SLD-実線
 70
     0
  3
SolidWorks Line Style
 72
    65
 73
     0
 40
0.0
  0
LTYPE
  5
6F
330
5
100
AcDbSymbolTableRecord
100
AcDbLinetypeTableRecord
  2
SLD-破線
 70
     0
  3
SolidWorks Line Style
 72
    65
 73
     2
 40
1.905
 49
1.27
 74
     0
 49
-0.635
 74
     0
  0
LTYPE
  5
70
330
5
100
AcDbSymbolTableRecord
100
AcDbLinetypeTableRecord
  2
SLD-2点鎖線
 70
     0
  3
SolidWorks Line Style
 72
    65
 73
     6
 40
12.7
 49
6.35
 74
     0
 49
-1.27
 74
     0
 49
1.27
 74
     0
 49
-1.27
 74
     0
 49
1.27
 74
     0
 49
-1.27
 74
     0
  0
LTYPE
  5
71
330
5
100
AcDbSymbolTableRecord
100
AcDbLinetypeTableRecord
  2
SLD-鎖線
 70
     0
  3
SolidWorks Line Style
 72
    65
 73
     4
 40
10.16
 49
6.35
 74
     0
 49
-1.27
 74
     0
 49
1.27
 74
     0
 49
-1.27
 74
     0
  0
LTYPE
  5
72
330
5
100
AcDbSymbolTableRecord
100
AcDbLinetypeTableRecord
  2
SLD-1点鎖線(中心線)
 70
     0
  3
SolidWorks Line Style
 72
    65
 73
     4
 40
34.29
 49
30.48
 74
     0
 49
-1.27
 74
     0
 49
1.27
 74
     0
 49
-1.27
 74
     0
  0
LTYPE
  5
73
330
5
100
AcDbSymbolTableRecord
100
AcDbLinetypeTableRecord
  2
SLD-点線
 70
     0
  3
SolidWorks Line Style
 72
    65
 73
     2
 40
0.635
 49
0.0
 74
     0
 49
-0.635
 74
     0
  0
LTYPE
  5
74
330
5
100
AcDbSymbolTableRecord
100
AcDbLinetypeTableRecord
  2
SLD-細-太鎖線(切断面)
 70
     0
  3
SolidWorks Line Style
 72
    65
 73
     4
 40
10.16
 49
6.35
 74
     0
 49
-1.27
 74
     0
 49
1.27
 74
     0
 49
-1.27
 74
     0
  0
ENDTAB
  0
TABLE
  2
LAYER
  5
2
330
0
100
AcDbSymbolTable
 70
     1
  0
LAYER
  5
10
330
2
100
AcDbSymbolTableRecord
100
AcDbLayerTableRecord
  2
0
 70
     0
 62
     7
  6
Continuous
370
    -3
390
F
  0
ENDTAB
  0
TABLE
  2
STYLE
  5
3
330
0
100
AcDbSymbolTable
 70
     3
  0
STYLE
  5
11
330
3
100
AcDbSymbolTableRecord
100
AcDbTextStyleTableRecord
  2
STANDARD
 70
     0
 40
0.0
 41
1.0
 50
0.0
 71
     0
 42
3.5
  3
MSGOTHIC.TTC
  4

1001
ACAD
1000
ＭＳ ゴシック
1071
    32817
  0
STYLE
  5
7D
330
3
100
AcDbSymbolTableRecord
100
AcDbTextStyleTableRecord
  2
SLDTEXTSTYLE0
 70
     0
 40
0.0
 41
1.0
 50
0.0
 71
     0
 42
3.5
  3
MSGOTHIC.TTC
  4
bigfont
1001
ACAD
1000
ＭＳ ゴシック
1071
      305
  0
STYLE
  5
7F
330
3
100
AcDbSymbolTableRecord
100
AcDbTextStyleTableRecord
  2
SLDTEXTSTYLE1
 70
     0
 40
0.0
 41
1.0
 50
0.0
 71
     0
 42
3.5
  3
MSGOTHIC.TTC
  4

1001
ACAD
1000
ＭＳ ゴシック
1071
      305
  0
ENDTAB
  0
TABLE
  2
VIEW
  5
6
330
0
100
AcDbSymbolTable
 70
     0
  0
ENDTAB
  0
TABLE
  2
UCS
  5
7
330
0
100
AcDbSymbolTable
 70
     0
  0
ENDTAB
  0
TABLE
  2
APPID
  5
9
330
0
100
AcDbSymbolTable
 70
     1
  0
APPID
  5
12
330
9
100
AcDbSymbolTableRecord
100
AcDbRegAppTableRecord
  2
ACAD
 70
     0
  0
ENDTAB
  0
TABLE
  2
DIMSTYLE
  5
A
330
0
100
AcDbSymbolTable
 70
     5
100
AcDbDimStyleTable
  0
DIMSTYLE
105
27
330
A
100
AcDbSymbolTableRecord
100
AcDbDimStyleTableRecord
  2
ISO-25
 70
     0
 41
2.5
 42
0.625
 43
3.75
 44
1.25
 73
     0
 74
     0
 77
     1
 78
     8
140
2.5
141
2.5
143
0.0393700787
147
0.625
171
     3
172
     1
178
     0
271
     2
272
     2
274
     3
278
    44
283
     0
284
     8
340
11
  0
DIMSTYLE
105
155
102
{ACAD_REACTORS
330
154
330
16C
330
18D
330
22F
102
}
330
A
100
AcDbSymbolTableRecord
100
AcDbDimStyleTableRecord
  2
SLDDIMSTYLE0
 70
     0
 41
3.0
 44
0.0
 45
0.000000001
 73
     0
 74
     0
 77
     3
 78
    12
 79
     3
140
3.5
147
0.875
172
     1
173
     1
178
     0
271
     1
272
     3
276
     2
284
    12
289
     0
340
7F
  0
DIMSTYLE
105
162
102
{ACAD_REACTORS
330
161
330
178
330
182
330
19A
102
}
330
A
100
AcDbSymbolTableRecord
100
AcDbDimStyleTableRecord
  2
SLDDIMSTYLE1
 70
     0
 41
3.0
 44
0.0
 45
0.000000001
 73
     0
 74
     0
 77
     3
 78
    12
 79
     3
140
3.5
147
0.875
173
     1
178
     0
271
     1
272
     3
276
     2
284
    12
340
7F
  0
DIMSTYLE
105
1AC
330
A
100
AcDbSymbolTableRecord
100
AcDbDimStyleTableRecord
  2
SLDDIMSTYLE2
 70
     0
 41
3.0
 44
0.0
 45
0.000000001
146
3.0
147
0.0
173
     1
178
     0
271
     0
272
     0
276
     2
340
11
  0
DIMSTYLE
105
23C
102
{ACAD_REACTORS
330
23B
102
}
330
A
100
AcDbSymbolTableRecord
100
AcDbDimStyleTableRecord
  2
SLDDIMSTYLE3
 70
     0
  3
<>
 41
3.0
 44
0.0
 45
0.000000001
 78
    12
 79
     3
140
3.5
141
0.0
147
0.875
173
     1
178
     0
271
     1
272
     3
276
     2
284
    12
340
7F
  0
ENDTAB
  0
TABLE
  2
BLOCK_RECORD
  5
1
330
0
100
AcDbSymbolTable
 70
    13
  0
BLOCK_RECORD
  5
1F
330
1
100
AcDbSymbolTableRecord
100
AcDbBlockTableRecord
  2
*Model_Space
340
22
  0
BLOCK_RECORD
  5
1B
330
1
100
AcDbSymbolTableRecord
100
AcDbBlockTableRecord
  2
*Paper_Space
340
1E
  0
BLOCK_RECORD
  5
23
330
1
100
AcDbSymbolTableRecord
100
AcDbBlockTableRecord
  2
*Paper_Space0
340
26
  0
BLOCK_RECORD
  5
156
330
1
100
AcDbSymbolTableRecord
100
AcDbBlockTableRecord
  2
_D
340
0
  0
BLOCK_RECORD
  5
163
330
1
100
AcDbSymbolTableRecord
100
AcDbBlockTableRecord
  2
_D_1
340
0
  0
BLOCK_RECORD
  5
16D
330
1
100
AcDbSymbolTableRecord
100
AcDbBlockTableRecord
  2
_D_2
340
0
  0
BLOCK_RECORD
  5
179
330
1
100
AcDbSymbolTableRecord
100
AcDbBlockTableRecord
  2
_D_3
340
0
  0
BLOCK_RECORD
  5
183
330
1
100
AcDbSymbolTableRecord
100
AcDbBlockTableRecord
  2
_D_4
340
0
  0
BLOCK_RECORD
  5
18E
330
1
100
AcDbSymbolTableRecord
100
AcDbBlockTableRecord
  2
_D_5
340
0
  0
BLOCK_RECORD
  5
19B
330
1
100
AcDbSymbolTableRecord
100
AcDbBlockTableRecord
  2
_D_6
340
0
  0
BLOCK_RECORD
  5
1A6
330
1
100
AcDbSymbolTableRecord
100
AcDbBlockTableRecord
  2
SW_NOTE_0
340
0
102
{BLKREFS
331
1AB
102
}
  0
BLOCK_RECORD
  5
1AE
330
1
100
AcDbSymbolTableRecord
100
AcDbBlockTableRecord
  2
SW_NOTE_1
340
0
102
{BLKREFS
331
1B3
102
}
  0
BLOCK_RECORD
  5
230
330
1
100
AcDbSymbolTableRecord
100
AcDbBlockTableRecord
  2
_D_7
340
0
  0
BLOCK_RECORD
  5
23D
330
1
100
AcDbSymbolTableRecord
100
AcDbBlockTableRecord
  2
_D_8
340
0
  0
BLOCK_RECORD
  5
244
330
1
100
AcDbSymbolTableRecord
100
AcDbBlockTableRecord
  2
SW_CENTERMARKSYMBOL_0
340
0
102
{BLKREFS
331
24F
102
}
  0
ENDTAB
  0
ENDSEC
  0
SECTION
  2
BLOCKS
  0
BLOCK
  5
20
330
1F
100
AcDbEntity
  8
0
100
AcDbBlockBegin
  2
*Model_Space
 70
     0
 10
0.0
 20
0.0
 30
0.0
  3
*Model_Space
  1

  0
ENDBLK
  5
21
330
1F
100
AcDbEntity
  8
0
100
AcDbBlockEnd
  0
BLOCK
  5
1C
330
1B
100
AcDbEntity
 67
     1
  8
0
100
AcDbBlockBegin
  2
*Paper_Space
 70
     0
 10
0.0
 20
0.0
 30
0.0
  3
*Paper_Space
  1

  0
ENDBLK
  5
1D
330
1B
100
AcDbEntity
 67
     1
  8
0
100
AcDbBlockEnd
  0
BLOCK
  5
24
330
23
100
AcDbEntity
  8
0
100
AcDbBlockBegin
  2
*Paper_Space0
 70
     0
 10
0.0
 20
0.0
 30
0.0
  3
*Paper_Space0
  1

  0
ENDBLK
  5
25
330
23
100
AcDbEntity
  8
0
100
AcDbBlockEnd
  0
BLOCK
  5
157
330
156
100
AcDbEntity
  8
0
100
AcDbBlockBegin
  2
_D
 70
     0
 10
0.0
 20
0.0
 30
0.0
  3
_D
  1

  0
SOLID
  5
159
330
156
100
AcDbEntity
  8
0
  6
SLD-実線
 62
     7
370
    18
100
AcDbTrace
 10
98.7258585383
 20
182.3838132687
 30
0.0
 11
101.7258585383
 21
181.6338132687
 31
0.0
 12
101.7258585383
 22
183.1338132687
 32
0.0
 13
101.7258585383
 23
183.1338132687
 33
0.0
  0
SOLID
  5
15A
330
156
100
AcDbEntity
  8
0
  6
SLD-実線
 62
     7
370
    18
100
AcDbTrace
 10
95.7258585383
 20
182.3838132687
 30
0.0
 11
92.7258585383
 21
183.1338132687
 31
0.0
 12
92.7258585383
 22
181.6338132687
 32
0.0
 13
92.7258585383
 23
181.6338132687
 33
0.0
  0
LINE
  5
15B
330
156
100
AcDbEntity
  8
0
  6
SLD-実線
 62
     7
370
    18
100
AcDbLine
 10
98.7258585383
 20
166.2188937742
 30
0.0
 11
98.7258585383
 21
183.3838132687
 31
0.0
  0
LINE
  5
15C
330
156
100
AcDbEntity
  8
0
  6
SLD-実線
 62
     7
370
    18
100
AcDbLine
 10
95.7258585383
 20
160.7188937742
 30
0.0
 11
95.7258585383
 21
183.3838132687
 31
0.0
  0
LINE
  5
15D
330
156
100
AcDbEntity
  8
0
  6
SLD-実線
 62
     7
370
    18
100
AcDbLine
 10
98.7258585383
 20
182.3838132687
 30
0.0
 11
103.7258585383
 21
182.3838132687
 31
0.0
  0
LINE
  5
15E
330
156
100
AcDbEntity
  8
0
  6
SLD-実線
 62
     7
370
    18
100
AcDbLine
 10
98.7258585383
 20
182.3838132687
 30
0.0
 11
95.7258585383
 21
182.3838132687
 31
0.0
  0
LINE
  5
15F
330
156
100
AcDbEntity
  8
0
  6
SLD-実線
 62
     7
370
    18
100
AcDbLine
 10
95.7258585383
 20
182.3838132687
 30
0.0
 11
88.395013025
 21
182.3838132687
 31
0.0
  0
MTEXT
  5
160
330
156
100
AcDbEntity
  8
0
  6
SLD-実線
 62
     7
370
    18
100
AcDbMText
 10
88.395013025
 20
186.4565403086
 30
0.0
 40
3.5
 41
0.0
 71
     1
 72
     1
  1
3
  7
SLDTEXTSTYLE1
 73
     1
 44
1.0
  0
ENDBLK
  5
158
330
156
100
AcDbEntity
  8
0
100
AcDbBlockEnd
  0
BLOCK
  5
164
330
163
100
AcDbEntity
  8
0
100
AcDbBlockBegin
  2
_D_1
 70
     0
 10
0.0
 20
0.0
 30
0.0
  3
_D_1
  1

  0
SOLID
  5
166
330
163
100
AcDbEntity
  8
0
  6
SLD-実線
 62
     7
370
    18
100
AcDbTrace
 10
95.7258585383
 20
192.6159293834
 30
0.0
 11
98.7258585383
 21
191.8659293834
 31
0.0
 12
98.7258585383
 22
193.3659293834
 32
0.0
 13
98.7258585383
 23
193.3659293834
 33
0.0
  0
SOLID
  5
167
330
163
100
AcDbEntity
  8
0
  6
SLD-実線
 62
     7
370
    18
100
AcDbTrace
 10
182.5258585383
 20
192.6159293834
 30
0.0
 11
179.5258585383
 21
193.3659293834
 31
0.0
 12
179.5258585383
 22
191.8659293834
 32
0.0
 13
179.5258585383
 23
191.8659293834
 33
0.0
  0
LINE
  5
168
330
163
100
AcDbEntity
  8
0
  6
SLD-実線
 62
     7
370
    18
100
AcDbLine
 10
95.7258585383
 20
160.7188937742
 30
0.0
 11
95.7258585383
 21
193.6159293834
 31
0.0
  0
LINE
  5
169
330
163
100
AcDbEntity
  8
0
  6
SLD-実線
 62
     7
370
    18
100
AcDbLine
 10
182.5258585383
 20
159.2188937742
 30
0.0
 11
182.5258585383
 21
193.6159293834
 31
0.0
  0
LINE
  5
16A
330
163
100
AcDbEntity
  8
0
  6
SLD-実線
 62
     7
370
    18
100
AcDbLine
 10
95.7258585383
 20
192.6159293834
 30
0.0
 11
182.5258585383
 21
192.6159293834
 31
0.0
  0
MTEXT
  5
16B
330
163
100
AcDbEntity
  8
0
  6
SLD-実線
 62
     7
370
    18
100
AcDbMText
 10
137.0890530408
 20
196.6886564233
 30
0.0
 40
3.5
 41
0.0
 71
     1
 72
     1
  1
87
  7
SLDTEXTSTYLE1
 73
     1
 44
1.0
  0
ENDBLK
  5
165
330
163
100
AcDbEntity
  8
0
100
AcDbBlockEnd
  0
BLOCK
  5
16E
330
16D
100
AcDbEntity
  8
0
100
AcDbBlockBegin
  2
_D_2
 70
     0
 10
0.0
 20
0.0
 30
0.0
  3
_D_2
  1

  0
SOLID
  5
170
330
16D
100
AcDbEntity
  8
0
  6
SLD-実線
 62
     7
370
    18
100
AcDbTrace
 10
171.7258585383
 20
182.3838132687
 30
0.0
 11
174.7258585383
 21
181.6338132687
 31
0.0
 12
174.7258585383
 22
183.1338132687
 32
0.0
 13
174.7258585383
 23
183.1338132687
 33
0.0
  0
SOLID
  5
171
330
16D
100
AcDbEntity
  8
0
  6
SLD-実線
 62
     7
370
    18
100
AcDbTrace
 10
155.7258585383
 20
182.3838132687
 30
0.0
 11
152.7258585383
 21
183.1338132687
 31
0.0
 12
152.7258585383
 22
181.6338132687
 32
0.0
 13
152.7258585383
 23
181.6338132687
 33
0.0
  0
LINE
  5
172
330
16D
100
AcDbEntity
  8
0
  6
SLD-実線
 62
     7
370
    18
100
AcDbLine
 10
171.7258585383
 20
162.7188937742
 30
0.0
 11
171.7258585383
 21
183.3838132687
 31
0.0
  0
LINE
  5
173
330
16D
100
AcDbEntity
  8
0
  6
SLD-実線
 62
     7
370
    18
100
AcDbLine
 10
155.7258585383
 20
165.7188937742
 30
0.0
 11
155.7258585383
 21
183.3838132687
 31
0.0
  0
LINE
  5
174
330
16D
100
AcDbEntity
  8
0
  6
SLD-実線
 62
     7
370
    18
100
AcDbLine
 10
171.7258585383
 20
182.3838132687
 30
0.0
 11
176.7258585383
 21
182.3838132687
 31
0.0
  0
LINE
  5
175
330
16D
100
AcDbEntity
  8
0
  6
SLD-実線
 62
     7
370
    18
100
AcDbLine
 10
171.7258585383
 20
182.3838132687
 30
0.0
 11
155.7258585383
 21
182.3838132687
 31
0.0
  0
LINE
  5
176
330
16D
100
AcDbEntity
  8
0
  6
SLD-実線
 62
     7
370
    18
100
AcDbLine
 10
155.7258585383
 20
182.3838132687
 30
0.0
 11
150.7258585383
 21
182.3838132687
 31
0.0
  0
MTEXT
  5
177
330
16D
100
AcDbEntity
  8
0
  6
SLD-実線
 62
     7
370
    18
100
AcDbMText
 10
161.6890530408
 20
186.4565403086
 30
0.0
 40
3.5
 41
0.0
 71
     1
 72
     1
  1
16
  7
SLDTEXTSTYLE1
 73
     1
 44
1.0
  0
ENDBLK
  5
16F
330
16D
100
AcDbEntity
  8
0
100
AcDbBlockEnd
  0
BLOCK
  5
17A
330
179
100
AcDbEntity
  8
0
100
AcDbBlockBegin
  2
_D_3
 70
     0
 10
0.0
 20
0.0
 30
0.0
  3
_D_3
  1

  0
SOLID
  5
17C
330
179
100
AcDbEntity
  8
0
  6
SLD-実線
 62
     7
370
    18
100
AcDbTrace
 10
155.7258585383
 20
182.3838132687
 30
0.0
 11
152.7258585383
 21
183.1338132687
 31
0.0
 12
152.7258585383
 22
181.6338132687
 32
0.0
 13
152.7258585383
 23
181.6338132687
 33
0.0
  0
SOLID
  5
17D
330
179
100
AcDbEntity
  8
0
  6
SLD-実線
 62
     7
370
    18
100
AcDbTrace
 10
98.7258585383
 20
182.3838132687
 30
0.0
 11
101.7258585383
 21
181.6338132687
 31
0.0
 12
101.7258585383
 22
183.1338132687
 32
0.0
 13
101.7258585383
 23
183.1338132687
 33
0.0
  0
LINE
  5
17E
330
179
100
AcDbEntity
  8
0
  6
SLD-実線
 62
     7
370
    18
100
AcDbLine
 10
155.7258585383
 20
165.7188937742
 30
0.0
 11
155.7258585383
 21
183.3838132687
 31
0.0
  0
LINE
  5
17F
330
179
100
AcDbEntity
  8
0
  6
SLD-実線
 62
     7
370
    18
100
AcDbLine
 10
98.7258585383
 20
166.2188937742
 30
0.0
 11
98.7258585383
 21
183.3838132687
 31
0.0
  0
LINE
  5
180
330
179
100
AcDbEntity
  8
0
  6
SLD-実線
 62
     7
370
    18
100
AcDbLine
 10
155.7258585383
 20
182.3838132687
 30
0.0
 11
98.7258585383
 21
182.3838132687
 31
0.0
  0
MTEXT
  5
181
330
179
100
AcDbEntity
  8
0
  6
SLD-実線
 62
     7
370
    18
100
AcDbMText
 10
125.1890530408
 20
186.4565403086
 30
0.0
 40
3.5
 41
0.0
 71
     1
 72
     1
  1
57
  7
SLDTEXTSTYLE1
 73
     1
 44
1.0
  0
ENDBLK
  5
17B
330
179
100
AcDbEntity
  8
0
100
AcDbBlockEnd
  0
BLOCK
  5
184
330
183
100
AcDbEntity
  8
0
100
AcDbBlockBegin
  2
_D_4
 70
     0
 10
0.0
 20
0.0
 30
0.0
  3
_D_4
  1

  0
SOLID
  5
186
330
183
100
AcDbEntity
  8
0
  6
SLD-実線
 62
     7
370
    18
100
AcDbTrace
 10
88.9057768752
 20
146.2188937742
 30
0.0
 11
89.6557768752
 21
149.2188937742
 31
0.0
 12
88.1557768752
 22
149.2188937742
 32
0.0
 13
88.1557768752
 23
149.2188937742
 33
0.0
  0
SOLID
  5
187
330
183
100
AcDbEntity
  8
0
  6
SLD-実線
 62
     7
370
    18
100
AcDbTrace
 10
88.9057768752
 20
166.2188937742
 30
0.0
 11
88.1557768752
 21
163.2188937742
 31
0.0
 12
89.6557768752
 22
163.2188937742
 32
0.0
 13
89.6557768752
 23
163.2188937742
 33
0.0
  0
LINE
  5
188
330
183
100
AcDbEntity
  8
0
  6
SLD-実線
 62
     7
370
    18
100
AcDbLine
 10
98.7258585383
 20
146.2188937742
 30
0.0
 11
87.9057768752
 21
146.2188937742
 31
0.0
  0
LINE
  5
189
330
183
100
AcDbEntity
  8
0
  6
SLD-実線
 62
     7
370
    18
100
AcDbLine
 10
98.7258585383
 20
166.2188937742
 30
0.0
 11
87.9057768752
 21
166.2188937742
 31
0.0
  0
LINE
  5
18A
330
183
100
AcDbEntity
  8
0
  6
SLD-実線
 62
     7
370
    18
100
AcDbLine
 10
88.9057768752
 20
146.2188937742
 30
0.0
 11
88.9057768752
 21
166.2188937742
 31
0.0
  0
MTEXT
  5
18B
330
183
100
AcDbEntity
  8
0
  6
SLD-実線
 62
     7
370
    18
100
AcDbMText
 10
84.8330493696
 20
152.2471229027
 30
0.0
 40
3.5
 41
0.0
 71
     1
 72
     1
  1
%%c
  7
SLDTEXTSTYLE1
 11
6.123233995736766E-17
 21
1.0
 31
0.0
 73
     1
 44
1.0
  0
MTEXT
  5
18C
330
183
100
AcDbEntity
  8
0
  6
SLD-実線
 62
     7
370
    18
100
AcDbMText
 10
84.8330493696
 20
156.1170534178
 30
0.0
 40
3.5
 41
0.0
 71
     1
 72
     1
  1
20
  7
SLDTEXTSTYLE1
 11
6.123233995736766E-17
 21
1.0
 31
0.0
 73
     1
 44
1.0
  0
ENDBLK
  5
185
330
183
100
AcDbEntity
  8
0
100
AcDbBlockEnd
  0
BLOCK
  5
18F
330
18E
100
AcDbEntity
  8
0
100
AcDbBlockBegin
  2
_D_5
 70
     0
 10
0.0
 20
0.0
 30
0.0
  3
_D_5
  1

  0
SOLID
  5
191
330
18E
100
AcDbEntity
  8
0
  6
SLD-実線
 62
     7
370
    18
100
AcDbTrace
 10
192.5258585383
 20
150.2188937742
 30
0.0
 11
191.7758585383
 21
147.2188937742
 31
0.0
 12
193.2758585383
 22
147.2188937742
 32
0.0
 13
193.2758585383
 23
147.2188937742
 33
0.0
  0
SOLID
  5
192
330
18E
100
AcDbEntity
  8
0
  6
SLD-実線
 62
     7
370
    18
100
AcDbTrace
 10
192.5258585383
 20
162.2188937742
 30
0.0
 11
193.2758585383
 21
165.2188937742
 31
0.0
 12
191.7758585383
 22
165.2188937742
 32
0.0
 13
191.7758585383
 23
165.2188937742
 33
0.0
  0
LINE
  5
193
330
18E
100
AcDbEntity
  8
0
  6
SLD-実線
 62
     7
370
    18
100
AcDbLine
 10
172.2258585383
 20
150.2188937742
 30
0.0
 11
193.5258585383
 21
150.2188937742
 31
0.0
  0
LINE
  5
194
330
18E
100
AcDbEntity
  8
0
  6
SLD-実線
 62
     7
370
    18
100
AcDbLine
 10
172.2258585383
 20
162.2188937742
 30
0.0
 11
193.5258585383
 21
162.2188937742
 31
0.0
  0
LINE
  5
195
330
18E
100
AcDbEntity
  8
0
  6
SLD-実線
 62
     7
370
    18
100
AcDbLine
 10
192.5258585383
 20
150.2188937742
 30
0.0
 11
192.5258585383
 21
145.2188937742
 31
0.0
  0
LINE
  5
196
330
18E
100
AcDbEntity
  8
0
  6
SLD-実線
 62
     7
370
    18
100
AcDbLine
 10
192.5258585383
 20
150.2188937742
 30
0.0
 11
192.5258585383
 21
162.2188937742
 31
0.0
  0
LINE
  5
197
330
18E
100
AcDbEntity
  8
0
  6
SLD-実線
 62
     7
370
    18
100
AcDbLine
 10
192.5258585383
 20
162.2188937742
 30
0.0
 11
192.5258585383
 21
174.5553704483
 31
0.0
  0
MTEXT
  5
198
330
18E
100
AcDbEntity
  8
0
  6
SLD-実線
 62
     7
370
    18
100
AcDbMText
 10
188.4531310328
 20
166.6118287054
 30
0.0
 40
3.5
 41
0.0
 71
     1
 72
     1
  1
%%c
  7
SLDTEXTSTYLE1
 11
-1.608122649676637E-16
 21
1.0
 31
0.0
 73
     1
 44
1.0
  0
MTEXT
  5
199
330
18E
100
AcDbEntity
  8
0
  6
SLD-実線
 62
     7
370
    18
100
AcDbMText
 10
188.4531310328
 20
170.4817592205
 30
0.0
 40
3.5
 41
0.0
 71
     1
 72
     1
  1
12
  7
SLDTEXTSTYLE1
 11
-1.608122649676637E-16
 21
1.0
 31
0.0
 73
     1
 44
1.0
  0
ENDBLK
  5
190
330
18E
100
AcDbEntity
  8
0
100
AcDbBlockEnd
  0
BLOCK
  5
19C
330
19B
100
AcDbEntity
  8
0
100
AcDbBlockBegin
  2
_D_6
 70
     0
 10
0.0
 20
0.0
 30
0.0
  3
_D_6
  1

  0
ARC
  5
19E
330
19B
100
AcDbEntity
  8
0
  6
SLD-実線
 62
     7
370
    18
100
AcDbCircle
 10
77.6890530408
 20
156.9456360862
 30
0.0
 40
4.554435549315966
100
AcDbArc
 50
243.4349488229
 51
296.5650511771
  0
ARC
  5
19F
330
19B
100
AcDbEntity
  8
0
  6
SLD-実線
 62
     7
370
    18
100
AcDbCircle
 10
77.6890530408
 20
156.9456360862
 30
0.0
 40
4.554435549315966
100
AcDbArc
 50
63.4349488229
 51
116.5650511771
  0
SOLID
  5
1A0
330
19B
100
AcDbEntity
  8
0
  6
SLD-実線
 62
     7
370
    18
100
AcDbTrace
 10
79.7258585383
 20
138.8723785147
 30
0.0
 11
80.4758585383
 21
141.8723785147
 31
0.0
 12
78.9758585383
 22
141.8723785147
 32
0.0
 13
78.9758585383
 23
141.8723785147
 33
0.0
  0
SOLID
  5
1A1
330
19B
100
AcDbEntity
  8
0
  6
SLD-実線
 62
     7
370
    18
100
AcDbTrace
 10
79.7258585383
 20
175.0188937742
 30
0.0
 11
78.9758585383
 21
172.0188937742
 31
0.0
 12
80.4758585383
 22
172.0188937742
 32
0.0
 13
80.4758585383
 23
172.0188937742
 33
0.0
  0
LINE
  5
1A2
330
19B
100
AcDbEntity
  8
0
  6
SLD-実線
 62
     7
370
    18
100
AcDbLine
 10
118.6603215936
 20
138.8723785147
 30
0.0
 11
78.7258585383
 21
138.8723785147
 31
0.0
  0
LINE
  5
1A3
330
19B
100
AcDbEntity
  8
0
  6
SLD-実線
 62
     7
370
    18
100
AcDbLine
 10
149.2258585383
 20
175.0188937742
 30
0.0
 11
78.7258585383
 21
175.0188937742
 31
0.0
  0
LINE
  5
1A4
330
19B
100
AcDbEntity
  8
0
  6
SLD-実線
 62
     7
370
    18
100
AcDbLine
 10
79.7258585383
 20
138.8723785147
 30
0.0
 11
79.7258585383
 21
175.0188937742
 31
0.0
  0
MTEXT
  5
1A5
330
19B
100
AcDbEntity
  8
0
  6
SLD-実線
 62
     7
370
    18
100
AcDbMText
 10
75.6531314984
 20
152.8720250913
 30
0.0
 40
3.5
 41
0.0
 71
     1
 72
     1
  1
36.5
  7
SLDTEXTSTYLE1
 11
6.123233995736766E-17
 21
1.0
 31
0.0
 73
     1
 44
1.0
  0
ENDBLK
  5
19D
330
19B
100
AcDbEntity
  8
0
100
AcDbBlockEnd
  0
BLOCK
  5
1A7
330
1A6
100
AcDbEntity
  8
0
100
AcDbBlockBegin
  2
SW_NOTE_0
 70
     0
 10
0.0
 20
0.0
 30
0.0
  3
SW_NOTE_0
  1

  0
LINE
  5
1A9
330
1A6
100
AcDbEntity
  8
0
  6
SLD-実線
 62
     0
370
     0
100
AcDbLine
 10
8.0203184366
 20
0.0
 30
0.0
 11
0.0
 21
0.0
 31
0.0
  0
MTEXT
  5
1AA
330
1A6
100
AcDbEntity
  8
0
  6
Continuous
 62
     0
370
     0
100
AcDbMText
 10
0.4171749274
 20
4.1018671845
 30
0.0
 40
3.5
 41
0.0
 71
     1
 72
     1
  1
BF-5
  7
SLDTEXTSTYLE1
 73
     1
 44
1.0
  0
ENDBLK
  5
1A8
330
1A6
100
AcDbEntity
  8
0
100
AcDbBlockEnd
  0
BLOCK
  5
1AF
330
1AE
100
AcDbEntity
  8
0
100
AcDbBlockBegin
  2
SW_NOTE_1
 70
     0
 10
0.0
 20
0.0
 30
0.0
  3
SW_NOTE_1
  1

  0
LINE
  5
1B1
330
1AE
100
AcDbEntity
  8
0
  6
SLD-実線
 62
     0
370
     0
100
AcDbLine
 10
8.0203184366
 20
0.0
 30
0.0
 11
0.0
 21
0.0
 31
0.0
  0
MTEXT
  5
1B2
330
1AE
100
AcDbEntity
  8
0
  6
Continuous
 62
     0
370
     0
100
AcDbMText
 10
0.4491724496
 20
4.1120314203
 30
0.0
 40
3.5
 41
0.0
 71
     1
 72
     1
  1
BF-6
  7
SLDTEXTSTYLE1
 73
     1
 44
1.0
  0
ENDBLK
  5
1B0
330
1AE
100
AcDbEntity
  8
0
100
AcDbBlockEnd
  0
BLOCK
  5
231
330
230
100
AcDbEntity
  8
0
100
AcDbBlockBegin
  2
_D_7
 70
     0
 10
0.0
 20
0.0
 30
0.0
  3
_D_7
  1

  0
SOLID
  5
233
330
230
100
AcDbEntity
  8
0
  6
SLD-実線
 62
     7
370
    18
100
AcDbTrace
 10
35.5943658027
 20
131.4613953555
 30
0.0
 11
32.5943658027
 21
132.2113953555
 31
0.0
 12
32.5943658027
 22
130.7113953555
 32
0.0
 13
32.5943658027
 23
130.7113953555
 33
0.0
  0
SOLID
  5
234
330
230
100
AcDbEntity
  8
0
  6
SLD-実線
 62
     7
370
    18
100
AcDbTrace
 10
52.5943658027
 20
131.4613953555
 30
0.0
 11
55.5943658027
 21
130.7113953555
 31
0.0
 12
55.5943658027
 22
132.2113953555
 32
0.0
 13
55.5943658027
 23
132.2113953555
 33
0.0
  0
LINE
  5
235
330
230
100
AcDbEntity
  8
0
  6
SLD-実線
 62
     7
370
    18
100
AcDbLine
 10
35.5943658027
 20
149.9510668977
 30
0.0
 11
35.5943658027
 21
130.4613953555
 31
0.0
  0
LINE
  5
236
330
230
100
AcDbEntity
  8
0
  6
SLD-実線
 62
     7
370
    18
100
AcDbLine
 10
52.5943658027
 20
149.9510668977
 30
0.0
 11
52.5943658027
 21
130.4613953555
 31
0.0
  0
LINE
  5
237
330
230
100
AcDbEntity
  8
0
  6
SLD-実線
 62
     7
370
    18
100
AcDbLine
 10
35.5943658027
 20
131.4613953555
 30
0.0
 11
30.5943658027
 21
131.4613953555
 31
0.0
  0
LINE
  5
238
330
230
100
AcDbEntity
  8
0
  6
SLD-実線
 62
     7
370
    18
100
AcDbLine
 10
35.5943658027
 20
131.4613953555
 30
0.0
 11
52.5943658027
 21
131.4613953555
 31
0.0
  0
LINE
  5
239
330
230
100
AcDbEntity
  8
0
  6
SLD-実線
 62
     7
370
    18
100
AcDbLine
 10
52.5943658027
 20
131.4613953555
 30
0.0
 11
57.5943658027
 21
131.4613953555
 31
0.0
  0
MTEXT
  5
23A
330
230
100
AcDbEntity
  8
0
  6
SLD-実線
 62
     7
370
    18
100
AcDbMText
 10
42.0575603053
 20
135.5341223953
 30
0.0
 40
3.5
 41
0.0
 71
     1
 72
     1
  1
17
  7
SLDTEXTSTYLE1
 73
     1
 44
1.0
  0
ENDBLK
  5
232
330
230
100
AcDbEntity
  8
0
100
AcDbBlockEnd
  0
BLOCK
  5
23E
330
23D
100
AcDbEntity
  8
0
100
AcDbBlockBegin
  2
_D_8
 70
     0
 10
0.0
 20
0.0
 30
0.0
  3
_D_8
  1

  0
SOLID
  5
240
330
23D
100
AcDbEntity
  8
0
  6
SLD-実線
 62
     7
370
    18
100
AcDbTrace
 10
45.3769180928
 20
154.5560469312
 30
0.0
 11
46.6152617776
 21
151.7224970519
 31
0.0
 12
47.8030095226
 22
152.6386058305
 32
0.0
 13
47.8030095226
 23
152.6386058305
 33
0.0
  0
LINE
  5
241
330
23D
100
AcDbEntity
  8
0
  6
SLD-実線
 62
     7
370
    18
100
AcDbLine
 10
45.3769180928
 20
154.5560469312
 30
0.0
 11
63.1898022992
 21
131.4613953555
 31
0.0
  0
LINE
  5
242
330
23D
100
AcDbEntity
  8
0
  6
SLD-実線
 62
     7
370
    18
100
AcDbLine
 10
63.1898022992
 20
131.4613953555
 30
0.0
 11
76.9981348184
 21
131.4613953555
 31
0.0
  0
MTEXT
  5
243
330
23D
100
AcDbEntity
  8
0
  6
SLD-実線
 62
     7
370
    18
100
AcDbMText
 10
64.7773022992
 20
135.5341223953
 30
0.0
 40
3.5
 41
0.0
 71
     1
 72
     1
  1
M5深10
  7
SLDTEXTSTYLE0
 73
     1
 44
1.0
  0
ENDBLK
  5
23F
330
23D
100
AcDbEntity
  8
0
100
AcDbBlockEnd
  0
BLOCK
  5
245
330
244
100
AcDbEntity
  8
0
100
AcDbBlockBegin
  2
SW_CENTERMARKSYMBOL_0
 70
     0
 10
0.0
 20
0.0
 30
0.0
  3
SW_CENTERMARKSYMBOL_0
  1

  0
LINE
  5
247
330
244
100
AcDbEntity
  8
0
  6
SLD-実線
 62
     0
370
    18
100
AcDbLine
 10
0.0
 20
0.0
 30
0.0
 11
0.0
 21
2.5
 31
0.0
  0
LINE
  5
248
330
244
100
AcDbEntity
  8
0
  6
SLD-実線
 62
     0
370
    18
100
AcDbLine
 10
0.0
 20
0.0
 30
0.0
 11
-2.5
 21
0.0
 31
0.0
  0
LINE
  5
249
330
244
100
AcDbEntity
  8
0
  6
SLD-実線
 62
     0
370
    18
100
AcDbLine
 10
0.0
 20
0.0
 30
0.0
 11
0.0
 21
-2.5
 31
0.0
  0
LINE
  5
24A
330
244
100
AcDbEntity
  8
0
  6
SLD-実線
 62
     0
370
    18
100
AcDbLine
 10
0.0
 20
0.0
 30
0.0
 11
2.5
 21
0.0
 31
0.0
  0
LINE
  5
24B
330
244
100
AcDbEntity
  8
0
  6
SLD-実線
 62
     0
370
    18
100
AcDbLine
 10
0.0
 20
5.0
 30
0.0
 11
0.0
 21
11.5
 31
0.0
  0
LINE
  5
24C
330
244
100
AcDbEntity
  8
0
  6
SLD-実線
 62
     0
370
    18
100
AcDbLine
 10
-5.0
 20
0.0
 30
0.0
 11
-11.5
 21
0.0
 31
0.0
  0
LINE
  5
24D
330
244
100
AcDbEntity
  8
0
  6
SLD-実線
 62
     0
370
    18
100
AcDbLine
 10
0.0
 20
-5.0
 30
0.0
 11
0.0
 21
-11.5
 31
0.0
  0
LINE
  5
24E
330
244
100
AcDbEntity
  8
0
  6
SLD-実線
 62
     0
370
    18
100
AcDbLine
 10
5.0
 20
0.0
 30
0.0
 11
11.5
 21
0.0
 31
0.0
  0
ENDBLK
  5
246
330
244
100
AcDbEntity
  8
0
100
AcDbBlockEnd
  0
ENDSEC
  0
SECTION
  2
ENTITIES
  0
LINE
  5
75
330
1F
100
AcDbEntity
  8
0
  6
SLD-実線
 62
     7
370
    18
100
AcDbLine
 10
20.2604743903
 20
285.0
 30
0.0
 11
196.7604743903
 21
285.0
 31
0.0
  0
LINE
  5
76
330
1F
100
AcDbEntity
  8
0
  6
SLD-実線
 62
     7
370
    18
100
AcDbLine
 10
20.2604743903
 20
285.0
 30
0.0
 11
20.2604743903
 21
10.0
 31
0.0
  0
LINE
  5
77
330
1F
100
AcDbEntity
  8
0
  6
SLD-実線
 62
     7
370
    18
100
AcDbLine
 10
20.2604743903
 20
10.0
 30
0.0
 11
196.7604743903
 21
10.0
 31
0.0
  0
LINE
  5
78
330
1F
100
AcDbEntity
  8
0
  6
SLD-実線
 62
     7
370
    18
100
AcDbLine
 10
196.7604743903
 20
285.0
 30
0.0
 11
196.7604743903
 21
10.0
 31
0.0
  0
LINE
  5
79
330
1F
100
AcDbEntity
  8
0
  6
SLD-実線
 62
     7
370
    18
100
AcDbLine
 10
127.0104743903
 20
50.75
 30
0.0
 11
196.7604743903
 21
50.75
 31
0.0
  0
LINE
  5
7A
330
1F
100
AcDbEntity
  8
0
  6
SLD-実線
 62
     7
370
    18
100
AcDbLine
 10
127.0104743903
 20
50.75
 30
0.0
 11
127.0104743903
 21
10.0
 31
0.0
  0
LINE
  5
7B
330
1F
100
AcDbEntity
  8
0
  6
SLD-実線
 62
     7
370
    18
100
AcDbLine
 10
127.0104743903
 20
22.75
 30
0.0
 11
196.7604743903
 21
22.75
 31
0.0
  0
LINE
  5
7C
330
1F
100
AcDbEntity
  8
0
  6
SLD-実線
 62
     7
370
    18
100
AcDbLine
 10
127.0104743903
 20
36.75
 30
0.0
 11
196.7604743903
 21
36.75
 31
0.0
  0
MTEXT
  5
7E
330
1F
100
AcDbEntity
  8
0
  6
Continuous
 62
     7
370
     0
100
AcDbMText
 10
127.8855253396
 20
45.8710620745
 30
0.0
 40
3.4395833333
 41
0.0
 71
     1
 72
     1
  1
吸着複合シリンダー(センサー付）
  7
SLDTEXTSTYLE0
 73
     1
 44
1.0
  0
MTEXT
  5
80
330
1F
100
AcDbEntity
  8
0
  6
Continuous
 62
     7
370
     0
100
AcDbMText
 10
149.9805159719
 20
31.3291511512
 30
0.0
 40
4.2333333333
 41
0.0
 71
     1
 72
     1
  1
VMCP-10-C
  7
SLDTEXTSTYLE1
 73
     1
 44
1.0
  0
MTEXT
  5
81
330
1F
100
AcDbEntity
  8
0
  6
Continuous
 62
     7
370
     0
100
AcDbMText
 10
154.2138492541
 20
17.8837523146
 30
0.0
 40
4.2333333333
 41
0.0
 71
     1
 72
     1
  1
211137
  7
SLDTEXTSTYLE1
 73
     1
 44
1.0
  0
LINE
  5
82
330
1F
100
AcDbEntity
  8
0
  6
SLD-実線
 62
     7
370
    18
100
AcDbLine
 10
95.7258585383
 20
152.7188937742
 30
0.0
 11
96.2258585383
 21
152.2188937742
 31
0.0
  0
LINE
  5
83
330
1F
100
AcDbEntity
  8
0
  6
SLD-実線
 62
     7
370
    18
100
AcDbLine
 10
96.2258585383
 20
160.2188937742
 30
0.0
 11
95.7258585383
 21
159.7188937742
 31
0.0
  0
LINE
  5
84
330
1F
100
AcDbEntity
  8
0
  6
SLD-実線
 62
     7
370
    18
100
AcDbLine
 10
98.7258585383
 20
160.2188937742
 30
0.0
 11
96.2258585383
 21
160.2188937742
 31
0.0
  0
LINE
  5
85
330
1F
100
AcDbEntity
  8
0
  6
SLD-実線
 62
     7
370
    18
100
AcDbLine
 10
96.2258585383
 20
152.2188937742
 30
0.0
 11
98.7258585383
 21
152.2188937742
 31
0.0
  0
LINE
  5
86
330
1F
100
AcDbEntity
  8
0
  6
SLD-実線
 62
     7
370
    18
100
AcDbLine
 10
99.7258585383
 20
146.2188937742
 30
0.0
 11
119.6603215936
 21
146.2188937742
 31
0.0
  0
LINE
  5
87
330
1F
100
AcDbEntity
  8
0
  6
SLD-実線
 62
     7
370
    18
100
AcDbLine
 10
129.6603215936
 20
146.4723785147
 30
0.0
 11
129.9603215936
 21
146.2188937742
 31
0.0
  0
LINE
  5
88
330
1F
100
AcDbEntity
  8
0
  6
SLD-実線
 62
     7
370
    18
100
AcDbLine
 10
135.9603215936
 20
146.0188937742
 30
0.0
 11
136.2603215936
 21
146.2188937742
 31
0.0
  0
LINE
  5
89
330
1F
100
AcDbEntity
  8
0
  6
SLD-実線
 62
     7
370
    18
100
AcDbLine
 10
146.2258585383
 20
166.2188937742
 30
0.0
 11
137.4603215936
 21
166.3723785147
 31
0.0
  0
LINE
  5
8A
330
1F
100
AcDbEntity
  8
0
  6
SLD-実線
 62
     7
370
    18
100
AcDbLine
 10
128.4603215936
 20
166.3723785147
 30
0.0
 11
99.7258585383
 21
166.2188937742
 31
0.0
  0
LINE
  5
8B
330
1F
100
AcDbEntity
  8
0
  6
SLD-実線
 62
     7
370
    18
100
AcDbLine
 10
99.7258585383
 20
166.2188937742
 30
0.0
 11
98.7258585383
 21
165.2188937742
 31
0.0
  0
LINE
  5
8C
330
1F
100
AcDbEntity
  8
0
  6
SLD-実線
 62
     7
370
    18
100
AcDbLine
 10
98.7258585383
 20
147.2188937742
 30
0.0
 11
99.7258585383
 21
146.2188937742
 31
0.0
  0
LINE
  5
8D
330
1F
100
AcDbEntity
  8
0
  6
SLD-実線
 62
     7
370
    18
100
AcDbLine
 10
147.2258585383
 20
166.2188937742
 30
0.0
 11
146.2258585383
 21
166.2188937742
 31
0.0
  0
LINE
  5
8E
330
1F
100
AcDbEntity
  8
0
  6
SLD-実線
 62
     7
370
    18
100
AcDbLine
 10
146.2603215936
 20
146.2188937742
 30
0.0
 11
147.2258585383
 21
146.2188937742
 31
0.0
  0
ARC
  5
8F
330
1F
100
AcDbEntity
  8
0
  6
SLD-実線
 62
     7
370
    18
100
AcDbCircle
 10
156.2258585383
 20
162.7188937742
 30
0.0
 40
0.5
100
AcDbArc
 50
180.0
 51
270.0
  0
ARC
  5
90
330
1F
100
AcDbEntity
  8
0
  6
SLD-実線
 62
     7
370
    18
100
AcDbCircle
 10
156.2258585383
 20
149.7188937742
 30
0.0
 40
0.5
100
AcDbArc
 50
90.0
 51
180.0
  0
LINE
  5
91
330
1F
100
AcDbEntity
  8
0
  6
SLD-実線
 62
     7
370
    18
100
AcDbLine
 10
171.2258585383
 20
150.2188937742
 30
0.0
 11
171.7258585383
 21
150.7188937742
 31
0.0
  0
LINE
  5
92
330
1F
100
AcDbEntity
  8
0
  6
SLD-実線
 62
     7
370
    18
100
AcDbLine
 10
171.7258585383
 20
161.7188937742
 30
0.0
 11
171.2258585383
 21
162.2188937742
 31
0.0
  0
LINE
  5
93
330
1F
100
AcDbEntity
  8
0
  6
SLD-実線
 62
     7
370
    18
100
AcDbLine
 10
156.2258585383
 20
150.2188937742
 30
0.0
 11
171.2258585383
 21
150.2188937742
 31
0.0
  0
LINE
  5
94
330
1F
100
AcDbEntity
  8
0
  6
SLD-実線
 62
     7
370
    18
100
AcDbLine
 10
171.2258585383
 20
162.2188937742
 30
0.0
 11
156.2258585383
 21
162.2188937742
 31
0.0
  0
LINE
  5
95
330
1F
100
AcDbEntity
  8
0
  6
SLD-実線
 62
     7
370
    18
100
AcDbLine
 10
153.4758585383
 20
170.0188937742
 30
0.0
 11
153.4758585383
 21
172.5188937742
 31
0.0
  0
LINE
  5
96
330
1F
100
AcDbEntity
  8
0
  6
SLD-実線
 62
     7
370
    18
100
AcDbLine
 10
149.9758585383
 20
172.5188937742
 30
0.0
 11
149.9758585383
 21
170.0188937742
 31
0.0
  0
LINE
  5
97
330
1F
100
AcDbEntity
  8
0
  6
SLD-実線
 62
     7
370
    18
100
AcDbLine
 10
153.4758585383
 20
172.5188937742
 30
0.0
 11
153.2258585383
 21
175.0188937742
 31
0.0
  0
LINE
  5
98
330
1F
100
AcDbEntity
  8
0
  6
SLD-実線
 62
     7
370
    18
100
AcDbLine
 10
150.2258585383
 20
175.0188937742
 30
0.0
 11
149.9758585383
 21
172.5188937742
 31
0.0
  0
LINE
  5
99
330
1F
100
AcDbEntity
  8
0
  6
SLD-実線
 62
     7
370
    18
100
AcDbLine
 10
149.9758585383
 20
170.0188937742
 30
0.0
 11
150.1258585383
 21
168.0188937742
 31
0.0
  0
LINE
  5
9A
330
1F
100
AcDbEntity
  8
0
  6
SLD-実線
 62
     7
370
    18
100
AcDbLine
 10
153.7595446685
 20
168.0188937742
 30
0.0
 11
153.3258585383
 21
170.0188937742
 31
0.0
  0
LINE
  5
9B
330
1F
100
AcDbEntity
  8
0
  6
SLD-実線
 62
     7
370
    18
100
AcDbLine
 10
177.5258585383
 20
153.8688937742
 30
0.0
 11
180.0258585383
 21
154.1837340753
 31
0.0
  0
LINE
  5
9C
330
1F
100
AcDbEntity
  8
0
  6
SLD-実線
 62
     7
370
    18
100
AcDbLine
 10
180.0258585383
 20
158.5688937742
 30
0.0
 11
177.5258585383
 21
158.5688937742
 31
0.0
  0
LINE
  5
9D
330
1F
100
AcDbEntity
  8
0
  6
SLD-実線
 62
     7
370
    18
100
AcDbLine
 10
180.0258585383
 20
153.8688937742
 30
0.0
 11
182.5258585383
 21
154.2188937742
 31
0.0
  0
LINE
  5
9E
330
1F
100
AcDbEntity
  8
0
  6
SLD-実線
 62
     7
370
    18
100
AcDbLine
 10
182.5258585383
 20
158.2188937742
 30
0.0
 11
180.0258585383
 21
158.5688937742
 31
0.0
  0
LINE
  5
9F
330
1F
100
AcDbEntity
  8
0
  6
SLD-実線
 62
     7
370
    18
100
AcDbLine
 10
177.5258585383
 20
158.5688937742
 30
0.0
 11
175.0258585383
 21
158.3188937742
 31
0.0
  0
LINE
  5
A0
330
1F
100
AcDbEntity
  8
0
  6
SLD-実線
 62
     7
370
    18
100
AcDbLine
 10
175.0258585383
 20
154.1188937742
 30
0.0
 11
177.5258585383
 21
154.1837340753
 31
0.0
  0
LINE
  5
A1
330
1F
100
AcDbEntity
  8
0
  6
SLD-実線
 62
     7
370
    18
100
AcDbLine
 10
147.7270641475
 20
165.5188937742
 30
0.0
 11
147.7258585383
 21
164.7188937742
 31
0.0
  0
LINE
  5
A2
330
1F
100
AcDbEntity
  8
0
  6
SLD-実線
 62
     7
370
    18
100
AcDbLine
 10
155.7258585383
 20
164.7188937742
 30
0.0
 11
155.7258585383
 21
165.5188937742
 31
0.0
  0
LINE
  5
A3
330
1F
100
AcDbEntity
  8
0
  6
SLD-実線
 62
     7
370
    18
100
AcDbLine
 10
172.5258585383
 20
160.2188937742
 30
0.0
 11
171.7258585383
 21
160.2188937742
 31
0.0
  0
LINE
  5
A4
330
1F
100
AcDbEntity
  8
0
  6
SLD-実線
 62
     7
370
    18
100
AcDbLine
 10
171.7258585383
 20
152.2188937742
 30
0.0
 11
172.5258585383
 21
152.2188937742
 31
0.0
  0
LINE
  5
A5
330
1F
100
AcDbEntity
  8
0
  6
SLD-実線
 62
     7
370
    18
100
AcDbLine
 10
146.6603215936
 20
141.2723785147
 30
0.0
 11
151.6603215936
 21
141.7223785147
 31
0.0
  0
LINE
  5
A6
330
1F
100
AcDbEntity
  8
0
  6
SLD-実線
 62
     7
370
    18
100
AcDbLine
 10
151.6603215936
 20
142.4723785147
 30
0.0
 11
146.6603215936
 21
142.4723785147
 31
0.0
  0
LINE
  5
A7
330
1F
100
AcDbEntity
  8
0
  6
SLD-実線
 62
     7
370
    18
100
AcDbLine
 10
146.6603215936
 20
143.2723785147
 30
0.0
 11
151.6603215936
 21
143.2723785147
 31
0.0
  0
LINE
  5
A8
330
1F
100
AcDbEntity
  8
0
  6
SLD-実線
 62
     7
370
    18
100
AcDbLine
 10
151.6603215936
 20
144.0223785147
 30
0.0
 11
146.6603215936
 21
144.4723785147
 31
0.0
  0
LINE
  5
A9
330
1F
100
AcDbEntity
  8
0
  6
SLD-実線
 62
     7
370
    18
100
AcDbLine
 10
146.6603215936
 20
142.4723785147
 30
0.0
 11
151.6603215936
 21
142.4973785147
 31
0.0
  0
LINE
  5
AA
330
1F
100
AcDbEntity
  8
0
  6
SLD-実線
 62
     7
370
    18
100
AcDbLine
 10
151.6603215936
 20
143.2473785147
 30
0.0
 11
146.6603215936
 21
143.2723785147
 31
0.0
  0
LINE
  5
AB
330
1F
100
AcDbEntity
  8
0
  6
SLD-実線
 62
     7
370
    18
100
AcDbLine
 10
151.6603215936
 20
142.4973785147
 30
0.0
 11
156.6603215936
 21
142.6223785147
 31
0.0
  0
LINE
  5
AC
330
1F
100
AcDbEntity
  8
0
  6
SLD-実線
 62
     7
370
    18
100
AcDbLine
 10
156.6603215936
 20
143.1223785147
 30
0.0
 11
151.6603215936
 21
143.2473785147
 31
0.0
  0
LINE
  5
AD
330
1F
100
AcDbEntity
  8
0
  6
SLD-実線
 62
     7
370
    18
100
AcDbLine
 10
151.6603215936
 20
143.2723785147
 30
0.0
 11
156.6603215936
 21
143.3973785147
 31
0.0
  0
LINE
  5
AE
330
1F
100
AcDbEntity
  8
0
  6
SLD-実線
 62
     7
370
    18
100
AcDbLine
 10
156.6603215936
 20
143.8973785147
 30
0.0
 11
151.6603215936
 21
144.0223785147
 31
0.0
  0
LINE
  5
AF
330
1F
100
AcDbEntity
  8
0
  6
SLD-実線
 62
     7
370
    18
100
AcDbLine
 10
151.6603215936
 20
141.7223785147
 30
0.0
 11
156.6603215936
 21
141.8473785147
 31
0.0
  0
LINE
  5
B0
330
1F
100
AcDbEntity
  8
0
  6
SLD-実線
 62
     7
370
    18
100
AcDbLine
 10
156.6603215936
 20
142.3473785147
 30
0.0
 11
151.6603215936
 21
142.4723785147
 31
0.0
  0
LINE
  5
B1
330
1F
100
AcDbEntity
  8
0
  6
SLD-実線
 62
     7
370
    18
100
AcDbLine
 10
131.745814688
 20
162.2863521177
 30
0.0
 11
129.9603215936
 21
162.2863521177
 31
0.0
  0
LINE
  5
B2
330
1F
100
AcDbEntity
  8
0
  6
SLD-実線
 62
     7
370
    18
100
AcDbLine
 10
135.9603215936
 20
162.2863521177
 30
0.0
 11
134.1748284992
 21
162.2863521177
 31
0.0
  0
LINE
  5
B3
330
1F
100
AcDbEntity
  8
0
  6
SLD-実線
 62
     7
370
    18
100
AcDbLine
 10
134.1675402128
 20
157.5863521177
 30
0.0
 11
135.9603215936
 21
157.5863521177
 31
0.0
  0
LINE
  5
B4
330
1F
100
AcDbEntity
  8
0
  6
SLD-実線
 62
     7
370
    18
100
AcDbLine
 10
129.9603215936
 20
157.5863521177
 30
0.0
 11
131.7711906728
 21
157.5863521177
 31
0.0
  0
LINE
  5
B5
330
1F
100
AcDbEntity
  8
0
  6
SLD-実線
 62
     7
370
    18
100
AcDbLine
 10
129.9603215936
 20
146.0188937742
 30
0.0
 11
135.9603215936
 21
146.0188937742
 31
0.0
  0
LINE
  5
B6
330
1F
100
AcDbEntity
  8
0
  6
SLD-実線
 62
     7
370
    18
100
AcDbLine
 10
134.1748284992
 20
162.2863521177
 30
0.0
 11
134.4603215936
 21
170.666916894
 31
0.0
  0
LINE
  5
B7
330
1F
100
AcDbEntity
  8
0
  6
SLD-実線
 62
     7
370
    18
100
AcDbLine
 10
131.4603215936
 20
170.666916894
 30
0.0
 11
131.745814688
 21
162.2863521177
 31
0.0
  0
LINE
  5
B8
330
1F
100
AcDbEntity
  8
0
  6
SLD-実線
 62
     7
370
    18
100
AcDbLine
 10
131.7074234833
 20
158.192664395
 30
0.0
 11
131.7711499715
 21
158.1386154737
 31
0.0
  0
LINE
  5
B9
330
1F
100
AcDbEntity
  8
0
  6
SLD-実線
 62
     7
370
    18
100
AcDbLine
 10
134.1494932158
 20
158.1386154737
 30
0.0
 11
134.2150873468
 21
158.2080258236
 31
0.0
  0
LINE
  5
BA
330
1F
100
AcDbEntity
  8
0
  6
SLD-実線
 62
     7
370
    18
100
AcDbLine
 10
131.4603215936
 20
170.666916894
 30
0.0
 11
131.4603215936
 21
170.5483496448
 31
0.0
  0
LINE
  5
BB
330
1F
100
AcDbEntity
  8
0
  6
SLD-実線
 62
     7
370
    18
100
AcDbLine
 10
134.4603215936
 20
170.5483496448
 30
0.0
 11
134.4603215936
 21
170.666916894
 31
0.0
  0
LINE
  5
BC
330
1F
100
AcDbEntity
  8
0
  6
SLD-実線
 62
     7
370
    18
100
AcDbLine
 10
131.3603215936
 20
168.4966646753
 30
0.0
 11
131.3603215936
 21
168.1260184491
 31
0.0
  0
LINE
  5
BD
330
1F
100
AcDbEntity
  8
0
  6
SLD-実線
 62
     7
370
    18
100
AcDbLine
 10
131.3603215936
 20
169.4764605724
 30
0.0
 11
131.3603215936
 21
168.4966646753
 31
0.0
  0
LINE
  5
BE
330
1F
100
AcDbEntity
  8
0
  6
SLD-実線
 62
     7
370
    18
100
AcDbLine
 10
131.3603215936
 20
169.4764605724
 30
0.0
 11
131.3603215936
 21
174.4723785147
 31
0.0
  0
LINE
  5
BF
330
1F
100
AcDbEntity
  8
0
  6
SLD-実線
 62
     7
370
    18
100
AcDbLine
 10
134.5603215936
 20
174.4723785147
 30
0.0
 11
134.5603215936
 21
169.4764605724
 31
0.0
  0
LINE
  5
C0
330
1F
100
AcDbEntity
  8
0
  6
SLD-実線
 62
     7
370
    18
100
AcDbLine
 10
134.5603215936
 20
168.4966646753
 30
0.0
 11
134.5603215936
 21
169.4764605724
 31
0.0
  0
LINE
  5
C1
330
1F
100
AcDbEntity
  8
0
  6
SLD-実線
 62
     7
370
    18
100
AcDbLine
 10
134.5603215936
 20
168.1260184491
 30
0.0
 11
134.5603215936
 21
168.4966646753
 31
0.0
  0
LINE
  5
C2
330
1F
100
AcDbEntity
  8
0
  6
SLD-実線
 62
     7
370
    18
100
AcDbLine
 10
129.4603215936
 20
169.4764605724
 30
0.0
 11
131.3603215936
 21
169.4764605724
 31
0.0
  0
LINE
  5
C3
330
1F
100
AcDbEntity
  8
0
  6
SLD-実線
 62
     7
370
    18
100
AcDbLine
 10
129.4603215936
 20
174.4723785147
 30
0.0
 11
129.4603215936
 21
169.4764605724
 31
0.0
  0
LINE
  5
C4
330
1F
100
AcDbEntity
  8
0
  6
SLD-実線
 62
     7
370
    18
100
AcDbLine
 10
131.3603215936
 20
174.4723785147
 30
0.0
 11
129.4603215936
 21
174.4723785147
 31
0.0
  0
LINE
  5
C5
330
1F
100
AcDbEntity
  8
0
  6
SLD-実線
 62
     7
370
    18
100
AcDbLine
 10
131.3603215936
 20
168.4966646753
 30
0.0
 11
128.4805256965
 21
168.4966646753
 31
0.0
  0
LINE
  5
C6
330
1F
100
AcDbEntity
  8
0
  6
SLD-実線
 62
     7
370
    18
100
AcDbLine
 10
129.4603215936
 20
169.4764605724
 30
0.0
 11
128.4805256965
 21
168.4966646753
 31
0.0
  0
LINE
  5
C7
330
1F
100
AcDbEntity
  8
0
  6
SLD-実線
 62
     7
370
    18
100
AcDbLine
 10
134.5603215936
 20
169.4764605724
 30
0.0
 11
136.4603215936
 21
169.4764605724
 31
0.0
  0
LINE
  5
C8
330
1F
100
AcDbEntity
  8
0
  6
SLD-実線
 62
     7
370
    18
100
AcDbLine
 10
137.4401174907
 20
168.4966646753
 30
0.0
 11
136.4603215936
 21
169.4764605724
 31
0.0
  0
LINE
  5
C9
330
1F
100
AcDbEntity
  8
0
  6
SLD-実線
 62
     7
370
    18
100
AcDbLine
 10
137.4401174907
 20
168.4966646753
 30
0.0
 11
134.5603215936
 21
168.4966646753
 31
0.0
  0
LINE
  5
CA
330
1F
100
AcDbEntity
  8
0
  6
SLD-実線
 62
     7
370
    18
100
AcDbLine
 10
136.4603215936
 20
174.4723785147
 30
0.0
 11
134.5603215936
 21
174.4723785147
 31
0.0
  0
LINE
  5
CB
330
1F
100
AcDbEntity
  8
0
  6
SLD-実線
 62
     7
370
    18
100
AcDbLine
 10
136.4603215936
 20
169.4764605724
 30
0.0
 11
136.4603215936
 21
174.4723785147
 31
0.0
  0
SPLINE
  5
CC
330
1F
100
AcDbEntity
  8
0
  6
SLD-実線
 62
     7
370
    18
100
AcDbSpline
210
0.0
220
0.0
230
1.0
 70
     8
 71
     3
 72
    14
 73
    10
 74
     0
 42
0.000000001
 43
0.00000001
 40
0.0
 40
0.0
 40
0.0
 40
0.0
 40
0.25
 40
0.25
 40
0.5
 40
0.5
 40
0.75
 40
0.75
 40
1.0
 40
1.0
 40
1.0
 40
1.0
 10
136.9705753061598
 20
174.4723785147077
 30
0.0
 10
137.0519911809591
 20
174.4342818996509
 30
0.0
 10
137.1220167742949
 20
174.3900456906249
 30
0.0
 10
137.2440262119777
 20
174.2926643029992
 30
0.0
 10
137.2954811093342
 20
174.239496882092
 30
0.0
 10
137.3772138594901
 20
174.1306455489787
 30
0.0
 10
137.4083969223355
 20
174.0737599833325
 30
0.0
 10
137.4497672569553
 20
173.9604996228235
 30
0.0
 10
137.4603215936194
 20
173.9039090159104
 30
0.0
 10
137.4603215936194
 20
173.8474063543859
 30
0.0
  0
LINE
  5
CD
330
1F
100
AcDbEntity
  8
0
  6
SLD-実線
 62
     7
370
    18
100
AcDbLine
 10
137.4603215936
 20
173.8474063544
 30
0.0
 11
137.4603215936
 21
168.4568503866
 31
0.0
  0
SPLINE
  5
CE
330
1F
100
AcDbEntity
  8
0
  6
SLD-実線
 62
     7
370
    18
100
AcDbSpline
210
0.0
220
0.0
230
1.0
 70
     8
 71
     3
 72
     8
 73
     4
 74
     0
 42
0.000000001
 43
0.00000001
 40
0.0
 40
0.0
 40
0.0
 40
0.0
 40
1.0
 40
1.0
 40
1.0
 40
1.0
 10
137.4603215936194
 20
168.4568503866194
 30
0.0
 10
137.4603215936194
 20
168.4699252195288
 30
0.0
 10
137.4535793123339
 20
168.4832028537278
 30
0.0
 10
137.4401174907327
 20
168.496664675329
 30
0.0
  0
LINE
  5
CF
330
1F
100
AcDbEntity
  8
0
  6
SLD-実線
 62
     7
370
    18
100
AcDbLine
 10
136.4603215936
 20
174.4723785147
 30
0.0
 11
136.9705753062
 21
174.4723785147
 31
0.0
  0
LINE
  5
D0
330
1F
100
AcDbEntity
  8
0
  6
SLD-実線
 62
     7
370
    18
100
AcDbLine
 10
128.9500678811
 20
174.4723785147
 30
0.0
 11
129.4603215936
 21
174.4723785147
 31
0.0
  0
SPLINE
  5
D1
330
1F
100
AcDbEntity
  8
0
  6
SLD-実線
 62
     7
370
    18
100
AcDbSpline
210
0.0
220
0.0
230
1.0
 70
     8
 71
     3
 72
     8
 73
     4
 74
     0
 42
0.000000001
 43
0.00000001
 40
0.0
 40
0.0
 40
0.0
 40
0.0
 40
1.0
 40
1.0
 40
1.0
 40
1.0
 10
128.4805256965061
 20
168.496664675329
 30
0.0
 10
128.467063874905
 20
168.4832028537278
 30
0.0
 10
128.4603215936194
 20
168.4699252195288
 30
0.0
 10
128.4603215936194
 20
168.4568503866194
 30
0.0
  0
LINE
  5
D2
330
1F
100
AcDbEntity
  8
0
  6
SLD-実線
 62
     7
370
    18
100
AcDbLine
 10
128.4603215936
 20
168.4568503866
 30
0.0
 11
128.4603215936
 21
173.8474063544
 31
0.0
  0
SPLINE
  5
D3
330
1F
100
AcDbEntity
  8
0
  6
SLD-実線
 62
     7
370
    18
100
AcDbSpline
210
0.0
220
0.0
230
1.0
 70
     8
 71
     3
 72
    14
 73
    10
 74
     0
 42
0.000000001
 43
0.00000001
 40
0.0
 40
0.0
 40
0.0
 40
0.0
 40
0.25
 40
0.25
 40
0.5
 40
0.5
 40
0.75
 40
0.75
 40
1.0
 40
1.0
 40
1.0
 40
1.0
 10
128.4603215936194
 20
173.8474063543859
 30
0.0
 10
128.4603215936194
 20
173.9039940760384
 30
0.0
 10
128.4709055761925
 20
173.9604903451057
 30
0.0
 10
128.5120170883713
 20
174.0732225646918
 30
0.0
 10
128.5431358993524
 20
174.1301829081541
 30
0.0
 10
128.6248792613488
 20
174.239191577828
 30
0.0
 10
128.6750747576303
 20
174.2912067821223
 30
0.0
 10
128.7967652431122
 20
174.3887805674573
 30
0.0
 10
128.8685436470814
 20
174.4342311955508
 30
0.0
 10
128.9500678810791
 20
174.4723785147077
 30
0.0
  0
LINE
  5
D4
330
1F
100
AcDbEntity
  8
0
  6
SLD-実線
 62
     7
370
    18
100
AcDbLine
 10
137.4603215936
 20
168.0723785147
 30
0.0
 11
134.4603215936
 21
168.0723785147
 31
0.0
  0
SPLINE
  5
D5
330
1F
100
AcDbEntity
  8
0
  6
SLD-実線
 62
     7
370
    18
100
AcDbSpline
210
0.0
220
0.0
230
1.0
 70
     8
 71
     3
 72
     9
 73
     5
 74
     0
 42
0.000000001
 43
0.00000001
 40
0.0
 40
0.0
 40
0.0
 40
0.0
 40
0.6559500988628026
 40
1.0
 40
1.0
 40
1.0
 40
1.0
 10
134.4603215936194
 20
168.0723785147077
 30
0.0
 10
134.4984513184005
 20
168.1028263185554
 30
0.0
 10
134.5565803206633
 20
168.1100764167709
 30
0.0
 10
134.5593639025474
 20
168.1219376075421
 30
0.0
 10
134.5603215936194
 20
168.1260184490543
 30
0.0
  0
LINE
  5
D6
330
1F
100
AcDbEntity
  8
0
  6
SLD-実線
 62
     7
370
    18
100
AcDbLine
 10
137.4603215936
 20
168.0723785147
 30
0.0
 11
137.4603215936
 21
168.4568503866
 31
0.0
  0
SPLINE
  5
D7
330
1F
100
AcDbEntity
  8
0
  6
SLD-実線
 62
     7
370
    18
100
AcDbSpline
210
0.0
220
0.0
230
1.0
 70
     8
 71
     3
 72
     9
 73
     5
 74
     0
 42
0.000000001
 43
0.00000001
 40
0.0
 40
0.0
 40
0.0
 40
0.0
 40
0.9621326159082617
 40
0.9999999999999999
 40
0.9999999999999999
 40
0.9999999999999999
 40
0.9999999999999999
 10
131.3603215936194
 20
168.1260184490543
 30
0.0
 10
131.3630035038765
 20
168.1132825213082
 30
0.0
 10
131.3657909681123
 20
168.100045335981
 30
0.0
 10
131.456872571558
 20
168.0944294459418
 30
0.0
 10
131.4603215936194
 20
168.0942167868766
 30
0.0
  0
LINE
  5
D8
330
1F
100
AcDbEntity
  8
0
  6
SLD-実線
 62
     7
370
    18
100
AcDbLine
 10
131.4603215936
 20
168.0942167869
 30
0.0
 11
128.4603215936
 21
168.0723785147
 31
0.0
  0
LINE
  5
D9
330
1F
100
AcDbEntity
  8
0
  6
SLD-実線
 62
     7
370
    18
100
AcDbLine
 10
128.4603215936
 20
168.4568503866
 30
0.0
 11
128.4603215936
 21
168.0723785147
 31
0.0
  0
LINE
  5
DA
330
1F
100
AcDbEntity
  8
0
  6
SLD-実線
 62
     7
370
    18
100
AcDbLine
 10
128.4603215936
 20
168.0723785147
 30
0.0
 11
128.4603215936
 21
166.3723785147
 31
0.0
  0
LINE
  5
DB
330
1F
100
AcDbEntity
  8
0
  6
SLD-実線
 62
     7
370
    18
100
AcDbLine
 10
137.4603215936
 20
166.3723785147
 30
0.0
 11
137.4603215936
 21
168.0723785147
 31
0.0
  0
ARC
  5
DC
330
1F
100
AcDbEntity
  8
0
  6
SLD-実線
 62
     7
370
    18
100
AcDbCircle
 10
137.1603215936
 20
166.3723785147
 30
0.0
 40
0.3000000000000114
100
AcDbArc
 50
270.0
 51
0.0
  0
LINE
  5
DD
330
1F
100
AcDbEntity
  8
0
  6
SLD-実線
 62
     7
370
    18
100
AcDbLine
 10
137.1603215936
 20
166.0723785147
 30
0.0
 11
134.4603215936
 21
166.0723785147
 31
0.0
  0
LINE
  5
DE
330
1F
100
AcDbEntity
  8
0
  6
SLD-実線
 62
     7
370
    18
100
AcDbLine
 10
131.4603215936
 20
166.0723785147
 30
0.0
 11
128.7603215936
 21
166.0723785147
 31
0.0
  0
ARC
  5
DF
330
1F
100
AcDbEntity
  8
0
  6
SLD-実線
 62
     7
370
    18
100
AcDbCircle
 10
128.7603215936
 20
166.3723785147
 30
0.0
 40
0.3000000000000114
100
AcDbArc
 50
180.0
 51
270.0
  0
LINE
  5
E0
330
1F
100
AcDbEntity
  8
0
  6
SLD-実線
 62
     7
370
    18
100
AcDbLine
 10
129.6603215936
 20
146.4723785147
 30
0.0
 11
129.6603215936
 21
145.6723785147
 31
0.0
  0
LINE
  5
E1
330
1F
100
AcDbEntity
  8
0
  6
SLD-実線
 62
     7
370
    18
100
AcDbLine
 10
124.6603215936
 20
139.3723785147
 30
0.0
 11
124.6603215936
 21
138.8723785147
 31
0.0
  0
LINE
  5
E2
330
1F
100
AcDbEntity
  8
0
  6
SLD-実線
 62
     7
370
    18
100
AcDbLine
 10
124.6603215936
 20
140.5723785147
 30
0.0
 11
124.6603215936
 21
139.3723785147
 31
0.0
  0
LINE
  5
E3
330
1F
100
AcDbEntity
  8
0
  6
SLD-実線
 62
     7
370
    18
100
AcDbLine
 10
119.6603215936
 20
139.3723785147
 30
0.0
 11
119.6603215936
 21
146.8611377991
 31
0.0
  0
LINE
  5
E4
330
1F
100
AcDbEntity
  8
0
  6
SLD-実線
 62
     7
370
    18
100
AcDbLine
 10
119.6603215936
 20
138.8723785147
 30
0.0
 11
119.6603215936
 21
139.3723785147
 31
0.0
  0
LINE
  5
E5
330
1F
100
AcDbEntity
  8
0
  6
SLD-実線
 62
     7
370
    18
100
AcDbLine
 10
146.2603215936
 20
140.5723785147
 30
0.0
 11
146.2603215936
 21
140.0723785147
 31
0.0
  0
LINE
  5
E6
330
1F
100
AcDbEntity
  8
0
  6
SLD-実線
 62
     7
370
    18
100
AcDbLine
 10
146.2603215936
 20
140.5723785147
 30
0.0
 11
146.2258585383
 21
146.8723785147
 31
0.0
  0
LINE
  5
E7
330
1F
100
AcDbEntity
  8
0
  6
SLD-実線
 62
     7
370
    18
100
AcDbLine
 10
124.6603215936
 20
138.8723785147
 30
0.0
 11
119.6603215936
 21
138.8723785147
 31
0.0
  0
LINE
  5
E8
330
1F
100
AcDbEntity
  8
0
  6
SLD-実線
 62
     7
370
    18
100
AcDbLine
 10
119.6603215936
 20
139.3723785147
 30
0.0
 11
124.6603215936
 21
139.3723785147
 31
0.0
  0
LINE
  5
E9
330
1F
100
AcDbEntity
  8
0
  6
SLD-実線
 62
     7
370
    18
100
AcDbLine
 10
136.2603215936
 20
145.6723785147
 30
0.0
 11
136.2603215936
 21
146.8611377991
 31
0.0
  0
LINE
  5
EA
330
1F
100
AcDbEntity
  8
0
  6
SLD-実線
 62
     7
370
    18
100
AcDbLine
 10
129.6603215936
 20
145.6723785147
 30
0.0
 11
136.2603215936
 21
145.6723785147
 31
0.0
  0
LINE
  5
EB
330
1F
100
AcDbEntity
  8
0
  6
SLD-実線
 62
     7
370
    18
100
AcDbLine
 10
124.6603215936
 20
140.5723785147
 30
0.0
 11
146.2603215936
 21
140.5723785147
 31
0.0
  0
LINE
  5
EC
330
1F
100
AcDbEntity
  8
0
  6
SLD-実線
 62
     7
370
    18
100
AcDbLine
 10
146.2603215936
 20
140.0723785147
 30
0.0
 11
124.6603215936
 21
140.5723785147
 31
0.0
  0
LINE
  5
ED
330
1F
100
AcDbEntity
  8
0
  6
SLD-実線
 62
     7
370
    18
100
AcDbLine
 10
136.2603215936
 20
146.2188937742
 30
0.0
 11
129.6603215936
 21
146.4723785147
 31
0.0
  0
SPLINE
  5
EE
330
1F
100
AcDbEntity
  8
0
  6
SLD-実線
 62
     7
370
    18
100
AcDbSpline
210
0.0
220
0.0
230
1.0
 70
     8
 71
     3
 72
    12
 73
     8
 74
     0
 42
0.000000001
 43
0.00000001
 40
0.0
 40
0.0
 40
0.0
 40
0.0
 40
0.5
 40
0.5
 40
0.75
 40
0.75
 40
1.0
 40
1.0
 40
1.0
 40
1.0
 10
95.72585853831006
 20
156.2188937741524
 30
0.0
 10
95.72585853831006
 20
155.8795675296745
 30
0.0
 10
95.7760885632687
 20
155.5470339815091
 30
0.0
 10
95.90922731210729
 20
155.0606532501257
 30
0.0
 10
95.96350025358197
 20
154.8994751260919
 30
0.0
 10
96.08545980146809
 20
154.5856693904011
 30
0.0
 10
96.15314488762044
 20
154.4325987720689
 30
0.0
 10
96.22585853831006
 20
154.2824021010487
 30
0.0
  0
LINE
  5
EF
330
1F
100
AcDbEntity
  8
0
  6
SLD-実線
 62
     7
370
    18
100
AcDbLine
 10
96.2258585383
 20
154.282402101
 30
0.0
 11
96.2258585383
 21
152.2188937742
 31
0.0
  0
LINE
  5
F0
330
1F
100
AcDbEntity
  8
0
  6
SLD-実線
 62
     7
370
    18
100
AcDbLine
 10
95.7258585383
 20
152.7188937742
 30
0.0
 11
95.7258585383
 21
156.2188937742
 31
0.0
  0
SPLINE
  5
F1
330
1F
100
AcDbEntity
  8
0
  6
SLD-実線
 62
     7
370
    18
100
AcDbSpline
210
0.0
220
0.0
230
1.0
 70
     8
 71
     3
 72
    10
 73
     6
 74
     0
 42
0.000000001
 43
0.00000001
 40
0.0
 40
0.0
 40
0.0
 40
0.0
 40
0.4999999999999999
 40
0.4999999999999999
 40
1.0
 40
1.0
 40
1.0
 40
1.0
 10
96.22585853831006
 20
158.1553854472561
 30
0.0
 10
96.08135316396607
 20
157.8568964295112
 30
0.0
 10
95.9560869144202
 20
157.5469662245549
 30
0.0
 10
95.77603709827714
 20
156.8919023203318
 30
0.0
 10
95.72585853831006
 20
156.5588646969035
 30
0.0
 10
95.72585853831006
 20
156.2188937741524
 30
0.0
  0
LINE
  5
F2
330
1F
100
AcDbEntity
  8
0
  6
SLD-実線
 62
     7
370
    18
100
AcDbLine
 10
95.7258585383
 20
156.2188937742
 30
0.0
 11
95.7258585383
 21
159.7188937742
 31
0.0
  0
LINE
  5
F3
330
1F
100
AcDbEntity
  8
0
  6
SLD-実線
 62
     7
370
    18
100
AcDbLine
 10
96.2258585383
 20
160.2188937742
 30
0.0
 11
96.2258585383
 21
158.1553854473
 31
0.0
  0
LINE
  5
F4
330
1F
100
AcDbEntity
  8
0
  6
SLD-実線
 62
     7
370
    18
100
AcDbLine
 10
96.2258585383
 20
158.1553854473
 30
0.0
 11
98.7258585383
 21
158.1553854473
 31
0.0
  0
LINE
  5
F5
330
1F
100
AcDbEntity
  8
0
  6
SLD-実線
 62
     7
370
    18
100
AcDbLine
 10
98.7258585383
 20
154.282402101
 30
0.0
 11
96.2258585383
 21
154.282402101
 31
0.0
  0
LINE
  5
F6
330
1F
100
AcDbEntity
  8
0
  6
SLD-実線
 62
     7
370
    18
100
AcDbLine
 10
146.2258585383
 20
146.8723785147
 30
0.0
 11
146.2258585383
 21
166.2188937742
 31
0.0
  0
LINE
  5
F7
330
1F
100
AcDbEntity
  8
0
  6
SLD-実線
 62
     7
370
    18
100
AcDbLine
 10
99.7258585383
 20
161.4867206506
 30
0.0
 11
103.9258585383
 21
161.4867206506
 31
0.0
  0
LINE
  5
F8
330
1F
100
AcDbEntity
  8
0
  6
SLD-実線
 62
     7
370
    18
100
AcDbLine
 10
99.7258585383
 20
166.2188937742
 30
0.0
 11
99.7258585383
 21
161.4867206506
 31
0.0
  0
LINE
  5
F9
330
1F
100
AcDbEntity
  8
0
  6
SLD-実線
 62
     7
370
    18
100
AcDbLine
 10
99.7258585383
 20
150.9510668977
 30
0.0
 11
99.7258585383
 21
146.2188937742
 31
0.0
  0
LINE
  5
FA
330
1F
100
AcDbEntity
  8
0
  6
SLD-実線
 62
     7
370
    18
100
AcDbLine
 10
103.9258585383
 20
150.9510668977
 30
0.0
 11
99.7258585383
 21
150.9510668977
 31
0.0
  0
LINE
  5
FB
330
1F
100
AcDbEntity
  8
0
  6
SLD-実線
 62
     7
370
    18
100
AcDbLine
 10
103.9258585383
 20
161.4867206506
 30
0.0
 11
103.9258585383
 21
150.9510668977
 31
0.0
  0
SPLINE
  5
FC
330
1F
100
AcDbEntity
  8
0
  6
SLD-実線
 62
     7
370
    18
100
AcDbSpline
210
0.0
220
0.0
230
1.0
 70
     8
 71
     3
 72
     8
 73
     4
 74
     0
 42
0.000000001
 43
0.00000001
 40
0.0
 40
0.0
 40
0.0
 40
0.0
 40
0.0004385835959357
 40
0.0004385835959357
 40
0.0004385835959357
 40
0.0004385835959357
 10
103.9258585383101
 20
150.9510668977261
 30
0.0
 10
103.8577216700227
 20
151.0804122044072
 30
0.0
 10
103.7909982107942
 20
151.2105140716003
 30
0.0
 10
103.72585853831
 20
151.3413944148497
 30
0.0
  0
LINE
  5
FD
330
1F
100
AcDbEntity
  8
0
  6
SLD-実線
 62
     7
370
    18
100
AcDbLine
 10
103.7258585383
 20
151.3413944148
 30
0.0
 11
103.7258585383
 21
161.0963931335
 31
0.0
  0
SPLINE
  5
FE
330
1F
100
AcDbEntity
  8
0
  6
SLD-実線
 62
     7
370
    18
100
AcDbSpline
210
0.0
220
0.0
230
1.0
 70
     8
 71
     3
 72
     8
 73
     4
 74
     0
 42
0.000000001
 43
0.00000001
 40
0.0
 40
0.0
 40
0.0
 40
0.0
 40
0.0004385835959357
 40
0.0004385835959357
 40
0.0004385835959357
 40
0.0004385835959357
 10
103.72585853831
 20
161.0963931334554
 30
0.0
 10
103.7909982107942
 20
161.2272734767048
 30
0.0
 10
103.8577216700227
 20
161.3573753438979
 30
0.0
 10
103.9258585383101
 20
161.4867206505789
 30
0.0
  0
SPLINE
  5
FF
330
1F
100
AcDbEntity
  8
0
  6
SLD-実線
 62
     7
370
    18
100
AcDbSpline
210
0.0
220
0.0
230
1.0
 70
     8
 71
     3
 72
    10
 73
     6
 74
     0
 42
0.000000001
 43
0.00000001
 40
0.0
 40
0.0
 40
0.0
 40
0.0
 40
0.4999999999999998
 40
0.4999999999999998
 40
1.0
 40
1.0
 40
1.0
 40
1.0
 10
98.72585853831004
 20
153.2608538826027
 30
0.0
 10
98.85784149273766
 20
152.8592884428526
 30
0.0
 10
99.0117878580115
 20
152.4641846002501
 30
0.0
 10
99.34824422412753
 20
151.6956577713862
 30
0.0
 10
99.53145441896405
 20
151.3201073462951
 30
0.0
 10
99.72585853831004
 20
150.9510668977262
 30
0.0
  0
LINE
  5
100
330
1F
100
AcDbEntity
  8
0
  6
SLD-実線
 62
     7
370
    18
100
AcDbLine
 10
98.7258585383
 20
159.1769336657
 30
0.0
 11
98.7258585383
 21
153.2608538826
 31
0.0
  0
SPLINE
  5
101
330
1F
100
AcDbEntity
  8
0
  6
SLD-実線
 62
     7
370
    18
100
AcDbSpline
210
0.0
220
0.0
230
1.0
 70
     8
 71
     3
 72
     8
 73
     4
 74
     0
 42
0.000000001
 43
0.00000001
 40
0.0
 40
0.0
 40
0.0
 40
0.0
 40
1.0
 40
1.0
 40
1.0
 40
1.0
 10
99.72585853831004
 20
161.4867206505789
 30
0.0
 10
99.33471149878098
 20
160.7441999704111
 30
0.0
 10
98.9897345361063
 20
159.979790985832
 30
0.0
 10
98.72585853831004
 20
159.1769336657024
 30
0.0
  0
LINE
  5
102
330
1F
100
AcDbEntity
  8
0
  6
SLD-実線
 62
     7
370
    18
100
AcDbLine
 10
98.7258585383
 20
159.1769336657
 30
0.0
 11
98.7258585383
 21
165.2188937742
 31
0.0
  0
LINE
  5
103
330
1F
100
AcDbEntity
  8
0
  6
SLD-実線
 62
     7
370
    18
100
AcDbLine
 10
98.7258585383
 20
147.2188937742
 30
0.0
 11
98.7258585383
 21
153.2608538826
 31
0.0
  0
LINE
  5
104
330
1F
100
AcDbEntity
  8
0
  6
SLD-実線
 62
     7
370
    18
100
AcDbLine
 10
155.7258585383
 20
164.7188937742
 30
0.0
 11
155.7258585383
 21
147.7188937742
 31
0.0
  0
SPLINE
  5
105
330
1F
100
AcDbEntity
  8
0
  6
SLD-実線
 62
     7
370
    18
100
AcDbSpline
210
0.0
220
0.0
230
1.0
 70
    24
 71
     3
 72
     8
 73
     4
 74
     0
 42
0.000000001
 43
0.00000001
 40
0.0
 40
0.0
 40
0.0
 40
0.0
 40
1.0
 40
1.0
 40
1.0
 40
1.0
 10
155.72585853831
 20
147.7188937741524
 30
0.0
 10
155.570346416276
 20
147.7188937741524
 30
0.0
 10
155.4027436206405
 20
147.7188937741524
 30
0.0
 10
155.2258585383101
 20
147.7188937741524
 30
0.0
  0
LINE
  5
106
330
1F
100
AcDbEntity
  8
0
  6
SLD-実線
 62
     7
370
    18
100
AcDbLine
 10
155.2258585383
 20
147.7188937742
 30
0.0
 11
155.2258585383
 21
164.7188937742
 31
0.0
  0
SPLINE
  5
107
330
1F
100
AcDbEntity
  8
0
  6
SLD-実線
 62
     7
370
    18
100
AcDbSpline
210
0.0
220
0.0
230
1.0
 70
    24
 71
     3
 72
     8
 73
     4
 74
     0
 42
0.000000001
 43
0.00000001
 40
0.0
 40
0.0
 40
0.0
 40
0.0
 40
1.0
 40
1.0
 40
1.0
 40
1.0
 10
155.2258585383101
 20
164.7188937741524
 30
0.0
 10
155.4032088045134
 20
164.7188937741524
 30
0.0
 10
155.5707904169318
 20
164.7188937741524
 30
0.0
 10
155.7258585383101
 20
164.7188937741524
 30
0.0
  0
LINE
  5
108
330
1F
100
AcDbEntity
  8
0
  6
SLD-実線
 62
     7
370
    18
100
AcDbLine
 10
146.2258585383
 20
156.2188937742
 30
0.0
 11
146.2258585383
 21
166.2188937742
 31
0.0
  0
LINE
  5
109
330
1F
100
AcDbEntity
  8
0
  6
SLD-実線
 62
     7
370
    18
100
AcDbLine
 10
146.2258585383
 20
146.8723785147
 30
0.0
 11
146.2258585383
 21
156.2188937742
 31
0.0
  0
LINE
  5
10A
330
1F
100
AcDbEntity
  8
0
  6
SLD-実線
 62
     7
370
    18
100
AcDbLine
 10
155.2258585383
 20
164.7188937742
 30
0.0
 11
147.2258585383
 21
164.7188937742
 31
0.0
  0
LINE
  5
10B
330
1F
100
AcDbEntity
  8
0
  6
SLD-実線
 62
     7
370
    18
100
AcDbLine
 10
147.2258585383
 20
147.7188937742
 30
0.0
 11
155.2258585383
 21
147.7188937742
 31
0.0
  0
LINE
  5
10C
330
1F
100
AcDbEntity
  8
0
  6
SLD-実線
 62
     7
370
    18
100
AcDbLine
 10
147.2258585383
 20
146.2188937742
 30
0.0
 11
147.2258585383
 21
147.7188937742
 31
0.0
  0
LINE
  5
10D
330
1F
100
AcDbEntity
  8
0
  6
SLD-実線
 62
     7
370
    18
100
AcDbLine
 10
147.2258585383
 20
164.7188937742
 30
0.0
 11
147.2258585383
 21
166.2188937742
 31
0.0
  0
LINE
  5
10E
330
1F
100
AcDbEntity
  8
0
  6
SLD-実線
 62
     7
370
    18
100
AcDbLine
 10
171.7258585383
 20
161.7188937742
 30
0.0
 11
171.7258585383
 21
150.7188937742
 31
0.0
  0
LINE
  5
10F
330
1F
100
AcDbEntity
  8
0
  6
SLD-実線
 62
     7
370
    18
100
AcDbLine
 10
171.2258585383
 20
150.2188937742
 30
0.0
 11
171.2258585383
 21
162.2188937742
 31
0.0
  0
LINE
  5
110
330
1F
100
AcDbEntity
  8
0
  6
SLD-実線
 62
     7
370
    18
100
AcDbLine
 10
147.6758709757
 20
165.5188937742
 30
0.0
 11
147.6758709757
 21
168.0188937742
 31
0.0
  0
LINE
  5
111
330
1F
100
AcDbEntity
  8
0
  6
SLD-実線
 62
     7
370
    18
100
AcDbLine
 10
147.6758709757
 20
168.0188937742
 30
0.0
 11
149.7095571058
 21
168.0188937742
 31
0.0
  0
LINE
  5
112
330
1F
100
AcDbEntity
  8
0
  6
SLD-実線
 62
     7
370
    18
100
AcDbLine
 10
149.709557106
 20
165.5188937742
 30
0.0
 11
149.7095571058
 21
168.0188937742
 31
0.0
  0
LINE
  5
113
330
1F
100
AcDbEntity
  8
0
  6
SLD-実線
 62
     7
370
    18
100
AcDbLine
 10
147.6758709757
 20
165.5188937742
 30
0.0
 11
147.7270641475
 21
165.5188937742
 31
0.0
  0
LINE
  5
114
330
1F
100
AcDbEntity
  8
0
  6
SLD-実線
 62
     7
370
    18
100
AcDbLine
 10
149.709557106
 20
165.5188937742
 30
0.0
 11
149.709557106
 21
165.5188937742
 31
0.0
  0
LINE
  5
115
330
1F
100
AcDbEntity
  8
0
  6
SLD-実線
 62
     7
370
    18
100
AcDbLine
 10
149.7095571058
 20
168.0188937742
 30
0.0
 11
153.7595446685
 21
168.0188937742
 31
0.0
  0
LINE
  5
116
330
1F
100
AcDbEntity
  8
0
  6
SLD-実線
 62
     7
370
    18
100
AcDbLine
 10
153.7595446685
 20
168.0188937742
 30
0.0
 11
153.7595446685
 21
165.5188937742
 31
0.0
  0
LINE
  5
117
330
1F
100
AcDbEntity
  8
0
  6
SLD-実線
 62
     7
370
    18
100
AcDbLine
 10
149.709557106
 20
165.5188937742
 30
0.0
 11
149.8115058314
 21
165.5188937742
 31
0.0
  0
LINE
  5
118
330
1F
100
AcDbEntity
  8
0
  6
SLD-実線
 62
     7
370
    18
100
AcDbLine
 10
153.6575959429
 20
165.5188937742
 30
0.0
 11
153.7595446685
 21
165.5188937742
 31
0.0
  0
LINE
  5
119
330
1F
100
AcDbEntity
  8
0
  6
SLD-実線
 62
     7
370
    18
100
AcDbLine
 10
153.7595446685
 20
168.0188937742
 30
0.0
 11
155.7758461009
 21
168.0188937742
 31
0.0
  0
LINE
  5
11A
330
1F
100
AcDbEntity
  8
0
  6
SLD-実線
 62
     7
370
    18
100
AcDbLine
 10
155.7758461009
 20
165.5188937742
 30
0.0
 11
155.7758461009
 21
168.0188937742
 31
0.0
  0
LINE
  5
11B
330
1F
100
AcDbEntity
  8
0
  6
SLD-実線
 62
     7
370
    18
100
AcDbLine
 10
153.7595446685
 20
165.5188937742
 30
0.0
 11
153.8103002222
 21
165.5188937742
 31
0.0
  0
LINE
  5
11C
330
1F
100
AcDbEntity
  8
0
  6
SLD-実線
 62
     7
370
    18
100
AcDbLine
 10
155.7250905472
 20
165.5188937742
 30
0.0
 11
155.7758461009
 21
165.5188937742
 31
0.0
  0
LINE
  5
11D
330
1F
100
AcDbEntity
  8
0
  6
SLD-実線
 62
     7
370
    18
100
AcDbLine
 10
150.8546171786
 20
170.0188937742
 30
0.0
 11
153.4758585383
 21
170.0188937742
 31
0.0
  0
LINE
  5
11E
330
1F
100
AcDbEntity
  8
0
  6
SLD-実線
 62
     7
370
    18
100
AcDbLine
 10
149.9758585383
 20
170.0188937742
 30
0.0
 11
150.8546171786
 21
170.0188937742
 31
0.0
  0
LINE
  5
11F
330
1F
100
AcDbEntity
  8
0
  6
SLD-実線
 62
     7
370
    18
100
AcDbLine
 10
150.8546171786
 20
172.5188937742
 30
0.0
 11
153.4758585383
 21
172.5188937742
 31
0.0
  0
LINE
  5
120
330
1F
100
AcDbEntity
  8
0
  6
SLD-実線
 62
     7
370
    18
100
AcDbLine
 10
149.9758585383
 20
172.5188937742
 30
0.0
 11
150.8546171786
 21
172.5188937742
 31
0.0
  0
LINE
  5
121
330
1F
100
AcDbEntity
  8
0
  6
SLD-実線
 62
     7
370
    18
100
AcDbLine
 10
153.0267513695
 20
175.0188937742
 30
0.0
 11
153.2258585383
 21
175.0188937742
 31
0.0
  0
LINE
  5
122
330
1F
100
AcDbEntity
  8
0
  6
SLD-実線
 62
     7
370
    18
100
AcDbLine
 10
150.2258585383
 20
175.0188937742
 30
0.0
 11
153.0267513695
 21
175.0188937742
 31
0.0
  0
LINE
  5
123
330
1F
100
AcDbEntity
  8
0
  6
SLD-実線
 62
     7
370
    18
100
AcDbLine
 10
175.0258585383
 20
156.2188937742
 30
0.0
 11
175.0258585383
 21
152.7114908889
 31
0.0
  0
LINE
  5
124
330
1F
100
AcDbEntity
  8
0
  6
SLD-実線
 62
     7
370
    18
100
AcDbLine
 10
175.0258585383
 20
159.7262966595
 30
0.0
 11
175.0258585383
 21
156.2188937742
 31
0.0
  0
LINE
  5
125
330
1F
100
AcDbEntity
  8
0
  6
SLD-実線
 62
     7
370
    18
100
AcDbLine
 10
175.0258585383
 20
159.7262966595
 30
0.0
 11
172.5258585383
 21
159.7262966595
 31
0.0
  0
LINE
  5
126
330
1F
100
AcDbEntity
  8
0
  6
SLD-実線
 62
     7
370
    18
100
AcDbLine
 10
172.5258585383
 20
156.2188937742
 30
0.0
 11
175.0258585383
 21
156.2188937742
 31
0.0
  0
LINE
  5
127
330
1F
100
AcDbEntity
  8
0
  6
SLD-実線
 62
     7
370
    18
100
AcDbLine
 10
172.5258585383
 20
159.7262966595
 30
0.0
 11
172.5258585383
 21
159.6380062021
 31
0.0
  0
LINE
  5
128
330
1F
100
AcDbEntity
  8
0
  6
SLD-実線
 62
     7
370
    18
100
AcDbLine
 10
172.5258585383
 20
156.3071842315
 30
0.0
 11
172.5258585383
 21
156.2188937742
 31
0.0
  0
LINE
  5
129
330
1F
100
AcDbEntity
  8
0
  6
SLD-実線
 62
     7
370
    18
100
AcDbLine
 10
172.5258585383
 20
152.7114908889
 30
0.0
 11
175.0258585383
 21
152.7114908889
 31
0.0
  0
LINE
  5
12A
330
1F
100
AcDbEntity
  8
0
  6
SLD-実線
 62
     7
370
    18
100
AcDbLine
 10
172.5258585383
 20
156.2188937742
 30
0.0
 11
172.5258585383
 21
156.1306033168
 31
0.0
  0
LINE
  5
12B
330
1F
100
AcDbEntity
  8
0
  6
SLD-実線
 62
     7
370
    18
100
AcDbLine
 10
172.5258585383
 20
152.7997813462
 30
0.0
 11
172.5258585383
 21
152.7114908889
 31
0.0
  0
LINE
  5
12C
330
1F
100
AcDbEntity
  8
0
  6
SLD-実線
 62
     7
370
    18
100
AcDbLine
 10
177.5258585383
 20
158.5688937742
 30
0.0
 11
177.5258585383
 21
154.1837340753
 31
0.0
  0
LINE
  5
12D
330
1F
100
AcDbEntity
  8
0
  6
SLD-実線
 62
     7
370
    18
100
AcDbLine
 10
177.5258585383
 20
154.1837340753
 30
0.0
 11
177.5258585383
 21
153.8688937742
 31
0.0
  0
LINE
  5
12E
330
1F
100
AcDbEntity
  8
0
  6
SLD-実線
 62
     7
370
    18
100
AcDbLine
 10
180.0258585383
 20
158.5688937742
 30
0.0
 11
180.0258585383
 21
154.1837340753
 31
0.0
  0
LINE
  5
12F
330
1F
100
AcDbEntity
  8
0
  6
SLD-実線
 62
     7
370
    18
100
AcDbLine
 10
180.0258585383
 20
154.1837340753
 30
0.0
 11
180.0258585383
 21
153.8688937742
 31
0.0
  0
LINE
  5
130
330
1F
100
AcDbEntity
  8
0
  6
SLD-実線
 62
     7
370
    18
100
AcDbLine
 10
182.5258585383
 20
154.4868429666
 30
0.0
 11
182.5258585383
 21
154.2188937742
 31
0.0
  0
LINE
  5
131
330
1F
100
AcDbEntity
  8
0
  6
SLD-実線
 62
     7
370
    18
100
AcDbLine
 10
182.5258585383
 20
158.2188937742
 30
0.0
 11
182.5258585383
 21
154.4868429666
 31
0.0
  0
LINE
  5
132
330
1F
100
AcDbEntity
  8
0
  6
SLD-実線
 62
     7
370
    18
100
AcDbLine
 10
155.7113823451
 20
165.5188937742
 30
0.0
 11
153.8103002222
 21
165.5188937742
 31
0.0
  0
LINE
  5
133
330
1F
100
AcDbEntity
  8
0
  6
SLD-実線
 62
     7
370
    18
100
AcDbLine
 10
153.6575959429
 20
165.5188937742
 30
0.0
 11
149.8115058314
 21
165.5188937742
 31
0.0
  0
LINE
  5
134
330
1F
100
AcDbEntity
  8
0
  6
SLD-実線
 62
     7
370
    18
100
AcDbLine
 10
149.709557106
 20
165.5188937742
 30
0.0
 11
147.7270641475
 21
165.5188937742
 31
0.0
  0
LINE
  5
135
330
1F
100
AcDbEntity
  8
0
  6
SLD-実線
 62
     7
370
    18
100
AcDbLine
 10
155.7250905472
 20
165.5188937742
 30
0.0
 11
155.7113823451
 21
165.5188937742
 31
0.0
  0
LINE
  5
136
330
1F
100
AcDbEntity
  8
0
  6
SLD-実線
 62
     7
370
    18
100
AcDbLine
 10
172.5258585383
 20
152.2188937742
 30
0.0
 11
172.5258585383
 21
152.7114908889
 31
0.0
  0
LINE
  5
137
330
1F
100
AcDbEntity
  8
0
  6
SLD-実線
 62
     7
370
    18
100
AcDbLine
 10
172.5258585383
 20
152.7997813462
 30
0.0
 11
172.5258585383
 21
156.1306033168
 31
0.0
  0
LINE
  5
138
330
1F
100
AcDbEntity
  8
0
  6
SLD-実線
 62
     7
370
    18
100
AcDbLine
 10
172.5258585383
 20
156.3071842315
 30
0.0
 11
172.5258585383
 21
159.6380062021
 31
0.0
  0
LINE
  5
139
330
1F
100
AcDbEntity
  8
0
  6
SLD-実線
 62
     7
370
    18
100
AcDbLine
 10
172.5258585383
 20
159.7262966595
 30
0.0
 11
172.5258585383
 21
160.2188937742
 31
0.0
  0
SPLINE
  5
13A
330
1F
100
AcDbEntity
  8
0
  6
SLD-実線
 62
     7
370
    18
100
AcDbSpline
210
0.0
220
0.0
230
1.0
 70
    24
 71
     3
 72
    22
 73
    18
 74
     0
 42
0.000000001
 43
0.00000001
 40
0.0
 40
0.0
 40
0.0
 40
0.0
 40
0.125
 40
0.125
 40
0.25
 40
0.25
 40
0.375
 40
0.375
 40
0.5
 40
0.5
 40
0.625
 40
0.625
 40
0.75
 40
0.75
 40
0.8750000000000001
 40
0.8750000000000001
 40
1.0
 40
1.0
 40
1.0
 40
1.0
 10
146.6603215936194
 20
144.4723785147077
 30
0.0
 10
146.6603215936194
 20
144.4723785147077
 30
0.0
 10
146.6603215936194
 20
144.4561651813744
 30
0.0
 10
146.6603215936194
 20
144.360591848041
 30
0.0
 10
146.6603215936194
 20
144.2803785147077
 30
0.0
 10
146.6603215936194
 20
144.0243785147077
 30
0.0
 10
146.6603215936194
 20
143.8467729783755
 30
0.0
 10
146.6603215936194
 20
143.4038664039811
 30
0.0
 10
146.6603215936194
 20
143.1390451813744
 30
0.0
 10
146.6603215936194
 20
142.605711848041
 30
0.0
 10
146.6603215936194
 20
142.3408906254344
 30
0.0
 10
146.6603215936194
 20
141.8979840510399
 30
0.0
 10
146.6603215936194
 20
141.7203785147077
 30
0.0
 10
146.6603215936194
 20
141.4643785147077
 30
0.0
 10
146.6603215936194
 20
141.3841651813744
 30
0.0
 10
146.6603215936194
 20
141.288591848041
 30
0.0
 10
146.6603215936194
 20
141.2723785147077
 30
0.0
 10
146.6603215936194
 20
141.2723785147077
 30
0.0
  0
LINE
  5
13B
330
1F
100
AcDbEntity
  8
0
  6
SLD-実線
 62
     7
370
    18
100
AcDbLine
 10
146.6603215936
 20
141.2723785147
 30
0.0
 11
146.6603215936
 21
141.2723785147
 31
0.0
  0
LINE
  5
13C
330
1F
100
AcDbEntity
  8
0
  6
SLD-実線
 62
     7
370
    18
100
AcDbLine
 10
146.6603215936
 20
144.4723785147
 30
0.0
 11
146.6603215936
 21
144.4723785147
 31
0.0
  0
LINE
  5
13D
330
1F
100
AcDbEntity
  8
0
  6
SLD-実線
 62
     7
370
    18
100
AcDbLine
 10
151.6603215936
 20
141.7223785147
 30
0.0
 11
151.6603215936
 21
142.4723785147
 31
0.0
  0
LINE
  5
13E
330
1F
100
AcDbEntity
  8
0
  6
SLD-実線
 62
     7
370
    18
100
AcDbLine
 10
151.6603215936
 20
143.2723785147
 30
0.0
 11
151.6603215936
 21
144.0223785147
 31
0.0
  0
LINE
  5
13F
330
1F
100
AcDbEntity
  8
0
  6
SLD-実線
 62
     7
370
    18
100
AcDbLine
 10
151.6603215936
 20
142.4973785147
 30
0.0
 11
151.6603215936
 21
143.2473785147
 31
0.0
  0
LINE
  5
140
330
1F
100
AcDbEntity
  8
0
  6
SLD-実線
 62
     7
370
    18
100
AcDbLine
 10
156.6603215936
 20
142.6223785147
 30
0.0
 11
156.6603215936
 21
143.1223785147
 31
0.0
  0
LINE
  5
141
330
1F
100
AcDbEntity
  8
0
  6
SLD-実線
 62
     7
370
    18
100
AcDbLine
 10
156.6603215936
 20
143.3973785147
 30
0.0
 11
156.6603215936
 21
143.8973785147
 31
0.0
  0
LINE
  5
142
330
1F
100
AcDbEntity
  8
0
  6
SLD-実線
 62
     7
370
    18
100
AcDbLine
 10
156.6603215936
 20
141.8473785147
 30
0.0
 11
156.6603215936
 21
142.3473785147
 31
0.0
  0
LINE
  5
143
330
1F
100
AcDbEntity
  8
0
  6
SLD-実線
 62
     7
370
    18
100
AcDbLine
 10
129.9603215936
 20
157.5863521177
 30
0.0
 11
129.9603215936
 21
162.2863521177
 31
0.0
  0
LINE
  5
144
330
1F
100
AcDbEntity
  8
0
  6
SLD-実線
 62
     7
370
    18
100
AcDbLine
 10
129.9603215936
 20
146.0188937742
 30
0.0
 11
129.9603215936
 21
157.5863521177
 31
0.0
  0
LINE
  5
145
330
1F
100
AcDbEntity
  8
0
  6
SLD-実線
 62
     7
370
    18
100
AcDbLine
 10
135.9603215936
 20
157.5863521177
 30
0.0
 11
135.9603215936
 21
162.2863521177
 31
0.0
  0
SPLINE
  5
146
330
1F
100
AcDbEntity
  8
0
  6
SLD-実線
 62
     7
370
    18
100
AcDbSpline
210
0.0
220
0.0
230
1.0
 70
    11
 71
     3
 72
    50
 73
    46
 74
     0
 42
0.000000001
 43
0.00000001
 40
0.0
 40
0.0
 40
0.0
 40
0.0
 40
0.0312499999999998
 40
0.0312499999999998
 40
0.0624999999999996
 40
0.0624999999999996
 40
0.1249999999999991
 40
0.1249999999999991
 40
0.1562499999999987
 40
0.1562499999999987
 40
0.1874999999999983
 40
0.1874999999999983
 40
0.2187499999999979
 40
0.2187499999999979
 40
0.2499999999999976
 40
0.2499999999999976
 40
0.3124999999999969
 40
0.3124999999999969
 40
0.3749999999999962
 40
0.3749999999999962
 40
0.4374999999999954
 40
0.4374999999999954
 40
0.4999999999999947
 40
0.4999999999999947
 40
0.562499999999994
 40
0.562499999999994
 40
0.5937499999999947
 40
0.5937499999999947
 40
0.6249999999999953
 40
0.6249999999999953
 40
0.6874999999999963
 40
0.6874999999999963
 40
0.7187499999999969
 40
0.7187499999999969
 40
0.7499999999999974
 40
0.7499999999999974
 40
0.812499999999998
 40
0.812499999999998
 40
0.8749999999999986
 40
0.8749999999999986
 40
0.9062499999999989
 40
0.9062499999999989
 40
0.9374999999999992
 40
0.9374999999999992
 40
1.0
 40
1.0
 40
1.0
 40
1.0
 10
132.9603215936194
 20
158.820981545799
 30
0.0
 10
133.0625751039557
 20
158.820981545799
 30
0.0
 10
133.1622642059635
 20
158.8090463354032
 30
0.0
 10
133.3571116396134
 20
158.764684284189
 30
0.0
 10
133.452891937381
 20
158.7317999165118
 30
0.0
 10
133.7215467046709
 20
158.613119646476
 30
0.0
 10
133.8820930558136
 20
158.5059454870675
 30
0.0
 10
134.0843221326716
 20
158.3362001952809
 30
0.0
 10
134.1463838681554
 20
158.2770077946638
 30
0.0
 10
134.2544389788111
 20
158.1608795403392
 30
0.0
 10
134.3008648735757
 20
158.1036959103931
 30
0.0
 10
134.3778899350256
 20
157.992966384029
 30
0.0
 10
134.4085004058442
 20
157.9389800624409
 30
0.0
 10
134.4491473007863
 20
157.8421021072806
 30
0.0
 10
134.4598257049781
 20
157.7984656527284
 30
0.0
 10
134.4612632964861
 20
157.6834610029721
 30
0.0
 10
134.4198590447633
 20
157.6327790264909
 30
0.0
 10
134.2674953658888
 20
157.5824454289251
 30
0.0
 10
134.1570028110618
 20
157.5819543830569
 30
0.0
 10
133.8885413174395
 20
157.6071033025982
 30
0.0
 10
133.7288847283187
 20
157.6327742561545
 30
0.0
 10
133.3724938446781
 20
157.6781334944312
 30
0.0
 10
133.1712096022273
 20
157.6967669798795
 30
0.0
 10
132.7639297576845
 20
157.6975427452619
 30
0.0
 10
132.5633040081559
 20
157.6797590460866
 30
0.0
 10
132.2932094148234
 20
157.6458218881286
 30
0.0
 10
132.2071162778797
 20
157.6334769320629
 30
0.0
 10
132.0480139881841
 20
157.6115737628492
 30
0.0
 10
131.9743187801687
 20
157.6019109834121
 30
0.0
 10
131.7695460543751
 20
157.5821040087203
 30
0.0
 10
131.6600622154491
 20
157.5816854717229
 30
0.0
 10
131.5426057010766
 20
157.6182696516121
 30
0.0
 10
131.5126281862324
 20
157.6363289895831
 30
0.0
 10
131.4715367728677
 20
157.6859278259323
 30
0.0
 10
131.4606874007428
 20
157.7179034555372
 30
0.0
 10
131.4596180583338
 20
157.8306648199083
 30
0.0
 10
131.5009886195797
 20
157.9316398567747
 30
0.0
 10
131.6541720149312
 20
158.1543661052573
 30
0.0
 10
131.7648231841751
 20
158.2757201004921
 30
0.0
 10
131.9682370401341
 20
158.4471517030691
 30
0.0
 10
132.041481878152
 20
158.5018730670601
 30
0.0
 10
132.199649411363
 20
158.6036528671877
 30
0.0
 10
132.2855371717838
 20
158.6511019500489
 30
0.0
 10
132.5547298486674
 20
158.7706206014107
 30
0.0
 10
132.7558145729469
 20
158.820981545799
 30
0.0
 10
132.9603215936194
 20
158.820981545799
 30
0.0
  0
SPLINE
  5
147
330
1F
100
AcDbEntity
  8
0
  6
SLD-実線
 62
     7
370
    18
100
AcDbSpline
210
0.0
220
0.0
230
1.0
 70
     8
 71
     3
 72
    11
 73
     7
 74
     0
 42
0.000000001
 43
0.00000001
 40
0.0
 40
0.0
 40
0.0
 40
0.0
 40
0.3039315469499498
 40
0.6060205518226823
 40
0.9507563557362599
 40
1.0
 40
1.0
 40
1.0
 40
1.0
 10
132.9603215936194
 20
162.1755424698569
 30
0.0
 10
132.8114080904542
 20
162.1814367356698
 30
0.0
 10
132.5144838512047
 20
162.1931895341417
 30
0.0
 10
132.1197400196047
 20
162.2491561587858
 30
0.0
 10
131.8534988655583
 20
162.2976936774174
 30
0.0
 10
131.7687399991181
 20
162.2822978499276
 30
0.0
 10
131.7458146880462
 20
162.2863521177041
 30
0.0
  0
SPLINE
  5
148
330
1F
100
AcDbEntity
  8
0
  6
SLD-実線
 62
     7
370
    18
100
AcDbSpline
210
0.0
220
0.0
230
1.0
 70
     8
 71
     3
 72
    11
 73
     7
 74
     0
 42
0.000000001
 43
0.00000001
 40
0.0
 40
0.0
 40
0.0
 40
0.0
 40
0.1305720933916233
 40
0.4947839336982275
 40
0.8063500992132053
 40
1.0
 40
1.0
 40
1.0
 40
1.0
 10
134.1748284991927
 20
162.2863521177041
 30
0.0
 10
134.1246720431155
 20
162.2803228044197
 30
0.0
 10
134.0001201297361
 20
162.2866745167198
 30
0.0
 10
133.6879696736812
 20
162.2326577609357
 30
0.0
 10
133.3005890084335
 20
162.1836791381476
 30
0.0
 10
133.0546068417539
 20
162.1777970724294
 30
0.0
 10
132.9603215936194
 20
162.1755424698569
 30
0.0
  0
LINE
  5
149
330
1F
100
AcDbEntity
  8
0
  6
SLD-実線
 62
     7
370
    18
100
AcDbLine
 10
135.9603215936
 20
146.0188937742
 30
0.0
 11
135.9603215936
 21
157.5863521177
 31
0.0
  0
LINE
  5
14A
330
1F
100
AcDbEntity
  8
0
  6
SLD-実線
 62
     7
370
    18
100
AcDbLine
 10
131.4946289882
 20
170.7864071119
 30
0.0
 11
131.4603215936
 21
170.666916894
 31
0.0
  0
LWPOLYLINE
  5
14B
330
1F
100
AcDbEntity
  8
0
  6
SLD-実線
 62
     7
370
    18
100
AcDbPolyline
 90
       13
 70
   128
 43
0.0
 10
134.4603215936
 20
170.666916894
 10
134.4586287946
 20
170.6936049032
 10
134.3891362306
 20
170.8379643866
 10
134.2222723102
 20
170.9706672662
 10
133.969408534
 20
171.0826700598
 10
133.6477771504
 20
171.1663399622
 10
133.2792968067
 20
171.2159750078
 10
132.8890788293
 20
171.2281926504
 10
132.5037159286
 20
171.2021602777
 10
132.1494699494
 20
171.139651953
 10
131.8504821698
 20
171.0449275152
 10
131.6271281128
 20
170.9244422782
 10
131.4946289882
 20
170.7864071119
  0
ARC
  5
14C
330
1F
100
AcDbEntity
  8
0
  6
SLD-実線
 62
     7
370
    18
100
AcDbCircle
 10
132.9510476181
 20
159.8667085739
 30
0.0
 40
2.085431586413758
100
AcDbArc
 50
233.3918564297
 51
307.3100989088
  0
ARC
  5
14D
330
1F
100
AcDbEntity
  8
0
  6
SLD-実線
 62
     7
370
    18
100
AcDbCircle
 10
132.9603215936
 20
166.0550445488
 30
0.0
 40
7.315836521343872
100
AcDbArc
 50
77.3670976699
 51
102.6329023301
  0
ARC
  5
14E
330
1F
100
AcDbEntity
  8
0
  6
SLD-実線
 62
     7
370
    18
100
AcDbCircle
 10
133.3732761047
 20
165.974883426
 30
0.0
 40
7.315836521345187
100
AcDbArc
 50
80.6620766463
 51
105.9709704234
  0
LINE
  5
14F
330
1F
100
AcDbEntity
  8
0
  6
SLD-実線
 62
     8
370
    18
100
AcDbLine
 10
128.4603215936
 20
166.3723785147
 30
0.0
 11
131.4603215936
 21
166.0723785147
 31
0.0
  0
LINE
  5
150
330
1F
100
AcDbEntity
  8
0
  6
SLD-実線
 62
     8
370
    18
100
AcDbLine
 10
134.4603215936
 20
166.0723785147
 30
0.0
 11
137.4603215936
 21
166.3723785147
 31
0.0
  0
LINE
  5
151
330
1F
100
AcDbEntity
  8
0
  6
SLD-実線
 62
     8
370
    18
100
AcDbLine
 10
156.2258585383
 20
162.2188937742
 30
0.0
 11
156.2258585383
 21
150.2188937742
 31
0.0
  0
LINE
  5
152
330
1F
100
AcDbEntity
  8
0
  6
SLD-実線
 62
     7
370
    18
100
AcDbLine
 10
119.6603215936
 20
146.8611377991
 30
0.0
 11
146.2258585383
 21
146.8723785147
 31
0.0
  0
LINE
  5
153
330
1F
100
AcDbEntity
  8
0
  6
SLD-1点鎖線(中心線)
 62
     7
370
    18
100
AcDbLine
 10
91.6743842984
 20
156.2188937742
 30
0.0
 11
184.7680002239
 21
156.2188937742
 31
0.0
  0
DIMENSION
  5
154
330
1F
100
AcDbEntity
  8
0
  6
SLD-実線
 62
     7
370
    18
100
AcDbDimension
  2
_D
 10
95.7258585383
 20
182.3838132687
 30
0.0
 11
89.4134157737
 21
182.3838132687
 31
0.0
 70
   160
  1
<>
 71
     2
 42
-1.0
  3
SLDDIMSTYLE0
100
AcDbAlignedDimension
 13
98.7258585383
 23
165.2188937742
 33
0.0
 14
95.7258585383
 24
159.7188937742
 34
0.0
100
AcDbRotatedDimension
  0
DIMENSION
  5
161
330
1F
100
AcDbEntity
  8
0
  6
SLD-実線
 62
     7
370
    18
100
AcDbDimension
  2
_D_1
 10
182.5258585383
 20
192.6159293834
 30
0.0
 11
139.1258585383
 21
192.6159293834
 31
0.0
 70
   160
  1
<>
 71
     2
 42
-1.0
  3
SLDDIMSTYLE1
100
AcDbAlignedDimension
 13
95.7258585383
 23
159.7188937742
 33
0.0
 14
182.5258585383
 24
158.2188937742
 34
0.0
100
AcDbRotatedDimension
  0
DIMENSION
  5
16C
330
1F
100
AcDbEntity
  8
0
  6
SLD-実線
 62
     7
370
    18
100
AcDbDimension
  2
_D_2
 10
155.7258585383
 20
182.3838132687
 30
0.0
 11
163.7258585383
 21
182.3838132687
 31
0.0
 70
   160
  1
<>
 71
     2
 42
-1.0
  3
SLDDIMSTYLE0
100
AcDbAlignedDimension
 13
171.7258585383
 23
161.7188937742
 33
0.0
 14
155.7258585383
 24
164.7188937742
 34
0.0
100
AcDbRotatedDimension
  0
DIMENSION
  5
178
330
1F
100
AcDbEntity
  8
0
  6
SLD-実線
 62
     7
370
    18
100
AcDbDimension
  2
_D_3
 10
98.7258585383
 20
182.3838132687
 30
0.0
 11
127.2258585383
 21
182.3838132687
 31
0.0
 70
   160
  1
<>
 71
     2
 42
-1.0
  3
SLDDIMSTYLE1
100
AcDbAlignedDimension
 13
155.7258585383
 23
164.7188937742
 33
0.0
 14
98.7258585383
 24
165.2188937742
 34
0.0
100
AcDbRotatedDimension
  0
DIMENSION
  5
182
330
1F
100
AcDbEntity
  8
0
  6
SLD-実線
 62
     7
370
    18
100
AcDbDimension
  2
_D_4
 10
88.9057768752
 20
166.2188937742
 30
0.0
 11
88.9057768752
 21
156.2188937742
 31
0.0
 70
   160
  1
%%c<>
 71
     2
 42
-1.0
  3
SLDDIMSTYLE1
100
AcDbAlignedDimension
 13
99.7258585383
 23
146.2188937742
 33
0.0
 14
99.7258585383
 24
166.2188937742
 34
0.0
 50
90.0
100
AcDbRotatedDimension
  0
DIMENSION
  5
18D
330
1F
100
AcDbEntity
  8
0
  6
SLD-実線
 62
     7
370
    18
100
AcDbDimension
  2
_D_5
 10
192.5258585383
 20
162.2188937742
 30
0.0
 11
192.5258585383
 21
170.5835995769
 31
0.0
 70
   160
  1
%%c<>
 71
     2
 42
-1.0
  3
SLDDIMSTYLE0
100
AcDbAlignedDimension
 13
171.2258585383
 23
150.2188937742
 33
0.0
 14
171.2258585383
 24
162.2188937742
 34
0.0
 50
90.0
100
AcDbRotatedDimension
  0
DIMENSION
  5
19A
330
1F
100
AcDbEntity
  8
0
  6
SLD-実線
 62
     7
370
    18
100
AcDbDimension
  2
_D_6
 10
79.7258585383
 20
175.0188937742
 30
0.0
 11
79.7258585383
 21
156.9456361444
 31
0.0
 70
   160
  1
(36.5)
 71
     2
 42
-1.0
  3
SLDDIMSTYLE1
100
AcDbAlignedDimension
 13
119.6603215936
 23
138.8723785147
 33
0.0
 14
150.2258585383
 24
175.0188937742
 34
0.0
 50
90.0
100
AcDbRotatedDimension
  0
INSERT
  5
1AB
330
1F
100
AcDbEntity
  8
0
  6
Continuous
 62
     7
370
     0
100
AcDbBlockReference
  2
SW_NOTE_0
 10
165.5532994924
 20
198.5456854729
 30
0.0
  0
LEADER
  5
1AD
330
1F
100
AcDbEntity
  8
0
  6
Continuous
 62
     7
370
     0
100
AcDbLeader
  3
SLDDIMSTYLE2
 76
     2
 10
152.930972981
 20
174.7837729476
 30
0.0
 10
165.5532994924
 20
198.5456854729
 30
0.0
  0
INSERT
  5
1B3
330
1F
100
AcDbEntity
  8
0
  6
Continuous
 62
     7
370
     0
100
AcDbBlockReference
  2
SW_NOTE_1
 10
184.7157360406
 20
133.5710661836
 30
0.0
  0
LEADER
  5
1B4
330
1F
100
AcDbEntity
  8
0
  6
Continuous
 62
     7
370
     0
100
AcDbLeader
  3
SLDDIMSTYLE2
 76
     2
 10
180.1450282873
 20
153.9316851801
 30
0.0
 10
184.7157360406
 20
133.5710661836
 30
0.0
  0
LINE
  5
1B5
330
1F
100
AcDbEntity
  8
0
  6
SLD-実線
 62
     7
370
    18
100
AcDbLine
 10
44.3703271058
 20
172.0723785147
 30
0.0
 11
44.3703271058
 21
172.0723785147
 31
0.0
  0
LINE
  5
1B6
330
1F
100
AcDbEntity
  8
0
  6
SLD-実線
 62
     7
370
    18
100
AcDbLine
 10
39.3703271058
 20
172.0723785147
 30
0.0
 11
39.3703271058
 21
171.5723785147
 31
0.0
  0
ARC
  5
1B7
330
1F
100
AcDbEntity
  8
0
  6
SLD-実線
 62
     7
370
    18
100
AcDbCircle
 10
42.8171846924
 20
172.1765311736
 30
0.0
 40
0.7603099836304675
100
AcDbArc
 50
352.1264600739
 51
66.2363231436
  0
ARC
  5
1B8
330
1F
100
AcDbEntity
  8
0
  6
SLD-実線
 62
     7
370
    18
100
AcDbCircle
 10
40.6347272087
 20
172.1122731022
 30
0.0
 40
0.7603099836304751
100
AcDbArc
 50
91.3291506161
 51
225.2428882325
  0
LINE
  5
1B9
330
1F
100
AcDbEntity
  8
0
  6
SLD-実線
 62
     7
370
    18
100
AcDbLine
 10
45.8443658027
 20
172.5188937742
 30
0.0
 11
45.5943658027
 21
175.0188937742
 31
0.0
  0
LINE
  5
1BA
330
1F
100
AcDbEntity
  8
0
  6
SLD-実線
 62
     7
370
    18
100
AcDbLine
 10
42.5943658027
 20
175.0188937742
 30
0.0
 11
42.3797142768
 21
172.8723785147
 31
0.0
  0
LINE
  5
1BB
330
1F
100
AcDbEntity
  8
0
  6
SLD-実線
 62
     7
370
    18
100
AcDbLine
 10
46.0993907672
 20
171.5723785147
 30
0.0
 11
45.5943658027
 21
172.5188937742
 31
0.0
  0
LINE
  5
1BC
330
1F
100
AcDbEntity
  8
0
  6
SLD-実線
 62
     7
370
    18
100
AcDbLine
 10
40.0943658027
 20
165.5188937742
 30
0.0
 11
40.0943658027
 21
165.5188937742
 31
0.0
  0
LINE
  5
1BD
330
1F
100
AcDbEntity
  8
0
  6
SLD-実線
 62
     7
370
    18
100
AcDbLine
 10
48.0943658027
 20
165.5188937742
 30
0.0
 11
48.0943658027
 21
165.5188937742
 31
0.0
  0
LINE
  5
1BE
330
1F
100
AcDbEntity
  8
0
  6
SLD-実線
 62
     7
370
    18
100
AcDbLine
 10
53.8031486547
 20
161.0517226896
 30
0.0
 11
53.8031486547
 21
161.0517226896
 31
0.0
  0
LINE
  5
1BF
330
1F
100
AcDbEntity
  8
0
  6
SLD-実線
 62
     7
370
    18
100
AcDbLine
 10
55.1584792442
 20
157.6971617656
 30
0.0
 11
55.1603278014
 21
157.692586426
 31
0.0
  0
LINE
  5
1C0
330
1F
100
AcDbEntity
  8
0
  6
SLD-実線
 62
     7
370
    18
100
AcDbLine
 10
56.5846927263
 20
162.1755610135
 30
0.0
 11
53.7993907672
 21
168.4966646753
 31
0.0
  0
LINE
  5
1C1
330
1F
100
AcDbEntity
  8
0
  6
SLD-実線
 62
     7
370
    18
100
AcDbLine
 10
50.9490777224
 20
168.115796133
 30
0.0
 11
53.8031486547
 21
161.0517226896
 31
0.0
  0
LINE
  5
1C2
330
1F
100
AcDbEntity
  8
0
  6
SLD-実線
 62
     7
370
    18
100
AcDbLine
 10
43.7652343066
 20
172.0723785147
 30
0.0
 11
44.3703271058
 21
172.0723785147
 31
0.0
  0
LINE
  5
1C3
330
1F
100
AcDbEntity
  8
0
  6
SLD-実線
 62
     7
370
    18
100
AcDbLine
 10
39.3703271058
 20
172.0723785147
 30
0.0
 11
43.7652343066
 21
172.0723785147
 31
0.0
  0
LINE
  5
1C4
330
1F
100
AcDbEntity
  8
0
  6
SLD-実線
 62
     7
370
    18
100
AcDbLine
 10
39.3703271058
 20
171.5723785147
 30
0.0
 11
40.0993907672
 21
171.5723785147
 31
0.0
  0
LINE
  5
1C5
330
1F
100
AcDbEntity
  8
0
  6
SLD-実線
 62
     7
370
    18
100
AcDbLine
 10
43.1235631333
 20
172.8723785147
 30
0.0
 11
40.6170910782
 21
172.8723785147
 31
0.0
  0
LINE
  5
1C6
330
1F
100
AcDbEntity
  8
0
  6
SLD-実線
 62
     7
370
    18
100
AcDbLine
 10
42.2152463991
 20
166.0723785147
 30
0.0
 11
39.8993907672
 21
166.0723785147
 31
0.0
  0
ARC
  5
1C7
330
1F
100
AcDbEntity
  8
0
  6
SLD-実線
 62
     7
370
    18
100
AcDbCircle
 10
39.8993907672
 20
166.3723785147
 30
0.0
 40
0.3000000000000114
100
AcDbArc
 50
180.0
 51
270.0
  0
LINE
  5
1C8
330
1F
100
AcDbEntity
  8
0
  6
SLD-実線
 62
     7
370
    18
100
AcDbLine
 10
39.5993907672
 20
166.3723785147
 30
0.0
 11
42.2152463991
 21
166.3723785147
 31
0.0
  0
LINE
  5
1C9
330
1F
100
AcDbEntity
  8
0
  6
SLD-実線
 62
     7
370
    18
100
AcDbLine
 10
42.2152463991
 20
166.0723785147
 30
0.0
 11
42.2152463991
 21
166.3723785147
 31
0.0
  0
ARC
  5
1CA
330
1F
100
AcDbEntity
  8
0
  6
SLD-実線
 62
     7
370
    18
100
AcDbCircle
 10
40.0993907672
 20
171.0723785147
 30
0.0
 40
0.5
100
AcDbArc
 50
90.0
 51
180.0
  0
LINE
  5
1CB
330
1F
100
AcDbEntity
  8
0
  6
SLD-実線
 62
     7
370
    18
100
AcDbLine
 10
49.5993907672
 20
168.0723785147
 30
0.0
 11
49.5993907672
 21
166.3723785147
 31
0.0
  0
LINE
  5
1CC
330
1F
100
AcDbEntity
  8
0
  6
SLD-実線
 62
     7
370
    18
100
AcDbLine
 10
45.9835351354
 20
166.3723785147
 30
0.0
 11
49.5993907672
 21
166.3723785147
 31
0.0
  0
ARC
  5
1CD
330
1F
100
AcDbEntity
  8
0
  6
SLD-実線
 62
     7
370
    18
100
AcDbCircle
 10
44.0993907672
 20
163.0723785147
 30
0.0
 40
3.800000000000055
100
AcDbArc
 50
60.2756708529
 51
119.7243291471
  0
LINE
  5
1CE
330
1F
100
AcDbEntity
  8
0
  6
SLD-実線
 62
     7
370
    18
100
AcDbLine
 10
39.5993907672
 20
171.0723785147
 30
0.0
 11
39.5993907672
 21
166.3723785147
 31
0.0
  0
LINE
  5
1CF
330
1F
100
AcDbEntity
  8
0
  6
SLD-実線
 62
     7
370
    18
100
AcDbLine
 10
40.0993907672
 20
171.5723785147
 30
0.0
 11
46.0993907672
 21
171.5723785147
 31
0.0
  0
ARC
  5
1D0
330
1F
100
AcDbEntity
  8
0
  6
SLD-実線
 62
     7
370
    18
100
AcDbCircle
 10
46.0993907672
 20
185.0723785147
 30
0.0
 40
13.50000000000003
100
AcDbArc
 50
270.0
 51
303.7489885959
  0
LINE
  5
1D1
330
1F
100
AcDbEntity
  8
0
  6
SLD-実線
 62
     7
370
    18
100
AcDbLine
 10
53.5993907672
 20
168.4568503866
 30
0.0
 11
53.5993907672
 21
173.8474063544
 31
0.0
  0
ARC
  5
1D2
330
1F
100
AcDbEntity
  8
0
  6
SLD-実線
 62
     7
370
    18
100
AcDbCircle
 10
49.5993907672
 20
189.0723785147
 30
0.0
 40
21.00000000000003
100
AcDbArc
 50
270.0
 51
280.9805754276
  0
LINE
  5
1D3
330
1F
100
AcDbEntity
  8
0
  6
SLD-実線
 62
     7
370
    18
100
AcDbLine
 10
45.8347868958
 20
166.1118521989
 30
0.0
 11
45.9835351354
 21
166.3723785147
 31
0.0
  0
LINE
  5
1D4
330
1F
100
AcDbEntity
  8
0
  6
SLD-実線
 62
     7
370
    18
100
AcDbLine
 10
42.3639946387
 20
166.1118521989
 30
0.0
 11
42.2152463991
 21
166.3723785147
 31
0.0
  0
ARC
  5
1D5
330
1F
100
AcDbEntity
  8
0
  6
SLD-実線
 62
     7
370
    18
100
AcDbCircle
 10
44.0993907672
 20
163.0723785147
 30
0.0
 40
3.500000000000018
100
AcDbArc
 50
60.2756708529
 51
119.7243291471
  0
LINE
  5
1D6
330
1F
100
AcDbEntity
  8
0
  6
SLD-実線
 62
     7
370
    18
100
AcDbLine
 10
45.9835351354
 20
166.0723785147
 30
0.0
 11
45.9835351354
 21
166.3723785147
 31
0.0
  0
ARC
  5
1D7
330
1F
100
AcDbEntity
  8
0
  6
SLD-実線
 62
     7
370
    18
100
AcDbCircle
 10
45.9835351354
 20
166.3723785147
 30
0.0
 40
0.3000000000000369
100
AcDbArc
 50
240.2756708529
 51
270.0
  0
ARC
  5
1D8
330
1F
100
AcDbEntity
  8
0
  6
SLD-実線
 62
     7
370
    18
100
AcDbCircle
 10
49.2993907672
 20
166.3723785147
 30
0.0
 40
0.3000000000000114
100
AcDbArc
 50
270.0
 51
0.0
  0
LINE
  5
1D9
330
1F
100
AcDbEntity
  8
0
  6
SLD-実線
 62
     7
370
    18
100
AcDbLine
 10
49.2993907672
 20
166.0723785147
 30
0.0
 11
45.9835351354
 21
166.0723785147
 31
0.0
  0
SPLINE
  5
1DA
330
1F
100
AcDbEntity
  8
0
  6
SLD-実線
 62
     7
370
    18
100
AcDbSpline
210
0.0
220
0.0
230
1.0
 70
     8
 71
     3
 72
    14
 73
    10
 74
     0
 42
0.000000001
 43
0.00000001
 40
0.0
 40
0.0
 40
0.0
 40
0.0
 40
0.25
 40
0.25
 40
0.5
 40
0.5
 40
0.75
 40
0.75
 40
1.0
 40
1.0
 40
1.0
 40
1.0
 10
53.59939076724331
 20
173.8474063543859
 30
0.0
 10
53.68408351393209
 20
173.9039940760384
 30
0.0
 10
53.76656676464487
 20
173.9604903451057
 30
0.0
 10
53.92743106198515
 20
174.0732225646918
 30
0.0
 10
54.00678310950287
 20
174.1301829081541
 30
0.0
 10
54.15547909453498
 20
174.239191577828
 30
0.0
 10
54.22483254612763
 20
174.2912067821223
 30
0.0
 10
54.35270543051914
 20
174.3887805674573
 30
0.0
 10
54.41104621865347
 20
174.4342311955508
 30
0.0
 10
54.45941469065405
 20
174.4723785147077
 30
0.0
  0
SPLINE
  5
1DB
330
1F
100
AcDbEntity
  8
0
  6
SLD-実線
 62
     7
370
    18
100
AcDbSpline
210
0.0
220
0.0
230
1.0
 70
     8
 71
     3
 72
     8
 73
     4
 74
     0
 42
0.000000001
 43
0.00000001
 40
0.0
 40
0.0
 40
0.0
 40
0.0
 40
1.0
 40
1.0
 40
1.0
 40
1.0
 10
53.79939076724331
 20
168.496664675329
 30
0.0
 10
53.73344157938076
 20
168.4832028537278
 30
0.0
 10
53.66677691364674
 20
168.4699252195288
 30
0.0
 10
53.59939076724331
 20
168.4568503866194
 30
0.0
  0
LINE
  5
1DC
330
1F
100
AcDbEntity
  8
0
  6
SLD-実線
 62
     7
370
    18
100
AcDbLine
 10
54.4594146907
 20
174.4723785147
 30
0.0
 11
54.5993907672
 21
174.4723785147
 31
0.0
  0
LINE
  5
1DD
330
1F
100
AcDbEntity
  8
0
  6
SLD-実線
 62
     7
370
    18
100
AcDbLine
 10
54.5993907672
 20
174.4723785147
 30
0.0
 11
54.5993907672
 21
169.4764605724
 31
0.0
  0
ARC
  5
1DE
330
1F
100
AcDbEntity
  8
0
  6
SLD-実線
 62
     7
370
    18
100
AcDbCircle
 10
53.5993907672
 20
169.4764605724
 30
0.0
 40
0.9999999999999925
100
AcDbArc
 50
281.5369590328
 51
0.0
  0
LINE
  5
1DF
330
1F
100
AcDbEntity
  8
0
  6
SLD-実線
 62
     7
370
    18
100
AcDbLine
 10
47.6203271058
 20
139.3723785147
 30
0.0
 11
47.6203271058
 21
146.8611377991
 31
0.0
  0
ARC
  5
1E0
330
1F
100
AcDbEntity
  8
0
  6
SLD-実線
 62
     7
370
    18
100
AcDbCircle
 10
47.1203271058
 20
139.3723785147
 30
0.0
 40
0.5
100
AcDbArc
 50
270.0
 51
0.0
  0
LINE
  5
1E1
330
1F
100
AcDbEntity
  8
0
  6
SLD-実線
 62
     7
370
    18
100
AcDbLine
 10
47.1203271058
 20
138.8723785147
 30
0.0
 11
40.6203271058
 21
138.8723785147
 31
0.0
  0
ARC
  5
1E2
330
1F
100
AcDbEntity
  8
0
  6
SLD-実線
 62
     7
370
    18
100
AcDbCircle
 10
40.6203271058
 20
139.3723785147
 30
0.0
 40
0.5
100
AcDbArc
 50
180.0
 51
270.0
  0
LINE
  5
1E3
330
1F
100
AcDbEntity
  8
0
  6
SLD-実線
 62
     7
370
    18
100
AcDbLine
 10
40.1203271058
 20
139.3723785147
 30
0.0
 11
40.1203271058
 21
146.8723785147
 31
0.0
  0
LINE
  5
1E4
330
1F
100
AcDbEntity
  8
0
  6
SLD-実線
 62
     7
370
    18
100
AcDbLine
 10
45.3703271058
 20
141.5495028592
 30
0.0
 11
45.3703271058
 21
140.0723785147
 31
0.0
  0
ARC
  5
1E5
330
1F
100
AcDbEntity
  8
0
  6
SLD-実線
 62
     7
370
    18
100
AcDbCircle
 10
43.8703271058
 20
142.8723785147
 30
0.0
 40
1.999999999999984
100
AcDbArc
 50
318.5903778907
 51
221.4096221093
  0
LINE
  5
1E6
330
1F
100
AcDbEntity
  8
0
  6
SLD-実線
 62
     7
370
    18
100
AcDbLine
 10
42.3703271058
 20
140.0723785147
 30
0.0
 11
42.3703271058
 21
141.5495028592
 31
0.0
  0
LINE
  5
1E7
330
1F
100
AcDbEntity
  8
0
  6
SLD-実線
 62
     7
370
    18
100
AcDbLine
 10
45.3703271058
 20
140.0723785147
 30
0.0
 11
42.3703271058
 21
140.0723785147
 31
0.0
  0
LINE
  5
1E8
330
1F
100
AcDbEntity
  8
0
  6
SLD-実線
 62
     7
370
    18
100
AcDbLine
 10
40.1203271058
 20
146.8723785147
 30
0.0
 11
40.1203271058
 21
146.8723785147
 31
0.0
  0
ARC
  5
1E9
330
1F
100
AcDbEntity
  8
0
  6
SLD-実線
 62
     7
370
    18
100
AcDbCircle
 10
44.0943658027
 20
156.2188937742
 30
0.0
 40
3.500000000000007
100
AcDbArc
 50
0.0
 51
180.0
  0
ARC
  5
1EA
330
1F
100
AcDbEntity
  8
0
  6
SLD-実線
 62
     7
370
    18
100
AcDbCircle
 10
44.0943658027
 20
156.2188937742
 30
0.0
 40
3.500000000000007
100
AcDbArc
 50
180.0
 51
0.0
  0
CIRCLE
  5
1EB
330
1F
100
AcDbEntity
  8
0
  6
SLD-実線
 62
     7
370
    18
100
AcDbCircle
 10
44.0943658027
 20
156.2188937742
 30
0.0
 40
2.099999999999994
  0
SPLINE
  5
1EC
330
1F
100
AcDbEntity
  8
0
  6
SLD-実線
 62
     7
370
    18
100
AcDbSpline
210
0.0
220
0.0
230
1.0
 70
    24
 71
     3
 72
    12
 73
     8
 74
     0
 42
0.000000001
 43
0.00000001
 40
0.0
 40
0.0
 40
0.0
 40
0.0
 40
0.5
 40
0.5
 40
0.75
 40
0.75
 40
1.0
 40
1.0
 40
1.0
 40
1.0
 10
47.59436580273667
 20
156.2188937741524
 30
0.0
 10
47.59436580273667
 20
155.8795675296745
 30
0.0
 10
47.59436580273667
 20
155.5470339815091
 30
0.0
 10
47.59436580273667
 20
155.0606532501257
 30
0.0
 10
47.59436580273667
 20
154.8994751260919
 30
0.0
 10
47.59436580273667
 20
154.5856693904011
 30
0.0
 10
47.59436580273667
 20
154.4325987720689
 30
0.0
 10
47.59436580273667
 20
154.2824021010487
 30
0.0
  0
ARC
  5
1ED
330
1F
100
AcDbEntity
  8
0
  6
SLD-実線
 62
     7
370
    18
100
AcDbCircle
 10
44.0943658027
 20
156.2188937742
 30
0.0
 40
4.00000000000001
100
AcDbArc
 50
208.9550243719
 51
331.0449756281
  0
SPLINE
  5
1EE
330
1F
100
AcDbEntity
  8
0
  6
SLD-実線
 62
     7
370
    18
100
AcDbSpline
210
0.0
220
0.0
230
1.0
 70
    24
 71
     3
 72
    12
 73
     8
 74
     0
 42
0.000000001
 43
0.00000001
 40
0.0
 40
0.0
 40
0.0
 40
0.0
 40
0.5
 40
0.5
 40
0.75
 40
0.75
 40
1.0
 40
1.0
 40
1.0
 40
1.0
 10
40.59436580273666
 20
156.2188937741524
 30
0.0
 10
40.59436580273666
 20
155.8795675296745
 30
0.0
 10
40.59436580273667
 20
155.5470339815091
 30
0.0
 10
40.59436580273666
 20
155.0606532501257
 30
0.0
 10
40.59436580273666
 20
154.8994751260919
 30
0.0
 10
40.59436580273666
 20
154.5856693904011
 30
0.0
 10
40.59436580273666
 20
154.4325987720689
 30
0.0
 10
40.59436580273669
 20
154.2824021010486
 30
0.0
  0
SPLINE
  5
1EF
330
1F
100
AcDbEntity
  8
0
  6
SLD-実線
 62
     7
370
    18
100
AcDbSpline
210
0.0
220
0.0
230
1.0
 70
    24
 71
     3
 72
    10
 73
     6
 74
     0
 42
0.000000001
 43
0.00000001
 40
0.0
 40
0.0
 40
0.0
 40
0.0
 40
0.4999999999999999
 40
0.4999999999999999
 40
1.0
 40
1.0
 40
1.0
 40
1.0
 10
47.59436580273668
 20
158.1553854472561
 30
0.0
 10
47.59436580273667
 20
157.8568964295112
 30
0.0
 10
47.59436580273667
 20
157.5469662245549
 30
0.0
 10
47.59436580273667
 20
156.8919023203318
 30
0.0
 10
47.59436580273667
 20
156.5588646969035
 30
0.0
 10
47.59436580273667
 20
156.2188937741524
 30
0.0
  0
SPLINE
  5
1F0
330
1F
100
AcDbEntity
  8
0
  6
SLD-実線
 62
     7
370
    18
100
AcDbSpline
210
0.0
220
0.0
230
1.0
 70
    24
 71
     3
 72
    10
 73
     6
 74
     0
 42
0.000000001
 43
0.00000001
 40
0.0
 40
0.0
 40
0.0
 40
0.0
 40
0.5000000000000001
 40
0.5000000000000001
 40
1.0
 40
1.0
 40
1.0
 40
1.0
 10
40.59436580273666
 20
158.1553854472561
 30
0.0
 10
40.59436580273666
 20
157.8568964295112
 30
0.0
 10
40.59436580273666
 20
157.5469662245549
 30
0.0
 10
40.59436580273666
 20
156.8919023203318
 30
0.0
 10
40.59436580273667
 20
156.5588646969035
 30
0.0
 10
40.59436580273666
 20
156.2188937741524
 30
0.0
  0
ARC
  5
1F1
330
1F
100
AcDbEntity
  8
0
  6
SLD-実線
 62
     7
370
    18
100
AcDbCircle
 10
44.0943658027
 20
156.2188937742
 30
0.0
 40
3.999999999999996
100
AcDbArc
 50
28.9550243719
 51
151.0449756281
  0
SPLINE
  5
1F2
330
1F
100
AcDbEntity
  8
0
  6
SLD-実線
 62
     7
370
    18
100
AcDbSpline
210
0.0
220
0.0
230
1.0
 70
    24
 71
     3
 72
    10
 73
     6
 74
     0
 42
0.000000001
 43
0.00000001
 40
0.0
 40
0.0
 40
0.0
 40
0.0
 40
0.4999999999999998
 40
0.4999999999999998
 40
1.0
 40
1.0
 40
1.0
 40
1.0
 10
35.59436580273668
 20
159.1769336657024
 30
0.0
 10
35.59436580273668
 20
159.5784991054525
 30
0.0
 10
35.59436580273668
 20
159.973602948055
 30
0.0
 10
35.59436580273668
 20
160.7421297769189
 30
0.0
 10
35.59436580273668
 20
161.11768020201
 30
0.0
 10
35.59436580273668
 20
161.4867206505789
 30
0.0
  0
LINE
  5
1F3
330
1F
100
AcDbEntity
  8
0
  6
SLD-実線
 62
     7
370
    18
100
AcDbLine
 10
35.5943658027
 20
153.2608538826
 30
0.0
 11
35.5943658027
 21
159.1769336657
 31
0.0
  0
SPLINE
  5
1F4
330
1F
100
AcDbEntity
  8
0
  6
SLD-実線
 62
     7
370
    18
100
AcDbSpline
210
0.0
220
0.0
230
1.0
 70
    24
 71
     3
 72
     8
 73
     4
 74
     0
 42
0.000000001
 43
0.00000001
 40
0.0
 40
0.0
 40
0.0
 40
0.0
 40
1.0
 40
1.0
 40
1.0
 40
1.0
 10
35.59436580273677
 20
150.951066897726
 30
0.0
 10
35.59436580273668
 20
151.693587577894
 30
0.0
 10
35.59436580273668
 20
152.457996562473
 30
0.0
 10
35.59436580273668
 20
153.2608538826027
 30
0.0
  0
ARC
  5
1F5
330
1F
100
AcDbEntity
  8
0
  6
SLD-実線
 62
     7
370
    18
100
AcDbCircle
 10
44.0943658027
 20
156.2188937742
 30
0.0
 40
10.0
100
AcDbArc
 50
31.7883306171
 51
148.2116693829
  0
SPLINE
  5
1F6
330
1F
100
AcDbEntity
  8
0
  6
SLD-実線
 62
     7
370
    18
100
AcDbSpline
210
0.0
220
0.0
230
1.0
 70
    24
 71
     3
 72
     8
 73
     4
 74
     0
 42
0.000000001
 43
0.00000001
 40
0.0
 40
0.0
 40
0.0
 40
0.0
 40
1.0
 40
1.0
 40
1.0
 40
1.0
 10
52.59436580273668
 20
161.4867206505789
 30
0.0
 10
52.59436580273668
 20
160.7441999704111
 30
0.0
 10
52.59436580273668
 20
159.979790985832
 30
0.0
 10
52.59436580273668
 20
159.1769336657024
 30
0.0
  0
ARC
  5
1F7
330
1F
100
AcDbEntity
  8
0
  6
SLD-実線
 62
     7
370
    18
100
AcDbCircle
 10
44.0943658027
 20
156.2188937742
 30
0.0
 40
9.000000000000012
100
AcDbArc
 50
19.1881364537
 51
160.8118635463
  0
ARC
  5
1F8
330
1F
100
AcDbEntity
  8
0
  6
SLD-実線
 62
     7
370
    18
100
AcDbCircle
 10
44.0943658027
 20
156.2188937742
 30
0.0
 40
9.000000000000012
100
AcDbArc
 50
199.1881364537
 51
340.8118635463
  0
SPLINE
  5
1F9
330
1F
100
AcDbEntity
  8
0
  6
SLD-実線
 62
     7
370
    18
100
AcDbSpline
210
0.0
220
0.0
230
1.0
 70
    24
 71
     3
 72
    10
 73
     6
 74
     0
 42
0.000000001
 43
0.00000001
 40
0.0
 40
0.0
 40
0.0
 40
0.0
 40
0.4999999999999998
 40
0.4999999999999998
 40
1.0
 40
1.0
 40
1.0
 40
1.0
 10
52.59436580273668
 20
153.2608538826027
 30
0.0
 10
52.59436580273668
 20
152.8592884428526
 30
0.0
 10
52.59436580273668
 20
152.4641846002501
 30
0.0
 10
52.59436580273668
 20
151.6956577713862
 30
0.0
 10
52.59436580273668
 20
151.3201073462951
 30
0.0
 10
52.59436580273675
 20
150.9510668977263
 30
0.0
  0
ARC
  5
1FA
330
1F
100
AcDbEntity
  8
0
  6
SLD-実線
 62
     7
370
    18
100
AcDbCircle
 10
44.0943658027
 20
156.2188937742
 30
0.0
 40
9.99999999999999
100
AcDbArc
 50
211.7883306171
 51
328.211669383
  0
ARC
  5
1FB
330
1F
100
AcDbEntity
  8
0
  6
SLD-実線
 62
     7
370
    18
100
AcDbCircle
 10
41.5943658027
 20
153.7188937742
 30
0.0
 40
0.9999999999999929
100
AcDbArc
 50
180.0
 51
278.0555267015
  0
ARC
  5
1FC
330
1F
100
AcDbEntity
  8
0
  6
SLD-実線
 62
     7
370
    18
100
AcDbCircle
 10
41.8746312583
 20
151.7386283186
 30
0.0
 40
1.000000000000011
100
AcDbArc
 50
63.6440180318
 51
98.0555267015
  0
ARC
  5
1FD
330
1F
100
AcDbEntity
  8
0
  6
SLD-実線
 62
     7
370
    18
100
AcDbCircle
 10
46.3141003472
 20
151.7386283186
 30
0.0
 40
1.000000000000008
100
AcDbArc
 50
81.9444732985
 51
116.3559819682
  0
ARC
  5
1FE
330
1F
100
AcDbEntity
  8
0
  6
SLD-実線
 62
     7
370
    18
100
AcDbCircle
 10
46.5943658027
 20
153.7188937742
 30
0.0
 40
1.000000000000008
100
AcDbArc
 50
261.9444732985
 51
360.0
  0
LINE
  5
1FF
330
1F
100
AcDbEntity
  8
0
  6
SLD-実線
 62
     7
370
    18
100
AcDbLine
 10
47.5943658027
 20
153.7188937742
 30
0.0
 11
47.5943658027
 21
154.282402101
 31
0.0
  0
LINE
  5
200
330
1F
100
AcDbEntity
  8
0
  6
SLD-実線
 62
     7
370
    18
100
AcDbLine
 10
47.5943658027
 20
158.1553854473
 30
0.0
 11
47.5943658027
 21
158.7188937742
 31
0.0
  0
ARC
  5
201
330
1F
100
AcDbEntity
  8
0
  6
SLD-実線
 62
     7
370
    18
100
AcDbCircle
 10
46.5943658027
 20
158.7188937742
 30
0.0
 40
1.000000000000007
100
AcDbArc
 50
0.0
 51
98.0555267015
  0
ARC
  5
202
330
1F
100
AcDbEntity
  8
0
  6
SLD-実線
 62
     7
370
    18
100
AcDbCircle
 10
46.3141003472
 20
160.6991592297
 30
0.0
 40
1.000000000000011
100
AcDbArc
 50
243.6440180318
 51
278.0555267015
  0
ARC
  5
203
330
1F
100
AcDbEntity
  8
0
  6
SLD-実線
 62
     7
370
    18
100
AcDbCircle
 10
41.8746312583
 20
160.6991592297
 30
0.0
 40
1.000000000000017
100
AcDbArc
 50
261.9444732985
 51
296.3559819682
  0
ARC
  5
204
330
1F
100
AcDbEntity
  8
0
  6
SLD-実線
 62
     7
370
    18
100
AcDbCircle
 10
41.5943658027
 20
158.7188937742
 30
0.0
 40
1.000000000000011
100
AcDbArc
 50
81.9444732985
 51
180.0
  0
LINE
  5
205
330
1F
100
AcDbEntity
  8
0
  6
SLD-実線
 62
     7
370
    18
100
AcDbLine
 10
40.5943658027
 20
158.7188937742
 30
0.0
 11
40.5943658027
 21
158.2039562967
 31
0.0
  0
LINE
  5
206
330
1F
100
AcDbEntity
  8
0
  6
SLD-実線
 62
     7
370
    18
100
AcDbLine
 10
40.5943658027
 20
154.282402101
 30
0.0
 11
40.5943658027
 21
153.7188937742
 31
0.0
  0
LINE
  5
207
330
1F
100
AcDbEntity
  8
0
  6
SLD-実線
 62
     7
370
    18
100
AcDbLine
 10
52.5943658027
 20
159.1769336657
 30
0.0
 11
52.5943658027
 21
153.2608538826
 31
0.0
  0
ARC
  5
208
330
1F
100
AcDbEntity
  8
0
  6
SLD-実線
 62
     7
370
    18
100
AcDbCircle
 10
44.0943658027
 20
156.2188937742
 30
0.0
 40
10.00000000000001
100
AcDbArc
 50
148.2116693829
 51
211.7883306171
  0
ARC
  5
209
330
1F
100
AcDbEntity
  8
0
  6
SLD-実線
 62
     7
370
    18
100
AcDbCircle
 10
44.0943658027
 20
156.2188937742
 30
0.0
 40
9.999999999999996
100
AcDbArc
 50
328.211669383
 51
31.7883306171
  0
ARC
  5
20A
330
1F
100
AcDbEntity
  8
0
  6
SLD-実線
 62
     7
370
    18
100
AcDbCircle
 10
43.9793576866
 20
156.4140575327
 30
0.0
 40
9.799999999999967
100
AcDbArc
 50
148.8273472437
 51
211.1726527563
  0
ARC
  5
20B
330
1F
100
AcDbEntity
  8
0
  6
SLD-実線
 62
     7
370
    18
100
AcDbCircle
 10
44.2093739189
 20
156.0237300156
 30
0.0
 40
9.799999999999995
100
AcDbArc
 50
328.8273472437
 51
31.1726527563
  0
LINE
  5
20C
330
1F
100
AcDbEntity
  8
0
  6
SLD-実線
 62
     7
370
    18
100
AcDbLine
 10
40.5819551585
 20
165.58174438
 30
0.0
 11
40.5919922184
 21
166.0723785147
 31
0.0
  0
LINE
  5
20D
330
1F
100
AcDbEntity
  8
0
  6
SLD-実線
 62
     7
370
    18
100
AcDbLine
 10
44.1044028626
 20
166.218888737
 30
0.0
 11
44.1044028626
 21
166.572374926
 31
0.0
  0
LINE
  5
20E
330
1F
100
AcDbEntity
  8
0
  6
SLD-実線
 62
     7
370
    18
100
AcDbLine
 10
47.6067764469
 20
165.58174438
 30
0.0
 11
47.6067764469
 21
166.0723785147
 31
0.0
  0
LINE
  5
20F
330
1F
100
AcDbEntity
  8
0
  6
SLD-実線
 62
     7
370
    18
100
AcDbLine
 10
40.5819551585
 20
165.58174438
 30
0.0
 11
40.5819551587
 21
166.0723785147
 31
0.0
  0
LINE
  5
210
330
1F
100
AcDbEntity
  8
0
  6
SLD-実線
 62
     7
370
    18
100
AcDbLine
 10
45.6120741058
 20
172.5188937742
 30
0.0
 11
45.8443658027
 21
172.5188937742
 31
0.0
  0
LINE
  5
211
330
1F
100
AcDbEntity
  8
0
  6
SLD-実線
 62
     7
370
    18
100
AcDbLine
 10
43.5703271058
 20
172.0723785147
 30
0.0
 11
45.6120741058
 21
172.5188937742
 31
0.0
  0
LINE
  5
212
330
1F
100
AcDbEntity
  8
0
  6
SLD-実線
 62
     7
370
    18
100
AcDbLine
 10
42.5943658027
 20
175.0188937742
 30
0.0
 11
45.5943658027
 21
175.0188937742
 31
0.0
  0
CIRCLE
  5
213
330
1F
100
AcDbEntity
  8
0
  6
SLD-実線
 62
     7
370
    18
100
AcDbCircle
 10
44.0943658027
 20
156.2188937742
 30
0.0
 40
1.499999999999736
  0
ARC
  5
214
330
1F
100
AcDbEntity
  8
0
  6
SLD-実線
 62
     7
370
    18
100
AcDbCircle
 10
44.0943658027
 20
156.2188937742
 30
0.0
 40
2.000000000000024
100
AcDbArc
 50
300.0
 51
120.0
  0
ARC
  5
215
330
1F
100
AcDbEntity
  8
0
  6
SLD-実線
 62
     7
370
    18
100
AcDbCircle
 10
44.0943658027
 20
156.2188937742
 30
0.0
 40
2.000000000000024
100
AcDbArc
 50
120.0
 51
300.0
  0
LINE
  5
216
330
1F
100
AcDbEntity
  8
0
  6
SLD-実線
 62
     7
370
    18
100
AcDbLine
 10
48.0943658027
 20
165.5188937742
 30
0.0
 11
47.6067764469
 21
165.58174438
 31
0.0
  0
LINE
  5
217
330
1F
100
AcDbEntity
  8
0
  6
SLD-実線
 62
     7
370
    18
100
AcDbLine
 10
40.5819551585
 20
165.58174438
 30
0.0
 11
40.0943658027
 21
165.5188937742
 31
0.0
  0
ARC
  5
218
330
1F
100
AcDbEntity
  8
0
  6
SLD-実線
 62
     7
370
    18
100
AcDbCircle
 10
43.8703271058
 20
142.8723785147
 30
0.0
 40
2.000000000000001
100
AcDbArc
 50
314.4270040008
 51
225.5729959992
  0
LINE
  5
219
330
1F
100
AcDbEntity
  8
0
  6
SLD-実線
 62
     7
370
    18
100
AcDbLine
 10
42.4703271058
 20
140.2723785147
 30
0.0
 11
45.2703271058
 21
140.2723785147
 31
0.0
  0
LINE
  5
21A
330
1F
100
AcDbEntity
  8
0
  6
SLD-実線
 62
     7
370
    18
100
AcDbLine
 10
45.2703271058
 20
140.2723785147
 30
0.0
 11
45.2703271058
 21
141.444092829
 31
0.0
  0
LINE
  5
21B
330
1F
100
AcDbEntity
  8
0
  6
SLD-実線
 62
     7
370
    18
100
AcDbLine
 10
42.4703271058
 20
141.444092829
 30
0.0
 11
42.4703271058
 21
140.2723785147
 31
0.0
  0
LINE
  5
21C
330
1F
100
AcDbEntity
  8
0
  6
SLD-実線
 62
     7
370
    18
100
AcDbLine
 10
44.8703271058
 20
140.2623785147
 30
0.0
 11
42.8703271058
 21
140.2623785147
 31
0.0
  0
LINE
  5
21D
330
1F
100
AcDbEntity
  8
0
  6
SLD-実線
 62
     7
370
    18
100
AcDbLine
 10
42.8703271058
 20
140.2623785147
 30
0.0
 11
42.8703271058
 21
140.2623785147
 31
0.0
  0
LINE
  5
21E
330
1F
100
AcDbEntity
  8
0
  6
SLD-実線
 62
     7
370
    18
100
AcDbLine
 10
44.8703271058
 20
140.2623785147
 30
0.0
 11
44.8703271058
 21
140.2623785147
 31
0.0
  0
ARC
  5
21F
330
1F
100
AcDbEntity
  8
0
  6
SLD-実線
 62
     7
370
    18
100
AcDbCircle
 10
44.111085229
 20
156.2592762771
 30
0.0
 40
10.20000000000001
100
AcDbArc
 50
157.6319047704
 51
246.9676499828
  0
ARC
  5
220
330
1F
100
AcDbEntity
  8
0
  6
SLD-実線
 62
     7
370
    18
100
AcDbCircle
 10
44.0519610237
 20
156.416595062
 30
0.0
 40
10.19999999999998
100
AcDbArc
 50
290.477517615
 51
11.5379947965
  0
ARC
  5
221
330
1F
100
AcDbEntity
  8
0
  6
SLD-実線
 62
     7
370
    18
100
AcDbCircle
 10
55.8715897313
 20
159.9363521177
 30
0.0
 40
2.350000000000001
100
AcDbArc
 50
219.0211318088
 51
200.8004828302
  0
LINE
  5
222
330
1F
100
AcDbEntity
  8
0
  6
SLD-実線
 62
     7
370
    18
100
AcDbLine
 10
53.6974489145
 20
159.0083013721
 30
0.0
 11
53.6974489145
 21
159.0083013721
 31
0.0
  0
LINE
  5
223
330
1F
100
AcDbEntity
  8
0
  6
SLD-実線
 62
     7
370
    18
100
AcDbLine
 10
34.8698060071
 20
160.08103713
 30
0.0
 11
34.6785527442
 21
160.1409422755
 31
0.0
  0
ARC
  5
224
330
1F
100
AcDbEntity
  8
0
  6
SLD-実線
 62
     7
370
    18
100
AcDbCircle
 10
54.7323203137
 20
159.3089004725
 30
0.0
 40
1.077644947033338
100
AcDbArc
 50
191.0782148171
 51
196.1969961219
  0
LINE
  5
225
330
1F
100
AcDbEntity
  8
0
  6
SLD-実線
 62
     7
370
    18
100
AcDbLine
 10
38.6344915651
 20
171.009186572
 30
0.0
 11
34.6818674829
 21
160.1494411587
 31
0.0
  0
ARC
  5
226
330
1F
100
AcDbEntity
  8
0
  6
SLD-実線
 62
     7
370
    18
100
AcDbCircle
 10
34.4939289588
 20
160.2178451873
 30
0.0
 40
0.2000000000000217
100
AcDbArc
 50
337.3863932013
 51
340.0000000001
  0
LINE
  5
227
330
1F
100
AcDbEntity
  8
0
  6
SLD-実線
 62
     7
370
    18
100
AcDbLine
 10
38.8224300893
 20
170.9407825434
 30
0.0
 11
38.6344915651
 21
171.009186572
 31
0.0
  0
LINE
  5
228
330
1F
100
AcDbEntity
  8
0
  6
SLD-実線
 62
     7
370
    18
100
AcDbLine
 10
38.8224300893
 20
170.9407825434
 30
0.0
 11
34.8698060071
 21
160.08103713
 31
0.0
  0
LINE
  5
229
330
1F
100
AcDbEntity
  8
0
  6
SLD-実線
 62
     7
370
    18
100
AcDbLine
 10
34.6818674829
 20
160.1494411587
 30
0.0
 11
34.8698060071
 21
160.08103713
 31
0.0
  0
LINE
  5
22A
330
1F
100
AcDbEntity
  8
0
  6
SLD-実線
 62
     7
370
    18
100
AcDbLine
 10
39.5993907672
 20
171.0723785147
 30
0.0
 11
39.0103686134
 21
171.0723785147
 31
0.0
  0
ARC
  5
22B
330
1F
100
AcDbEntity
  8
0
  6
SLD-実線
 62
     7
370
    18
100
AcDbCircle
 10
39.0103686134
 20
170.8723785147
 30
0.0
 40
0.4000000000000341
100
AcDbArc
 50
90.0
 51
160.0
  0
LINE
  5
22C
330
1F
100
AcDbEntity
  8
0
  6
SLD-実線
 62
     7
370
    18
100
AcDbLine
 10
39.0103686134
 20
171.2723785147
 30
0.0
 11
39.0103686134
 21
171.0723785147
 31
0.0
  0
ARC
  5
22D
330
1F
100
AcDbEntity
  8
0
  6
SLD-実線
 62
     7
370
    18
100
AcDbCircle
 10
39.0103686134
 20
170.8723785147
 30
0.0
 40
0.1999999999999988
100
AcDbArc
 50
90.0
 51
160.0
  0
LINE
  5
22E
330
1F
100
AcDbEntity
  8
0
  6
SLD-実線
 62
     7
370
    18
100
AcDbLine
 10
39.5993907672
 20
171.0723785147
 30
0.0
 11
39.0103686134
 21
171.2723785147
 31
0.0
  0
DIMENSION
  5
22F
330
1F
100
AcDbEntity
  8
0
  6
SLD-実線
 62
     7
370
    18
100
AcDbDimension
  2
_D_7
 10
52.5943658027
 20
131.4613953555
 30
0.0
 11
44.0943658027
 21
131.4613953555
 31
0.0
 70
   160
  1
<>
 71
     2
 42
-1.0
  3
SLDDIMSTYLE0
100
AcDbAlignedDimension
 13
35.5943658027
 23
150.9510668977
 33
0.0
 14
52.5943658027
 24
150.9510668977
 34
0.0
100
AcDbRotatedDimension
  0
DIMENSION
  5
23B
330
1F
100
AcDbEntity
  8
0
  6
SLD-実線
 62
     7
370
    18
100
AcDbDimension
  2
_D_8
 10
42.8118135127
 20
157.8817406171
 30
0.0
 11
70.8877185588
 21
133.4982008529
 31
0.0
 70
   163
  1
M5深10
 71
     1
 42
-1.0
  3
SLDDIMSTYLE3
100
AcDbDiametricDimension
 15
45.3769180928
 25
154.5560469312
 35
0.0
 40
0.0
  0
INSERT
  5
24F
330
1F
100
AcDbEntity
  8
0
  6
SLD-実線
 62
     7
370
    18
100
AcDbBlockReference
  2
SW_CENTERMARKSYMBOL_0
 10
44.0943658027
 20
156.2188937742
 30
0.0
  0
ENDSEC
  0
SECTION
  2
OBJECTS
  0
DICTIONARY
  5
C
330
0
100
AcDbDictionary
281
     1
  3
ACAD_GROUP
350
D
  3
ACAD_LAYOUT
350
1A
  3
ACAD_MLINESTYLE
350
17
  3
ACAD_PLOTSETTINGS
350
19
  3
ACAD_PLOTSTYLENAME
350
E
  3
ACAD_SCALELIST
350
47
  0
DICTIONARY
  5
D
102
{ACAD_REACTORS
330
C
102
}
330
C
100
AcDbDictionary
281
     1
  0
DICTIONARY
  5
1A
102
{ACAD_REACTORS
330
C
102
}
330
C
100
AcDbDictionary
281
     1
  3
Layout1
350
1E
  3
Layout2
350
26
  3
Model
350
22
  0
DICTIONARY
  5
17
102
{ACAD_REACTORS
330
C
102
}
330
C
100
AcDbDictionary
281
     1
  3
Standard
350
18
  0
DICTIONARY
  5
19
102
{ACAD_REACTORS
330
C
102
}
330
C
100
AcDbDictionary
281
     1
  0
ACDBDICTIONARYWDFLT
  5
E
102
{ACAD_REACTORS
330
C
102
}
330
C
100
AcDbDictionary
281
     1
  3
Normal
350
F
100
AcDbDictionaryWithDefault
340
F
  0
DICTIONARY
  5
47
102
{ACAD_REACTORS
330
C
102
}
330
C
100
AcDbDictionary
281
     1
  3
A0
350
48
  3
A1
350
49
  3
A2
350
4A
  3
A3
350
4B
  3
A4
350
4C
  3
A5
350
4D
  3
A6
350
4E
  3
A7
350
4F
  3
A8
350
50
  3
A9
350
51
  3
B0
350
52
  3
B1
350
53
  3
B2
350
54
  3
B3
350
55
  3
B4
350
56
  3
B5
350
57
  3
B6
350
58
  3
B7
350
59
  3
B8
350
5A
  3
B9
350
5B
  3
C0
350
5C
  3
C1
350
5D
  3
C2
350
5E
  3
C3
350
5F
  3
C4
350
60
  3
C5
350
61
  3
C6
350
62
  3
C7
350
63
  3
C8
350
64
  3
C9
350
65
  3
D0
350
66
  3
D1
350
67
  3
D2
350
68
  0
LAYOUT
  5
1E
102
{ACAD_REACTORS
330
1A
102
}
330
1A
100
AcDbPlotSettings
  1

  2
none_device
  4

  6

 40
0.0
 41
0.0
 42
0.0
 43
0.0
 44
0.0
 45
0.0
 46
0.0
 47
0.0
 48
0.0
 49
0.0
140
0.0
141
0.0
142
1.0
143
1.0
 70
   688
 72
     1
 73
     0
 74
     5
  7

 75
    16
147
1.0
148
0.0
149
0.0
100
AcDbLayout
  1
Layout1
 70
     1
 71
     1
 10
0.0
 20
0.0
 11
420.0
 21
297.0
 12
0.0
 22
0.0
 32
0.0
 14
1.0000000000E+20
 24
1.0000000000E+20
 34
1.0000000000E+20
 15
-1.0000000000E+20
 25
-1.0000000000E+20
 35
-1.0000000000E+20
146
0.0
 13
0.0
 23
0.0
 33
0.0
 16
1.0
 26
0.0
 36
0.0
 17
0.0
 27
1.0
 37
0.0
 76
     0
330
1B
  0
LAYOUT
  5
26
102
{ACAD_REACTORS
330
1A
102
}
330
1A
100
AcDbPlotSettings
  1

  2
none_device
  4

  6

 40
0.0
 41
0.0
 42
0.0
 43
0.0
 44
0.0
 45
0.0
 46
0.0
 47
0.0
 48
0.0
 49
0.0
140
0.0
141
0.0
142
1.0
143
1.0
 70
   688
 72
     1
 73
     0
 74
     5
  7

 75
    16
147
1.0
148
0.0
149
0.0
100
AcDbLayout
  1
Layout2
 70
     1
 71
     2
 10
0.0
 20
0.0
 11
0.0
 21
0.0
 12
0.0
 22
0.0
 32
0.0
 14
0.0
 24
0.0
 34
0.0
 15
0.0
 25
0.0
 35
0.0
146
0.0
 13
0.0
 23
0.0
 33
0.0
 16
1.0
 26
0.0
 36
0.0
 17
0.0
 27
1.0
 37
0.0
 76
     0
330
23
  0
LAYOUT
  5
22
102
{ACAD_REACTORS
330
1A
102
}
330
1A
100
AcDbPlotSettings
  1

  2
none_device
  4
Letter_(8.50_x_11.00_Inches)
  6

 40
6.35
 41
6.35
 42
6.35000508
 43
6.35000508
 44
215.9
 45
279.4
 46
0.0
 47
0.0
 48
0.0
 49
0.0
140
0.0
141
0.0
142
1.0
143
1.0
 70
  1712
 72
     1
 73
     0
 74
     0
  7

 75
     0
147
1.0
148
0.0
149
0.0
100
AcDbLayout
  1
Model
 70
     1
 71
     0
 10
0.0
 20
0.0
 11
210.0
 21
297.0
 12
0.0
 22
0.0
 32
0.0
 14
0.0
 24
0.0
 34
0.0
 15
210.0
 25
297.0
 35
0.0
146
0.0
 13
0.0
 23
0.0
 33
0.0
 16
1.0
 26
0.0
 36
0.0
 17
0.0
 27
1.0
 37
0.0
 76
     0
330
1F
331
29
  0
MLINESTYLE
  5
18
102
{ACAD_REACTORS
330
17
102
}
330
17
100
AcDbMlineStyle
  2
Standard
 70
     0
  3

 62
   256
 51
90.0
 52
90.0
 71
     2
 49
0.5
 62
   256
  6
BYLAYER
 49
-0.5
 62
   256
  6
BYLAYER
  0
ACDBPLACEHOLDER
  5
F
102
{ACAD_REACTORS
330
E
102
}
330
E
  0
SCALE
  5
48
102
{ACAD_REACTORS
330
47
102
}
330
47
100
AcDbScale
 70
     0
300
1:1
140
1.0
141
1.0
290
     1
  0
SCALE
  5
49
102
{ACAD_REACTORS
330
47
102
}
330
47
100
AcDbScale
 70
     0
300
1:2
140
1.0
141
2.0
290
     0
  0
SCALE
  5
4A
102
{ACAD_REACTORS
330
47
102
}
330
47
100
AcDbScale
 70
     0
300
1:4
140
1.0
141
4.0
290
     0
  0
SCALE
  5
4B
102
{ACAD_REACTORS
330
47
102
}
330
47
100
AcDbScale
 70
     0
300
1:5
140
1.0
141
5.0
290
     0
  0
SCALE
  5
4C
102
{ACAD_REACTORS
330
47
102
}
330
47
100
AcDbScale
 70
     0
300
1:8
140
1.0
141
8.0
290
     0
  0
SCALE
  5
4D
102
{ACAD_REACTORS
330
47
102
}
330
47
100
AcDbScale
 70
     0
300
1:10
140
1.0
141
10.0
290
     0
  0
SCALE
  5
4E
102
{ACAD_REACTORS
330
47
102
}
330
47
100
AcDbScale
 70
     0
300
1:16
140
1.0
141
16.0
290
     0
  0
SCALE
  5
4F
102
{ACAD_REACTORS
330
47
102
}
330
47
100
AcDbScale
 70
     0
300
1:20
140
1.0
141
20.0
290
     0
  0
SCALE
  5
50
102
{ACAD_REACTORS
330
47
102
}
330
47
100
AcDbScale
 70
     0
300
1:30
140
1.0
141
30.0
290
     0
  0
SCALE
  5
51
102
{ACAD_REACTORS
330
47
102
}
330
47
100
AcDbScale
 70
     0
300
1:40
140
1.0
141
40.0
290
     0
  0
SCALE
  5
52
102
{ACAD_REACTORS
330
47
102
}
330
47
100
AcDbScale
 70
     0
300
1:50
140
1.0
141
50.0
290
     0
  0
SCALE
  5
53
102
{ACAD_REACTORS
330
47
102
}
330
47
100
AcDbScale
 70
     0
300
1:100
140
1.0
141
100.0
290
     0
  0
SCALE
  5
54
102
{ACAD_REACTORS
330
47
102
}
330
47
100
AcDbScale
 70
     0
300
2:1
140
2.0
141
1.0
290
     0
  0
SCALE
  5
55
102
{ACAD_REACTORS
330
47
102
}
330
47
100
AcDbScale
 70
     0
300
4:1
140
4.0
141
1.0
290
     0
  0
SCALE
  5
56
102
{ACAD_REACTORS
330
47
102
}
330
47
100
AcDbScale
 70
     0
300
8:1
140
8.0
141
1.0
290
     0
  0
SCALE
  5
57
102
{ACAD_REACTORS
330
47
102
}
330
47
100
AcDbScale
 70
     0
300
10:1
140
10.0
141
1.0
290
     0
  0
SCALE
  5
58
102
{ACAD_REACTORS
330
47
102
}
330
47
100
AcDbScale
 70
     0
300
100:1
140
100.0
141
1.0
290
     0
  0
SCALE
  5
59
102
{ACAD_REACTORS
330
47
102
}
330
47
100
AcDbScale
 70
     0
300
1/128" = 1'-0"
140
0.0078125
141
12.0
290
     0
  0
SCALE
  5
5A
102
{ACAD_REACTORS
330
47
102
}
330
47
100
AcDbScale
 70
     0
300
1/64" = 1'-0"
140
0.015625
141
12.0
290
     0
  0
SCALE
  5
5B
102
{ACAD_REACTORS
330
47
102
}
330
47
100
AcDbScale
 70
     0
300
1/32" = 1'-0"
140
0.03125
141
12.0
290
     0
  0
SCALE
  5
5C
102
{ACAD_REACTORS
330
47
102
}
330
47
100
AcDbScale
 70
     0
300
1/16" = 1'-0"
140
0.0625
141
12.0
290
     0
  0
SCALE
  5
5D
102
{ACAD_REACTORS
330
47
102
}
330
47
100
AcDbScale
 70
     0
300
3/32" = 1'-0"
140
0.09375
141
12.0
290
     0
  0
SCALE
  5
5E
102
{ACAD_REACTORS
330
47
102
}
330
47
100
AcDbScale
 70
     0
300
1/8" = 1'-0"
140
0.125
141
12.0
290
     0
  0
SCALE
  5
5F
102
{ACAD_REACTORS
330
47
102
}
330
47
100
AcDbScale
 70
     0
300
3/16" = 1'-0"
140
0.1875
141
12.0
290
     0
  0
SCALE
  5
60
102
{ACAD_REACTORS
330
47
102
}
330
47
100
AcDbScale
 70
     0
300
1/4" = 1'-0"
140
0.25
141
12.0
290
     0
  0
SCALE
  5
61
102
{ACAD_REACTORS
330
47
102
}
330
47
100
AcDbScale
 70
     0
300
3/8" = 1'-0"
140
0.375
141
12.0
290
     0
  0
SCALE
  5
62
102
{ACAD_REACTORS
330
47
102
}
330
47
100
AcDbScale
 70
     0
300
1/2" = 1'-0"
140
0.5
141
12.0
290
     0
  0
SCALE
  5
63
102
{ACAD_REACTORS
330
47
102
}
330
47
100
AcDbScale
 70
     0
300
3/4" = 1'-0"
140
0.75
141
12.0
290
     0
  0
SCALE
  5
64
102
{ACAD_REACTORS
330
47
102
}
330
47
100
AcDbScale
 70
     0
300
1" = 1'-0"
140
1.0
141
12.0
290
     0
  0
SCALE
  5
65
102
{ACAD_REACTORS
330
47
102
}
330
47
100
AcDbScale
 70
     0
300
1-1/2" = 1'-0"
140
1.5
141
12.0
290
     0
  0
SCALE
  5
66
102
{ACAD_REACTORS
330
47
102
}
330
47
100
AcDbScale
 70
     0
300
3" = 1'-0"
140
3.0
141
12.0
290
     0
  0
SCALE
  5
67
102
{ACAD_REACTORS
330
47
102
}
330
47
100
AcDbScale
 70
     0
300
6" = 1'-0"
140
6.0
141
12.0
290
     0
  0
SCALE
  5
68
102
{ACAD_REACTORS
330
47
102
}
330
47
100
AcDbScale
 70
     0
300
1'-0" = 1'-0"
140
12.0
141
12.0
290
     0
  0
ENDSEC
  0
EOF
