  0
SECTION
  2
HEADER
  9
$ACADVER
  1
AC1015
  9
$ACADMAINTVER
 70
     6
  9
$DWGCODEPAGE
  3
DOS932
  9
$INSBASE
 10
0.0
 20
0.0
 30
0.0
  9
$EXTMIN
 10
0.0
 20
0.0
 30
0.0
  9
$EXTMAX
 10
210.0
 20
297.0
 30
0.0
  9
$LIMMIN
 10
0.0
 20
0.0
  9
$LIMMAX
 10
210.0
 20
297.0
  9
$ORTHOMODE
 70
     0
  9
$REGENMODE
 70
     1
  9
$FILLMODE
 70
     1
  9
$QTEXTMODE
 70
     0
  9
$MIRRTEXT
 70
     1
  9
$LTSCALE
 40
1.0
  9
$ATTMODE
 70
     1
  9
$TEXTSIZE
 40
3.5
  9
$TRACEWID
 40
1.0
  9
$TEXTSTYLE
  7
STANDARD
  9
$CLAYER
  8
0
  9
$CELTYPE
  6
ByLayer
  9
$CECOLOR
 62
   256
  9
$CELTSCALE
 40
1.0
  9
$DISPSILH
 70
     0
  9
$DIMSCALE
 40
1.0
  9
$DIMASZ
 40
3.0
  9
$DIMEXO
 40
1.0
  9
$DIMDLI
 40
3.75
  9
$DIMRND
 40
0.0
  9
$DIMDLE
 40
0.0
  9
$DIMEXE
 40
1.0
  9
$DIMTP
 40
0.0
  9
$DIMTM
 40
0.0
  9
$DIMTXT
 40
3.5
  9
$DIMCEN
 40
2.5
  9
$DIMTSZ
 40
0.0
  9
$DIMTOL
 70
     0
  9
$DIMLIM
 70
     0
  9
$DIMTIH
 70
     1
  9
$DIMTOH
 70
     1
  9
$DIMSE1
 70
     0
  9
$DIMSE2
 70
     0
  9
$DIMTAD
 70
     1
  9
$DIMZIN
 70
     0
  9
$DIMBLK
  1

  9
$DIMASO
 70
     1
  9
$DIMSHO
 70
     1
  9
$DIMPOST
  1

  9
$DIMAPOST
  1

  9
$DIMALT
 70
     0
  9
$DIMALTD
 70
     3
  9
$DIMALTF
 40
0.0393700787
  9
$DIMLFAC
 40
1.0
  9
$DIMTOFL
 70
     1
  9
$DIMTVP
 40
0.0
  9
$DIMTIX
 70
     0
  9
$DIMSOXD
 70
     0
  9
$DIMSAH
 70
     0
  9
$DIMBLK1
  1

  9
$DIMBLK2
  1

  9
$DIMSTYLE
  2
ISO-25
  9
$DIMCLRD
 70
     0
  9
$DIMCLRE
 70
     0
  9
$DIMCLRT
 70
     0
  9
$DIMTFAC
 40
1.0
  9
$DIMGAP
 40
1.524
  9
$DIMJUST
 70
     0
  9
$DIMSD1
 70
     0
  9
$DIMSD2
 70
     0
  9
$DIMTOLJ
 70
     0
  9
$DIMTZIN
 70
     0
  9
$DIMALTZ
 70
     0
  9
$DIMALTTZ
 70
     0
  9
$DIMUPT
 70
     0
  9
$DIMDEC
 70
     1
  9
$DIMTDEC
 70
     3
  9
$DIMALTU
 70
     2
  9
$DIMALTTD
 70
     3
  9
$DIMTXSTY
  7
STANDARD
  9
$DIMAUNIT
 70
     0
  9
$DIMADEC
 70
     2
  9
$DIMALTRND
 40
0.0
  9
$DIMAZIN
 70
     0
  9
$DIMDSEP
 70
    44
  9
$DIMATFIT
 70
     3
  9
$DIMFRAC
 70
     0
  9
$DIMLDRBLK
  1

  9
$DIMLUNIT
 70
     2
  9
$DIMLWD
 70
    -2
  9
$DIMLWE
 70
    -2
  9
$DIMTMOVE
 70
     0
  9
$LUNITS
 70
     2
  9
$LUPREC
 70
     1
  9
$SKETCHINC
 40
1.0
  9
$FILLETRAD
 40
10.0
  9
$AUNITS
 70
     0
  9
$AUPREC
 70
     2
  9
$MENU
  1
.
  9
$ELEVATION
 40
0.0
  9
$PELEVATION
 40
0.0
  9
$THICKNESS
 40
0.0
  9
$LIMCHECK
 70
     0
  9
$CHAMFERA
 40
0.0
  9
$CHAMFERB
 40
0.0
  9
$CHAMFERC
 40
0.0
  9
$CHAMFERD
 40
0.0
  9
$SKPOLY
 70
     0
  9
$TDCREATE
 40
2459290.561547477
  9
$TDUCREATE
 40
2459290.186547477
  9
$TDUPDATE
 40
2459290.561549294
  9
$TDUUPDATE
 40
2459290.186549294
  9
$TDINDWG
 40
0.0000000116
  9
$TDUSRTIMER
 40
0.0000000116
  9
$USRTIMER
 70
     1
  9
$ANGBASE
 50
0.0
  9
$ANGDIR
 70
     0
  9
$PDMODE
 70
     0
  9
$PDSIZE
 40
-1.0
  9
$PLINEWID
 40
0.0
  9
$SPLFRAME
 70
     0
  9
$SPLINETYPE
 70
     6
  9
$SPLINESEGS
 70
     8
  9
$HANDSEED
  5
24F
  9
$SURFTAB1
 70
     6
  9
$SURFTAB2
 70
     6
  9
$SURFTYPE
 70
     6
  9
$SURFU
 70
     6
  9
$SURFV
 70
     6
  9
$UCSBASE
  2

  9
$UCSNAME
  2

  9
$UCSORG
 10
0.0
 20
0.0
 30
0.0
  9
$UCSXDIR
 10
1.0
 20
0.0
 30
0.0
  9
$UCSYDIR
 10
0.0
 20
1.0
 30
0.0
  9
$UCSORTHOREF
  2

  9
$UCSORTHOVIEW
 70
     0
  9
$UCSORGTOP
 10
0.0
 20
0.0
 30
0.0
  9
$UCSORGBOTTOM
 10
0.0
 20
0.0
 30
0.0
  9
$UCSORGLEFT
 10
0.0
 20
0.0
 30
0.0
  9
$UCSORGRIGHT
 10
0.0
 20
0.0
 30
0.0
  9
$UCSORGFRONT
 10
0.0
 20
0.0
 30
0.0
  9
$UCSORGBACK
 10
0.0
 20
0.0
 30
0.0
  9
$PUCSBASE
  2

  9
$PUCSNAME
  2

  9
$PUCSORG
 10
0.0
 20
0.0
 30
0.0
  9
$PUCSXDIR
 10
1.0
 20
0.0
 30
0.0
  9
$PUCSYDIR
 10
0.0
 20
1.0
 30
0.0
  9
$PUCSORTHOREF
  2

  9
$PUCSORTHOVIEW
 70
     0
  9
$PUCSORGTOP
 10
0.0
 20
0.0
 30
0.0
  9
$PUCSORGBOTTOM
 10
0.0
 20
0.0
 30
0.0
  9
$PUCSORGLEFT
 10
0.0
 20
0.0
 30
0.0
  9
$PUCSORGRIGHT
 10
0.0
 20
0.0
 30
0.0
  9
$PUCSORGFRONT
 10
0.0
 20
0.0
 30
0.0
  9
$PUCSORGBACK
 10
0.0
 20
0.0
 30
0.0
  9
$USERI1
 70
     0
  9
$USERI2
 70
     0
  9
$USERI3
 70
     0
  9
$USERI4
 70
     0
  9
$USERI5
 70
     0
  9
$USERR1
 40
0.0
  9
$USERR2
 40
0.0
  9
$USERR3
 40
0.0
  9
$USERR4
 40
0.0
  9
$USERR5
 40
0.0
  9
$WORLDVIEW
 70
     1
  9
$SHADEDGE
 70
     3
  9
$SHADEDIF
 70
    70
  9
$TILEMODE
 70
     1
  9
$MAXACTVP
 70
    64
  9
$PINSBASE
 10
0.0
 20
0.0
 30
0.0
  9
$PLIMCHECK
 70
     0
  9
$PEXTMIN
 10
1.0000000000E+20
 20
1.0000000000E+20
 30
1.0000000000E+20
  9
$PEXTMAX
 10
-1.0000000000E+20
 20
-1.0000000000E+20
 30
-1.0000000000E+20
  9
$PLIMMIN
 10
0.0
 20
0.0
  9
$PLIMMAX
 10
420.0
 20
297.0
  9
$UNITMODE
 70
     0
  9
$VISRETAIN
 70
     1
  9
$PLINEGEN
 70
     0
  9
$PSLTSCALE
 70
     1
  9
$TREEDEPTH
 70
  3020
  9
$CMLSTYLE
  2
Standard
  9
$CMLJUST
 70
     0
  9
$CMLSCALE
 40
20.0
  9
$PROXYGRAPHICS
 70
     1
  9
$MEASUREMENT
 70
     1
  9
$CELWEIGHT
370
    -1
  9
$ENDCAPS
280
     0
  9
$JOINSTYLE
280
     0
  9
$LWDISPLAY
290
     1
  9
$INSUNITS
 70
     4
  9
$HYPERLINKBASE
  1

  9
$STYLESHEET
  1

  9
$XEDIT
290
     1
  9
$CEPSNTYPE
380
     0
  9
$PSTYLEMODE
290
     1
  9
$FINGERPRINTGUID
  2
{958B7515-CA66-40EC-B359-80A247815068}
  9
$VERSIONGUID
  2
{FAEB1C32-E019-11D5-929B-00C0DF256EC4}
  9
$EXTNAMES
290
     1
  9
$PSVPSCALE
 40
0.0
  9
$OLESTARTUP
290
     0
  0
ENDSEC
  0
SECTION
  2
CLASSES
  0
CLASS
  1
ACDBDICTIONARYWDFLT
  2
AcDbDictionaryWithDefault
  3
ObjectDBX Classes
 90
        0
280
     0
281
     0
  0
CLASS
  1
VISUALSTYLE
  2
AcDbVisualStyle
  3
ObjectDBX Classes
 90
     4095
280
     0
281
     0
  0
CLASS
  1
MATERIAL
  2
AcDbMaterial
  3
ObjectDBX Classes
 90
     1153
280
     0
281
     0
  0
CLASS
  1
SCALE
  2
AcDbScale
  3
ObjectDBX Classes
 90
     1153
280
     0
281
     0
  0
CLASS
  1
TABLESTYLE
  2
AcDbTableStyle
  3
ObjectDBX Classes
 90
     4095
280
     0
281
     0
  0
CLASS
  1
MLEADERSTYLE
  2
AcDbMLeaderStyle
  3
ACDB_MLEADERSTYLE_CLASS
 90
     4095
280
     0
281
     0
  0
CLASS
  1
SUN
  2
AcDbSun
  3
SCENEOE
 90
     1153
280
     0
281
     0
  0
CLASS
  1
ACDBPLACEHOLDER
  2
AcDbPlaceHolder
  3
ObjectDBX Classes
 90
        0
280
     0
281
     0
  0
CLASS
  1
LAYOUT
  2
AcDbLayout
  3
ObjectDBX Classes
 90
        0
280
     0
281
     0
  0
ENDSEC
  0
SECTION
  2
TABLES
  0
TABLE
  2
VPORT
  5
8
330
0
100
AcDbSymbolTable
 70
     1
  0
VPORT
  5
29
330
8
100
AcDbSymbolTableRecord
100
AcDbViewportTableRecord
  2
*Active
 70
     0
 10
0.0
 20
0.0
 11
1.0
 21
1.0
 12
105.0
 22
148.5
 13
0.0
 23
0.0
 14
10.0
 24
10.0
 15
10.0
 25
10.0
 16
0.0
 26
0.0
 36
1.0
 17
0.0
 27
0.0
 37
0.0
 40
297.0
 41
0.7070707071
 42
50.0
 43
0.0
 44
0.0
 50
0.0
 51
0.0
 71
     0
 72
  2000
 73
     1
 74
     3
 75
     0
 76
     0
 77
     0
 78
     0
281
     0
 65
     1
110
0.0
120
0.0
130
0.0
111
1.0
121
0.0
131
0.0
112
0.0
122
1.0
132
0.0
 79
     0
146
0.0
  0
ENDTAB
  0
TABLE
  2
LTYPE
  5
5
330
0
100
AcDbSymbolTable
 70
     8
  0
LTYPE
  5
14
330
5
100
AcDbSymbolTableRecord
100
AcDbLinetypeTableRecord
  2
ByBlock
 70
     0
  3

 72
    65
 73
     0
 40
0.0
  0
LTYPE
  5
15
330
5
100
AcDbSymbolTableRecord
100
AcDbLinetypeTableRecord
  2
ByLayer
 70
     0
  3

 72
    65
 73
     0
 40
0.0
  0
LTYPE
  5
16
330
5
100
AcDbSymbolTableRecord
100
AcDbLinetypeTableRecord
  2
Continuous
 70
     0
  3
Solid line
 72
    65
 73
     0
 40
0.0
  0
LTYPE
  5
6E
330
5
100
AcDbSymbolTableRecord
100
AcDbLinetypeTableRecord
  2
SLD-実線
 70
     0
  3
SolidWorks Line Style
 72
    65
 73
     0
 40
0.0
  0
LTYPE
  5
6F
330
5
100
AcDbSymbolTableRecord
100
AcDbLinetypeTableRecord
  2
SLD-破線
 70
     0
  3
SolidWorks Line Style
 72
    65
 73
     2
 40
1.905
 49
1.27
 74
     0
 49
-0.635
 74
     0
  0
LTYPE
  5
70
330
5
100
AcDbSymbolTableRecord
100
AcDbLinetypeTableRecord
  2
SLD-2点鎖線
 70
     0
  3
SolidWorks Line Style
 72
    65
 73
     6
 40
12.7
 49
6.35
 74
     0
 49
-1.27
 74
     0
 49
1.27
 74
     0
 49
-1.27
 74
     0
 49
1.27
 74
     0
 49
-1.27
 74
     0
  0
LTYPE
  5
71
330
5
100
AcDbSymbolTableRecord
100
AcDbLinetypeTableRecord
  2
SLD-鎖線
 70
     0
  3
SolidWorks Line Style
 72
    65
 73
     4
 40
10.16
 49
6.35
 74
     0
 49
-1.27
 74
     0
 49
1.27
 74
     0
 49
-1.27
 74
     0
  0
LTYPE
  5
72
330
5
100
AcDbSymbolTableRecord
100
AcDbLinetypeTableRecord
  2
SLD-1点鎖線(中心線)
 70
     0
  3
SolidWorks Line Style
 72
    65
 73
     4
 40
34.29
 49
30.48
 74
     0
 49
-1.27
 74
     0
 49
1.27
 74
     0
 49
-1.27
 74
     0
  0
LTYPE
  5
73
330
5
100
AcDbSymbolTableRecord
100
AcDbLinetypeTableRecord
  2
SLD-点線
 70
     0
  3
SolidWorks Line Style
 72
    65
 73
     2
 40
0.635
 49
0.0
 74
     0
 49
-0.635
 74
     0
  0
LTYPE
  5
74
330
5
100
AcDbSymbolTableRecord
100
AcDbLinetypeTableRecord
  2
SLD-細-太鎖線(切断面)
 70
     0
  3
SolidWorks Line Style
 72
    65
 73
     4
 40
10.16
 49
6.35
 74
     0
 49
-1.27
 74
     0
 49
1.27
 74
     0
 49
-1.27
 74
     0
  0
ENDTAB
  0
TABLE
  2
LAYER
  5
2
330
0
100
AcDbSymbolTable
 70
     1
  0
LAYER
  5
10
330
2
100
AcDbSymbolTableRecord
100
AcDbLayerTableRecord
  2
0
 70
     0
 62
     7
  6
Continuous
370
    -3
390
F
  0
ENDTAB
  0
TABLE
  2
STYLE
  5
3
330
0
100
AcDbSymbolTable
 70
     3
  0
STYLE
  5
11
330
3
100
AcDbSymbolTableRecord
100
AcDbTextStyleTableRecord
  2
STANDARD
 70
     0
 40
0.0
 41
1.0
 50
0.0
 71
     0
 42
3.5
  3
MSGOTHIC.TTC
  4

1001
ACAD
1000
ＭＳ ゴシック
1071
    32817
  0
STYLE
  5
7D
330
3
100
AcDbSymbolTableRecord
100
AcDbTextStyleTableRecord
  2
SLDTEXTSTYLE0
 70
     0
 40
0.0
 41
1.0
 50
0.0
 71
     0
 42
3.5
  3
MSGOTHIC.TTC
  4

1001
ACAD
1000
ＭＳ ゴシック
1071
      305
  0
STYLE
  5
7F
330
3
100
AcDbSymbolTableRecord
100
AcDbTextStyleTableRecord
  2
SLDTEXTSTYLE1
 70
     0
 40
0.0
 41
1.0
 50
0.0
 71
     0
 42
3.5
  3
MSGOTHIC.TTC
  4
bigfont
1001
ACAD
1000
ＭＳ ゴシック
1071
      305
  0
ENDTAB
  0
TABLE
  2
VIEW
  5
6
330
0
100
AcDbSymbolTable
 70
     0
  0
ENDTAB
  0
TABLE
  2
UCS
  5
7
330
0
100
AcDbSymbolTable
 70
     0
  0
ENDTAB
  0
TABLE
  2
APPID
  5
9
330
0
100
AcDbSymbolTable
 70
     1
  0
APPID
  5
12
330
9
100
AcDbSymbolTableRecord
100
AcDbRegAppTableRecord
  2
ACAD
 70
     0
  0
ENDTAB
  0
TABLE
  2
DIMSTYLE
  5
A
330
0
100
AcDbSymbolTable
 70
     5
100
AcDbDimStyleTable
  0
DIMSTYLE
105
27
330
A
100
AcDbSymbolTableRecord
100
AcDbDimStyleTableRecord
  2
ISO-25
 70
     0
 41
2.5
 42
0.625
 43
3.75
 44
1.25
 73
     0
 74
     0
 77
     1
 78
     8
140
2.5
141
2.5
143
0.0393700787
147
0.625
171
     3
172
     1
178
     0
271
     2
272
     2
274
     3
278
    44
283
     0
284
     8
340
11
  0
DIMSTYLE
105
155
102
{ACAD_REACTORS
330
154
330
16C
330
182
102
}
330
A
100
AcDbSymbolTableRecord
100
AcDbDimStyleTableRecord
  2
SLDDIMSTYLE0
 70
     0
 41
3.0
 44
0.0
 45
0.000000001
 73
     0
 74
     0
 77
     3
 78
    12
 79
     3
140
3.5
147
0.875
172
     1
173
     1
178
     0
271
     1
272
     3
276
     2
284
    12
289
     0
340
7D
  0
DIMSTYLE
105
162
102
{ACAD_REACTORS
330
161
330
178
330
18F
330
19A
330
239
102
}
330
A
100
AcDbSymbolTableRecord
100
AcDbDimStyleTableRecord
  2
SLDDIMSTYLE1
 70
     0
 41
3.0
 44
0.0
 45
0.000000001
 73
     0
 74
     0
 77
     3
 78
    12
 79
     3
140
3.5
147
0.875
173
     1
178
     0
271
     1
272
     3
276
     2
284
    12
340
7D
  0
DIMSTYLE
105
1AC
330
A
100
AcDbSymbolTableRecord
100
AcDbDimStyleTableRecord
  2
SLDDIMSTYLE2
 70
     0
 41
3.0
 44
0.0
 45
0.000000001
146
3.0
147
0.0
173
     1
178
     0
271
     0
272
     0
276
     2
340
11
  0
DIMSTYLE
105
231
102
{ACAD_REACTORS
330
230
102
}
330
A
100
AcDbSymbolTableRecord
100
AcDbDimStyleTableRecord
  2
SLDDIMSTYLE3
 70
     0
  3
<>
 41
3.0
 44
0.0
 45
0.000000001
 78
    12
 79
     3
140
3.5
141
0.0
147
0.875
173
     1
178
     0
271
     1
272
     3
276
     2
284
    12
340
7D
  0
ENDTAB
  0
TABLE
  2
BLOCK_RECORD
  5
1
330
0
100
AcDbSymbolTable
 70
    13
  0
BLOCK_RECORD
  5
1F
330
1
100
AcDbSymbolTableRecord
100
AcDbBlockTableRecord
  2
*Model_Space
340
22
  0
BLOCK_RECORD
  5
1B
330
1
100
AcDbSymbolTableRecord
100
AcDbBlockTableRecord
  2
*Paper_Space
340
1E
  0
BLOCK_RECORD
  5
23
330
1
100
AcDbSymbolTableRecord
100
AcDbBlockTableRecord
  2
*Paper_Space0
340
26
  0
BLOCK_RECORD
  5
156
330
1
100
AcDbSymbolTableRecord
100
AcDbBlockTableRecord
  2
_D
340
0
  0
BLOCK_RECORD
  5
163
330
1
100
AcDbSymbolTableRecord
100
AcDbBlockTableRecord
  2
_D_1
340
0
  0
BLOCK_RECORD
  5
16D
330
1
100
AcDbSymbolTableRecord
100
AcDbBlockTableRecord
  2
_D_2
340
0
  0
BLOCK_RECORD
  5
179
330
1
100
AcDbSymbolTableRecord
100
AcDbBlockTableRecord
  2
_D_3
340
0
  0
BLOCK_RECORD
  5
183
330
1
100
AcDbSymbolTableRecord
100
AcDbBlockTableRecord
  2
_D_4
340
0
  0
BLOCK_RECORD
  5
190
330
1
100
AcDbSymbolTableRecord
100
AcDbBlockTableRecord
  2
_D_5
340
0
  0
BLOCK_RECORD
  5
19B
330
1
100
AcDbSymbolTableRecord
100
AcDbBlockTableRecord
  2
_D_6
340
0
  0
BLOCK_RECORD
  5
1A6
330
1
100
AcDbSymbolTableRecord
100
AcDbBlockTableRecord
  2
SW_NOTE_0
340
0
102
{BLKREFS
331
1AB
102
}
  0
BLOCK_RECORD
  5
1AE
330
1
100
AcDbSymbolTableRecord
100
AcDbBlockTableRecord
  2
SW_NOTE_1
340
0
102
{BLKREFS
331
1B3
102
}
  0
BLOCK_RECORD
  5
232
330
1
100
AcDbSymbolTableRecord
100
AcDbBlockTableRecord
  2
_D_7
340
0
  0
BLOCK_RECORD
  5
23A
330
1
100
AcDbSymbolTableRecord
100
AcDbBlockTableRecord
  2
_D_8
340
0
  0
BLOCK_RECORD
  5
243
330
1
100
AcDbSymbolTableRecord
100
AcDbBlockTableRecord
  2
SW_CENTERMARKSYMBOL_0
340
0
102
{BLKREFS
331
24E
102
}
  0
ENDTAB
  0
ENDSEC
  0
SECTION
  2
BLOCKS
  0
BLOCK
  5
20
330
1F
100
AcDbEntity
  8
0
100
AcDbBlockBegin
  2
*Model_Space
 70
     0
 10
0.0
 20
0.0
 30
0.0
  3
*Model_Space
  1

  0
ENDBLK
  5
21
330
1F
100
AcDbEntity
  8
0
100
AcDbBlockEnd
  0
BLOCK
  5
1C
330
1B
100
AcDbEntity
 67
     1
  8
0
100
AcDbBlockBegin
  2
*Paper_Space
 70
     0
 10
0.0
 20
0.0
 30
0.0
  3
*Paper_Space
  1

  0
ENDBLK
  5
1D
330
1B
100
AcDbEntity
 67
     1
  8
0
100
AcDbBlockEnd
  0
BLOCK
  5
24
330
23
100
AcDbEntity
  8
0
100
AcDbBlockBegin
  2
*Paper_Space0
 70
     0
 10
0.0
 20
0.0
 30
0.0
  3
*Paper_Space0
  1

  0
ENDBLK
  5
25
330
23
100
AcDbEntity
  8
0
100
AcDbBlockEnd
  0
BLOCK
  5
157
330
156
100
AcDbEntity
  8
0
100
AcDbBlockBegin
  2
_D
 70
     0
 10
0.0
 20
0.0
 30
0.0
  3
_D
  1

  0
SOLID
  5
159
330
156
100
AcDbEntity
  8
0
  6
SLD-実線
 62
     7
370
    18
100
AcDbTrace
 10
82.2747152269
 20
183.0430037909
 30
0.0
 11
79.2747152269
 21
183.7930037909
 31
0.0
 12
79.2747152269
 22
182.2930037909
 32
0.0
 13
79.2747152269
 23
182.2930037909
 33
0.0
  0
SOLID
  5
15A
330
156
100
AcDbEntity
  8
0
  6
SLD-実線
 62
     7
370
    18
100
AcDbTrace
 10
85.2747152269
 20
183.0430037909
 30
0.0
 11
88.2747152269
 21
182.2930037909
 31
0.0
 12
88.2747152269
 22
183.7930037909
 32
0.0
 13
88.2747152269
 23
183.7930037909
 33
0.0
  0
LINE
  5
15B
330
156
100
AcDbEntity
  8
0
  6
SLD-実線
 62
     7
370
    18
100
AcDbLine
 10
82.2747152269
 20
161.3919220201
 30
0.0
 11
82.2747152269
 21
184.0430037909
 31
0.0
  0
LINE
  5
15C
330
156
100
AcDbEntity
  8
0
  6
SLD-実線
 62
     7
370
    18
100
AcDbLine
 10
85.2747152269
 20
166.8919220201
 30
0.0
 11
85.2747152269
 21
184.0430037909
 31
0.0
  0
LINE
  5
15D
330
156
100
AcDbEntity
  8
0
  6
SLD-実線
 62
     7
370
    18
100
AcDbLine
 10
82.2747152269
 20
183.0430037909
 30
0.0
 11
74.628494439
 21
183.0430037909
 31
0.0
  0
LINE
  5
15E
330
156
100
AcDbEntity
  8
0
  6
SLD-実線
 62
     7
370
    18
100
AcDbLine
 10
82.2747152269
 20
183.0430037909
 30
0.0
 11
85.2747152269
 21
183.0430037909
 31
0.0
  0
LINE
  5
15F
330
156
100
AcDbEntity
  8
0
  6
SLD-実線
 62
     7
370
    18
100
AcDbLine
 10
85.2747152269
 20
183.0430037909
 30
0.0
 11
90.2747152269
 21
183.0430037909
 31
0.0
  0
MTEXT
  5
160
330
156
100
AcDbEntity
  8
0
  6
SLD-実線
 62
     7
370
    18
100
AcDbMText
 10
74.628494439
 20
187.1157308307
 30
0.0
 40
3.5
 41
0.0
 71
     1
 72
     1
  1
3
  7
SLDTEXTSTYLE0
 73
     1
 44
1.0
  0
ENDBLK
  5
158
330
156
100
AcDbEntity
  8
0
100
AcDbBlockEnd
  0
BLOCK
  5
164
330
163
100
AcDbEntity
  8
0
100
AcDbBlockBegin
  2
_D_1
 70
     0
 10
0.0
 20
0.0
 30
0.0
  3
_D_1
  1

  0
SOLID
  5
166
330
163
100
AcDbEntity
  8
0
  6
SLD-実線
 62
     7
370
    18
100
AcDbTrace
 10
85.2747152269
 20
183.0430037909
 30
0.0
 11
88.2747152269
 21
182.2930037909
 31
0.0
 12
88.2747152269
 22
183.7930037909
 32
0.0
 13
88.2747152269
 23
183.7930037909
 33
0.0
  0
SOLID
  5
167
330
163
100
AcDbEntity
  8
0
  6
SLD-実線
 62
     7
370
    18
100
AcDbTrace
 10
158.7747152269
 20
183.0430037909
 30
0.0
 11
155.7747152269
 21
183.7930037909
 31
0.0
 12
155.7747152269
 22
182.2930037909
 32
0.0
 13
155.7747152269
 23
182.2930037909
 33
0.0
  0
LINE
  5
168
330
163
100
AcDbEntity
  8
0
  6
SLD-実線
 62
     7
370
    18
100
AcDbLine
 10
85.2747152269
 20
166.8919220201
 30
0.0
 11
85.2747152269
 21
184.0430037909
 31
0.0
  0
LINE
  5
169
330
163
100
AcDbEntity
  8
0
  6
SLD-実線
 62
     7
370
    18
100
AcDbLine
 10
158.7747152269
 20
166.3919220201
 30
0.0
 11
158.7747152269
 21
184.0430037909
 31
0.0
  0
LINE
  5
16A
330
163
100
AcDbEntity
  8
0
  6
SLD-実線
 62
     7
370
    18
100
AcDbLine
 10
85.2747152269
 20
183.0430037909
 30
0.0
 11
158.7747152269
 21
183.0430037909
 31
0.0
  0
MTEXT
  5
16B
330
163
100
AcDbEntity
  8
0
  6
SLD-実線
 62
     7
370
    18
100
AcDbMText
 10
117.951104232
 20
187.1157308307
 30
0.0
 40
3.5
 41
0.0
 71
     1
 72
     1
  1
73.5
  7
SLDTEXTSTYLE0
 73
     1
 44
1.0
  0
ENDBLK
  5
165
330
163
100
AcDbEntity
  8
0
100
AcDbBlockEnd
  0
BLOCK
  5
16E
330
16D
100
AcDbEntity
  8
0
100
AcDbBlockBegin
  2
_D_2
 70
     0
 10
0.0
 20
0.0
 30
0.0
  3
_D_2
  1

  0
SOLID
  5
170
330
16D
100
AcDbEntity
  8
0
  6
SLD-実線
 62
     7
370
    18
100
AcDbTrace
 10
174.7747152269
 20
183.0430037909
 30
0.0
 11
177.7747152269
 21
182.2930037909
 31
0.0
 12
177.7747152269
 22
183.7930037909
 32
0.0
 13
177.7747152269
 23
183.7930037909
 33
0.0
  0
SOLID
  5
171
330
16D
100
AcDbEntity
  8
0
  6
SLD-実線
 62
     7
370
    18
100
AcDbTrace
 10
158.7747152269
 20
183.0430037909
 30
0.0
 11
155.7747152269
 21
183.7930037909
 31
0.0
 12
155.7747152269
 22
182.2930037909
 32
0.0
 13
155.7747152269
 23
182.2930037909
 33
0.0
  0
LINE
  5
172
330
16D
100
AcDbEntity
  8
0
  6
SLD-実線
 62
     7
370
    18
100
AcDbLine
 10
174.7747152269
 20
163.3919220201
 30
0.0
 11
174.7747152269
 21
184.0430037909
 31
0.0
  0
LINE
  5
173
330
16D
100
AcDbEntity
  8
0
  6
SLD-実線
 62
     7
370
    18
100
AcDbLine
 10
158.7747152269
 20
166.3919220201
 30
0.0
 11
158.7747152269
 21
184.0430037909
 31
0.0
  0
LINE
  5
174
330
16D
100
AcDbEntity
  8
0
  6
SLD-実線
 62
     7
370
    18
100
AcDbLine
 10
174.7747152269
 20
183.0430037909
 30
0.0
 11
179.7747152269
 21
183.0430037909
 31
0.0
  0
LINE
  5
175
330
16D
100
AcDbEntity
  8
0
  6
SLD-実線
 62
     7
370
    18
100
AcDbLine
 10
174.7747152269
 20
183.0430037909
 30
0.0
 11
158.7747152269
 21
183.0430037909
 31
0.0
  0
LINE
  5
176
330
16D
100
AcDbEntity
  8
0
  6
SLD-実線
 62
     7
370
    18
100
AcDbLine
 10
158.7747152269
 20
183.0430037909
 30
0.0
 11
153.7747152269
 21
183.0430037909
 31
0.0
  0
MTEXT
  5
177
330
16D
100
AcDbEntity
  8
0
  6
SLD-実線
 62
     7
370
    18
100
AcDbMText
 10
164.7379097294
 20
187.1157308307
 30
0.0
 40
3.5
 41
0.0
 71
     1
 72
     1
  1
16
  7
SLDTEXTSTYLE0
 73
     1
 44
1.0
  0
ENDBLK
  5
16F
330
16D
100
AcDbEntity
  8
0
100
AcDbBlockEnd
  0
BLOCK
  5
17A
330
179
100
AcDbEntity
  8
0
100
AcDbBlockBegin
  2
_D_3
 70
     0
 10
0.0
 20
0.0
 30
0.0
  3
_D_3
  1

  0
SOLID
  5
17C
330
179
100
AcDbEntity
  8
0
  6
SLD-実線
 62
     7
370
    18
100
AcDbTrace
 10
185.5747152269
 20
194.1257606406
 30
0.0
 11
182.5747152269
 21
194.8757606406
 31
0.0
 12
182.5747152269
 22
193.3757606406
 32
0.0
 13
182.5747152269
 23
193.3757606406
 33
0.0
  0
SOLID
  5
17D
330
179
100
AcDbEntity
  8
0
  6
SLD-実線
 62
     7
370
    18
100
AcDbTrace
 10
82.2747152269
 20
194.1257606406
 30
0.0
 11
85.2747152269
 21
193.3757606406
 31
0.0
 12
85.2747152269
 22
194.8757606406
 32
0.0
 13
85.2747152269
 23
194.8757606406
 33
0.0
  0
LINE
  5
17E
330
179
100
AcDbEntity
  8
0
  6
SLD-実線
 62
     7
370
    18
100
AcDbLine
 10
185.5747152269
 20
159.8919220201
 30
0.0
 11
185.5747152269
 21
195.1257606406
 31
0.0
  0
LINE
  5
17F
330
179
100
AcDbEntity
  8
0
  6
SLD-実線
 62
     7
370
    18
100
AcDbLine
 10
82.2747152269
 20
161.3919220201
 30
0.0
 11
82.2747152269
 21
195.1257606406
 31
0.0
  0
LINE
  5
180
330
179
100
AcDbEntity
  8
0
  6
SLD-実線
 62
     7
370
    18
100
AcDbLine
 10
185.5747152269
 20
194.1257606406
 30
0.0
 11
82.2747152269
 21
194.1257606406
 31
0.0
  0
MTEXT
  5
181
330
179
100
AcDbEntity
  8
0
  6
SLD-実線
 62
     7
370
    18
100
AcDbMText
 10
128.8327015996
 20
198.1984876805
 30
0.0
 40
3.5
 41
0.0
 71
     1
 72
     1
  1
103.5
  7
SLDTEXTSTYLE0
 73
     1
 44
1.0
  0
ENDBLK
  5
17B
330
179
100
AcDbEntity
  8
0
100
AcDbBlockEnd
  0
BLOCK
  5
184
330
183
100
AcDbEntity
  8
0
100
AcDbBlockBegin
  2
_D_4
 70
     0
 10
0.0
 20
0.0
 30
0.0
  3
_D_4
  1

  0
SOLID
  5
186
330
183
100
AcDbEntity
  8
0
  6
SLD-実線
 62
     7
370
    18
100
AcDbTrace
 10
193.0378012343
 20
162.8919220201
 30
0.0
 11
193.7878012343
 21
165.8919220201
 31
0.0
 12
192.2878012343
 22
165.8919220201
 32
0.0
 13
192.2878012343
 23
165.8919220201
 33
0.0
  0
SOLID
  5
187
330
183
100
AcDbEntity
  8
0
  6
SLD-実線
 62
     7
370
    18
100
AcDbTrace
 10
193.0378012343
 20
150.8919220201
 30
0.0
 11
192.2878012343
 21
147.8919220201
 31
0.0
 12
193.7878012343
 22
147.8919220201
 32
0.0
 13
193.7878012343
 23
147.8919220201
 33
0.0
  0
LINE
  5
188
330
183
100
AcDbEntity
  8
0
  6
SLD-実線
 62
     7
370
    18
100
AcDbLine
 10
175.2747152269
 20
162.8919220201
 30
0.0
 11
194.0378012343
 21
162.8919220201
 31
0.0
  0
LINE
  5
189
330
183
100
AcDbEntity
  8
0
  6
SLD-実線
 62
     7
370
    18
100
AcDbLine
 10
175.2747152269
 20
150.8919220201
 30
0.0
 11
194.0378012343
 21
150.8919220201
 31
0.0
  0
LINE
  5
18A
330
183
100
AcDbEntity
  8
0
  6
SLD-実線
 62
     7
370
    18
100
AcDbLine
 10
193.0378012343
 20
162.8919220201
 30
0.0
 11
193.0378012343
 21
175.9457141035
 31
0.0
  0
LINE
  5
18B
330
183
100
AcDbEntity
  8
0
  6
SLD-実線
 62
     7
370
    18
100
AcDbLine
 10
193.0378012343
 20
162.8919220201
 30
0.0
 11
193.0378012343
 21
150.8919220201
 31
0.0
  0
LINE
  5
18C
330
183
100
AcDbEntity
  8
0
  6
SLD-実線
 62
     7
370
    18
100
AcDbLine
 10
193.0378012343
 20
150.8919220201
 30
0.0
 11
193.0378012343
 21
145.8919220201
 31
0.0
  0
MTEXT
  5
18D
330
183
100
AcDbEntity
  8
0
  6
SLD-実線
 62
     7
370
    18
100
AcDbMText
 10
188.9650737287
 20
168.0021723607
 30
0.0
 40
3.5
 41
0.0
 71
     1
 72
     1
  1
%%c
  7
SLDTEXTSTYLE0
 11
-7.044195017643634E-15
 21
1.0
 31
0.0
 73
     1
 44
1.0
  0
MTEXT
  5
18E
330
183
100
AcDbEntity
  8
0
  6
SLD-実線
 62
     7
370
    18
100
AcDbMText
 10
188.9650737287
 20
171.8721028757
 30
0.0
 40
3.5
 41
0.0
 71
     1
 72
     1
  1
12
  7
SLDTEXTSTYLE0
 11
-7.044195017643634E-15
 21
1.0
 31
0.0
 73
     1
 44
1.0
  0
ENDBLK
  5
185
330
183
100
AcDbEntity
  8
0
100
AcDbBlockEnd
  0
BLOCK
  5
191
330
190
100
AcDbEntity
  8
0
100
AcDbBlockBegin
  2
_D_5
 70
     0
 10
0.0
 20
0.0
 30
0.0
  3
_D_5
  1

  0
SOLID
  5
193
330
190
100
AcDbEntity
  8
0
  6
SLD-実線
 62
     7
370
    18
100
AcDbTrace
 10
73.95849235
 20
146.8919220201
 30
0.0
 11
74.70849235
 21
149.8919220201
 31
0.0
 12
73.20849235
 22
149.8919220201
 32
0.0
 13
73.20849235
 23
149.8919220201
 33
0.0
  0
SOLID
  5
194
330
190
100
AcDbEntity
  8
0
  6
SLD-実線
 62
     7
370
    18
100
AcDbTrace
 10
73.95849235
 20
166.8919220201
 30
0.0
 11
73.20849235
 21
163.8919220201
 31
0.0
 12
74.70849235
 22
163.8919220201
 32
0.0
 13
74.70849235
 23
163.8919220201
 33
0.0
  0
LINE
  5
195
330
190
100
AcDbEntity
  8
0
  6
SLD-実線
 62
     7
370
    18
100
AcDbLine
 10
145.2747152269
 20
146.8919220201
 30
0.0
 11
72.95849235
 21
146.8919220201
 31
0.0
  0
LINE
  5
196
330
190
100
AcDbEntity
  8
0
  6
SLD-実線
 62
     7
370
    18
100
AcDbLine
 10
145.2747152269
 20
166.8919220201
 30
0.0
 11
72.95849235
 21
166.8919220201
 31
0.0
  0
LINE
  5
197
330
190
100
AcDbEntity
  8
0
  6
SLD-実線
 62
     7
370
    18
100
AcDbLine
 10
73.95849235
 20
146.8919220201
 30
0.0
 11
73.95849235
 21
166.8919220201
 31
0.0
  0
MTEXT
  5
198
330
190
100
AcDbEntity
  8
0
  6
SLD-実線
 62
     7
370
    18
100
AcDbMText
 10
69.8857648445
 20
152.9201511486
 30
0.0
 40
3.5
 41
0.0
 71
     1
 72
     1
  1
%%c
  7
SLDTEXTSTYLE0
 11
9.494107596574928E-16
 21
1.0
 31
0.0
 73
     1
 44
1.0
  0
MTEXT
  5
199
330
190
100
AcDbEntity
  8
0
  6
SLD-実線
 62
     7
370
    18
100
AcDbMText
 10
69.8857648445
 20
156.7900816637
 30
0.0
 40
3.5
 41
0.0
 71
     1
 72
     1
  1
20
  7
SLDTEXTSTYLE0
 11
9.494107596574928E-16
 21
1.0
 31
0.0
 73
     1
 44
1.0
  0
ENDBLK
  5
192
330
190
100
AcDbEntity
  8
0
100
AcDbBlockEnd
  0
BLOCK
  5
19C
330
19B
100
AcDbEntity
  8
0
100
AcDbBlockBegin
  2
_D_6
 70
     0
 10
0.0
 20
0.0
 30
0.0
  3
_D_6
  1

  0
ARC
  5
19E
330
19B
100
AcDbEntity
  8
0
  6
SLD-実線
 62
     7
370
    18
100
AcDbCircle
 10
62.4988634513
 20
157.6186643321
 30
0.0
 40
4.554435549315956
100
AcDbArc
 50
243.4349488229
 51
296.5650511771
  0
ARC
  5
19F
330
19B
100
AcDbEntity
  8
0
  6
SLD-実線
 62
     7
370
    18
100
AcDbCircle
 10
62.4988634513
 20
157.6186643321
 30
0.0
 40
4.554435549315982
100
AcDbArc
 50
63.4349488229
 51
116.5650511771
  0
SOLID
  5
1A0
330
19B
100
AcDbEntity
  8
0
  6
SLD-実線
 62
     7
370
    18
100
AcDbTrace
 10
64.5356689488
 20
175.6919220201
 30
0.0
 11
63.7856689488
 21
172.6919220201
 31
0.0
 12
65.2856689488
 22
172.6919220201
 32
0.0
 13
65.2856689488
 23
172.6919220201
 33
0.0
  0
SOLID
  5
1A1
330
19B
100
AcDbEntity
  8
0
  6
SLD-実線
 62
     7
370
    18
100
AcDbTrace
 10
64.5356689488
 20
139.5454067606
 30
0.0
 11
65.2856689488
 21
142.5454067606
 31
0.0
 12
63.7856689488
 22
142.5454067606
 32
0.0
 13
63.7856689488
 23
142.5454067606
 33
0.0
  0
LINE
  5
1A2
330
19B
100
AcDbEntity
  8
0
  6
SLD-実線
 62
     7
370
    18
100
AcDbLine
 10
151.2747152269
 20
175.6919220201
 30
0.0
 11
63.5356689488
 21
175.6919220201
 31
0.0
  0
LINE
  5
1A3
330
19B
100
AcDbEntity
  8
0
  6
SLD-実線
 62
     7
370
    18
100
AcDbLine
 10
113.8692175531
 20
139.5454067606
 30
0.0
 11
63.5356689488
 21
139.5454067606
 31
0.0
  0
LINE
  5
1A4
330
19B
100
AcDbEntity
  8
0
  6
SLD-実線
 62
     7
370
    18
100
AcDbLine
 10
64.5356689488
 20
175.6919220201
 30
0.0
 11
64.5356689488
 21
139.5454067606
 31
0.0
  0
MTEXT
  5
1A5
330
19B
100
AcDbEntity
  8
0
  6
SLD-実線
 62
     7
370
    18
100
AcDbMText
 10
60.4629419089
 20
153.5450533372
 30
0.0
 40
3.5
 41
0.0
 71
     1
 72
     1
  1
36.5
  7
SLDTEXTSTYLE0
 11
-5.267838178243384E-15
 21
1.0
 31
0.0
 73
     1
 44
1.0
  0
ENDBLK
  5
19D
330
19B
100
AcDbEntity
  8
0
100
AcDbBlockEnd
  0
BLOCK
  5
1A7
330
1A6
100
AcDbEntity
  8
0
100
AcDbBlockBegin
  2
SW_NOTE_0
 70
     0
 10
0.0
 20
0.0
 30
0.0
  3
SW_NOTE_0
  1

  0
LINE
  5
1A9
330
1A6
100
AcDbEntity
  8
0
  6
SLD-実線
 62
     0
370
     0
100
AcDbLine
 10
8.0203184366
 20
0.0
 30
0.0
 11
0.0
 21
0.0
 31
0.0
  0
MTEXT
  5
1AA
330
1A6
100
AcDbEntity
  8
0
  6
Continuous
 62
     0
370
     0
100
AcDbMText
 10
0.4291584204
 20
4.1954317343
 30
0.0
 40
3.5
 41
0.0
 71
     1
 72
     1
  1
BF-5
  7
SLDTEXTSTYLE0
 73
     1
 44
1.0
  0
ENDBLK
  5
1A8
330
1A6
100
AcDbEntity
  8
0
100
AcDbBlockEnd
  0
BLOCK
  5
1AF
330
1AE
100
AcDbEntity
  8
0
100
AcDbBlockBegin
  2
SW_NOTE_1
 70
     0
 10
0.0
 20
0.0
 30
0.0
  3
SW_NOTE_1
  1

  0
LINE
  5
1B1
330
1AE
100
AcDbEntity
  8
0
  6
SLD-実線
 62
     0
370
     0
100
AcDbLine
 10
8.0203184366
 20
0.0
 30
0.0
 11
0.0
 21
0.0
 31
0.0
  0
MTEXT
  5
1B2
330
1AE
100
AcDbEntity
  8
0
  6
Continuous
 62
     0
370
     0
100
AcDbMText
 10
0.4439515674
 20
4.0788404649
 30
0.0
 40
3.5
 41
0.0
 71
     1
 72
     1
  1
BF-6
  7
SLDTEXTSTYLE0
 73
     1
 44
1.0
  0
ENDBLK
  5
1B0
330
1AE
100
AcDbEntity
  8
0
100
AcDbBlockEnd
  0
BLOCK
  5
233
330
232
100
AcDbEntity
  8
0
100
AcDbBlockBegin
  2
_D_7
 70
     0
 10
0.0
 20
0.0
 30
0.0
  3
_D_7
  1

  0
SOLID
  5
235
330
232
100
AcDbEntity
  8
0
  6
SLD-実線
 62
     7
370
    18
100
AcDbTrace
 10
36.3698470563
 20
155.0732686721
 30
0.0
 11
37.2203280034
 21
152.1001924608
 31
0.0
 12
38.5193661091
 22
152.8501924608
 32
0.0
 13
38.5193661091
 23
152.8501924608
 33
0.0
  0
LINE
  5
236
330
232
100
AcDbEntity
  8
0
  6
SLD-実線
 62
     7
370
    18
100
AcDbLine
 10
36.3698470563
 20
155.0732686721
 30
0.0
 11
50.1436561791
 21
131.2163314577
 31
0.0
  0
LINE
  5
237
330
232
100
AcDbEntity
  8
0
  6
SLD-実線
 62
     7
370
    18
100
AcDbLine
 10
50.1436561791
 20
131.2163314577
 30
0.0
 11
63.9519886983
 21
131.2163314577
 31
0.0
  0
MTEXT
  5
238
330
232
100
AcDbEntity
  8
0
  6
SLD-実線
 62
     7
370
    18
100
AcDbMText
 10
51.7311561791
 20
135.2890584976
 30
0.0
 40
3.5
 41
0.0
 71
     1
 72
     1
  1
M5深10
  7
SLDTEXTSTYLE1
 73
     1
 44
1.0
  0
ENDBLK
  5
234
330
232
100
AcDbEntity
  8
0
100
AcDbBlockEnd
  0
BLOCK
  5
23B
330
23A
100
AcDbEntity
  8
0
100
AcDbBlockBegin
  2
_D_8
 70
     0
 10
0.0
 20
0.0
 30
0.0
  3
_D_8
  1

  0
SOLID
  5
23D
330
23A
100
AcDbEntity
  8
0
  6
SLD-実線
 62
     7
370
    18
100
AcDbTrace
 10
26.8198470563
 20
131.2163314577
 30
0.0
 11
29.8198470563
 21
130.4663314577
 31
0.0
 12
29.8198470563
 22
131.9663314577
 32
0.0
 13
29.8198470563
 23
131.9663314577
 33
0.0
  0
SOLID
  5
23E
330
23A
100
AcDbEntity
  8
0
  6
SLD-実線
 62
     7
370
    18
100
AcDbTrace
 10
43.8198470563
 20
131.2163314577
 30
0.0
 11
40.8198470563
 21
131.9663314577
 31
0.0
 12
40.8198470563
 22
130.4663314577
 32
0.0
 13
40.8198470563
 23
130.4663314577
 33
0.0
  0
LINE
  5
23F
330
23A
100
AcDbEntity
  8
0
  6
SLD-実線
 62
     7
370
    18
100
AcDbLine
 10
26.8198470563
 20
150.6240951436
 30
0.0
 11
26.8198470563
 21
130.2163314577
 31
0.0
  0
LINE
  5
240
330
23A
100
AcDbEntity
  8
0
  6
SLD-実線
 62
     7
370
    18
100
AcDbLine
 10
43.8198470563
 20
150.6240951436
 30
0.0
 11
43.8198470563
 21
130.2163314577
 31
0.0
  0
LINE
  5
241
330
23A
100
AcDbEntity
  8
0
  6
SLD-実線
 62
     7
370
    18
100
AcDbLine
 10
26.8198470563
 20
131.2163314577
 30
0.0
 11
43.8198470563
 21
131.2163314577
 31
0.0
  0
MTEXT
  5
242
330
23A
100
AcDbEntity
  8
0
  6
SLD-実線
 62
     7
370
    18
100
AcDbMText
 10
33.2830415588
 20
135.2890584976
 30
0.0
 40
3.5
 41
0.0
 71
     1
 72
     1
  1
17
  7
SLDTEXTSTYLE0
 73
     1
 44
1.0
  0
ENDBLK
  5
23C
330
23A
100
AcDbEntity
  8
0
100
AcDbBlockEnd
  0
BLOCK
  5
244
330
243
100
AcDbEntity
  8
0
100
AcDbBlockBegin
  2
SW_CENTERMARKSYMBOL_0
 70
     0
 10
0.0
 20
0.0
 30
0.0
  3
SW_CENTERMARKSYMBOL_0
  1

  0
LINE
  5
246
330
243
100
AcDbEntity
  8
0
  6
SLD-実線
 62
     0
370
    18
100
AcDbLine
 10
0.0
 20
0.0
 30
0.0
 11
0.0
 21
2.5
 31
0.0
  0
LINE
  5
247
330
243
100
AcDbEntity
  8
0
  6
SLD-実線
 62
     0
370
    18
100
AcDbLine
 10
0.0
 20
0.0
 30
0.0
 11
-2.5
 21
0.0
 31
0.0
  0
LINE
  5
248
330
243
100
AcDbEntity
  8
0
  6
SLD-実線
 62
     0
370
    18
100
AcDbLine
 10
0.0
 20
0.0
 30
0.0
 11
0.0
 21
-2.5
 31
0.0
  0
LINE
  5
249
330
243
100
AcDbEntity
  8
0
  6
SLD-実線
 62
     0
370
    18
100
AcDbLine
 10
0.0
 20
0.0
 30
0.0
 11
2.5
 21
0.0
 31
0.0
  0
LINE
  5
24A
330
243
100
AcDbEntity
  8
0
  6
SLD-実線
 62
     0
370
    18
100
AcDbLine
 10
0.0
 20
5.0
 30
0.0
 11
0.0
 21
12.5
 31
0.0
  0
LINE
  5
24B
330
243
100
AcDbEntity
  8
0
  6
SLD-実線
 62
     0
370
    18
100
AcDbLine
 10
-5.0
 20
0.0
 30
0.0
 11
-12.5
 21
0.0
 31
0.0
  0
LINE
  5
24C
330
243
100
AcDbEntity
  8
0
  6
SLD-実線
 62
     0
370
    18
100
AcDbLine
 10
0.0
 20
-5.0
 30
0.0
 11
0.0
 21
-12.5
 31
0.0
  0
LINE
  5
24D
330
243
100
AcDbEntity
  8
0
  6
SLD-実線
 62
     0
370
    18
100
AcDbLine
 10
5.0
 20
0.0
 30
0.0
 11
12.5
 21
0.0
 31
0.0
  0
ENDBLK
  5
245
330
243
100
AcDbEntity
  8
0
100
AcDbBlockEnd
  0
ENDSEC
  0
SECTION
  2
ENTITIES
  0
LINE
  5
75
330
1F
100
AcDbEntity
  8
0
  6
SLD-実線
 62
     7
370
    18
100
AcDbLine
 10
20.2604743903
 20
285.0
 30
0.0
 11
196.7604743903
 21
285.0
 31
0.0
  0
LINE
  5
76
330
1F
100
AcDbEntity
  8
0
  6
SLD-実線
 62
     7
370
    18
100
AcDbLine
 10
20.2604743903
 20
285.0
 30
0.0
 11
20.2604743903
 21
10.0
 31
0.0
  0
LINE
  5
77
330
1F
100
AcDbEntity
  8
0
  6
SLD-実線
 62
     7
370
    18
100
AcDbLine
 10
20.2604743903
 20
10.0
 30
0.0
 11
196.7604743903
 21
10.0
 31
0.0
  0
LINE
  5
78
330
1F
100
AcDbEntity
  8
0
  6
SLD-実線
 62
     7
370
    18
100
AcDbLine
 10
196.7604743903
 20
285.0
 30
0.0
 11
196.7604743903
 21
10.0
 31
0.0
  0
LINE
  5
79
330
1F
100
AcDbEntity
  8
0
  6
SLD-実線
 62
     7
370
    18
100
AcDbLine
 10
127.0104743903
 20
50.75
 30
0.0
 11
196.7604743903
 21
50.75
 31
0.0
  0
LINE
  5
7A
330
1F
100
AcDbEntity
  8
0
  6
SLD-実線
 62
     7
370
    18
100
AcDbLine
 10
127.0104743903
 20
50.75
 30
0.0
 11
127.0104743903
 21
10.0
 31
0.0
  0
LINE
  5
7B
330
1F
100
AcDbEntity
  8
0
  6
SLD-実線
 62
     7
370
    18
100
AcDbLine
 10
127.0104743903
 20
22.75
 30
0.0
 11
196.7604743903
 21
22.75
 31
0.0
  0
LINE
  5
7C
330
1F
100
AcDbEntity
  8
0
  6
SLD-実線
 62
     7
370
    18
100
AcDbLine
 10
127.0104743903
 20
36.75
 30
0.0
 11
196.7604743903
 21
36.75
 31
0.0
  0
MTEXT
  5
7E
330
1F
100
AcDbEntity
  8
0
  6
Continuous
 62
     7
370
     0
100
AcDbMText
 10
149.7436832567
 20
30.5862787805
 30
0.0
 40
4.2333333333
 41
0.0
 71
     1
 72
     1
  1
VMCP-20-C
  7
SLDTEXTSTYLE0
 73
     1
 44
1.0
  0
MTEXT
  5
80
330
1F
100
AcDbEntity
  8
0
  6
Continuous
 62
     7
370
     0
100
AcDbMText
 10
128.0478468095
 20
45.6535260774
 30
0.0
 40
3.4395833333
 41
0.0
 71
     1
 72
     1
  1
吸着複合シリンダー(センサー付)
  7
SLDTEXTSTYLE1
 73
     1
 44
1.0
  0
MTEXT
  5
81
330
1F
100
AcDbEntity
  8
0
  6
Continuous
 62
     7
370
     0
100
AcDbMText
 10
153.9770165388
 20
16.6677225554
 30
0.0
 40
4.2333333333
 41
0.0
 71
     1
 72
     1
  1
211138
  7
SLDTEXTSTYLE0
 73
     1
 44
1.0
  0
LINE
  5
82
330
1F
100
AcDbEntity
  8
0
  6
SLD-実線
 62
     7
370
    18
100
AcDbLine
 10
82.2747152269
 20
153.3919220201
 30
0.0
 11
82.7747152269
 21
152.8919220201
 31
0.0
  0
LINE
  5
83
330
1F
100
AcDbEntity
  8
0
  6
SLD-実線
 62
     7
370
    18
100
AcDbLine
 10
82.7747152269
 20
160.8919220201
 30
0.0
 11
82.2747152269
 21
160.3919220201
 31
0.0
  0
LINE
  5
84
330
1F
100
AcDbEntity
  8
0
  6
SLD-実線
 62
     7
370
    18
100
AcDbLine
 10
85.2747152269
 20
160.8919220201
 30
0.0
 11
82.7747152269
 21
160.8919220201
 31
0.0
  0
LINE
  5
85
330
1F
100
AcDbEntity
  8
0
  6
SLD-実線
 62
     7
370
    18
100
AcDbLine
 10
82.7747152269
 20
152.8919220201
 30
0.0
 11
85.2747152269
 21
152.8919220201
 31
0.0
  0
LINE
  5
86
330
1F
100
AcDbEntity
  8
0
  6
SLD-実線
 62
     7
370
    18
100
AcDbLine
 10
146.2747152269
 20
166.8919220201
 30
0.0
 11
132.6269818532
 21
166.8919220201
 31
0.0
  0
LINE
  5
87
330
1F
100
AcDbEntity
  8
0
  6
SLD-実線
 62
     7
370
    18
100
AcDbLine
 10
123.6692175531
 20
167.0454067606
 30
0.0
 11
86.2747152269
 21
166.8919220201
 31
0.0
  0
LINE
  5
88
330
1F
100
AcDbEntity
  8
0
  6
SLD-実線
 62
     7
370
    18
100
AcDbLine
 10
86.2747152269
 20
146.8919220201
 30
0.0
 11
114.8692175531
 21
146.8919220201
 31
0.0
  0
LINE
  5
89
330
1F
100
AcDbEntity
  8
0
  6
SLD-実線
 62
     7
370
    18
100
AcDbLine
 10
124.8692175531
 20
147.1454067606
 30
0.0
 11
125.1691975531
 21
146.8919220201
 31
0.0
  0
LINE
  5
8A
330
1F
100
AcDbEntity
  8
0
  6
SLD-実線
 62
     7
370
    18
100
AcDbLine
 10
131.1692175531
 20
146.6919220201
 30
0.0
 11
131.4692175531
 21
146.8919220201
 31
0.0
  0
LINE
  5
8B
330
1F
100
AcDbEntity
  8
0
  6
SLD-実線
 62
     7
370
    18
100
AcDbLine
 10
141.4692175531
 20
146.8919220201
 30
0.0
 11
146.2747152269
 21
146.8919220201
 31
0.0
  0
LINE
  5
8C
330
1F
100
AcDbEntity
  8
0
  6
SLD-実線
 62
     7
370
    18
100
AcDbLine
 10
85.2747152269
 20
147.8919220201
 30
0.0
 11
86.2747152269
 21
146.8919220201
 31
0.0
  0
LINE
  5
8D
330
1F
100
AcDbEntity
  8
0
  6
SLD-実線
 62
     7
370
    18
100
AcDbLine
 10
86.2747152269
 20
166.8919220201
 30
0.0
 11
85.2747152269
 21
165.8919220201
 31
0.0
  0
LINE
  5
8E
330
1F
100
AcDbEntity
  8
0
  6
SLD-実線
 62
     7
370
    18
100
AcDbLine
 10
149.2747152269
 20
166.8919220201
 30
0.0
 11
146.2747152269
 21
166.8919220201
 31
0.0
  0
LINE
  5
8F
330
1F
100
AcDbEntity
  8
0
  6
SLD-実線
 62
     7
370
    18
100
AcDbLine
 10
146.2747152269
 20
146.8919220201
 30
0.0
 11
149.2747152269
 21
146.8919220201
 31
0.0
  0
ARC
  5
90
330
1F
100
AcDbEntity
  8
0
  6
SLD-実線
 62
     7
370
    18
100
AcDbCircle
 10
159.2747152269
 20
150.3919220201
 30
0.0
 40
0.4999999999999716
100
AcDbArc
 50
90.0
 51
180.0
  0
ARC
  5
91
330
1F
100
AcDbEntity
  8
0
  6
SLD-実線
 62
     7
370
    18
100
AcDbCircle
 10
159.2747152269
 20
163.3919220201
 30
0.0
 40
0.5
100
AcDbArc
 50
180.0
 51
270.0
  0
LINE
  5
92
330
1F
100
AcDbEntity
  8
0
  6
SLD-実線
 62
     7
370
    18
100
AcDbLine
 10
159.2747152269
 20
150.8919220201
 30
0.0
 11
174.2747152269
 21
150.8919220201
 31
0.0
  0
LINE
  5
93
330
1F
100
AcDbEntity
  8
0
  6
SLD-実線
 62
     7
370
    18
100
AcDbLine
 10
174.2747152269
 20
162.8919220201
 30
0.0
 11
159.2747152269
 21
162.8919220201
 31
0.0
  0
LINE
  5
94
330
1F
100
AcDbEntity
  8
0
  6
SLD-実線
 62
     7
370
    18
100
AcDbLine
 10
174.2747152269
 20
150.8919220201
 30
0.0
 11
174.7747152269
 21
151.3919220201
 31
0.0
  0
LINE
  5
95
330
1F
100
AcDbEntity
  8
0
  6
SLD-実線
 62
     7
370
    18
100
AcDbLine
 10
174.7747152269
 20
162.3919220201
 30
0.0
 11
174.2747152269
 21
162.8919220201
 31
0.0
  0
LINE
  5
96
330
1F
100
AcDbEntity
  8
0
  6
SLD-実線
 62
     7
370
    18
100
AcDbLine
 10
155.5247152269
 20
170.6919220201
 30
0.0
 11
155.5247152269
 21
173.1919220201
 31
0.0
  0
LINE
  5
97
330
1F
100
AcDbEntity
  8
0
  6
SLD-実線
 62
     7
370
    18
100
AcDbLine
 10
152.0247152269
 20
173.1919220201
 30
0.0
 11
152.0247152269
 21
170.6919220201
 31
0.0
  0
LINE
  5
98
330
1F
100
AcDbEntity
  8
0
  6
SLD-実線
 62
     7
370
    18
100
AcDbLine
 10
155.5247152269
 20
173.1919220201
 30
0.0
 11
155.2747152269
 21
175.6919220201
 31
0.0
  0
LINE
  5
99
330
1F
100
AcDbEntity
  8
0
  6
SLD-実線
 62
     7
370
    18
100
AcDbLine
 10
152.2747152269
 20
175.6919220201
 30
0.0
 11
152.0247152269
 21
173.1919220201
 31
0.0
  0
LINE
  5
9A
330
1F
100
AcDbEntity
  8
0
  6
SLD-実線
 62
     7
370
    18
100
AcDbLine
 10
152.0247152269
 20
170.6919220201
 30
0.0
 11
152.1747152269
 21
168.6919220201
 31
0.0
  0
LINE
  5
9B
330
1F
100
AcDbEntity
  8
0
  6
SLD-実線
 62
     7
370
    18
100
AcDbLine
 10
155.3747152269
 20
168.6919220201
 30
0.0
 11
155.5247152269
 21
170.6919220201
 31
0.0
  0
LINE
  5
9C
330
1F
100
AcDbEntity
  8
0
  6
SLD-実線
 62
     7
370
    18
100
AcDbLine
 10
180.5747152269
 20
154.5419220201
 30
0.0
 11
183.0747152269
 21
154.5419220201
 31
0.0
  0
LINE
  5
9D
330
1F
100
AcDbEntity
  8
0
  6
SLD-実線
 62
     7
370
    18
100
AcDbLine
 10
183.0747152269
 20
158.927081719
 30
0.0
 11
180.5747152269
 21
159.2419220201
 31
0.0
  0
LINE
  5
9E
330
1F
100
AcDbEntity
  8
0
  6
SLD-実線
 62
     7
370
    18
100
AcDbLine
 10
183.0747152269
 20
154.5419220201
 30
0.0
 11
185.5747152269
 21
154.8919220201
 31
0.0
  0
LINE
  5
9F
330
1F
100
AcDbEntity
  8
0
  6
SLD-実線
 62
     7
370
    18
100
AcDbLine
 10
185.5747152269
 20
158.8919220201
 30
0.0
 11
183.0747152269
 21
159.2419220201
 31
0.0
  0
LINE
  5
A0
330
1F
100
AcDbEntity
  8
0
  6
SLD-実線
 62
     7
370
    18
100
AcDbLine
 10
180.5747152269
 20
158.927081719
 30
0.0
 11
178.0747152269
 21
158.9919220201
 31
0.0
  0
LINE
  5
A1
330
1F
100
AcDbEntity
  8
0
  6
SLD-実線
 62
     7
370
    18
100
AcDbLine
 10
178.0747152269
 20
154.7919220201
 30
0.0
 11
180.5747152269
 21
154.5419220201
 31
0.0
  0
LINE
  5
A2
330
1F
100
AcDbEntity
  8
0
  6
SLD-実線
 62
     7
370
    18
100
AcDbLine
 10
149.7747152269
 20
166.1919220201
 30
0.0
 11
149.2747152269
 21
165.3919220201
 31
0.0
  0
LINE
  5
A3
330
1F
100
AcDbEntity
  8
0
  6
SLD-実線
 62
     7
370
    18
100
AcDbLine
 10
158.2747152269
 20
165.3919220201
 30
0.0
 11
157.7747152269
 21
166.1919220201
 31
0.0
  0
LINE
  5
A4
330
1F
100
AcDbEntity
  8
0
  6
SLD-実線
 62
     7
370
    18
100
AcDbLine
 10
175.5747152269
 20
160.8919220201
 30
0.0
 11
174.7747152269
 21
160.8919220201
 31
0.0
  0
LINE
  5
A5
330
1F
100
AcDbEntity
  8
0
  6
SLD-実線
 62
     7
370
    18
100
AcDbLine
 10
174.7747152269
 20
152.8919220201
 30
0.0
 11
175.5747152269
 21
152.8919220201
 31
0.0
  0
LINE
  5
A6
330
1F
100
AcDbEntity
  8
0
  6
SLD-実線
 62
     7
370
    18
100
AcDbLine
 10
141.8692175531
 20
143.9454067606
 30
0.0
 11
146.8692175531
 21
143.9454067606
 31
0.0
  0
LINE
  5
A7
330
1F
100
AcDbEntity
  8
0
  6
SLD-実線
 62
     7
370
    18
100
AcDbLine
 10
146.8692175531
 20
144.6954067606
 30
0.0
 11
141.8692175531
 21
145.1454067606
 31
0.0
  0
LINE
  5
A8
330
1F
100
AcDbEntity
  8
0
  6
SLD-実線
 62
     7
370
    18
100
AcDbLine
 10
141.8692175531
 20
141.9454067606
 30
0.0
 11
146.8692175531
 21
142.3954067606
 31
0.0
  0
LINE
  5
A9
330
1F
100
AcDbEntity
  8
0
  6
SLD-実線
 62
     7
370
    18
100
AcDbLine
 10
146.8692175531
 20
143.1454067606
 30
0.0
 11
141.8692175531
 21
143.1454067606
 31
0.0
  0
LINE
  5
AA
330
1F
100
AcDbEntity
  8
0
  6
SLD-実線
 62
     7
370
    18
100
AcDbLine
 10
141.8692175531
 20
143.1454067606
 30
0.0
 11
146.8692175531
 21
143.1704067606
 31
0.0
  0
LINE
  5
AB
330
1F
100
AcDbEntity
  8
0
  6
SLD-実線
 62
     7
370
    18
100
AcDbLine
 10
146.8692175531
 20
143.9204067606
 30
0.0
 11
141.8692175531
 21
143.9454067606
 31
0.0
  0
LINE
  5
AC
330
1F
100
AcDbEntity
  8
0
  6
SLD-実線
 62
     7
370
    18
100
AcDbLine
 10
146.8692175531
 20
143.9454067606
 30
0.0
 11
151.8692175531
 21
144.0704067606
 31
0.0
  0
LINE
  5
AD
330
1F
100
AcDbEntity
  8
0
  6
SLD-実線
 62
     7
370
    18
100
AcDbLine
 10
151.8692175531
 20
144.5704067606
 30
0.0
 11
146.8692175531
 21
144.6954067606
 31
0.0
  0
LINE
  5
AE
330
1F
100
AcDbEntity
  8
0
  6
SLD-実線
 62
     7
370
    18
100
AcDbLine
 10
146.8692175531
 20
143.1704067606
 30
0.0
 11
151.8692175531
 21
143.2954067606
 31
0.0
  0
LINE
  5
AF
330
1F
100
AcDbEntity
  8
0
  6
SLD-実線
 62
     7
370
    18
100
AcDbLine
 10
151.8692175531
 20
143.7954067606
 30
0.0
 11
146.8692175531
 21
143.9204067606
 31
0.0
  0
LINE
  5
B0
330
1F
100
AcDbEntity
  8
0
  6
SLD-実線
 62
     7
370
    18
100
AcDbLine
 10
146.8692175531
 20
142.3954067606
 30
0.0
 11
151.8692175531
 21
142.5204067606
 31
0.0
  0
LINE
  5
B1
330
1F
100
AcDbEntity
  8
0
  6
SLD-実線
 62
     7
370
    18
100
AcDbLine
 10
151.8692175531
 20
143.0204067606
 30
0.0
 11
146.8692175531
 21
143.1454067606
 31
0.0
  0
LINE
  5
B2
330
1F
100
AcDbEntity
  8
0
  6
SLD-実線
 62
     7
370
    18
100
AcDbLine
 10
126.9547106476
 20
162.9593803636
 30
0.0
 11
125.1692175531
 21
162.9593803636
 31
0.0
  0
LINE
  5
B3
330
1F
100
AcDbEntity
  8
0
  6
SLD-実線
 62
     7
370
    18
100
AcDbLine
 10
131.1692175531
 20
162.9593803636
 30
0.0
 11
129.3837244587
 21
162.9593803636
 31
0.0
  0
LINE
  5
B4
330
1F
100
AcDbEntity
  8
0
  6
SLD-実線
 62
     7
370
    18
100
AcDbLine
 10
129.3764361723
 20
158.2593803636
 30
0.0
 11
131.1692175531
 21
158.2593803636
 31
0.0
  0
LINE
  5
B5
330
1F
100
AcDbEntity
  8
0
  6
SLD-実線
 62
     7
370
    18
100
AcDbLine
 10
125.1692175531
 20
158.2593803636
 30
0.0
 11
126.9800866323
 21
158.2593803636
 31
0.0
  0
LINE
  5
B6
330
1F
100
AcDbEntity
  8
0
  6
SLD-実線
 62
     7
370
    18
100
AcDbLine
 10
125.1692175531
 20
146.6919220201
 30
0.0
 11
131.1692175531
 21
146.6919220201
 31
0.0
  0
LINE
  5
B7
330
1F
100
AcDbEntity
  8
0
  6
SLD-実線
 62
     7
370
    18
100
AcDbLine
 10
126.9163194428
 20
158.8656926409
 30
0.0
 11
126.980045931
 21
158.8116437196
 31
0.0
  0
LINE
  5
B8
330
1F
100
AcDbEntity
  8
0
  6
SLD-実線
 62
     7
370
    18
100
AcDbLine
 10
129.3583891753
 20
158.8116437196
 30
0.0
 11
129.4239833063
 21
158.8810540696
 31
0.0
  0
LINE
  5
B9
330
1F
100
AcDbEntity
  8
0
  6
SLD-実線
 62
     7
370
    18
100
AcDbLine
 10
129.3837244587
 20
162.9593803636
 30
0.0
 11
129.6692175531
 21
171.3399451399
 31
0.0
  0
LINE
  5
BA
330
1F
100
AcDbEntity
  8
0
  6
SLD-実線
 62
     7
370
    18
100
AcDbLine
 10
126.6692175531
 20
171.3399451399
 30
0.0
 11
126.9547106476
 21
162.9593803636
 31
0.0
  0
LINE
  5
BB
330
1F
100
AcDbEntity
  8
0
  6
SLD-実線
 62
     7
370
    18
100
AcDbLine
 10
126.6692175531
 20
171.3399451399
 30
0.0
 11
126.6692175531
 21
171.2213778908
 31
0.0
  0
LINE
  5
BC
330
1F
100
AcDbEntity
  8
0
  6
SLD-実線
 62
     7
370
    18
100
AcDbLine
 10
129.6692175531
 20
171.2213778908
 30
0.0
 11
129.6692175531
 21
171.3399451399
 31
0.0
  0
LINE
  5
BD
330
1F
100
AcDbEntity
  8
0
  6
SLD-実線
 62
     7
370
    18
100
AcDbLine
 10
126.5692175531
 20
169.1696929212
 30
0.0
 11
126.5692175531
 21
168.799046695
 31
0.0
  0
LINE
  5
BE
330
1F
100
AcDbEntity
  8
0
  6
SLD-実線
 62
     7
370
    18
100
AcDbLine
 10
126.5692175531
 20
170.1494888184
 30
0.0
 11
126.5692175531
 21
169.1696929212
 31
0.0
  0
LINE
  5
BF
330
1F
100
AcDbEntity
  8
0
  6
SLD-実線
 62
     7
370
    18
100
AcDbLine
 10
126.5692175531
 20
170.1494888184
 30
0.0
 11
126.5692175531
 21
175.1454067606
 31
0.0
  0
LINE
  5
C0
330
1F
100
AcDbEntity
  8
0
  6
SLD-実線
 62
     7
370
    18
100
AcDbLine
 10
129.7692175531
 20
175.1454067606
 30
0.0
 11
129.7692175531
 21
170.1494888184
 31
0.0
  0
LINE
  5
C1
330
1F
100
AcDbEntity
  8
0
  6
SLD-実線
 62
     7
370
    18
100
AcDbLine
 10
129.7692175531
 20
169.1696929212
 30
0.0
 11
129.7692175531
 21
170.1494888184
 31
0.0
  0
LINE
  5
C2
330
1F
100
AcDbEntity
  8
0
  6
SLD-実線
 62
     7
370
    18
100
AcDbLine
 10
129.7692175531
 20
168.799046695
 30
0.0
 11
129.7692175531
 21
169.1696929212
 31
0.0
  0
LINE
  5
C3
330
1F
100
AcDbEntity
  8
0
  6
SLD-実線
 62
     7
370
    18
100
AcDbLine
 10
124.6692175531
 20
170.1494888184
 30
0.0
 11
126.5692175531
 21
170.1494888184
 31
0.0
  0
LINE
  5
C4
330
1F
100
AcDbEntity
  8
0
  6
SLD-実線
 62
     7
370
    18
100
AcDbLine
 10
124.6692175531
 20
175.1454067606
 30
0.0
 11
124.6692175531
 21
170.1494888184
 31
0.0
  0
LINE
  5
C5
330
1F
100
AcDbEntity
  8
0
  6
SLD-実線
 62
     7
370
    18
100
AcDbLine
 10
126.5692175531
 20
175.1454067606
 30
0.0
 11
124.6692175531
 21
175.1454067606
 31
0.0
  0
LINE
  5
C6
330
1F
100
AcDbEntity
  8
0
  6
SLD-実線
 62
     7
370
    18
100
AcDbLine
 10
126.5692175531
 20
169.1696929212
 30
0.0
 11
123.689421656
 21
169.1696929212
 31
0.0
  0
LINE
  5
C7
330
1F
100
AcDbEntity
  8
0
  6
SLD-実線
 62
     7
370
    18
100
AcDbLine
 10
124.6692175531
 20
170.1494888184
 30
0.0
 11
123.689421656
 21
169.1696929212
 31
0.0
  0
LINE
  5
C8
330
1F
100
AcDbEntity
  8
0
  6
SLD-実線
 62
     7
370
    18
100
AcDbLine
 10
124.1589638406
 20
175.1454067606
 30
0.0
 11
124.6692175531
 21
175.1454067606
 31
0.0
  0
SPLINE
  5
C9
330
1F
100
AcDbEntity
  8
0
  6
SLD-実線
 62
     7
370
    18
100
AcDbSpline
210
0.0
220
0.0
230
1.0
 70
     8
 71
     3
 72
     8
 73
     4
 74
     0
 42
0.000000001
 43
0.00000001
 40
0.0
 40
0.0
 40
0.0
 40
0.0
 40
1.0
 40
1.0
 40
1.0
 40
1.0
 10
123.6894216560158
 20
169.1696929212472
 30
0.0
 10
123.6759598344146
 20
169.156231099646
 30
0.0
 10
123.6692175531291
 20
169.142953465447
 30
0.0
 10
123.6692175531291
 20
169.1298786325376
 30
0.0
  0
LINE
  5
CA
330
1F
100
AcDbEntity
  8
0
  6
SLD-実線
 62
     7
370
    18
100
AcDbLine
 10
123.6692175531
 20
169.1298786325
 30
0.0
 11
123.6692175531
 21
174.5204346003
 31
0.0
  0
SPLINE
  5
CB
330
1F
100
AcDbEntity
  8
0
  6
SLD-実線
 62
     7
370
    18
100
AcDbSpline
210
0.0
220
0.0
230
1.0
 70
     8
 71
     3
 72
    14
 73
    10
 74
     0
 42
0.000000001
 43
0.00000001
 40
0.0
 40
0.0
 40
0.0
 40
0.0
 40
0.25
 40
0.25
 40
0.5
 40
0.5
 40
0.75
 40
0.75
 40
1.0
 40
1.0
 40
1.0
 40
1.0
 10
123.6692175531291
 20
174.5204346003041
 30
0.0
 10
123.6692175531291
 20
174.5770223219566
 30
0.0
 10
123.6798015357022
 20
174.6335185910238
 30
0.0
 10
123.720913047881
 20
174.74625081061
 30
0.0
 10
123.752031858862
 20
174.8032111540722
 30
0.0
 10
123.8337752208585
 20
174.9122198237461
 30
0.0
 10
123.88397071714
 20
174.9642350280405
 30
0.0
 10
124.0056612026218
 20
175.0618088133755
 30
0.0
 10
124.0774396065911
 20
175.1072594414689
 30
0.0
 10
124.1589638405887
 20
175.1454067606259
 30
0.0
  0
LINE
  5
CC
330
1F
100
AcDbEntity
  8
0
  6
SLD-実線
 62
     7
370
    18
100
AcDbLine
 10
131.6692175531
 20
175.1454067606
 30
0.0
 11
132.1794712657
 21
175.1454067606
 31
0.0
  0
LINE
  5
CD
330
1F
100
AcDbEntity
  8
0
  6
SLD-実線
 62
     7
370
    18
100
AcDbLine
 10
131.6692175531
 20
175.1454067606
 30
0.0
 11
129.7692175531
 21
175.1454067606
 31
0.0
  0
LINE
  5
CE
330
1F
100
AcDbEntity
  8
0
  6
SLD-実線
 62
     7
370
    18
100
AcDbLine
 10
131.6692175531
 20
170.1494888184
 30
0.0
 11
131.6692175531
 21
175.1454067606
 31
0.0
  0
LINE
  5
CF
330
1F
100
AcDbEntity
  8
0
  6
SLD-実線
 62
     7
370
    18
100
AcDbLine
 10
129.7692175531
 20
170.1494888184
 30
0.0
 11
131.6692175531
 21
170.1494888184
 31
0.0
  0
LINE
  5
D0
330
1F
100
AcDbEntity
  8
0
  6
SLD-実線
 62
     7
370
    18
100
AcDbLine
 10
132.6490134502
 20
169.1696929212
 30
0.0
 11
131.6692175531
 21
170.1494888184
 31
0.0
  0
LINE
  5
D1
330
1F
100
AcDbEntity
  8
0
  6
SLD-実線
 62
     7
370
    18
100
AcDbLine
 10
132.6490134502
 20
169.1696929212
 30
0.0
 11
129.7692175531
 21
169.1696929212
 31
0.0
  0
SPLINE
  5
D2
330
1F
100
AcDbEntity
  8
0
  6
SLD-実線
 62
     7
370
    18
100
AcDbSpline
210
0.0
220
0.0
230
1.0
 70
     8
 71
     3
 72
    14
 73
    10
 74
     0
 42
0.000000001
 43
0.00000001
 40
0.0
 40
0.0
 40
0.0
 40
0.0
 40
0.25
 40
0.25
 40
0.5
 40
0.5
 40
0.75
 40
0.75
 40
1.0
 40
1.0
 40
1.0
 40
1.0
 10
132.1794712656694
 20
175.1454067606259
 30
0.0
 10
132.2608871404688
 20
175.107310145569
 30
0.0
 10
132.3309127338046
 20
175.0630739365431
 30
0.0
 10
132.4529221714874
 20
174.9656925489174
 30
0.0
 10
132.5043770688439
 20
174.9125251280102
 30
0.0
 10
132.5861098189997
 20
174.803673794897
 30
0.0
 10
132.6172928818451
 20
174.7467882292507
 30
0.0
 10
132.6586632164649
 20
174.6335278687417
 30
0.0
 10
132.6692175531291
 20
174.5769372618286
 30
0.0
 10
132.6692175531291
 20
174.5204346003041
 30
0.0
  0
LINE
  5
D3
330
1F
100
AcDbEntity
  8
0
  6
SLD-実線
 62
     7
370
    18
100
AcDbLine
 10
132.6692175531
 20
174.5204346003
 30
0.0
 11
132.6692175531
 21
169.1298786325
 31
0.0
  0
SPLINE
  5
D4
330
1F
100
AcDbEntity
  8
0
  6
SLD-実線
 62
     7
370
    18
100
AcDbSpline
210
0.0
220
0.0
230
1.0
 70
     8
 71
     3
 72
     8
 73
     4
 74
     0
 42
0.000000001
 43
0.00000001
 40
0.0
 40
0.0
 40
0.0
 40
0.0
 40
1.0
 40
1.0
 40
1.0
 40
1.0
 10
132.6692175531291
 20
169.1298786325376
 30
0.0
 10
132.6692175531291
 20
169.142953465447
 30
0.0
 10
132.6624752718435
 20
169.156231099646
 30
0.0
 10
132.6490134502423
 20
169.1696929212472
 30
0.0
  0
LINE
  5
D5
330
1F
100
AcDbEntity
  8
0
  6
SLD-実線
 62
     7
370
    18
100
AcDbLine
 10
132.6692175531
 20
168.7454067606
 30
0.0
 11
129.6692175531
 21
168.7454067606
 31
0.0
  0
SPLINE
  5
D6
330
1F
100
AcDbEntity
  8
0
  6
SLD-実線
 62
     7
370
    18
100
AcDbSpline
210
0.0
220
0.0
230
1.0
 70
     8
 71
     3
 72
     9
 73
     5
 74
     0
 42
0.000000001
 43
0.00000001
 40
0.0
 40
0.0
 40
0.0
 40
0.0
 40
0.6559500988627921
 40
1.0
 40
1.0
 40
1.0
 40
1.0
 10
129.6692175531291
 20
168.7454067606259
 30
0.0
 10
129.7073472779102
 20
168.7758545644735
 30
0.0
 10
129.765476280173
 20
168.7831046626891
 30
0.0
 10
129.768259862057
 20
168.7949658534603
 30
0.0
 10
129.7692175531291
 20
168.7990466949725
 30
0.0
  0
LINE
  5
D7
330
1F
100
AcDbEntity
  8
0
  6
SLD-実線
 62
     7
370
    18
100
AcDbLine
 10
132.6692175531
 20
168.7454067606
 30
0.0
 11
132.6692175531
 21
169.1298786325
 31
0.0
  0
SPLINE
  5
D8
330
1F
100
AcDbEntity
  8
0
  6
SLD-実線
 62
     7
370
    18
100
AcDbSpline
210
0.0
220
0.0
230
1.0
 70
     8
 71
     3
 72
     9
 73
     5
 74
     0
 42
0.000000001
 43
0.00000001
 40
0.0
 40
0.0
 40
0.0
 40
0.0
 40
0.962132615908244
 40
1.0
 40
1.0
 40
1.0
 40
1.0
 10
126.5692175531291
 20
168.7990466949725
 30
0.0
 10
126.5718994633861
 20
168.7863107672264
 30
0.0
 10
126.574686927622
 20
168.7730735818992
 30
0.0
 10
126.6657685310677
 20
168.76745769186
 30
0.0
 10
126.6692175531291
 20
168.7672450327948
 30
0.0
  0
LINE
  5
D9
330
1F
100
AcDbEntity
  8
0
  6
SLD-実線
 62
     7
370
    18
100
AcDbLine
 10
126.6692175531
 20
168.7672450328
 30
0.0
 11
123.6692175531
 21
168.7454067606
 31
0.0
  0
LINE
  5
DA
330
1F
100
AcDbEntity
  8
0
  6
SLD-実線
 62
     7
370
    18
100
AcDbLine
 10
123.6692175531
 20
169.1298786325
 30
0.0
 11
123.6692175531
 21
168.7454067606
 31
0.0
  0
LINE
  5
DB
330
1F
100
AcDbEntity
  8
0
  6
SLD-実線
 62
     7
370
    18
100
AcDbLine
 10
123.6692175531
 20
168.7454067606
 30
0.0
 11
123.6692175531
 21
167.0454067606
 31
0.0
  0
LINE
  5
DC
330
1F
100
AcDbEntity
  8
0
  6
SLD-実線
 62
     7
370
    18
100
AcDbLine
 10
132.6692175531
 20
167.0454067606
 30
0.0
 11
132.6692175531
 21
168.7454067606
 31
0.0
  0
ARC
  5
DD
330
1F
100
AcDbEntity
  8
0
  6
SLD-実線
 62
     7
370
    18
100
AcDbCircle
 10
123.9692175531
 20
167.0454067606
 30
0.0
 40
0.3000000000000114
100
AcDbArc
 50
180.0
 51
270.0
  0
ARC
  5
DE
330
1F
100
AcDbEntity
  8
0
  6
SLD-実線
 62
     7
370
    18
100
AcDbCircle
 10
132.3692175531
 20
167.0454067606
 30
0.0
 40
0.3000000000000114
100
AcDbArc
 50
270.0
 51
0.0
  0
LINE
  5
DF
330
1F
100
AcDbEntity
  8
0
  6
SLD-実線
 62
     7
370
    18
100
AcDbLine
 10
132.3692175531
 20
166.7454067606
 30
0.0
 11
129.6692175531
 21
166.7454067606
 31
0.0
  0
LINE
  5
E0
330
1F
100
AcDbEntity
  8
0
  6
SLD-実線
 62
     7
370
    18
100
AcDbLine
 10
126.6692175531
 20
166.7454067606
 30
0.0
 11
123.9692175531
 21
166.7454067606
 31
0.0
  0
LINE
  5
E1
330
1F
100
AcDbEntity
  8
0
  6
SLD-実線
 62
     7
370
    18
100
AcDbLine
 10
141.4692175531
 20
140.7454067606
 30
0.0
 11
119.8692175531
 21
141.2454067606
 31
0.0
  0
LINE
  5
E2
330
1F
100
AcDbEntity
  8
0
  6
SLD-実線
 62
     7
370
    18
100
AcDbLine
 10
119.8692175531
 20
141.2454067606
 30
0.0
 11
141.4692175531
 21
141.2454067606
 31
0.0
  0
LINE
  5
E3
330
1F
100
AcDbEntity
  8
0
  6
SLD-実線
 62
     7
370
    18
100
AcDbLine
 10
141.4692175531
 20
141.2454067606
 30
0.0
 11
141.4692175531
 21
140.7454067606
 31
0.0
  0
LINE
  5
E4
330
1F
100
AcDbEntity
  8
0
  6
SLD-実線
 62
     7
370
    18
100
AcDbLine
 10
141.4692175531
 20
141.2454067606
 30
0.0
 11
141.4692175531
 21
147.5454067606
 31
0.0
  0
LINE
  5
E5
330
1F
100
AcDbEntity
  8
0
  6
SLD-実線
 62
     7
370
    18
100
AcDbLine
 10
124.8692175531
 20
146.3454067606
 30
0.0
 11
131.4692175531
 21
146.3454067606
 31
0.0
  0
LINE
  5
E6
330
1F
100
AcDbEntity
  8
0
  6
SLD-実線
 62
     7
370
    18
100
AcDbLine
 10
131.4692175531
 20
146.3454067606
 30
0.0
 11
131.4692175531
 21
147.534166045
 31
0.0
  0
LINE
  5
E7
330
1F
100
AcDbEntity
  8
0
  6
SLD-実線
 62
     7
370
    18
100
AcDbLine
 10
119.8692175531
 20
141.2454067606
 30
0.0
 11
119.8692175531
 21
140.0454067606
 31
0.0
  0
LINE
  5
E8
330
1F
100
AcDbEntity
  8
0
  6
SLD-実線
 62
     7
370
    18
100
AcDbLine
 10
114.8692175531
 20
140.0454067606
 30
0.0
 11
119.8692175531
 21
140.0454067606
 31
0.0
  0
LINE
  5
E9
330
1F
100
AcDbEntity
  8
0
  6
SLD-実線
 62
     7
370
    18
100
AcDbLine
 10
114.8692175531
 20
140.0454067606
 30
0.0
 11
114.8692175531
 21
147.534166045
 31
0.0
  0
LINE
  5
EA
330
1F
100
AcDbEntity
  8
0
  6
SLD-実線
 62
     7
370
    18
100
AcDbLine
 10
124.8692175531
 20
147.1454067606
 30
0.0
 11
124.8692175531
 21
146.3454067606
 31
0.0
  0
LINE
  5
EB
330
1F
100
AcDbEntity
  8
0
  6
SLD-実線
 62
     7
370
    18
100
AcDbLine
 10
119.8692175531
 20
139.5454067606
 30
0.0
 11
114.8692175531
 21
139.5454067606
 31
0.0
  0
LINE
  5
EC
330
1F
100
AcDbEntity
  8
0
  6
SLD-実線
 62
     7
370
    18
100
AcDbLine
 10
114.8692175531
 20
139.5454067606
 30
0.0
 11
114.8692175531
 21
140.0454067606
 31
0.0
  0
LINE
  5
ED
330
1F
100
AcDbEntity
  8
0
  6
SLD-実線
 62
     7
370
    18
100
AcDbLine
 10
119.8692175531
 20
140.0454067606
 30
0.0
 11
119.8692175531
 21
139.5454067606
 31
0.0
  0
LINE
  5
EE
330
1F
100
AcDbEntity
  8
0
  6
SLD-実線
 62
     7
370
    18
100
AcDbLine
 10
131.4692175531
 20
146.8919220201
 30
0.0
 11
124.8692175531
 21
147.1454067606
 31
0.0
  0
LINE
  5
EF
330
1F
100
AcDbEntity
  8
0
  6
SLD-実線
 62
     7
370
    18
100
AcDbLine
 10
82.2747152269
 20
153.3919220201
 30
0.0
 11
82.2747152269
 21
156.8919220201
 31
0.0
  0
SPLINE
  5
F0
330
1F
100
AcDbEntity
  8
0
  6
SLD-実線
 62
     7
370
    18
100
AcDbSpline
210
0.0
220
0.0
230
1.0
 70
     8
 71
     3
 72
    10
 73
     6
 74
     0
 42
0.000000001
 43
0.00000001
 40
0.0
 40
0.0
 40
0.0
 40
0.0
 40
0.5
 40
0.5
 40
1.0
 40
1.0
 40
1.0
 40
1.0
 10
82.77471522692615
 20
154.955430346966
 30
0.0
 10
82.63020985258214
 20
155.253919364711
 30
0.0
 10
82.50494360303628
 20
155.5638495696672
 30
0.0
 10
82.32489378689324
 20
156.2189134738903
 30
0.0
 10
82.27471522692616
 20
156.5519510973186
 30
0.0
 10
82.27471522692616
 20
156.8919220200697
 30
0.0
  0
LINE
  5
F1
330
1F
100
AcDbEntity
  8
0
  6
SLD-実線
 62
     7
370
    18
100
AcDbLine
 10
82.7747152269
 20
154.955430347
 30
0.0
 11
82.7747152269
 21
152.8919220201
 31
0.0
  0
LINE
  5
F2
330
1F
100
AcDbEntity
  8
0
  6
SLD-実線
 62
     7
370
    18
100
AcDbLine
 10
82.2747152269
 20
156.8919220201
 30
0.0
 11
82.2747152269
 21
160.3919220201
 31
0.0
  0
LINE
  5
F3
330
1F
100
AcDbEntity
  8
0
  6
SLD-実線
 62
     7
370
    18
100
AcDbLine
 10
82.7747152269
 20
160.8919220201
 30
0.0
 11
82.7747152269
 21
158.8284136932
 31
0.0
  0
SPLINE
  5
F4
330
1F
100
AcDbEntity
  8
0
  6
SLD-実線
 62
     7
370
    18
100
AcDbSpline
210
0.0
220
0.0
230
1.0
 70
     8
 71
     3
 72
    12
 73
     8
 74
     0
 42
0.000000001
 43
0.00000001
 40
0.0
 40
0.0
 40
0.0
 40
0.0
 40
0.5
 40
0.5
 40
0.75
 40
0.75
 40
1.0
 40
1.0
 40
1.0
 40
1.0
 10
82.27471522692616
 20
156.8919220200697
 30
0.0
 10
82.27471522692618
 20
157.2312482645476
 30
0.0
 10
82.3249452518848
 20
157.563781812713
 30
0.0
 10
82.45808400072337
 20
158.0501625440964
 30
0.0
 10
82.51235694219807
 20
158.2113406681302
 30
0.0
 10
82.63431649008417
 20
158.5251464038211
 30
0.0
 10
82.70200157623655
 20
158.6782170221533
 30
0.0
 10
82.77471522692615
 20
158.8284136931734
 30
0.0
  0
LINE
  5
F5
330
1F
100
AcDbEntity
  8
0
  6
SLD-実線
 62
     7
370
    18
100
AcDbLine
 10
85.2747152269
 20
158.8284136932
 30
0.0
 11
82.7747152269
 21
158.8284136932
 31
0.0
  0
LINE
  5
F6
330
1F
100
AcDbEntity
  8
0
  6
SLD-実線
 62
     7
370
    18
100
AcDbLine
 10
82.7747152269
 20
154.955430347
 30
0.0
 11
85.2747152269
 21
154.955430347
 31
0.0
  0
LINE
  5
F7
330
1F
100
AcDbEntity
  8
0
  6
SLD-実線
 62
     7
370
    18
100
AcDbLine
 10
146.2747152269
 20
146.8919220201
 30
0.0
 11
146.2747152269
 21
166.8919220201
 31
0.0
  0
LINE
  5
F8
330
1F
100
AcDbEntity
  8
0
  6
SLD-実線
 62
     7
370
    18
100
AcDbLine
 10
90.2747152269
 20
152.0144226608
 30
0.0
 11
90.2747152269
 21
161.7694213794
 31
0.0
  0
SPLINE
  5
F9
330
1F
100
AcDbEntity
  8
0
  6
SLD-実線
 62
     7
370
    18
100
AcDbSpline
210
0.0
220
0.0
230
1.0
 70
     8
 71
     3
 72
     8
 73
     4
 74
     0
 42
0.000000001
 43
0.00000001
 40
0.0
 40
0.0
 40
0.0
 40
0.0
 40
0.0004385835959355
 40
0.0004385835959355
 40
0.0004385835959355
 40
0.0004385835959355
 10
90.27471522692593
 20
161.7694213793727
 30
0.0
 10
90.33985489941004
 20
161.9003017226221
 30
0.0
 10
90.40657835863853
 20
162.0304035898152
 30
0.0
 10
90.47471522692591
 20
162.1597488964962
 30
0.0
  0
LINE
  5
FA
330
1F
100
AcDbEntity
  8
0
  6
SLD-実線
 62
     7
370
    18
100
AcDbLine
 10
90.4747152269
 20
162.1597488965
 30
0.0
 11
90.4747152269
 21
151.6240951436
 31
0.0
  0
SPLINE
  5
FB
330
1F
100
AcDbEntity
  8
0
  6
SLD-実線
 62
     7
370
    18
100
AcDbSpline
210
0.0
220
0.0
230
1.0
 70
     8
 71
     3
 72
     8
 73
     4
 74
     0
 42
0.000000001
 43
0.00000001
 40
0.0
 40
0.0
 40
0.0
 40
0.0
 40
0.0004385835959355
 40
0.0004385835959355
 40
0.0004385835959355
 40
0.0004385835959355
 10
90.47471522692591
 20
151.6240951436434
 30
0.0
 10
90.40657835863853
 20
151.7534404503244
 30
0.0
 10
90.33985489941004
 20
151.8835423175175
 30
0.0
 10
90.27471522692593
 20
152.0144226607669
 30
0.0
  0
LINE
  5
FC
330
1F
100
AcDbEntity
  8
0
  6
SLD-実線
 62
     7
370
    18
100
AcDbLine
 10
86.2747152269
 20
166.8919220201
 30
0.0
 11
86.2747152269
 21
162.1597488965
 31
0.0
  0
LINE
  5
FD
330
1F
100
AcDbEntity
  8
0
  6
SLD-実線
 62
     7
370
    18
100
AcDbLine
 10
86.2747152269
 20
151.6240951436
 30
0.0
 11
86.2747152269
 21
146.8919220201
 31
0.0
  0
LINE
  5
FE
330
1F
100
AcDbEntity
  8
0
  6
SLD-実線
 62
     7
370
    18
100
AcDbLine
 10
90.4747152269
 20
151.6240951436
 30
0.0
 11
86.2747152269
 21
151.6240951436
 31
0.0
  0
LINE
  5
FF
330
1F
100
AcDbEntity
  8
0
  6
SLD-実線
 62
     7
370
    18
100
AcDbLine
 10
86.2747152269
 20
162.1597488965
 30
0.0
 11
90.4747152269
 21
162.1597488965
 31
0.0
  0
LINE
  5
100
330
1F
100
AcDbEntity
  8
0
  6
SLD-実線
 62
     7
370
    18
100
AcDbLine
 10
85.2747152269
 20
147.8919220201
 30
0.0
 11
85.2747152269
 21
153.9338821285
 31
0.0
  0
SPLINE
  5
101
330
1F
100
AcDbEntity
  8
0
  6
SLD-実線
 62
     7
370
    18
100
AcDbSpline
210
0.0
220
0.0
230
1.0
 70
     8
 71
     3
 72
    10
 73
     6
 74
     0
 42
0.000000001
 43
0.00000001
 40
0.0
 40
0.0
 40
0.0
 40
0.0
 40
0.5000000000000002
 40
0.5000000000000002
 40
1.0
 40
1.0
 40
1.0
 40
1.0
 10
85.27471522692595
 20
153.9338821285199
 30
0.0
 10
85.40669818135355
 20
153.5323166887697
 30
0.0
 10
85.5606445466274
 20
153.1372128461673
 30
0.0
 10
85.89710091274343
 20
152.3686860173034
 30
0.0
 10
86.08031110757993
 20
151.9931355922123
 30
0.0
 10
86.27471522692592
 20
151.6240951436434
 30
0.0
  0
LINE
  5
102
330
1F
100
AcDbEntity
  8
0
  6
SLD-実線
 62
     7
370
    18
100
AcDbLine
 10
85.2747152269
 20
159.8499619116
 30
0.0
 11
85.2747152269
 21
165.8919220201
 31
0.0
  0
LINE
  5
103
330
1F
100
AcDbEntity
  8
0
  6
SLD-実線
 62
     7
370
    18
100
AcDbLine
 10
85.2747152269
 20
159.8499619116
 30
0.0
 11
85.2747152269
 21
153.9338821285
 31
0.0
  0
SPLINE
  5
104
330
1F
100
AcDbEntity
  8
0
  6
SLD-実線
 62
     7
370
    18
100
AcDbSpline
210
0.0
220
0.0
230
1.0
 70
     8
 71
     3
 72
     8
 73
     4
 74
     0
 42
0.000000001
 43
0.00000001
 40
0.0
 40
0.0
 40
0.0
 40
0.0
 40
1.0
 40
1.0
 40
1.0
 40
1.0
 10
86.27471522692592
 20
162.1597488964962
 30
0.0
 10
85.88356818739688
 20
161.4172282163283
 30
0.0
 10
85.53859122472221
 20
160.6528192317494
 30
0.0
 10
85.27471522692595
 20
159.8499619116197
 30
0.0
  0
LINE
  5
105
330
1F
100
AcDbEntity
  8
0
  6
SLD-実線
 62
     7
370
    18
100
AcDbLine
 10
146.2747152269
 20
156.8919220201
 30
0.0
 11
146.2747152269
 21
166.8919220201
 31
0.0
  0
LINE
  5
106
330
1F
100
AcDbEntity
  8
0
  6
SLD-実線
 62
     7
370
    18
100
AcDbLine
 10
146.2747152269
 20
146.8919220201
 30
0.0
 11
146.2747152269
 21
156.8919220201
 31
0.0
  0
LINE
  5
107
330
1F
100
AcDbEntity
  8
0
  6
SLD-実線
 62
     7
370
    18
100
AcDbLine
 10
158.2747152269
 20
148.3919220201
 30
0.0
 11
158.2747152269
 21
165.3919220201
 31
0.0
  0
SPLINE
  5
108
330
1F
100
AcDbEntity
  8
0
  6
SLD-実線
 62
     7
370
    18
100
AcDbSpline
210
0.0
220
0.0
230
1.0
 70
    24
 71
     3
 72
     8
 73
     4
 74
     0
 42
0.000000001
 43
0.00000001
 40
0.0
 40
0.0
 40
0.0
 40
0.0
 40
1.0
 40
1.0
 40
1.0
 40
1.0
 10
158.2747152269258
 20
165.3919220200702
 30
0.0
 10
158.4520031795789
 20
165.3919220200702
 30
0.0
 10
158.6195879115773
 20
165.3919220200702
 30
0.0
 10
158.7747152269258
 20
165.3919220200702
 30
0.0
  0
LINE
  5
109
330
1F
100
AcDbEntity
  8
0
  6
SLD-実線
 62
     7
370
    18
100
AcDbLine
 10
158.7747152269
 20
165.3919220201
 30
0.0
 11
158.7747152269
 21
148.3919220201
 31
0.0
  0
SPLINE
  5
10A
330
1F
100
AcDbEntity
  8
0
  6
SLD-実線
 62
     7
370
    18
100
AcDbSpline
210
0.0
220
0.0
230
1.0
 70
    24
 71
     3
 72
     8
 73
     4
 74
     0
 42
0.000000001
 43
0.00000001
 40
0.0
 40
0.0
 40
0.0
 40
0.0
 40
1.0
 40
1.0
 40
1.0
 40
1.0
 10
158.7747152269258
 20
148.3919220200702
 30
0.0
 10
158.6195879115773
 20
148.3919220200702
 30
0.0
 10
158.4520031795789
 20
148.3919220200702
 30
0.0
 10
158.2747152269258
 20
148.3919220200702
 30
0.0
  0
LINE
  5
10B
330
1F
100
AcDbEntity
  8
0
  6
SLD-実線
 62
     7
370
    18
100
AcDbLine
 10
149.2747152269
 20
165.3919220201
 30
0.0
 11
149.2747152269
 21
166.8919220201
 31
0.0
  0
LINE
  5
10C
330
1F
100
AcDbEntity
  8
0
  6
SLD-実線
 62
     7
370
    18
100
AcDbLine
 10
158.2747152269
 20
165.3919220201
 30
0.0
 11
149.2747152269
 21
165.3919220201
 31
0.0
  0
LINE
  5
10D
330
1F
100
AcDbEntity
  8
0
  6
SLD-実線
 62
     7
370
    18
100
AcDbLine
 10
149.2747152269
 20
148.3919220201
 30
0.0
 11
158.2747152269
 21
148.3919220201
 31
0.0
  0
LINE
  5
10E
330
1F
100
AcDbEntity
  8
0
  6
SLD-実線
 62
     7
370
    18
100
AcDbLine
 10
149.2747152269
 20
146.8919220201
 30
0.0
 11
149.2747152269
 21
148.3919220201
 31
0.0
  0
LINE
  5
10F
330
1F
100
AcDbEntity
  8
0
  6
SLD-実線
 62
     7
370
    18
100
AcDbLine
 10
174.2747152269
 20
150.8919220201
 30
0.0
 11
174.2747152269
 21
162.8919220201
 31
0.0
  0
LINE
  5
110
330
1F
100
AcDbEntity
  8
0
  6
SLD-実線
 62
     7
370
    18
100
AcDbLine
 10
174.7747152269
 20
162.3919220201
 30
0.0
 11
174.7747152269
 21
151.3919220201
 31
0.0
  0
LINE
  5
111
330
1F
100
AcDbEntity
  8
0
  6
SLD-実線
 62
     7
370
    18
100
AcDbLine
 10
149.825553779
 20
168.6919220201
 30
0.0
 11
149.825553779
 21
166.1919220201
 31
0.0
  0
LINE
  5
112
330
1F
100
AcDbEntity
  8
0
  6
SLD-実線
 62
     7
370
    18
100
AcDbLine
 10
149.825553779
 20
168.6919220201
 30
0.0
 11
152.5779313233
 21
168.6919220201
 31
0.0
  0
LINE
  5
113
330
1F
100
AcDbEntity
  8
0
  6
SLD-実線
 62
     7
370
    18
100
AcDbLine
 10
152.5779313233
 20
166.1919220201
 30
0.0
 11
152.5779313233
 21
168.6919220201
 31
0.0
  0
LINE
  5
114
330
1F
100
AcDbEntity
  8
0
  6
SLD-実線
 62
     7
370
    18
100
AcDbLine
 10
149.825553779
 20
166.1919220201
 30
0.0
 11
149.8948382838
 21
166.1919220201
 31
0.0
  0
LINE
  5
115
330
1F
100
AcDbEntity
  8
0
  6
SLD-実線
 62
     7
370
    18
100
AcDbLine
 10
152.5086468184
 20
166.1919220201
 30
0.0
 11
152.5779313233
 21
166.1919220201
 31
0.0
  0
LINE
  5
116
330
1F
100
AcDbEntity
  8
0
  6
SLD-実線
 62
     7
370
    18
100
AcDbLine
 10
152.5779313233
 20
168.6919220201
 30
0.0
 11
156.527092771
 21
168.6919220201
 31
0.0
  0
LINE
  5
117
330
1F
100
AcDbEntity
  8
0
  6
SLD-実線
 62
     7
370
    18
100
AcDbLine
 10
156.527092771
 20
166.1919220201
 30
0.0
 11
156.527092771
 21
168.6919220201
 31
0.0
  0
LINE
  5
118
330
1F
100
AcDbEntity
  8
0
  6
SLD-実線
 62
     7
370
    18
100
AcDbLine
 10
152.5779313233
 20
166.1919220201
 30
0.0
 11
152.6773419931
 21
166.1919220201
 31
0.0
  0
LINE
  5
119
330
1F
100
AcDbEntity
  8
0
  6
SLD-実線
 62
     7
370
    18
100
AcDbLine
 10
156.4276821013
 20
166.1919220201
 30
0.0
 11
156.527092771
 21
166.1919220201
 31
0.0
  0
LINE
  5
11A
330
1F
100
AcDbEntity
  8
0
  6
SLD-実線
 62
     7
370
    18
100
AcDbLine
 10
156.527092771
 20
168.6919220201
 30
0.0
 11
157.7238766749
 21
168.6919220201
 31
0.0
  0
LINE
  5
11B
330
1F
100
AcDbEntity
  8
0
  6
SLD-実線
 62
     7
370
    18
100
AcDbLine
 10
157.7747152269
 20
166.1919220201
 30
0.0
 11
157.7238766749
 21
168.6919220201
 31
0.0
  0
LINE
  5
11C
330
1F
100
AcDbEntity
  8
0
  6
SLD-実線
 62
     7
370
    18
100
AcDbLine
 10
156.527092771
 20
166.1919220201
 30
0.0
 11
156.5572189362
 21
166.1919220201
 31
0.0
  0
LINE
  5
11D
330
1F
100
AcDbEntity
  8
0
  6
SLD-実線
 62
     7
370
    18
100
AcDbLine
 10
154.9640141658
 20
170.6919220201
 30
0.0
 11
155.5247152269
 21
170.6919220201
 31
0.0
  0
LINE
  5
11E
330
1F
100
AcDbEntity
  8
0
  6
SLD-実線
 62
     7
370
    18
100
AcDbLine
 10
152.0247152269
 20
170.6919220201
 30
0.0
 11
154.9640141658
 21
170.6919220201
 31
0.0
  0
LINE
  5
11F
330
1F
100
AcDbEntity
  8
0
  6
SLD-実線
 62
     7
370
    18
100
AcDbLine
 10
152.0247152269
 20
173.1919220201
 30
0.0
 11
154.9640141658
 21
173.1919220201
 31
0.0
  0
LINE
  5
120
330
1F
100
AcDbEntity
  8
0
  6
SLD-実線
 62
     7
370
    18
100
AcDbLine
 10
154.9640141658
 20
173.1919220201
 30
0.0
 11
155.5247152269
 21
173.1919220201
 31
0.0
  0
LINE
  5
121
330
1F
100
AcDbEntity
  8
0
  6
SLD-実線
 62
     7
370
    18
100
AcDbLine
 10
152.6743400662
 20
175.6919220201
 30
0.0
 11
155.2747152269
 21
175.6919220201
 31
0.0
  0
LINE
  5
122
330
1F
100
AcDbEntity
  8
0
  6
SLD-実線
 62
     7
370
    18
100
AcDbLine
 10
152.2747152269
 20
175.6919220201
 30
0.0
 11
152.6743400662
 21
175.6919220201
 31
0.0
  0
LINE
  5
123
330
1F
100
AcDbEntity
  8
0
  6
SLD-実線
 62
     7
370
    18
100
AcDbLine
 10
175.5747152269
 20
160.3993249053
 30
0.0
 11
178.0747152269
 21
160.3993249054
 31
0.0
  0
LINE
  5
124
330
1F
100
AcDbEntity
  8
0
  6
SLD-実線
 62
     7
370
    18
100
AcDbLine
 10
178.0747152269
 20
160.3993249054
 30
0.0
 11
178.0747152269
 21
156.8919220201
 31
0.0
  0
LINE
  5
125
330
1F
100
AcDbEntity
  8
0
  6
SLD-実線
 62
     7
370
    18
100
AcDbLine
 10
178.0747152269
 20
156.8919220201
 30
0.0
 11
175.5747152269
 21
156.8919220201
 31
0.0
  0
LINE
  5
126
330
1F
100
AcDbEntity
  8
0
  6
SLD-実線
 62
     7
370
    18
100
AcDbLine
 10
175.5747152269
 20
160.3993249053
 30
0.0
 11
175.5747152269
 21
160.311034448
 31
0.0
  0
LINE
  5
127
330
1F
100
AcDbEntity
  8
0
  6
SLD-実線
 62
     7
370
    18
100
AcDbLine
 10
175.5747152269
 20
156.9802124774
 30
0.0
 11
175.5747152269
 21
156.8919220201
 31
0.0
  0
LINE
  5
128
330
1F
100
AcDbEntity
  8
0
  6
SLD-実線
 62
     7
370
    18
100
AcDbLine
 10
178.0747152269
 20
156.8919220201
 30
0.0
 11
178.0747152269
 21
153.3845191347
 31
0.0
  0
LINE
  5
129
330
1F
100
AcDbEntity
  8
0
  6
SLD-実線
 62
     7
370
    18
100
AcDbLine
 10
175.5747152269
 20
153.3845191347
 30
0.0
 11
178.0747152269
 21
153.3845191347
 31
0.0
  0
LINE
  5
12A
330
1F
100
AcDbEntity
  8
0
  6
SLD-実線
 62
     7
370
    18
100
AcDbLine
 10
175.5747152269
 20
156.8919220201
 30
0.0
 11
175.5747152269
 21
156.8036315627
 31
0.0
  0
LINE
  5
12B
330
1F
100
AcDbEntity
  8
0
  6
SLD-実線
 62
     7
370
    18
100
AcDbLine
 10
175.5747152269
 20
153.4728095921
 30
0.0
 11
175.5747152269
 21
153.3845191347
 31
0.0
  0
LINE
  5
12C
330
1F
100
AcDbEntity
  8
0
  6
SLD-実線
 62
     7
370
    18
100
AcDbLine
 10
180.5747152269
 20
159.2419220201
 30
0.0
 11
180.5747152269
 21
158.927081719
 31
0.0
  0
LINE
  5
12D
330
1F
100
AcDbEntity
  8
0
  6
SLD-実線
 62
     7
370
    18
100
AcDbLine
 10
180.5747152269
 20
158.927081719
 30
0.0
 11
180.5747152269
 21
154.5419220201
 31
0.0
  0
LINE
  5
12E
330
1F
100
AcDbEntity
  8
0
  6
SLD-実線
 62
     7
370
    18
100
AcDbLine
 10
183.0747152269
 20
158.927081719
 30
0.0
 11
183.0747152269
 21
154.5419220201
 31
0.0
  0
LINE
  5
12F
330
1F
100
AcDbEntity
  8
0
  6
SLD-実線
 62
     7
370
    18
100
AcDbLine
 10
183.0747152269
 20
159.2419220201
 30
0.0
 11
183.0747152269
 21
158.927081719
 31
0.0
  0
LINE
  5
130
330
1F
100
AcDbEntity
  8
0
  6
SLD-実線
 62
     7
370
    18
100
AcDbLine
 10
185.5747152269
 20
158.8919220201
 30
0.0
 11
185.5747152269
 21
154.8919220201
 31
0.0
  0
LINE
  5
131
330
1F
100
AcDbEntity
  8
0
  6
SLD-実線
 62
     7
370
    18
100
AcDbLine
 10
157.7747152269
 20
166.1919220201
 30
0.0
 11
156.5572189362
 21
166.1919220201
 31
0.0
  0
LINE
  5
132
330
1F
100
AcDbEntity
  8
0
  6
SLD-実線
 62
     7
370
    18
100
AcDbLine
 10
156.4276821013
 20
166.1919220201
 30
0.0
 11
152.6773419931
 21
166.1919220201
 31
0.0
  0
LINE
  5
133
330
1F
100
AcDbEntity
  8
0
  6
SLD-実線
 62
     7
370
    18
100
AcDbLine
 10
152.5086468184
 20
166.1919220201
 30
0.0
 11
149.8948382838
 21
166.1919220201
 31
0.0
  0
LINE
  5
134
330
1F
100
AcDbEntity
  8
0
  6
SLD-実線
 62
     7
370
    18
100
AcDbLine
 10
149.825553779
 20
166.1919220201
 30
0.0
 11
149.7747152269
 21
166.1919220201
 31
0.0
  0
LINE
  5
135
330
1F
100
AcDbEntity
  8
0
  6
SLD-実線
 62
     7
370
    18
100
AcDbLine
 10
175.5747152269
 20
152.8919220201
 30
0.0
 11
175.5747152269
 21
153.3845191347
 31
0.0
  0
LINE
  5
136
330
1F
100
AcDbEntity
  8
0
  6
SLD-実線
 62
     7
370
    18
100
AcDbLine
 10
175.5747152269
 20
153.4728095921
 30
0.0
 11
175.5747152269
 21
156.8036315627
 31
0.0
  0
LINE
  5
137
330
1F
100
AcDbEntity
  8
0
  6
SLD-実線
 62
     7
370
    18
100
AcDbLine
 10
175.5747152269
 20
156.9802124774
 30
0.0
 11
175.5747152269
 21
160.311034448
 31
0.0
  0
LINE
  5
138
330
1F
100
AcDbEntity
  8
0
  6
SLD-実線
 62
     7
370
    18
100
AcDbLine
 10
175.5747152269
 20
160.3993249053
 30
0.0
 11
175.5747152269
 21
160.8919220201
 31
0.0
  0
SPLINE
  5
139
330
1F
100
AcDbEntity
  8
0
  6
SLD-実線
 62
     7
370
    18
100
AcDbSpline
210
0.0
220
0.0
230
1.0
 70
    24
 71
     3
 72
    22
 73
    18
 74
     0
 42
0.000000001
 43
0.00000001
 40
0.0
 40
0.0
 40
0.0
 40
0.0
 40
0.125
 40
0.125
 40
0.25
 40
0.25
 40
0.375
 40
0.375
 40
0.5
 40
0.5
 40
0.625
 40
0.625
 40
0.75
 40
0.75
 40
0.875
 40
0.875
 40
1.0
 40
1.0
 40
1.0
 40
1.0
 10
141.8692175531292
 20
145.1454067606259
 30
0.0
 10
141.8692175531292
 20
145.1454067606259
 30
0.0
 10
141.8692175531292
 20
145.1291934272926
 30
0.0
 10
141.8692175531292
 20
145.0336200939592
 30
0.0
 10
141.8692175531292
 20
144.9534067606259
 30
0.0
 10
141.8692175531292
 20
144.6974067606259
 30
0.0
 10
141.8692175531292
 20
144.5198012242937
 30
0.0
 10
141.8692175531292
 20
144.0768946498993
 30
0.0
 10
141.8692175531292
 20
143.8120734272926
 30
0.0
 10
141.8692175531291
 20
143.2787400939592
 30
0.0
 10
141.8692175531291
 20
143.0139188713526
 30
0.0
 10
141.8692175531292
 20
142.5710122969581
 30
0.0
 10
141.8692175531292
 20
142.3934067606259
 30
0.0
 10
141.8692175531292
 20
142.1374067606259
 30
0.0
 10
141.8692175531292
 20
142.0571934272926
 30
0.0
 10
141.8692175531292
 20
141.9616200939592
 30
0.0
 10
141.8692175531292
 20
141.9454067606259
 30
0.0
 10
141.8692175531292
 20
141.9454067606259
 30
0.0
  0
LINE
  5
13A
330
1F
100
AcDbEntity
  8
0
  6
SLD-実線
 62
     7
370
    18
100
AcDbLine
 10
141.8692175531
 20
141.9454067606
 30
0.0
 11
141.8692175531
 21
141.9454067606
 31
0.0
  0
LINE
  5
13B
330
1F
100
AcDbEntity
  8
0
  6
SLD-実線
 62
     7
370
    18
100
AcDbLine
 10
141.8692175531
 20
145.1454067606
 30
0.0
 11
141.4692175531
 21
145.1454067606
 31
0.0
  0
LINE
  5
13C
330
1F
100
AcDbEntity
  8
0
  6
SLD-実線
 62
     7
370
    18
100
AcDbLine
 10
146.8692175531
 20
143.9454067606
 30
0.0
 11
146.8692175531
 21
144.6954067606
 31
0.0
  0
LINE
  5
13D
330
1F
100
AcDbEntity
  8
0
  6
SLD-実線
 62
     7
370
    18
100
AcDbLine
 10
146.8692175531
 20
142.3954067606
 30
0.0
 11
146.8692175531
 21
143.1454067606
 31
0.0
  0
LINE
  5
13E
330
1F
100
AcDbEntity
  8
0
  6
SLD-実線
 62
     7
370
    18
100
AcDbLine
 10
146.8692175531
 20
143.1704067606
 30
0.0
 11
146.8692175531
 21
143.9204067606
 31
0.0
  0
LINE
  5
13F
330
1F
100
AcDbEntity
  8
0
  6
SLD-実線
 62
     7
370
    18
100
AcDbLine
 10
151.8692175531
 20
144.0704067606
 30
0.0
 11
151.8692175531
 21
144.5704067606
 31
0.0
  0
LINE
  5
140
330
1F
100
AcDbEntity
  8
0
  6
SLD-実線
 62
     7
370
    18
100
AcDbLine
 10
151.8692175531
 20
143.2954067606
 30
0.0
 11
151.8692175531
 21
143.7954067606
 31
0.0
  0
LINE
  5
141
330
1F
100
AcDbEntity
  8
0
  6
SLD-実線
 62
     7
370
    18
100
AcDbLine
 10
151.8692175531
 20
142.5204067606
 30
0.0
 11
151.8692175531
 21
143.0204067606
 31
0.0
  0
LINE
  5
142
330
1F
100
AcDbEntity
  8
0
  6
SLD-実線
 62
     7
370
    18
100
AcDbLine
 10
125.1692175531
 20
158.2593803636
 30
0.0
 11
125.1692175531
 21
162.9593803636
 31
0.0
  0
LINE
  5
143
330
1F
100
AcDbEntity
  8
0
  6
SLD-実線
 62
     7
370
    18
100
AcDbLine
 10
125.1692175531
 20
146.6919220201
 30
0.0
 11
125.1692175531
 21
158.2593803636
 31
0.0
  0
LINE
  5
144
330
1F
100
AcDbEntity
  8
0
  6
SLD-実線
 62
     7
370
    18
100
AcDbLine
 10
131.1692175531
 20
158.2593803636
 30
0.0
 11
131.1692175531
 21
162.9593803636
 31
0.0
  0
SPLINE
  5
145
330
1F
100
AcDbEntity
  8
0
  6
SLD-実線
 62
     7
370
    18
100
AcDbSpline
210
0.0
220
0.0
230
1.0
 70
    11
 71
     3
 72
    50
 73
    46
 74
     0
 42
0.000000001
 43
0.00000001
 40
0.0
 40
0.0
 40
0.0
 40
0.0
 40
0.0312500000000001
 40
0.0312500000000001
 40
0.0625000000000001
 40
0.0625000000000001
 40
0.1250000000000002
 40
0.1250000000000002
 40
0.1562500000000001
 40
0.1562500000000001
 40
0.1875
 40
0.1875
 40
0.2187499999999998
 40
0.2187499999999998
 40
0.2499999999999997
 40
0.2499999999999997
 40
0.3124999999999999
 40
0.3124999999999999
 40
0.3750000000000002
 40
0.3750000000000002
 40
0.4375000000000004
 40
0.4375000000000004
 40
0.5000000000000007
 40
0.5000000000000007
 40
0.5625000000000009
 40
0.5625000000000009
 40
0.5937500000000011
 40
0.5937500000000011
 40
0.6250000000000012
 40
0.6250000000000012
 40
0.6875000000000012
 40
0.6875000000000012
 40
0.7187500000000011
 40
0.7187500000000011
 40
0.7500000000000011
 40
0.7500000000000011
 40
0.812500000000001
 40
0.812500000000001
 40
0.8750000000000009
 40
0.8750000000000009
 40
0.9062500000000008
 40
0.9062500000000008
 40
0.9375000000000007
 40
0.9375000000000007
 40
1.0
 40
1.0
 40
1.0
 40
1.0
 10
128.1692175531291
 20
159.4940097917172
 30
0.0
 10
128.2714710634653
 20
159.4940097917172
 30
0.0
 10
128.3711601654731
 20
159.4820745813213
 30
0.0
 10
128.5660075991231
 20
159.4377125301071
 30
0.0
 10
128.6617878968907
 20
159.40482816243
 30
0.0
 10
128.9304426641806
 20
159.2861478923942
 30
0.0
 10
129.0909890153233
 20
159.1789737329856
 30
0.0
 10
129.2932180921813
 20
159.009228441199
 30
0.0
 10
129.355279827665
 20
158.9500360405819
 30
0.0
 10
129.4633349383208
 20
158.8339077862574
 30
0.0
 10
129.5097608330853
 20
158.7767241563113
 30
0.0
 10
129.5867858945353
 20
158.6659946299471
 30
0.0
 10
129.6173963653538
 20
158.6120083083591
 30
0.0
 10
129.6580432602959
 20
158.5151303531988
 30
0.0
 10
129.6687216644877
 20
158.4714938986466
 30
0.0
 10
129.6701592559958
 20
158.3564892488903
 30
0.0
 10
129.6287550042729
 20
158.3058072724091
 30
0.0
 10
129.4763913253984
 20
158.2554736748433
 30
0.0
 10
129.3658987705715
 20
158.2549826289751
 30
0.0
 10
129.0974372769492
 20
158.2801315485164
 30
0.0
 10
128.9377806878283
 20
158.3058025020727
 30
0.0
 10
128.5813898041878
 20
158.3511617403494
 30
0.0
 10
128.380105561737
 20
158.3697952257977
 30
0.0
 10
127.9728257171942
 20
158.3705709911801
 30
0.0
 10
127.7721999676655
 20
158.3527872920048
 30
0.0
 10
127.502105374333
 20
158.3188501340468
 30
0.0
 10
127.4160122373894
 20
158.3065051779811
 30
0.0
 10
127.2569099476938
 20
158.2846020087674
 30
0.0
 10
127.1832147396783
 20
158.2749392293303
 30
0.0
 10
126.9784420138848
 20
158.2551322546384
 30
0.0
 10
126.8689581749587
 20
158.2547137176411
 30
0.0
 10
126.7515016605863
 20
158.2912978975303
 30
0.0
 10
126.721524145742
 20
158.3093572355013
 30
0.0
 10
126.6804327323774
 20
158.3589560718505
 30
0.0
 10
126.6695833602524
 20
158.3909317014553
 30
0.0
 10
126.6685140178435
 20
158.5036930658265
 30
0.0
 10
126.7098845790893
 20
158.6046681026928
 30
0.0
 10
126.8630679744409
 20
158.8273943511755
 30
0.0
 10
126.9737191436847
 20
158.9487483464102
 30
0.0
 10
127.1771329996438
 20
159.1201799489873
 30
0.0
 10
127.2503778376617
 20
159.1749013129783
 30
0.0
 10
127.4085453708727
 20
159.2766811131059
 30
0.0
 10
127.4944331312934
 20
159.3241301959671
 30
0.0
 10
127.7636258081771
 20
159.4436488473289
 30
0.0
 10
127.9647105324566
 20
159.4940097917172
 30
0.0
 10
128.1692175531291
 20
159.4940097917172
 30
0.0
  0
SPLINE
  5
146
330
1F
100
AcDbEntity
  8
0
  6
SLD-実線
 62
     7
370
    18
100
AcDbSpline
210
0.0
220
0.0
230
1.0
 70
     8
 71
     3
 72
    11
 73
     7
 74
     0
 42
0.000000001
 43
0.00000001
 40
0.0
 40
0.0
 40
0.0
 40
0.0
 40
0.3039315469499459
 40
0.6060205518226822
 40
0.9507563557362619
 40
1.0
 40
1.0
 40
1.0
 40
1.0
 10
128.1692175531291
 20
162.8485707157751
 30
0.0
 10
128.0203040499638
 20
162.854464981588
 30
0.0
 10
127.7233798107143
 20
162.8662177800599
 30
0.0
 10
127.3286359791143
 20
162.9221844047039
 30
0.0
 10
127.062394825068
 20
162.9707219233356
 30
0.0
 10
126.9776359586277
 20
162.9553260958457
 30
0.0
 10
126.9547106475558
 20
162.9593803636222
 30
0.0
  0
SPLINE
  5
147
330
1F
100
AcDbEntity
  8
0
  6
SLD-実線
 62
     7
370
    18
100
AcDbSpline
210
0.0
220
0.0
230
1.0
 70
     8
 71
     3
 72
    11
 73
     7
 74
     0
 42
0.000000001
 43
0.00000001
 40
0.0
 40
0.0
 40
0.0
 40
0.0
 40
0.1305720933916251
 40
0.494783933698228
 40
0.8063500992132048
 40
1.0
 40
1.0
 40
1.0
 40
1.0
 10
129.3837244587023
 20
162.9593803636222
 30
0.0
 10
129.3335680026252
 20
162.9533510503378
 30
0.0
 10
129.2090160892458
 20
162.959702762638
 30
0.0
 10
128.8968656331908
 20
162.9056860068539
 30
0.0
 10
128.5094849679431
 20
162.8567073840658
 30
0.0
 10
128.2635028012636
 20
162.8508253183476
 30
0.0
 10
128.1692175531291
 20
162.8485707157751
 30
0.0
  0
LINE
  5
148
330
1F
100
AcDbEntity
  8
0
  6
SLD-実線
 62
     7
370
    18
100
AcDbLine
 10
131.1692175531
 20
146.6919220201
 30
0.0
 11
131.1692175531
 21
158.2593803636
 31
0.0
  0
LWPOLYLINE
  5
149
330
1F
100
AcDbEntity
  8
0
  6
SLD-実線
 62
     7
370
    18
100
AcDbPolyline
 90
       11
 70
   128
 43
0.0
 10
126.9163194428
 20
158.8656926409
 10
126.9639466488
 20
158.8259076097
 10
127.1610855314
 20
158.7009325522
 10
127.4478013683
 20
158.6032773155
 10
127.7986181991
 20
158.541618996
 10
128.1823644088
 20
158.521436206
 10
128.5649424628
 20
158.5445222749
 10
128.9123586219
 20
158.6088259041
 10
129.1937434358
 20
158.7086334341
 10
129.384094629
 20
158.8350765278
 10
129.4239833063
 20
158.8810540696
  0
LINE
  5
14A
330
1F
100
AcDbEntity
  8
0
  6
SLD-実線
 62
     7
370
    18
100
AcDbLine
 10
126.7035249478
 20
171.4594353578
 30
0.0
 11
126.6692175531
 21
171.3399451399
 31
0.0
  0
LWPOLYLINE
  5
14B
330
1F
100
AcDbEntity
  8
0
  6
SLD-実線
 62
     7
370
    18
100
AcDbPolyline
 90
       12
 70
   128
 43
0.0
 10
129.6692175531
 20
171.3399451399
 10
129.6654050118
 20
171.3799826616
 10
129.5746876554
 20
171.5362667994
 10
129.3701074699
 20
171.6766461239
 10
129.0682383254
 20
171.7897479371
 10
128.6935358646
 20
171.8664094028
 10
128.2763562524
 20
171.9004198649
 10
127.8504969
 20
171.889023998
 10
127.4504583994
 20
171.8331450276
 10
127.1086494908
 20
171.7373099354
 10
126.8527614991
 20
171.6092827107
 10
126.7035249478
 20
171.4594353578
  0
ARC
  5
14C
330
1F
100
AcDbEntity
  8
0
  6
SLD-実線
 62
     7
370
    18
100
AcDbCircle
 10
128.1692175531
 20
166.5588991331
 30
0.0
 40
7.299967986752611
100
AcDbArc
 50
77.3391811508
 51
102.6608188492
  0
ARC
  5
14D
330
1F
100
AcDbEntity
  8
0
  6
SLD-実線
 62
     7
370
    18
100
AcDbCircle
 10
127.757203974
 20
166.6641489161
 30
0.0
 40
7.299967986751113
100
AcDbArc
 50
74.0010638595
 51
99.3658890708
  0
LINE
  5
14E
330
1F
100
AcDbEntity
  8
0
  6
SLD-実線
 62
     8
370
    18
100
AcDbLine
 10
123.6692175531
 20
167.0454067606
 30
0.0
 11
126.6692175531
 21
166.7454067606
 31
0.0
  0
LINE
  5
14F
330
1F
100
AcDbEntity
  8
0
  6
SLD-実線
 62
     8
370
    18
100
AcDbLine
 10
129.6692175531
 20
166.7454067606
 30
0.0
 11
132.6692175531
 21
167.0454067606
 31
0.0
  0
LINE
  5
150
330
1F
100
AcDbEntity
  8
0
  6
SLD-実線
 62
     8
370
    18
100
AcDbLine
 10
159.2747152269
 20
156.8919220201
 30
0.0
 11
159.2747152269
 21
150.8919220201
 31
0.0
  0
LINE
  5
151
330
1F
100
AcDbEntity
  8
0
  6
SLD-実線
 62
     8
370
    18
100
AcDbLine
 10
159.2747152269
 20
162.8919220201
 30
0.0
 11
159.2747152269
 21
156.8919220201
 31
0.0
  0
LINE
  5
152
330
1F
100
AcDbEntity
  8
0
  6
SLD-実線
 62
     7
370
    18
100
AcDbLine
 10
114.8692175531
 20
147.534166045
 30
0.0
 11
141.4692175531
 21
147.5454067606
 31
0.0
  0
LINE
  5
153
330
1F
100
AcDbEntity
  8
0
  6
SLD-1点鎖線(中心線)
 62
     7
370
    18
100
AcDbLine
 10
189.0768365935
 20
156.8919220201
 30
0.0
 11
79.3607761368
 21
156.8919220201
 31
0.0
  0
DIMENSION
  5
154
330
1F
100
AcDbEntity
  8
0
  6
SLD-実線
 62
     7
370
    18
100
AcDbDimension
  2
_D
 10
85.2747152269
 20
183.0430037909
 30
0.0
 11
75.6468971877
 21
183.0430037909
 31
0.0
 70
   160
  1
<>
 71
     2
 42
-1.0
  3
SLDDIMSTYLE0
100
AcDbAlignedDimension
 13
82.2747152269
 23
160.3919220201
 33
0.0
 14
85.2747152269
 24
165.8919220201
 34
0.0
100
AcDbRotatedDimension
  0
DIMENSION
  5
161
330
1F
100
AcDbEntity
  8
0
  6
SLD-実線
 62
     7
370
    18
100
AcDbDimension
  2
_D_1
 10
158.7747152269
 20
183.0430037909
 30
0.0
 11
122.0247152269
 21
183.0430037909
 31
0.0
 70
   160
  1
<>
 71
     2
 42
-1.0
  3
SLDDIMSTYLE1
100
AcDbAlignedDimension
 13
85.2747152269
 23
165.8919220201
 33
0.0
 14
158.7747152269
 24
165.3919220201
 34
0.0
100
AcDbRotatedDimension
  0
DIMENSION
  5
16C
330
1F
100
AcDbEntity
  8
0
  6
SLD-実線
 62
     7
370
    18
100
AcDbDimension
  2
_D_2
 10
158.7747152269
 20
183.0430037909
 30
0.0
 11
166.7747152269
 21
183.0430037909
 31
0.0
 70
   160
  1
<>
 71
     2
 42
-1.0
  3
SLDDIMSTYLE0
100
AcDbAlignedDimension
 13
174.7747152269
 23
162.3919220201
 33
0.0
 14
158.7747152269
 24
165.3919220201
 34
0.0
100
AcDbRotatedDimension
  0
DIMENSION
  5
178
330
1F
100
AcDbEntity
  8
0
  6
SLD-実線
 62
     7
370
    18
100
AcDbDimension
  2
_D_3
 10
82.2747152269
 20
194.1257606406
 30
0.0
 11
133.9247152269
 21
194.1257606406
 31
0.0
 70
   160
  1
<>
 71
     2
 42
-1.0
  3
SLDDIMSTYLE1
100
AcDbAlignedDimension
 13
185.5747152269
 23
158.8919220201
 33
0.0
 14
82.2747152269
 24
160.3919220201
 34
0.0
100
AcDbRotatedDimension
  0
DIMENSION
  5
182
330
1F
100
AcDbEntity
  8
0
  6
SLD-実線
 62
     7
370
    18
100
AcDbDimension
  2
_D_4
 10
193.0378012343
 20
150.8919220201
 30
0.0
 11
193.0378012343
 21
171.9739432321
 31
0.0
 70
   160
  1
%%c<>
 71
     2
 42
-1.0
  3
SLDDIMSTYLE0
100
AcDbAlignedDimension
 13
174.2747152269
 23
162.8919220201
 33
0.0
 14
174.2747152269
 24
150.8919220201
 34
0.0
 50
90.0
100
AcDbRotatedDimension
  0
DIMENSION
  5
18F
330
1F
100
AcDbEntity
  8
0
  6
SLD-実線
 62
     7
370
    18
100
AcDbDimension
  2
_D_5
 10
73.95849235
 20
166.8919220201
 30
0.0
 11
73.95849235
 21
156.8919220201
 31
0.0
 70
   160
  1
%%c<>
 71
     2
 42
-1.0
  3
SLDDIMSTYLE1
100
AcDbAlignedDimension
 13
146.2747152269
 23
146.8919220201
 33
0.0
 14
146.2747152269
 24
166.8919220201
 34
0.0
 50
90.0
100
AcDbRotatedDimension
  0
DIMENSION
  5
19A
330
1F
100
AcDbEntity
  8
0
  6
SLD-実線
 62
     7
370
    18
100
AcDbDimension
  2
_D_6
 10
64.5356689488
 20
139.5454067606
 30
0.0
 11
64.5356689488
 21
157.6186643903
 31
0.0
 70
   160
  1
(36.5)
 71
     2
 42
-1.0
  3
SLDDIMSTYLE1
100
AcDbAlignedDimension
 13
152.2747152269
 23
175.6919220201
 33
0.0
 14
114.8692175531
 24
139.5454067606
 34
0.0
 50
90.0
100
AcDbRotatedDimension
  0
INSERT
  5
1AB
330
1F
100
AcDbEntity
  8
0
  6
Continuous
 62
     7
370
     0
100
AcDbBlockReference
  2
SW_NOTE_0
 10
169.4873096447
 20
200.0685281125
 30
0.0
  0
LEADER
  5
1AD
330
1F
100
AcDbEntity
  8
0
  6
Continuous
 62
     7
370
     0
100
AcDbLeader
  3
SLDDIMSTYLE2
 76
     2
 10
154.7747152269
 20
175.6919220201
 30
0.0
 10
169.4873096447
 20
200.0685281125
 30
0.0
  0
INSERT
  5
1B3
330
1F
100
AcDbEntity
  8
0
  6
Continuous
 62
     7
370
     0
100
AcDbBlockReference
  2
SW_NOTE_1
 10
185.8578680203
 20
133.9517768435
 30
0.0
  0
LEADER
  5
1B4
330
1F
100
AcDbEntity
  8
0
  6
Continuous
 62
     7
370
     0
100
AcDbLeader
  3
SLDDIMSTYLE2
 76
     2
 10
183.0747152269
 20
154.5419220201
 30
0.0
 10
185.8578680203
 20
133.9517768435
 30
0.0
  0
LINE
  5
1B5
330
1F
100
AcDbEntity
  8
0
  6
SLD-実線
 62
     7
370
    18
100
AcDbLine
 10
35.5958083593
 20
172.7454067606
 30
0.0
 11
35.5958083593
 21
172.7454067606
 31
0.0
  0
LINE
  5
1B6
330
1F
100
AcDbEntity
  8
0
  6
SLD-実線
 62
     7
370
    18
100
AcDbLine
 10
30.5958083593
 20
172.7454067606
 30
0.0
 11
30.5958083593
 21
172.2454067606
 31
0.0
  0
ARC
  5
1B7
330
1F
100
AcDbEntity
  8
0
  6
SLD-実線
 62
     7
370
    18
100
AcDbCircle
 10
34.0426659459
 20
172.8495594195
 30
0.0
 40
0.7603099836304646
100
AcDbArc
 50
352.1264600739
 51
66.2363231436
  0
ARC
  5
1B8
330
1F
100
AcDbEntity
  8
0
  6
SLD-実線
 62
     7
370
    18
100
AcDbCircle
 10
31.8602084623
 20
172.7853013481
 30
0.0
 40
0.7603099836304754
100
AcDbArc
 50
91.3291506161
 51
225.2428882325
  0
LINE
  5
1B9
330
1F
100
AcDbEntity
  8
0
  6
SLD-実線
 62
     7
370
    18
100
AcDbLine
 10
37.3248720208
 20
172.2454067606
 30
0.0
 11
36.8198470563
 21
173.1919220201
 31
0.0
  0
LINE
  5
1BA
330
1F
100
AcDbEntity
  8
0
  6
SLD-実線
 62
     7
370
    18
100
AcDbLine
 10
37.0698470563
 20
173.1919220201
 30
0.0
 11
36.8198470563
 21
175.6919220201
 31
0.0
  0
LINE
  5
1BB
330
1F
100
AcDbEntity
  8
0
  6
SLD-実線
 62
     7
370
    18
100
AcDbLine
 10
33.8198470563
 20
175.6919220201
 30
0.0
 11
33.6051955303
 21
173.5454067606
 31
0.0
  0
LINE
  5
1BC
330
1F
100
AcDbEntity
  8
0
  6
SLD-実線
 62
     7
370
    18
100
AcDbLine
 10
31.3198470563
 20
166.1919220201
 30
0.0
 11
31.3198470563
 21
166.1919220201
 31
0.0
  0
LINE
  5
1BD
330
1F
100
AcDbEntity
  8
0
  6
SLD-実線
 62
     7
370
    18
100
AcDbLine
 10
39.3198470563
 20
166.1919220201
 30
0.0
 11
39.3198470563
 21
166.1919220201
 31
0.0
  0
LINE
  5
1BE
330
1F
100
AcDbEntity
  8
0
  6
SLD-実線
 62
     7
370
    18
100
AcDbLine
 10
45.0286299083
 20
161.7247509355
 30
0.0
 11
45.0286299083
 21
161.7247509355
 31
0.0
  0
LINE
  5
1BF
330
1F
100
AcDbEntity
  8
0
  6
SLD-実線
 62
     7
370
    18
100
AcDbLine
 10
46.3839604977
 20
158.3701900115
 30
0.0
 11
46.3858090549
 21
158.3656146719
 31
0.0
  0
LINE
  5
1C0
330
1F
100
AcDbEntity
  8
0
  6
SLD-実線
 62
     7
370
    18
100
AcDbLine
 10
47.8101739798
 20
162.8485892595
 30
0.0
 11
45.0248720208
 21
169.1696929212
 31
0.0
  0
LINE
  5
1C1
330
1F
100
AcDbEntity
  8
0
  6
SLD-実線
 62
     7
370
    18
100
AcDbLine
 10
42.1745589759
 20
168.7888243789
 30
0.0
 11
45.0286299083
 21
161.7247509355
 31
0.0
  0
LINE
  5
1C2
330
1F
100
AcDbEntity
  8
0
  6
SLD-実線
 62
     7
370
    18
100
AcDbLine
 10
34.9907155601
 20
172.7454067606
 30
0.0
 11
35.5958083593
 21
172.7454067606
 31
0.0
  0
LINE
  5
1C3
330
1F
100
AcDbEntity
  8
0
  6
SLD-実線
 62
     7
370
    18
100
AcDbLine
 10
30.5958083593
 20
172.7454067606
 30
0.0
 11
34.9907155601
 21
172.7454067606
 31
0.0
  0
LINE
  5
1C4
330
1F
100
AcDbEntity
  8
0
  6
SLD-実線
 62
     7
370
    18
100
AcDbLine
 10
30.5958083593
 20
172.2454067606
 30
0.0
 11
31.3248720208
 21
172.2454067606
 31
0.0
  0
LINE
  5
1C5
330
1F
100
AcDbEntity
  8
0
  6
SLD-実線
 62
     7
370
    18
100
AcDbLine
 10
34.3490443869
 20
173.5454067606
 30
0.0
 11
31.8425723317
 21
173.5454067606
 31
0.0
  0
LINE
  5
1C6
330
1F
100
AcDbEntity
  8
0
  6
SLD-実線
 62
     7
370
    18
100
AcDbLine
 10
30.8248720208
 20
171.7454067606
 30
0.0
 11
30.8248720208
 21
167.0454067606
 31
0.0
  0
LINE
  5
1C7
330
1F
100
AcDbEntity
  8
0
  6
SLD-実線
 62
     7
370
    18
100
AcDbLine
 10
33.4407276526
 20
166.7454067606
 30
0.0
 11
31.1248720208
 21
166.7454067606
 31
0.0
  0
ARC
  5
1C8
330
1F
100
AcDbEntity
  8
0
  6
SLD-実線
 62
     7
370
    18
100
AcDbCircle
 10
31.1248720208
 20
167.0454067606
 30
0.0
 40
0.3000000000000114
100
AcDbArc
 50
180.0
 51
270.0
  0
LINE
  5
1C9
330
1F
100
AcDbEntity
  8
0
  6
SLD-実線
 62
     7
370
    18
100
AcDbLine
 10
30.8248720208
 20
167.0454067606
 30
0.0
 11
33.4407276526
 21
167.0454067606
 31
0.0
  0
LINE
  5
1CA
330
1F
100
AcDbEntity
  8
0
  6
SLD-実線
 62
     7
370
    18
100
AcDbLine
 10
33.4407276526
 20
166.7454067606
 30
0.0
 11
33.4407276526
 21
167.0454067606
 31
0.0
  0
ARC
  5
1CB
330
1F
100
AcDbEntity
  8
0
  6
SLD-実線
 62
     7
370
    18
100
AcDbCircle
 10
31.3248720208
 20
171.7454067606
 30
0.0
 40
0.5000000000000036
100
AcDbArc
 50
90.0
 51
180.0
  0
LINE
  5
1CC
330
1F
100
AcDbEntity
  8
0
  6
SLD-実線
 62
     7
370
    18
100
AcDbLine
 10
40.8248720208
 20
168.7454067606
 30
0.0
 11
40.8248720208
 21
167.0454067606
 31
0.0
  0
LINE
  5
1CD
330
1F
100
AcDbEntity
  8
0
  6
SLD-実線
 62
     7
370
    18
100
AcDbLine
 10
37.2090163889
 20
167.0454067606
 30
0.0
 11
40.8248720208
 21
167.0454067606
 31
0.0
  0
ARC
  5
1CE
330
1F
100
AcDbEntity
  8
0
  6
SLD-実線
 62
     7
370
    18
100
AcDbCircle
 10
35.3248720208
 20
163.7454067606
 30
0.0
 40
3.800000000000041
100
AcDbArc
 50
60.2756708529
 51
119.7243291471
  0
LINE
  5
1CF
330
1F
100
AcDbEntity
  8
0
  6
SLD-実線
 62
     7
370
    18
100
AcDbLine
 10
31.3248720208
 20
172.2454067606
 30
0.0
 11
37.3248720208
 21
172.2454067606
 31
0.0
  0
ARC
  5
1D0
330
1F
100
AcDbEntity
  8
0
  6
SLD-実線
 62
     7
370
    18
100
AcDbCircle
 10
37.3248720208
 20
185.7454067606
 30
0.0
 40
13.5
100
AcDbArc
 50
270.0
 51
303.7489885959
  0
LINE
  5
1D1
330
1F
100
AcDbEntity
  8
0
  6
SLD-実線
 62
     7
370
    18
100
AcDbLine
 10
44.8248720208
 20
169.1298786325
 30
0.0
 11
44.8248720208
 21
174.5204346003
 31
0.0
  0
ARC
  5
1D2
330
1F
100
AcDbEntity
  8
0
  6
SLD-実線
 62
     7
370
    18
100
AcDbCircle
 10
40.8248720208
 20
189.7454067606
 30
0.0
 40
21.00000000000003
100
AcDbArc
 50
270.0
 51
280.9805754276
  0
LINE
  5
1D3
330
1F
100
AcDbEntity
  8
0
  6
SLD-実線
 62
     7
370
    18
100
AcDbLine
 10
37.0602681493
 20
166.7848804448
 30
0.0
 11
37.2090163889
 21
167.0454067606
 31
0.0
  0
LINE
  5
1D4
330
1F
100
AcDbEntity
  8
0
  6
SLD-実線
 62
     7
370
    18
100
AcDbLine
 10
33.5894758922
 20
166.7848804448
 30
0.0
 11
33.4407276526
 21
167.0454067606
 31
0.0
  0
ARC
  5
1D5
330
1F
100
AcDbEntity
  8
0
  6
SLD-実線
 62
     7
370
    18
100
AcDbCircle
 10
35.3248720208
 20
163.7454067606
 30
0.0
 40
3.499999999999997
100
AcDbArc
 50
60.2756708529
 51
119.7243291471
  0
ARC
  5
1D6
330
1F
100
AcDbEntity
  8
0
  6
SLD-実線
 62
     7
370
    18
100
AcDbCircle
 10
40.5248720208
 20
167.0454067606
 30
0.0
 40
0.3000000000000114
100
AcDbArc
 50
270.0
 51
0.0
  0
LINE
  5
1D7
330
1F
100
AcDbEntity
  8
0
  6
SLD-実線
 62
     7
370
    18
100
AcDbLine
 10
40.5248720208
 20
166.7454067606
 30
0.0
 11
37.2090163889
 21
166.7454067606
 31
0.0
  0
LINE
  5
1D8
330
1F
100
AcDbEntity
  8
0
  6
SLD-実線
 62
     7
370
    18
100
AcDbLine
 10
37.2090163889
 20
166.7454067606
 30
0.0
 11
37.2090163889
 21
167.0454067606
 31
0.0
  0
SPLINE
  5
1D9
330
1F
100
AcDbEntity
  8
0
  6
SLD-実線
 62
     7
370
    18
100
AcDbSpline
210
0.0
220
0.0
230
1.0
 70
     8
 71
     3
 72
    14
 73
    10
 74
     0
 42
0.000000001
 43
0.00000001
 40
0.0
 40
0.0
 40
0.0
 40
0.0
 40
0.25
 40
0.25
 40
0.5
 40
0.5
 40
0.75
 40
0.75
 40
1.0
 40
1.0
 40
1.0
 40
1.0
 10
44.82487202078066
 20
174.5204346003041
 30
0.0
 10
44.90956476746943
 20
174.5770223219566
 30
0.0
 10
44.99204801818222
 20
174.6335185910238
 30
0.0
 10
45.15291231552249
 20
174.74625081061
 30
0.0
 10
45.23226436304022
 20
174.8032111540722
 30
0.0
 10
45.38096034807232
 20
174.9122198237461
 30
0.0
 10
45.45031379966498
 20
174.9642350280405
 30
0.0
 10
45.57818668405648
 20
175.0618088133755
 30
0.0
 10
45.63652747219082
 20
175.1072594414689
 30
0.0
 10
45.6848959441914
 20
175.1454067606259
 30
0.0
  0
SPLINE
  5
1DA
330
1F
100
AcDbEntity
  8
0
  6
SLD-実線
 62
     7
370
    18
100
AcDbSpline
210
0.0
220
0.0
230
1.0
 70
     8
 71
     3
 72
     8
 73
     4
 74
     0
 42
0.000000001
 43
0.00000001
 40
0.0
 40
0.0
 40
0.0
 40
0.0
 40
1.0
 40
1.0
 40
1.0
 40
1.0
 10
45.02487202078066
 20
169.1696929212472
 30
0.0
 10
44.95892283291811
 20
169.156231099646
 30
0.0
 10
44.89225816718407
 20
169.142953465447
 30
0.0
 10
44.82487202078066
 20
169.1298786325376
 30
0.0
  0
LINE
  5
1DB
330
1F
100
AcDbEntity
  8
0
  6
SLD-実線
 62
     7
370
    18
100
AcDbLine
 10
45.6848959442
 20
175.1454067606
 30
0.0
 11
45.8248720208
 21
175.1454067606
 31
0.0
  0
LINE
  5
1DC
330
1F
100
AcDbEntity
  8
0
  6
SLD-実線
 62
     7
370
    18
100
AcDbLine
 10
45.8248720208
 20
175.1454067606
 30
0.0
 11
45.8248720208
 21
170.1494888184
 31
0.0
  0
ARC
  5
1DD
330
1F
100
AcDbEntity
  8
0
  6
SLD-実線
 62
     7
370
    18
100
AcDbCircle
 10
44.8248720208
 20
170.1494888184
 30
0.0
 40
1.000000000000048
100
AcDbArc
 50
281.5369590328
 51
0.0
  0
LINE
  5
1DE
330
1F
100
AcDbEntity
  8
0
  6
SLD-実線
 62
     7
370
    18
100
AcDbLine
 10
31.3458083593
 20
147.5454067606
 30
0.0
 11
31.3458083593
 21
147.5454067606
 31
0.0
  0
LINE
  5
1DF
330
1F
100
AcDbEntity
  8
0
  6
SLD-実線
 62
     7
370
    18
100
AcDbLine
 10
38.8458083593
 20
140.0454067606
 30
0.0
 11
38.8458083593
 21
147.534166045
 31
0.0
  0
ARC
  5
1E0
330
1F
100
AcDbEntity
  8
0
  6
SLD-実線
 62
     7
370
    18
100
AcDbCircle
 10
38.3458083593
 20
140.0454067606
 30
0.0
 40
0.5
100
AcDbArc
 50
270.0
 51
0.0
  0
LINE
  5
1E1
330
1F
100
AcDbEntity
  8
0
  6
SLD-実線
 62
     7
370
    18
100
AcDbLine
 10
38.3458083593
 20
139.5454067606
 30
0.0
 11
31.8458083593
 21
139.5454067606
 31
0.0
  0
ARC
  5
1E2
330
1F
100
AcDbEntity
  8
0
  6
SLD-実線
 62
     7
370
    18
100
AcDbCircle
 10
31.8458083593
 20
140.0454067606
 30
0.0
 40
0.5
100
AcDbArc
 50
180.0
 51
270.0
  0
LINE
  5
1E3
330
1F
100
AcDbEntity
  8
0
  6
SLD-実線
 62
     7
370
    18
100
AcDbLine
 10
31.3458083593
 20
140.0454067606
 30
0.0
 11
31.3458083593
 21
147.5454067606
 31
0.0
  0
LINE
  5
1E4
330
1F
100
AcDbEntity
  8
0
  6
SLD-実線
 62
     7
370
    18
100
AcDbLine
 10
36.5958083593
 20
142.2225311051
 30
0.0
 11
36.5958083593
 21
140.7454067606
 31
0.0
  0
ARC
  5
1E5
330
1F
100
AcDbEntity
  8
0
  6
SLD-実線
 62
     7
370
    18
100
AcDbCircle
 10
35.0958083593
 20
143.5454067606
 30
0.0
 40
1.999999999999976
100
AcDbArc
 50
318.5903778907
 51
221.4096221093
  0
LINE
  5
1E6
330
1F
100
AcDbEntity
  8
0
  6
SLD-実線
 62
     7
370
    18
100
AcDbLine
 10
33.5958083593
 20
140.7454067606
 30
0.0
 11
33.5958083593
 21
142.2225311051
 31
0.0
  0
LINE
  5
1E7
330
1F
100
AcDbEntity
  8
0
  6
SLD-実線
 62
     7
370
    18
100
AcDbLine
 10
36.5958083593
 20
140.7454067606
 30
0.0
 11
33.5958083593
 21
140.7454067606
 31
0.0
  0
ARC
  5
1E8
330
1F
100
AcDbEntity
  8
0
  6
SLD-実線
 62
     7
370
    18
100
AcDbCircle
 10
35.3198470563
 20
156.8919220201
 30
0.0
 40
4.000000000000016
100
AcDbArc
 50
28.9550243719
 51
151.0449756281
  0
SPLINE
  5
1E9
330
1F
100
AcDbEntity
  8
0
  6
SLD-実線
 62
     7
370
    18
100
AcDbSpline
210
0.0
220
0.0
230
1.0
 70
    24
 71
     3
 72
    12
 73
     8
 74
     0
 42
0.000000001
 43
0.00000001
 40
0.0
 40
0.0
 40
0.0
 40
0.0
 40
0.5
 40
0.5
 40
0.75
 40
0.75
 40
1.0
 40
1.0
 40
1.0
 40
1.0
 10
38.81984705627404
 20
156.8919220200697
 30
0.0
 10
38.81984705627404
 20
157.2312482645476
 30
0.0
 10
38.81984705627403
 20
157.563781812713
 30
0.0
 10
38.81984705627404
 20
158.0501625440964
 30
0.0
 10
38.81984705627404
 20
158.2113406681302
 30
0.0
 10
38.81984705627404
 20
158.5251464038211
 30
0.0
 10
38.81984705627404
 20
158.6782170221533
 30
0.0
 10
38.81984705627404
 20
158.8284136931734
 30
0.0
  0
ARC
  5
1EA
330
1F
100
AcDbEntity
  8
0
  6
SLD-実線
 62
     7
370
    18
100
AcDbCircle
 10
35.3198470563
 20
156.8919220201
 30
0.0
 40
3.500000000000014
100
AcDbArc
 50
0.0
 51
180.0
  0
SPLINE
  5
1EB
330
1F
100
AcDbEntity
  8
0
  6
SLD-実線
 62
     7
370
    18
100
AcDbSpline
210
0.0
220
0.0
230
1.0
 70
    24
 71
     3
 72
    12
 73
     8
 74
     0
 42
0.000000001
 43
0.00000001
 40
0.0
 40
0.0
 40
0.0
 40
0.0
 40
0.4999999999999998
 40
0.4999999999999998
 40
0.7499999999999999
 40
0.7499999999999999
 40
1.0
 40
1.0
 40
1.0
 40
1.0
 10
31.81984705627401
 20
156.8919220200697
 30
0.0
 10
31.81984705627401
 20
157.2312482645476
 30
0.0
 10
31.81984705627401
 20
157.563781812713
 30
0.0
 10
31.81984705627401
 20
158.0501625440964
 30
0.0
 10
31.81984705627401
 20
158.2113406681302
 30
0.0
 10
31.81984705627401
 20
158.5251464038211
 30
0.0
 10
31.81984705627401
 20
158.6782170221533
 30
0.0
 10
31.81984705627401
 20
158.8284136931734
 30
0.0
  0
ARC
  5
1EC
330
1F
100
AcDbEntity
  8
0
  6
SLD-実線
 62
     7
370
    18
100
AcDbCircle
 10
35.3198470563
 20
156.8919220201
 30
0.0
 40
3.500000000000014
100
AcDbArc
 50
180.0
 51
0.0
  0
SPLINE
  5
1ED
330
1F
100
AcDbEntity
  8
0
  6
SLD-実線
 62
     7
370
    18
100
AcDbSpline
210
0.0
220
0.0
230
1.0
 70
    24
 71
     3
 72
    10
 73
     6
 74
     0
 42
0.000000001
 43
0.00000001
 40
0.0
 40
0.0
 40
0.0
 40
0.0
 40
0.5
 40
0.5
 40
1.0
 40
1.0
 40
1.0
 40
1.0
 10
38.81984705627406
 20
154.9554303469661
 30
0.0
 10
38.81984705627404
 20
155.253919364711
 30
0.0
 10
38.81984705627404
 20
155.5638495696672
 30
0.0
 10
38.81984705627403
 20
156.2189134738903
 30
0.0
 10
38.81984705627404
 20
156.5519510973186
 30
0.0
 10
38.81984705627404
 20
156.8919220200697
 30
0.0
  0
ARC
  5
1EE
330
1F
100
AcDbEntity
  8
0
  6
SLD-実線
 62
     7
370
    18
100
AcDbCircle
 10
35.3198470563
 20
156.8919220201
 30
0.0
 40
4.000000000000016
100
AcDbArc
 50
208.9550243719
 51
331.0449756281
  0
SPLINE
  5
1EF
330
1F
100
AcDbEntity
  8
0
  6
SLD-実線
 62
     7
370
    18
100
AcDbSpline
210
0.0
220
0.0
230
1.0
 70
    24
 71
     3
 72
    10
 73
     6
 74
     0
 42
0.000000001
 43
0.00000001
 40
0.0
 40
0.0
 40
0.0
 40
0.0
 40
0.5
 40
0.5
 40
1.0
 40
1.0
 40
1.0
 40
1.0
 10
31.81984705627404
 20
154.955430346966
 30
0.0
 10
31.81984705627401
 20
155.253919364711
 30
0.0
 10
31.81984705627401
 20
155.5638495696672
 30
0.0
 10
31.81984705627401
 20
156.2189134738903
 30
0.0
 10
31.81984705627401
 20
156.5519510973186
 30
0.0
 10
31.81984705627401
 20
156.8919220200697
 30
0.0
  0
CIRCLE
  5
1F0
330
1F
100
AcDbEntity
  8
0
  6
SLD-実線
 62
     7
370
    18
100
AcDbCircle
 10
35.3198470563
 20
156.8919220201
 30
0.0
 40
2.099999999999994
  0
ARC
  5
1F1
330
1F
100
AcDbEntity
  8
0
  6
SLD-実線
 62
     7
370
    18
100
AcDbCircle
 10
35.3198470563
 20
156.8919220201
 30
0.0
 40
10.00000000000001
100
AcDbArc
 50
211.7883306171
 51
328.2116693829
  0
SPLINE
  5
1F2
330
1F
100
AcDbEntity
  8
0
  6
SLD-実線
 62
     7
370
    18
100
AcDbSpline
210
0.0
220
0.0
230
1.0
 70
    24
 71
     3
 72
     8
 73
     4
 74
     0
 42
0.000000001
 43
0.00000001
 40
0.0
 40
0.0
 40
0.0
 40
0.0
 40
1.0
 40
1.0
 40
1.0
 40
1.0
 10
26.8198470562741
 20
151.6240951436433
 30
0.0
 10
26.81984705627403
 20
152.3666158238112
 30
0.0
 10
26.81984705627403
 20
153.1310248083902
 30
0.0
 10
26.81984705627403
 20
153.9338821285199
 30
0.0
  0
ARC
  5
1F3
330
1F
100
AcDbEntity
  8
0
  6
SLD-実線
 62
     7
370
    18
100
AcDbCircle
 10
35.3198470563
 20
156.8919220201
 30
0.0
 40
9.00000000000004
100
AcDbArc
 50
199.1881364537
 51
340.8118635463
  0
SPLINE
  5
1F4
330
1F
100
AcDbEntity
  8
0
  6
SLD-実線
 62
     7
370
    18
100
AcDbSpline
210
0.0
220
0.0
230
1.0
 70
    24
 71
     3
 72
    10
 73
     6
 74
     0
 42
0.000000001
 43
0.00000001
 40
0.0
 40
0.0
 40
0.0
 40
0.0
 40
0.5000000000000002
 40
0.5000000000000002
 40
1.0
 40
1.0
 40
1.0
 40
1.0
 10
43.81984705627403
 20
153.9338821285199
 30
0.0
 10
43.81984705627403
 20
153.5323166887697
 30
0.0
 10
43.81984705627403
 20
153.1372128461673
 30
0.0
 10
43.81984705627403
 20
152.3686860173034
 30
0.0
 10
43.81984705627402
 20
151.9931355922123
 30
0.0
 10
43.8198470562741
 20
151.6240951436435
 30
0.0
  0
LINE
  5
1F5
330
1F
100
AcDbEntity
  8
0
  6
SLD-実線
 62
     7
370
    18
100
AcDbLine
 10
38.8198470563
 20
154.3919220201
 30
0.0
 11
38.8198470563
 21
154.8993639593
 31
0.0
  0
LINE
  5
1F6
330
1F
100
AcDbEntity
  8
0
  6
SLD-実線
 62
     7
370
    18
100
AcDbLine
 10
38.8198470563
 20
158.8284136932
 30
0.0
 11
38.8198470563
 21
159.3919220201
 31
0.0
  0
ARC
  5
1F7
330
1F
100
AcDbEntity
  8
0
  6
SLD-実線
 62
     7
370
    18
100
AcDbCircle
 10
37.8198470563
 20
159.3919220201
 30
0.0
 40
1.000000000000014
100
AcDbArc
 50
0.0
 51
98.0555267015
  0
ARC
  5
1F8
330
1F
100
AcDbEntity
  8
0
  6
SLD-実線
 62
     7
370
    18
100
AcDbCircle
 10
37.5395816007
 20
161.3721874756
 30
0.0
 40
1.000000000000008
100
AcDbArc
 50
243.6440180318
 51
278.0555267015
  0
ARC
  5
1F9
330
1F
100
AcDbEntity
  8
0
  6
SLD-実線
 62
     7
370
    18
100
AcDbCircle
 10
33.1001125118
 20
161.3721874756
 30
0.0
 40
1.000000000000008
100
AcDbArc
 50
261.9444732985
 51
296.3559819682
  0
ARC
  5
1FA
330
1F
100
AcDbEntity
  8
0
  6
SLD-実線
 62
     7
370
    18
100
AcDbCircle
 10
32.8198470563
 20
159.3919220201
 30
0.0
 40
1.000000000000009
100
AcDbArc
 50
81.9444732985
 51
180.0
  0
LINE
  5
1FB
330
1F
100
AcDbEntity
  8
0
  6
SLD-実線
 62
     7
370
    18
100
AcDbLine
 10
31.8198470563
 20
159.3919220201
 30
0.0
 11
31.8198470563
 21
158.8844800808
 31
0.0
  0
LINE
  5
1FC
330
1F
100
AcDbEntity
  8
0
  6
SLD-実線
 62
     7
370
    18
100
AcDbLine
 10
31.8198470563
 20
154.955430347
 30
0.0
 11
31.8198470563
 21
154.3919220201
 31
0.0
  0
ARC
  5
1FD
330
1F
100
AcDbEntity
  8
0
  6
SLD-実線
 62
     7
370
    18
100
AcDbCircle
 10
32.8198470563
 20
154.3919220201
 30
0.0
 40
1.000000000000011
100
AcDbArc
 50
180.0
 51
278.0555267015
  0
ARC
  5
1FE
330
1F
100
AcDbEntity
  8
0
  6
SLD-実線
 62
     7
370
    18
100
AcDbCircle
 10
33.1001125118
 20
152.4116565645
 30
0.0
 40
0.9999999999999821
100
AcDbArc
 50
63.6440180318
 51
98.0555267015
  0
ARC
  5
1FF
330
1F
100
AcDbEntity
  8
0
  6
SLD-実線
 62
     7
370
    18
100
AcDbCircle
 10
37.5395816007
 20
152.4116565645
 30
0.0
 40
0.9999999999999916
100
AcDbArc
 50
81.9444732985
 51
116.3559819682
  0
ARC
  5
200
330
1F
100
AcDbEntity
  8
0
  6
SLD-実線
 62
     7
370
    18
100
AcDbCircle
 10
37.8198470563
 20
154.3919220201
 30
0.0
 40
1.000000000000008
100
AcDbArc
 50
261.9444732985
 51
0.0
  0
LINE
  5
201
330
1F
100
AcDbEntity
  8
0
  6
SLD-実線
 62
     7
370
    18
100
AcDbLine
 10
26.8198470563
 20
153.9338821285
 30
0.0
 11
26.8198470563
 21
159.8499619116
 31
0.0
  0
ARC
  5
202
330
1F
100
AcDbEntity
  8
0
  6
SLD-実線
 62
     7
370
    18
100
AcDbCircle
 10
35.3198470563
 20
156.8919220201
 30
0.0
 40
9.00000000000004
100
AcDbArc
 50
19.1881364537
 51
160.8118635463
  0
LINE
  5
203
330
1F
100
AcDbEntity
  8
0
  6
SLD-実線
 62
     7
370
    18
100
AcDbLine
 10
43.8198470563
 20
159.8499619116
 30
0.0
 11
43.8198470563
 21
153.9338821285
 31
0.0
  0
SPLINE
  5
204
330
1F
100
AcDbEntity
  8
0
  6
SLD-実線
 62
     7
370
    18
100
AcDbSpline
210
0.0
220
0.0
230
1.0
 70
    24
 71
     3
 72
    10
 73
     6
 74
     0
 42
0.000000001
 43
0.00000001
 40
0.0
 40
0.0
 40
0.0
 40
0.0
 40
0.5
 40
0.5
 40
1.0
 40
1.0
 40
1.0
 40
1.0
 10
26.81984705627403
 20
159.8499619116197
 30
0.0
 10
26.81984705627403
 20
160.2515273513698
 30
0.0
 10
26.81984705627403
 20
160.6466311939723
 30
0.0
 10
26.81984705627403
 20
161.4151580228361
 30
0.0
 10
26.81984705627403
 20
161.7907084479272
 30
0.0
 10
26.81984705627403
 20
162.1597488964962
 30
0.0
  0
ARC
  5
205
330
1F
100
AcDbEntity
  8
0
  6
SLD-実線
 62
     7
370
    18
100
AcDbCircle
 10
35.3198470563
 20
156.8919220201
 30
0.0
 40
10.00000000000001
100
AcDbArc
 50
31.7883306171
 51
148.2116693829
  0
SPLINE
  5
206
330
1F
100
AcDbEntity
  8
0
  6
SLD-実線
 62
     7
370
    18
100
AcDbSpline
210
0.0
220
0.0
230
1.0
 70
    24
 71
     3
 72
     8
 73
     4
 74
     0
 42
0.000000001
 43
0.00000001
 40
0.0
 40
0.0
 40
0.0
 40
0.0
 40
1.0
 40
1.0
 40
1.0
 40
1.0
 10
43.81984705627403
 20
162.1597488964962
 30
0.0
 10
43.81984705627403
 20
161.4172282163283
 30
0.0
 10
43.81984705627403
 20
160.6528192317494
 30
0.0
 10
43.81984705627403
 20
159.8499619116197
 30
0.0
  0
ARC
  5
207
330
1F
100
AcDbEntity
  8
0
  6
SLD-実線
 62
     7
370
    18
100
AcDbCircle
 10
35.3198470563
 20
156.8919220201
 30
0.0
 40
10.00000000000003
100
AcDbArc
 50
148.2116693829
 51
211.7883306171
  0
ARC
  5
208
330
1F
100
AcDbEntity
  8
0
  6
SLD-実線
 62
     7
370
    18
100
AcDbCircle
 10
35.3198470563
 20
156.8919220201
 30
0.0
 40
10.00000000000003
100
AcDbArc
 50
328.2116693829
 51
31.7883306171
  0
ARC
  5
209
330
1F
100
AcDbEntity
  8
0
  6
SLD-実線
 62
     7
370
    18
100
AcDbCircle
 10
35.2048389401
 20
157.0870857786
 30
0.0
 40
9.800000000000052
100
AcDbArc
 50
148.8273472437
 51
211.1726527563
  0
ARC
  5
20A
330
1F
100
AcDbEntity
  8
0
  6
SLD-実線
 62
     7
370
    18
100
AcDbCircle
 10
35.4348551724
 20
156.6967582615
 30
0.0
 40
9.80000000000004
100
AcDbArc
 50
328.8273472437
 51
31.1726527563
  0
LINE
  5
20B
330
1F
100
AcDbEntity
  8
0
  6
SLD-実線
 62
     7
370
    18
100
AcDbLine
 10
32.3488341223
 20
166.4403816941
 30
0.0
 11
32.3488341224
 21
166.7454067606
 31
0.0
  0
LINE
  5
20C
330
1F
100
AcDbEntity
  8
0
  6
SLD-実線
 62
     7
370
    18
100
AcDbLine
 10
36.2179694634
 20
167.1295428332
 30
0.0
 11
36.2179694634
 21
166.8515091672
 31
0.0
  0
LINE
  5
20D
330
1F
100
AcDbEntity
  8
0
  6
SLD-実線
 62
     7
370
    18
100
AcDbLine
 10
39.1889823974
 20
166.1919220201
 30
0.0
 11
39.1889823974
 21
166.7454067606
 31
0.0
  0
LINE
  5
20E
330
1F
100
AcDbEntity
  8
0
  6
SLD-実線
 62
     7
370
    18
100
AcDbLine
 10
39.1141942709
 20
166.1919220201
 30
0.0
 11
39.1889823974
 21
166.1919220201
 31
0.0
  0
LINE
  5
20F
330
1F
100
AcDbEntity
  8
0
  6
SLD-実線
 62
     7
370
    18
100
AcDbLine
 10
31.4507117152
 20
166.1919220201
 30
0.0
 11
31.4507117152
 21
166.7454067606
 31
0.0
  0
LINE
  5
210
330
1F
100
AcDbEntity
  8
0
  6
SLD-実線
 62
     7
370
    18
100
AcDbLine
 10
34.7958083593
 20
172.7454067606
 30
0.0
 11
37.0698470563
 21
173.1919220201
 31
0.0
  0
LINE
  5
211
330
1F
100
AcDbEntity
  8
0
  6
SLD-実線
 62
     7
370
    18
100
AcDbLine
 10
36.3392461467
 20
175.6919220201
 30
0.0
 11
36.8198470563
 21
175.6919220201
 31
0.0
  0
LINE
  5
212
330
1F
100
AcDbEntity
  8
0
  6
SLD-実線
 62
     7
370
    18
100
AcDbLine
 10
33.8198470563
 20
175.6919220201
 30
0.0
 11
36.3392461467
 21
175.6919220201
 31
0.0
  0
CIRCLE
  5
213
330
1F
100
AcDbEntity
  8
0
  6
SLD-実線
 62
     7
370
    18
100
AcDbCircle
 10
35.3198470563
 20
156.8919220201
 30
0.0
 40
1.499999999999706
  0
ARC
  5
214
330
1F
100
AcDbEntity
  8
0
  6
SLD-実線
 62
     7
370
    18
100
AcDbCircle
 10
35.3198470563
 20
156.8919220201
 30
0.0
 40
2.000000000000037
100
AcDbArc
 50
240.0
 51
60.0
  0
ARC
  5
215
330
1F
100
AcDbEntity
  8
0
  6
SLD-実線
 62
     7
370
    18
100
AcDbCircle
 10
35.3198470563
 20
156.8919220201
 30
0.0
 40
2.000000000000037
100
AcDbArc
 50
60.0
 51
240.0
  0
LINE
  5
216
330
1F
100
AcDbEntity
  8
0
  6
SLD-実線
 62
     7
370
    18
100
AcDbLine
 10
39.3198470563
 20
166.1919220201
 30
0.0
 11
39.1889823974
 21
166.1919220201
 31
0.0
  0
LINE
  5
217
330
1F
100
AcDbEntity
  8
0
  6
SLD-実線
 62
     7
370
    18
100
AcDbLine
 10
39.1141942709
 20
166.1919220201
 30
0.0
 11
39.1141942709
 21
166.1919220201
 31
0.0
  0
LINE
  5
218
330
1F
100
AcDbEntity
  8
0
  6
SLD-実線
 62
     7
370
    18
100
AcDbLine
 10
31.4507117152
 20
166.1919220201
 30
0.0
 11
31.3198470563
 21
166.1919220201
 31
0.0
  0
LINE
  5
219
330
1F
100
AcDbEntity
  8
0
  6
SLD-実線
 62
     7
370
    18
100
AcDbLine
 10
33.6958083593
 20
142.1171210749
 30
0.0
 11
33.6958083593
 21
140.9454067606
 31
0.0
  0
ARC
  5
21A
330
1F
100
AcDbEntity
  8
0
  6
SLD-実線
 62
     7
370
    18
100
AcDbCircle
 10
35.0958083593
 20
143.5454067606
 30
0.0
 40
2.000000000000022
100
AcDbArc
 50
314.4270040008
 51
225.5729959992
  0
LINE
  5
21B
330
1F
100
AcDbEntity
  8
0
  6
SLD-実線
 62
     7
370
    18
100
AcDbLine
 10
33.6958083593
 20
140.9454067606
 30
0.0
 11
36.4958083593
 21
140.9454067606
 31
0.0
  0
LINE
  5
21C
330
1F
100
AcDbEntity
  8
0
  6
SLD-実線
 62
     7
370
    18
100
AcDbLine
 10
36.4958083593
 20
140.9454067606
 30
0.0
 11
36.4958083593
 21
142.1171210749
 31
0.0
  0
LINE
  5
21D
330
1F
100
AcDbEntity
  8
0
  6
SLD-実線
 62
     7
370
    18
100
AcDbLine
 10
36.0958083593
 20
140.9354067606
 30
0.0
 11
34.0958083593
 21
140.9354067606
 31
0.0
  0
LINE
  5
21E
330
1F
100
AcDbEntity
  8
0
  6
SLD-実線
 62
     7
370
    18
100
AcDbLine
 10
34.0958083593
 20
140.9354067606
 30
0.0
 11
34.0958083593
 21
140.9354067606
 31
0.0
  0
LINE
  5
21F
330
1F
100
AcDbEntity
  8
0
  6
SLD-実線
 62
     7
370
    18
100
AcDbLine
 10
36.0958083593
 20
140.9354067606
 30
0.0
 11
36.0958083593
 21
140.9354067606
 31
0.0
  0
ARC
  5
220
330
1F
100
AcDbEntity
  8
0
  6
SLD-実線
 62
     7
370
    18
100
AcDbCircle
 10
45.9578015672
 20
159.9819287184
 30
0.0
 40
1.077644947033354
100
AcDbArc
 50
191.0782148171
 51
196.1969961219
  0
ARC
  5
221
330
1F
100
AcDbEntity
  8
0
  6
SLD-実線
 62
     7
370
    18
100
AcDbCircle
 10
47.0970709849
 20
160.6093803636
 30
0.0
 40
2.350000000000007
100
AcDbArc
 50
219.0211318088
 51
200.8004828302
  0
ARC
  5
222
330
1F
100
AcDbEntity
  8
0
  6
SLD-実線
 62
     7
370
    18
100
AcDbCircle
 10
35.3365664826
 20
156.932304523
 30
0.0
 40
10.20000000000002
100
AcDbArc
 50
157.6319047704
 51
246.9676499828
  0
ARC
  5
223
330
1F
100
AcDbEntity
  8
0
  6
SLD-実線
 62
     7
370
    18
100
AcDbCircle
 10
35.2774422772
 20
157.0896233079
 30
0.0
 40
10.2
100
AcDbArc
 50
290.477517615
 51
11.5379947965
  0
LINE
  5
224
330
1F
100
AcDbEntity
  8
0
  6
SLD-実線
 62
     7
370
    18
100
AcDbLine
 10
26.0952872606
 20
160.7540653759
 30
0.0
 11
25.9040339978
 21
160.8139705214
 31
0.0
  0
LINE
  5
225
330
1F
100
AcDbEntity
  8
0
  6
SLD-実線
 62
     7
370
    18
100
AcDbLine
 10
44.9364062677
 20
159.6852440208
 30
0.0
 11
44.9229301681
 21
159.6813296181
 31
0.0
  0
LINE
  5
226
330
1F
100
AcDbEntity
  8
0
  6
SLD-実線
 62
     7
370
    18
100
AcDbLine
 10
29.8599728186
 20
171.682214818
 30
0.0
 11
25.9073487365
 21
160.8224694046
 31
0.0
  0
ARC
  5
227
330
1F
100
AcDbEntity
  8
0
  6
SLD-実線
 62
     7
370
    18
100
AcDbCircle
 10
25.7194102123
 20
160.8908734332
 30
0.0
 40
0.1999999999999944
100
AcDbArc
 50
337.3863932012
 51
340.0
  0
LINE
  5
228
330
1F
100
AcDbEntity
  8
0
  6
SLD-実線
 62
     7
370
    18
100
AcDbLine
 10
30.0479113428
 20
171.6138107893
 30
0.0
 11
29.8599728186
 21
171.682214818
 31
0.0
  0
LINE
  5
229
330
1F
100
AcDbEntity
  8
0
  6
SLD-実線
 62
     7
370
    18
100
AcDbLine
 10
30.0479113428
 20
171.6138107893
 30
0.0
 11
26.0952872606
 21
160.7540653759
 31
0.0
  0
LINE
  5
22A
330
1F
100
AcDbEntity
  8
0
  6
SLD-実線
 62
     7
370
    18
100
AcDbLine
 10
25.9073487365
 20
160.8224694046
 30
0.0
 11
26.0952872606
 21
160.7540653759
 31
0.0
  0
ARC
  5
22B
330
1F
100
AcDbEntity
  8
0
  6
SLD-実線
 62
     7
370
    18
100
AcDbCircle
 10
30.235849867
 20
171.5454067606
 30
0.0
 40
0.4000000000000057
100
AcDbArc
 50
90.0
 51
160.0
  0
LINE
  5
22C
330
1F
100
AcDbEntity
  8
0
  6
SLD-実線
 62
     7
370
    18
100
AcDbLine
 10
30.235849867
 20
171.9454067606
 30
0.0
 11
30.235849867
 21
171.7454067606
 31
0.0
  0
ARC
  5
22D
330
1F
100
AcDbEntity
  8
0
  6
SLD-実線
 62
     7
370
    18
100
AcDbCircle
 10
30.235849867
 20
171.5454067606
 30
0.0
 40
0.1999999999999886
100
AcDbArc
 50
90.0
 51
160.0
  0
LINE
  5
22E
330
1F
100
AcDbEntity
  8
0
  6
SLD-実線
 62
     7
370
    18
100
AcDbLine
 10
30.8248720208
 20
171.7454067606
 30
0.0
 11
30.235849867
 21
171.7454067606
 31
0.0
  0
LINE
  5
22F
330
1F
100
AcDbEntity
  8
0
  6
SLD-実線
 62
     7
370
    18
100
AcDbLine
 10
30.8248720208
 20
171.7454067606
 30
0.0
 11
30.235849867
 21
171.9454067606
 31
0.0
  0
DIMENSION
  5
230
330
1F
100
AcDbEntity
  8
0
  6
SLD-実線
 62
     7
370
    18
100
AcDbDimension
  2
_D_7
 10
34.2698470563
 20
158.710575368
 30
0.0
 11
57.8415724387
 21
133.2531369552
 31
0.0
 70
   163
  1
M5深10
 71
     1
 42
-1.0
  3
SLDDIMSTYLE3
100
AcDbDiametricDimension
 15
36.3698470563
 25
155.0732686721
 35
0.0
 40
0.0
  0
DIMENSION
  5
239
330
1F
100
AcDbEntity
  8
0
  6
SLD-実線
 62
     7
370
    18
100
AcDbDimension
  2
_D_8
 10
43.8198470563
 20
131.2163314577
 30
0.0
 11
35.3198470563
 21
131.2163314577
 31
0.0
 70
   160
  1
<>
 71
     2
 42
-1.0
  3
SLDDIMSTYLE1
100
AcDbAlignedDimension
 13
26.8198470563
 23
151.6240951436
 33
0.0
 14
43.8198470563
 24
151.6240951436
 34
0.0
100
AcDbRotatedDimension
  0
INSERT
  5
24E
330
1F
100
AcDbEntity
  8
0
  6
SLD-実線
 62
     7
370
    18
100
AcDbBlockReference
  2
SW_CENTERMARKSYMBOL_0
 10
35.3198470563
 20
156.8919220201
 30
0.0
  0
ENDSEC
  0
SECTION
  2
OBJECTS
  0
DICTIONARY
  5
C
330
0
100
AcDbDictionary
281
     1
  3
ACAD_GROUP
350
D
  3
ACAD_LAYOUT
350
1A
  3
ACAD_MLINESTYLE
350
17
  3
ACAD_PLOTSETTINGS
350
19
  3
ACAD_PLOTSTYLENAME
350
E
  3
ACAD_SCALELIST
350
47
  0
DICTIONARY
  5
D
102
{ACAD_REACTORS
330
C
102
}
330
C
100
AcDbDictionary
281
     1
  0
DICTIONARY
  5
1A
102
{ACAD_REACTORS
330
C
102
}
330
C
100
AcDbDictionary
281
     1
  3
Layout1
350
1E
  3
Layout2
350
26
  3
Model
350
22
  0
DICTIONARY
  5
17
102
{ACAD_REACTORS
330
C
102
}
330
C
100
AcDbDictionary
281
     1
  3
Standard
350
18
  0
DICTIONARY
  5
19
102
{ACAD_REACTORS
330
C
102
}
330
C
100
AcDbDictionary
281
     1
  0
ACDBDICTIONARYWDFLT
  5
E
102
{ACAD_REACTORS
330
C
102
}
330
C
100
AcDbDictionary
281
     1
  3
Normal
350
F
100
AcDbDictionaryWithDefault
340
F
  0
DICTIONARY
  5
47
102
{ACAD_REACTORS
330
C
102
}
330
C
100
AcDbDictionary
281
     1
  3
A0
350
48
  3
A1
350
49
  3
A2
350
4A
  3
A3
350
4B
  3
A4
350
4C
  3
A5
350
4D
  3
A6
350
4E
  3
A7
350
4F
  3
A8
350
50
  3
A9
350
51
  3
B0
350
52
  3
B1
350
53
  3
B2
350
54
  3
B3
350
55
  3
B4
350
56
  3
B5
350
57
  3
B6
350
58
  3
B7
350
59
  3
B8
350
5A
  3
B9
350
5B
  3
C0
350
5C
  3
C1
350
5D
  3
C2
350
5E
  3
C3
350
5F
  3
C4
350
60
  3
C5
350
61
  3
C6
350
62
  3
C7
350
63
  3
C8
350
64
  3
C9
350
65
  3
D0
350
66
  3
D1
350
67
  3
D2
350
68
  0
LAYOUT
  5
1E
102
{ACAD_REACTORS
330
1A
102
}
330
1A
100
AcDbPlotSettings
  1

  2
none_device
  4

  6

 40
0.0
 41
0.0
 42
0.0
 43
0.0
 44
0.0
 45
0.0
 46
0.0
 47
0.0
 48
0.0
 49
0.0
140
0.0
141
0.0
142
1.0
143
1.0
 70
   688
 72
     1
 73
     0
 74
     5
  7

 75
    16
147
1.0
148
0.0
149
0.0
100
AcDbLayout
  1
Layout1
 70
     1
 71
     1
 10
0.0
 20
0.0
 11
420.0
 21
297.0
 12
0.0
 22
0.0
 32
0.0
 14
1.0000000000E+20
 24
1.0000000000E+20
 34
1.0000000000E+20
 15
-1.0000000000E+20
 25
-1.0000000000E+20
 35
-1.0000000000E+20
146
0.0
 13
0.0
 23
0.0
 33
0.0
 16
1.0
 26
0.0
 36
0.0
 17
0.0
 27
1.0
 37
0.0
 76
     0
330
1B
  0
LAYOUT
  5
26
102
{ACAD_REACTORS
330
1A
102
}
330
1A
100
AcDbPlotSettings
  1

  2
none_device
  4

  6

 40
0.0
 41
0.0
 42
0.0
 43
0.0
 44
0.0
 45
0.0
 46
0.0
 47
0.0
 48
0.0
 49
0.0
140
0.0
141
0.0
142
1.0
143
1.0
 70
   688
 72
     1
 73
     0
 74
     5
  7

 75
    16
147
1.0
148
0.0
149
0.0
100
AcDbLayout
  1
Layout2
 70
     1
 71
     2
 10
0.0
 20
0.0
 11
0.0
 21
0.0
 12
0.0
 22
0.0
 32
0.0
 14
0.0
 24
0.0
 34
0.0
 15
0.0
 25
0.0
 35
0.0
146
0.0
 13
0.0
 23
0.0
 33
0.0
 16
1.0
 26
0.0
 36
0.0
 17
0.0
 27
1.0
 37
0.0
 76
     0
330
23
  0
LAYOUT
  5
22
102
{ACAD_REACTORS
330
1A
102
}
330
1A
100
AcDbPlotSettings
  1

  2
none_device
  4
Letter_(8.50_x_11.00_Inches)
  6

 40
6.35
 41
6.35
 42
6.35000508
 43
6.35000508
 44
215.9
 45
279.4
 46
0.0
 47
0.0
 48
0.0
 49
0.0
140
0.0
141
0.0
142
1.0
143
1.0
 70
  1712
 72
     1
 73
     0
 74
     0
  7

 75
     0
147
1.0
148
0.0
149
0.0
100
AcDbLayout
  1
Model
 70
     1
 71
     0
 10
0.0
 20
0.0
 11
210.0
 21
297.0
 12
0.0
 22
0.0
 32
0.0
 14
0.0
 24
0.0
 34
0.0
 15
210.0
 25
297.0
 35
0.0
146
0.0
 13
0.0
 23
0.0
 33
0.0
 16
1.0
 26
0.0
 36
0.0
 17
0.0
 27
1.0
 37
0.0
 76
     0
330
1F
331
29
  0
MLINESTYLE
  5
18
102
{ACAD_REACTORS
330
17
102
}
330
17
100
AcDbMlineStyle
  2
Standard
 70
     0
  3

 62
   256
 51
90.0
 52
90.0
 71
     2
 49
0.5
 62
   256
  6
BYLAYER
 49
-0.5
 62
   256
  6
BYLAYER
  0
ACDBPLACEHOLDER
  5
F
102
{ACAD_REACTORS
330
E
102
}
330
E
  0
SCALE
  5
48
102
{ACAD_REACTORS
330
47
102
}
330
47
100
AcDbScale
 70
     0
300
1:1
140
1.0
141
1.0
290
     1
  0
SCALE
  5
49
102
{ACAD_REACTORS
330
47
102
}
330
47
100
AcDbScale
 70
     0
300
1:2
140
1.0
141
2.0
290
     0
  0
SCALE
  5
4A
102
{ACAD_REACTORS
330
47
102
}
330
47
100
AcDbScale
 70
     0
300
1:4
140
1.0
141
4.0
290
     0
  0
SCALE
  5
4B
102
{ACAD_REACTORS
330
47
102
}
330
47
100
AcDbScale
 70
     0
300
1:5
140
1.0
141
5.0
290
     0
  0
SCALE
  5
4C
102
{ACAD_REACTORS
330
47
102
}
330
47
100
AcDbScale
 70
     0
300
1:8
140
1.0
141
8.0
290
     0
  0
SCALE
  5
4D
102
{ACAD_REACTORS
330
47
102
}
330
47
100
AcDbScale
 70
     0
300
1:10
140
1.0
141
10.0
290
     0
  0
SCALE
  5
4E
102
{ACAD_REACTORS
330
47
102
}
330
47
100
AcDbScale
 70
     0
300
1:16
140
1.0
141
16.0
290
     0
  0
SCALE
  5
4F
102
{ACAD_REACTORS
330
47
102
}
330
47
100
AcDbScale
 70
     0
300
1:20
140
1.0
141
20.0
290
     0
  0
SCALE
  5
50
102
{ACAD_REACTORS
330
47
102
}
330
47
100
AcDbScale
 70
     0
300
1:30
140
1.0
141
30.0
290
     0
  0
SCALE
  5
51
102
{ACAD_REACTORS
330
47
102
}
330
47
100
AcDbScale
 70
     0
300
1:40
140
1.0
141
40.0
290
     0
  0
SCALE
  5
52
102
{ACAD_REACTORS
330
47
102
}
330
47
100
AcDbScale
 70
     0
300
1:50
140
1.0
141
50.0
290
     0
  0
SCALE
  5
53
102
{ACAD_REACTORS
330
47
102
}
330
47
100
AcDbScale
 70
     0
300
1:100
140
1.0
141
100.0
290
     0
  0
SCALE
  5
54
102
{ACAD_REACTORS
330
47
102
}
330
47
100
AcDbScale
 70
     0
300
2:1
140
2.0
141
1.0
290
     0
  0
SCALE
  5
55
102
{ACAD_REACTORS
330
47
102
}
330
47
100
AcDbScale
 70
     0
300
4:1
140
4.0
141
1.0
290
     0
  0
SCALE
  5
56
102
{ACAD_REACTORS
330
47
102
}
330
47
100
AcDbScale
 70
     0
300
8:1
140
8.0
141
1.0
290
     0
  0
SCALE
  5
57
102
{ACAD_REACTORS
330
47
102
}
330
47
100
AcDbScale
 70
     0
300
10:1
140
10.0
141
1.0
290
     0
  0
SCALE
  5
58
102
{ACAD_REACTORS
330
47
102
}
330
47
100
AcDbScale
 70
     0
300
100:1
140
100.0
141
1.0
290
     0
  0
SCALE
  5
59
102
{ACAD_REACTORS
330
47
102
}
330
47
100
AcDbScale
 70
     0
300
1/128" = 1'-0"
140
0.0078125
141
12.0
290
     0
  0
SCALE
  5
5A
102
{ACAD_REACTORS
330
47
102
}
330
47
100
AcDbScale
 70
     0
300
1/64" = 1'-0"
140
0.015625
141
12.0
290
     0
  0
SCALE
  5
5B
102
{ACAD_REACTORS
330
47
102
}
330
47
100
AcDbScale
 70
     0
300
1/32" = 1'-0"
140
0.03125
141
12.0
290
     0
  0
SCALE
  5
5C
102
{ACAD_REACTORS
330
47
102
}
330
47
100
AcDbScale
 70
     0
300
1/16" = 1'-0"
140
0.0625
141
12.0
290
     0
  0
SCALE
  5
5D
102
{ACAD_REACTORS
330
47
102
}
330
47
100
AcDbScale
 70
     0
300
3/32" = 1'-0"
140
0.09375
141
12.0
290
     0
  0
SCALE
  5
5E
102
{ACAD_REACTORS
330
47
102
}
330
47
100
AcDbScale
 70
     0
300
1/8" = 1'-0"
140
0.125
141
12.0
290
     0
  0
SCALE
  5
5F
102
{ACAD_REACTORS
330
47
102
}
330
47
100
AcDbScale
 70
     0
300
3/16" = 1'-0"
140
0.1875
141
12.0
290
     0
  0
SCALE
  5
60
102
{ACAD_REACTORS
330
47
102
}
330
47
100
AcDbScale
 70
     0
300
1/4" = 1'-0"
140
0.25
141
12.0
290
     0
  0
SCALE
  5
61
102
{ACAD_REACTORS
330
47
102
}
330
47
100
AcDbScale
 70
     0
300
3/8" = 1'-0"
140
0.375
141
12.0
290
     0
  0
SCALE
  5
62
102
{ACAD_REACTORS
330
47
102
}
330
47
100
AcDbScale
 70
     0
300
1/2" = 1'-0"
140
0.5
141
12.0
290
     0
  0
SCALE
  5
63
102
{ACAD_REACTORS
330
47
102
}
330
47
100
AcDbScale
 70
     0
300
3/4" = 1'-0"
140
0.75
141
12.0
290
     0
  0
SCALE
  5
64
102
{ACAD_REACTORS
330
47
102
}
330
47
100
AcDbScale
 70
     0
300
1" = 1'-0"
140
1.0
141
12.0
290
     0
  0
SCALE
  5
65
102
{ACAD_REACTORS
330
47
102
}
330
47
100
AcDbScale
 70
     0
300
1-1/2" = 1'-0"
140
1.5
141
12.0
290
     0
  0
SCALE
  5
66
102
{ACAD_REACTORS
330
47
102
}
330
47
100
AcDbScale
 70
     0
300
3" = 1'-0"
140
3.0
141
12.0
290
     0
  0
SCALE
  5
67
102
{ACAD_REACTORS
330
47
102
}
330
47
100
AcDbScale
 70
     0
300
6" = 1'-0"
140
6.0
141
12.0
290
     0
  0
SCALE
  5
68
102
{ACAD_REACTORS
330
47
102
}
330
47
100
AcDbScale
 70
     0
300
1'-0" = 1'-0"
140
12.0
141
12.0
290
     0
  0
ENDSEC
  0
EOF
