  0
SECTION
  2
HEADER
  9
$ACADVER
  1
AC1015
  9
$ACADMAINTVER
 70
    20
  9
$DWGCODEPAGE
  3
ANSI_950
  9
$INSBASE
 10
0.0
 20
0.0
 30
0.0
  9
$EXTMIN
 10
894.6949058716841
 20
908.7681862294907
 30
-0.016386753105337
  9
$EXTMAX
 10
1394.6796041307
 20
1272.310404703717
 30
238.2288365979964
  9
$LIMMIN
 10
0.0
 20
0.0
  9
$LIMMAX
 10
420.0
 20
297.0
  9
$ORTHOMODE
 70
     1
  9
$REGENMODE
 70
     1
  9
$FILLMODE
 70
     1
  9
$QTEXTMODE
 70
     0
  9
$MIRRTEXT
 70
     1
  9
$LTSCALE
 40
1.0
  9
$ATTMODE
 70
     1
  9
$TEXTSIZE
 40
3.0
  9
$TRACEWID
 40
1.0
  9
$TEXTSTYLE
  7
CHINESET
  9
$CLAYER
  8
0
  9
$CELTYPE
  6
ByLayer
  9
$CECOLOR
 62
   256
  9
$CELTSCALE
 40
1.0
  9
$DISPSILH
 70
     0
  9
$DIMSCALE
 40
1.0
  9
$DIMASZ
 40
3.5
  9
$DIMEXO
 40
1.0
  9
$DIMDLI
 40
8.0
  9
$DIMRND
 40
0.0
  9
$DIMDLE
 40
0.0
  9
$DIMEXE
 40
1.5
  9
$DIMTP
 40
0.1
  9
$DIMTM
 40
0.1
  9
$DIMTXT
 40
4.0
  9
$DIMCEN
 40
3.0
  9
$DIMTSZ
 40
0.0
  9
$DIMTOL
 70
     0
  9
$DIMLIM
 70
     0
  9
$DIMTIH
 70
     0
  9
$DIMTOH
 70
     0
  9
$DIMSE1
 70
     0
  9
$DIMSE2
 70
     0
  9
$DIMTAD
 70
     1
  9
$DIMZIN
 70
     8
  9
$DIMBLK
  1

  9
$DIMASO
 70
     1
  9
$DIMSHO
 70
     1
  9
$DIMPOST
  1

  9
$DIMAPOST
  1
"
  9
$DIMALT
 70
     0
  9
$DIMALTD
 70
     2
  9
$DIMALTF
 40
0.0393701
  9
$DIMLFAC
 40
1.0
  9
$DIMTOFL
 70
     1
  9
$DIMTVP
 40
0.0
  9
$DIMTIX
 70
     0
  9
$DIMSOXD
 70
     0
  9
$DIMSAH
 70
     0
  9
$DIMBLK1
  1

  9
$DIMBLK2
  1

  9
$DIMSTYLE
  2
AM_ISO
  9
$DIMCLRD
 70
   256
  9
$DIMCLRE
 70
   256
  9
$DIMCLRT
 70
   256
  9
$DIMTFAC
 40
0.71
  9
$DIMGAP
 40
0.8
  9
$DIMJUST
 70
     0
  9
$DIMSD1
 70
     0
  9
$DIMSD2
 70
     0
  9
$DIMTOLJ
 70
     0
  9
$DIMTZIN
 70
     8
  9
$DIMALTZ
 70
     0
  9
$DIMALTTZ
 70
     0
  9
$DIMUPT
 70
     0
  9
$DIMDEC
 70
     2
  9
$DIMTDEC
 70
     8
  9
$DIMALTU
 70
     2
  9
$DIMALTTD
 70
     2
  9
$DIMTXSTY
  7
STANDARD
  9
$DIMAUNIT
 70
     0
  9
$DIMADEC
 70
     0
  9
$DIMALTRND
 40
0.0
  9
$DIMAZIN
 70
     2
  9
$DIMDSEP
 70
    46
  9
$DIMATFIT
 70
     3
  9
$DIMFRAC
 70
     0
  9
$DIMLDRBLK
  1

  9
$DIMLUNIT
 70
     2
  9
$DIMLWD
 70
    -1
  9
$DIMLWE
 70
    -1
  9
$DIMTMOVE
 70
     0
  9
$LUNITS
 70
     2
  9
$LUPREC
 70
     2
  9
$SKETCHINC
 40
1.0
  9
$FILLETRAD
 40
2.5
  9
$AUNITS
 70
     0
  9
$AUPREC
 70
     0
  9
$MENU
  1
.
  9
$ELEVATION
 40
0.0
  9
$PELEVATION
 40
0.0
  9
$THICKNESS
 40
0.0
  9
$LIMCHECK
 70
     0
  9
$CHAMFERA
 40
2.5
  9
$CHAMFERB
 40
2.5
  9
$CHAMFERC
 40
20.0
  9
$CHAMFERD
 40
0.0
  9
$SKPOLY
 70
     0
  9
$TDCREATE
 40
2453021.369367211
  9
$TDUCREATE
 40
2453021.036033877
  9
$TDUPDATE
 40
2453805.583967547
  9
$TDUUPDATE
 40
2453805.250634213
  9
$TDINDWG
 40
0.4541392708
  9
$TDUSRTIMER
 40
0.4541389236
  9
$USRTIMER
 70
     1
  9
$ANGBASE
 50
0.0
  9
$ANGDIR
 70
     0
  9
$PDMODE
 70
     0
  9
$PDSIZE
 40
0.0
  9
$PLINEWID
 40
0.0
  9
$SPLFRAME
 70
     0
  9
$SPLINETYPE
 70
     6
  9
$SPLINESEGS
 70
     8
  9
$HANDSEED
  5
5204
  9
$SURFTAB1
 70
     6
  9
$SURFTAB2
 70
     6
  9
$SURFTYPE
 70
     6
  9
$SURFU
 70
     6
  9
$SURFV
 70
     6
  9
$UCSBASE
  2

  9
$UCSNAME
  2

  9
$UCSORG
 10
0.0
 20
0.0
 30
0.0
  9
$UCSXDIR
 10
1.0
 20
0.0
 30
0.0
  9
$UCSYDIR
 10
0.0
 20
1.0
 30
0.0
  9
$UCSORTHOREF
  2

  9
$UCSORTHOVIEW
 70
     0
  9
$UCSORGTOP
 10
0.0
 20
0.0
 30
0.0
  9
$UCSORGBOTTOM
 10
0.0
 20
0.0
 30
0.0
  9
$UCSORGLEFT
 10
0.0
 20
0.0
 30
0.0
  9
$UCSORGRIGHT
 10
0.0
 20
0.0
 30
0.0
  9
$UCSORGFRONT
 10
0.0
 20
0.0
 30
0.0
  9
$UCSORGBACK
 10
0.0
 20
0.0
 30
0.0
  9
$PUCSBASE
  2

  9
$PUCSNAME
  2

  9
$PUCSORG
 10
0.0
 20
0.0
 30
0.0
  9
$PUCSXDIR
 10
1.0
 20
0.0
 30
0.0
  9
$PUCSYDIR
 10
0.0
 20
1.0
 30
0.0
  9
$PUCSORTHOREF
  2

  9
$PUCSORTHOVIEW
 70
     0
  9
$PUCSORGTOP
 10
0.0
 20
0.0
 30
0.0
  9
$PUCSORGBOTTOM
 10
0.0
 20
0.0
 30
0.0
  9
$PUCSORGLEFT
 10
0.0
 20
0.0
 30
0.0
  9
$PUCSORGRIGHT
 10
0.0
 20
0.0
 30
0.0
  9
$PUCSORGFRONT
 10
0.0
 20
0.0
 30
0.0
  9
$PUCSORGBACK
 10
0.0
 20
0.0
 30
0.0
  9
$USERI1
 70
     0
  9
$USERI2
 70
     0
  9
$USERI3
 70
     0
  9
$USERI4
 70
     0
  9
$USERI5
 70
     0
  9
$USERR1
 40
0.0
  9
$USERR2
 40
0.0
  9
$USERR3
 40
0.0
  9
$USERR4
 40
0.0
  9
$USERR5
 40
0.0
  9
$WORLDVIEW
 70
     1
  9
$SHADEDGE
 70
     3
  9
$SHADEDIF
 70
    70
  9
$TILEMODE
 70
     1
  9
$MAXACTVP
 70
    64
  9
$PINSBASE
 10
0.0
 20
0.0
 30
0.0
  9
$PLIMCHECK
 70
     0
  9
$PEXTMIN
 10
1.000000000000000E+20
 20
1.000000000000000E+20
 30
1.000000000000000E+20
  9
$PEXTMAX
 10
-1.000000000000000E+20
 20
-1.000000000000000E+20
 30
-1.000000000000000E+20
  9
$PLIMMIN
 10
0.0
 20
0.0
  9
$PLIMMAX
 10
420.0
 20
297.0
  9
$UNITMODE
 70
     0
  9
$VISRETAIN
 70
     1
  9
$PLINEGEN
 70
     0
  9
$PSLTSCALE
 70
     1
  9
$TREEDEPTH
 70
  3020
  9
$CMLSTYLE
  2
Standard
  9
$CMLJUST
 70
     0
  9
$CMLSCALE
 40
20.0
  9
$PROXYGRAPHICS
 70
     1
  9
$MEASUREMENT
 70
     1
  9
$CELWEIGHT
370
    -1
  9
$ENDCAPS
280
     0
  9
$JOINSTYLE
280
     0
  9
$LWDISPLAY
290
     0
  9
$INSUNITS
 70
     4
  9
$HYPERLINKBASE
  1

  9
$STYLESHEET
  1
彩色出圖.ctb
  9
$XEDIT
290
     1
  9
$CEPSNTYPE
380
     0
  9
$PSTYLEMODE
290
     1
  9
$FINGERPRINTGUID
  2
{6C02722A-18D3-491A-897A-B8025DE410A9}
  9
$VERSIONGUID
  2
{C231E809-17EB-4A8B-816C-F9D40650979E}
  9
$EXTNAMES
290
     1
  9
$PSVPSCALE
 40
0.0
  9
$OLESTARTUP
290
     0
  0
ENDSEC
  0
SECTION
  2
CLASSES
  0
CLASS
  1
ACDBDICTIONARYWDFLT
  2
AcDbDictionaryWithDefault
  3
ObjectDBX Classes
 90
        0
280
     0
281
     0
  0
CLASS
  1
ACDBPLACEHOLDER
  2
AcDbPlaceHolder
  3
ObjectDBX Classes
 90
        0
280
     0
281
     0
  0
CLASS
  1
LAYOUT
  2
AcDbLayout
  3
ObjectDBX Classes
 90
        0
280
     0
281
     0
  0
CLASS
  1
AMGSETTINGSOBJ
  2
AmgSettingsObj
  3
"AcadM|Product Description: AutoCAD Mechanical 2000|Company: Autodesk"
 90
        0
280
     0
281
     0
  0
CLASS
  1
ACME_DOCUMENT
  2
AcMeDbDoc
  3
AcMeServices
 90
        0
280
     0
281
     0
  0
CLASS
  1
ACMESCOPE
  2
AcMeScope
  3
AcMeServices
 90
        0
280
     0
281
     0
  0
CLASS
  1
ACMECOMMANDHISTORY
  2
AcMeCommandHistory
  3
AcMeServices
 90
        0
280
     0
281
     0
  0
CLASS
  1
ACIMSYSVARMAN
  2
AcImSysVarManager
  3
AcMeServices
 90
        0
280
     0
281
     0
  0
CLASS
  1
ACIMREALSYSVAR
  2
AcImRealSysVar
  3
AcMeServices
 90
        0
280
     0
281
     0
  0
CLASS
  1
ACIMINTSYSVAR
  2
AcImIntSysVar
  3
AcMeServices
 90
        0
280
     0
281
     0
  0
CLASS
  1
ACMEDRAWINGMAN
  2
AcMeDrawingMan
  3
AcMeServices
 90
        0
280
     0
281
     0
  0
CLASS
  1
ACMEVIEW
  2
AcMeView
  3
AcMeServices
 90
        0
280
     0
281
     0
  0
CLASS
  1
ACDBENTITYCACHE
  2
AcMeEntityCache
  3
AcMeServices
 90
        0
280
     0
281
     0
  0
CLASS
  1
GSMANAGER
  2
AcMeGSManager
  3
AcMeServices
 90
        0
280
     0
281
     0
  0
CLASS
  1
AMDTINTERNALREACTOR
  2
AmdtInternalReactor
  3
AcMeServices
 90
        0
280
     0
281
     0
  0
CLASS
  1
ACMESTATEMGR
  2
AcMeStateMgr
  3
AcMeServices
 90
        0
280
     0
281
     0
  0
CLASS
  1
ACGREFMASTER
  2
AcGrefMaster
  3
AcAttribServices
 90
        0
280
     0
281
     0
  0
CLASS
  1
ACME_DATABASE
  2
AcMeDbDatabase
  3
AcMeServices
 90
        0
280
     0
281
     0
  0
CLASS
  1
ACRFINSADJUSTERMGR
  2
AcRfInsAdjusterMgr
  3
AcMeServices
 90
        0
280
     0
281
     0
  0
CLASS
  1
ACGREFACADMASTER
  2
AcGrefacadMaster
  3
AcGrefServices
 90
        0
280
     0
281
     0
  0
CLASS
  1
AMIMASTER
  2
AmiMaster
  3
AmiServices
 90
        0
280
     0
281
     0
  0
CLASS
  1
ACMDATADICTIONARY
  2
AcmDataDictionary
  3
"AcmSymBB|Product Description: AutoCAD Mechanical 2004 DX|Company: Autodesk"
 90
        0
280
     0
281
     0
  0
CLASS
  1
ACMDATAENTRYBLOCK
  2
AcmDataEntryBlock
  3
"AcmSymBB|Product Description: AutoCAD Mechanical 2004 DX|Company: Autodesk"
 90
    32768
280
     0
281
     0
  0
CLASS
  1
ACIMSTRSYSVAR
  2
AcImStrSysVar
  3
AcMeServices
 90
        0
280
     0
281
     0
  0
CLASS
  1
ACMSTANDARDISO
  2
AcmStandardISO
  3
"Amdt_StdImp|Product Description: AutoCAD Mechanical 2004 DX|Company: Autodesk"
 90
        0
280
     0
281
     0
  0
CLASS
  1
AMGOBJPROPCFG
  2
AmgObjPropCfg
  3
"AmgLay|Product Description: AutoCAD Mechanical 2000|Company: Autodesk"
 90
        1
280
     0
281
     0
  0
CLASS
  1
AMDTEDGESTANDARDISO
  2
AmdtEdgeStdISO
  3
"Amdt_StdImp|Product Description: AutoCAD Mechanical 2004 DX|Company: Autodesk"
 90
    32768
280
     0
281
     0
  0
CLASS
  1
ACMSURFSTANDARDISO
  2
AcmSurfTextStdISO
  3
"Amdt_StdImp|Product Description: AutoCAD Mechanical 2004 DX|Company: Autodesk"
 90
        0
280
     0
281
     0
  0
CLASS
  1
ACMFCFSTANDARDISO
  2
AcmFCFStdISO
  3
"Amdt_StdImp|Product Description: AutoCAD Mechanical 2004 DX|Company: Autodesk"
 90
        0
280
     0
281
     0
  0
CLASS
  1
ACMWELDSTANDARDISO
  2
AcmWeldingStdISO
  3
"Amdt_StdImp|Product Description: AutoCAD Mechanical 2004 DX|Company: Autodesk"
 90
        0
280
     0
281
     0
  0
CLASS
  1
ACMIDSTANDARDISO
  2
AcmIdStdISO
  3
"Amdt_StdImp|Product Description: AutoCAD Mechanical 2004 DX|Company: Autodesk"
 90
        0
280
     0
281
     0
  0
CLASS
  1
ACMDATUMSTANDARDISO
  2
AcmDatumStdISO
  3
"Amdt_StdImp|Product Description: AutoCAD Mechanical 2004 DX|Company: Autodesk"
 90
        0
280
     0
281
     0
  0
CLASS
  1
ACMBOMSTANDARDISO
  2
AcmBOMStdISO
  3
"Amdt_StdImp|Product Description: AutoCAD Mechanical 2004 DX|Company: Autodesk"
 90
        0
280
     0
281
     0
  0
CLASS
  1
ACMDETAILSTANDARDISO
  2
AmdtDetailSymStdISO
  3
"Amdt_StdImp|Product Description: AutoCAD Mechanical 2004 DX|Company: Autodesk"
 90
        0
280
     0
281
     0
  0
CLASS
  1
ACMSECTIONSTANDARDISO
  2
AmdtSectionSymStdISO
  3
"Amdt_StdImp|Product Description: AutoCAD Mechanical 2004 DX|Company: Autodesk"
 90
        0
280
     0
281
     0
  0
CLASS
  1
ACMCENTERLINESTANDARDISO
  2
AmdtCenterLineStdISO
  3
"Amdt_StdImp|Product Description: AutoCAD Mechanical 2004 DX|Company: Autodesk"
 90
        0
280
     0
281
     0
  0
CLASS
  1
ACMNOTESTANDARDISO
  2
AmdtNoteStdISO
  3
"Amdt_StdImp|Product Description: AutoCAD Mechanical 2004 DX|Company: Autodesk"
 90
        0
280
     0
281
     0
  0
CLASS
  1
ACAMGLAYSTD
  2
AcAmgLayStd
  3
"AcAmgLayStd|Product Description: AutoCAD Mechanical 2000|Company: Autodesk"
 90
        0
280
     0
281
     0
  0
CLASS
  1
ACAMGDIMSTD
  2
AcAmgDimStd
  3
"AcAmgDimStd|Product Description: AutoCAD Mechanical 2000|Company: Autodesk"
 90
        0
280
     0
281
     0
  0
CLASS
  1
ACAMGHOLECHARTSTDISO
  2
AcAmgHoleChartStdISO
  3
ACMSYMBB_MODULE_NAME
 90
        0
280
     0
281
     0
  0
CLASS
  1
ACAMGTITLESTD
  2
AcAmgTitleStd
  3
"TITLEAPP"
 90
        0
280
     0
281
     0
  0
CLASS
  1
LAYER_INDEX
  2
AcDbLayerIndex
  3
ObjectDBX Classes
 90
    32768
280
     0
281
     0
  0
CLASS
  1
IDBUFFER
  2
AcDbIdBuffer
  3
ObjectDBX Classes
 90
    32768
280
     0
281
     0
  0
CLASS
  1
DICTIONARYVAR
  2
AcDbDictionaryVar
  3
ObjectDBX Classes
 90
        0
280
     0
281
     0
  0
CLASS
  1
ACAMGFILTERDAT
  2
AcAmgFilterDat
  3
"AcadM|Product Description: AutoCAD Mechanical 2000|Company: Autodesk"
 90
        0
280
     0
281
     0
  0
CLASS
  1
AMDTFORMULAUPDATEDISPATCHER
  2
AmdtFormulaUpdateDispatcher
  3
AcMeServices
 90
    32768
280
     0
281
     0
  0
CLASS
  1
DIMASSOC
  2
AcDbDimAssoc
  3
"AcDbDimAssoc|Product Desc:     AcDim ARX App For Dimension|Company:          Autodesk, Inc.|WEB Address:      www.autodesk.com"
 90
    32768
280
     0
281
     0
  0
CLASS
  1
AMDTNOTE
  2
AmdtNote
  3
"AcmSymBB|Product Description: AutoCAD Mechanical 2004 DX|Company: Autodesk"
 90
    33791
280
     0
281
     1
  0
CLASS
  1
TABLESTYLE
  2
AcDbTableStyle
  3
ObjectDBX Classes
 90
     2047
280
     0
281
     0
  0
CLASS
  1
AM_DRAWING_MGR
  2
AcDmDwgMgr
  3
AcMechDwgViewMgmt
 90
        0
280
     0
281
     0
  0
CLASS
  1
AM_DWG_DOCUMENT
  2
AcDmDwgDocument
  3
AcMechDwgViewMgmt
 90
        0
280
     0
281
     0
  0
CLASS
  1
AM_DWG_SHEET
  2
AcDmSheet
  3
AcMechDwgViewMgmt
 90
        0
280
     0
281
     0
  0
CLASS
  1
AM_VIEWDIMPARMAP
  2
AcDmViewDimParMap
  3
AcMechDwgViewMgmt
 90
        0
280
     0
281
     0
  0
CLASS
  1
AM_DWGMGR_NAME
  2
AcDmDwgMgrName
  3
AcMechDwgViewMgmt
 90
        0
280
     0
281
     0
  0
CLASS
  1
AMDTMENUSTATEMGR
  2
AmdtMenuStateMgr
  3
McadcomServices
 90
        0
280
     0
281
     0
  0
CLASS
  1
AMDTMCOMMENUSTATE
  2
AmdtMcomMenuState
  3
McadcomServices
 90
        0
280
     0
281
     0
  0
CLASS
  1
MAPIAMMOUDLE
  2
MApiAmModule
  3
MApiAmServices
 90
        0
280
     0
281
     0
  0
CLASS
  1
AMDTADMENUSTATE
  2
AmdtAdMenuState
  3
DesignerServices
 90
        0
280
     0
281
     0
  0
CLASS
  1
ADAPPL
  2
AcAdAppl
  3
DesignerServices
 90
        0
280
     0
281
     0
  0
CLASS
  1
DEPMGR
  2
AcAdDepMgr
  3
DesignerServices
 90
        0
280
     0
281
     0
  0
CLASS
  1
PARAMMGR
  2
AcAdParamMgr
  3
DesignerServices
 90
        0
280
     0
281
     0
  0
CLASS
  1
PARAMSCOPE
  2
AcAdParamScope
  3
DesignerServices
 90
        0
280
     0
281
     0
  0
CLASS
  1
NAMEDAPPL
  2
AcAdNamedAppl
  3
DesignerServices
 90
        0
280
     0
281
     0
  0
CLASS
  1
AMDTDMMENUSTATE
  2
AmdtDmMenuState
  3
AcMechDwgViewMgmt
 90
        0
280
     0
281
     0
  0
CLASS
  1
AMDTAMMENUSTATE
  2
AmdtAmMenuState
  3
DesignerAssemblies
 90
        0
280
     0
281
     0
  0
CLASS
  1
ACAMPROJECT
  2
AcAmProject
  3
DesignerAssemblies
 90
        0
280
     0
281
     0
  0
CLASS
  1
ACAMGRCOMPDEF
  2
AcAmGrCompDef
  3
DesignerAssemblies
 90
        0
280
     0
281
     0
  0
CLASS
  1
ACCMCONTEXT
  2
AcCmContext
  3
DesignerAssemblies
 90
        0
280
     0
281
     0
  0
CLASS
  1
ACAMCOMPDEF
  2
AcAmCompDef
  3
DesignerAssemblies
 90
        0
280
     0
281
     0
  0
CLASS
  1
ACAMCOMPDEFMGR
  2
AcAmCompDefMgr
  3
DesignerAssemblies
 90
        0
280
     0
281
     0
  0
CLASS
  1
AMCONTEXTMGR
  2
AcAmContextMgr
  3
DesignerAssemblies
 90
        0
280
     0
281
     0
  0
CLASS
  1
ACAMCONTEXTMODELER
  2
AcAmContextModeler
  3
DesignerAssemblies
 90
        0
280
     0
281
     0
  0
CLASS
  1
ACMTHREADLINESTANDARDISO
  2
AmdtThreadLineStdISO
  3
"Amdt_StdImp|Product Description: AutoCAD Mechanical 2004 DX|Company: Autodesk"
 90
        0
280
     0
281
     0
  0
CLASS
  1
CATALOGSTATE
  2
AcAmCatalogState
  3
DesignerAssemblies
 90
        0
280
     0
281
     0
  0
CLASS
  1
ACAMGRCOMPDEFSET
  2
AcAmGrCompDefSet
  3
DesignerAssemblies
 90
        0
280
     0
281
     0
  0
CLASS
  1
AMDTBROWSERDBTAB
  2
AmdtBrowserDbTab
  3
McadcomServices
 90
        0
280
     0
281
     0
  0
CLASS
  1
CBROWSERAPPOBJECT
  2
CBrowserAppObject
  3
McadcomServices
 90
        0
280
     0
281
     0
  0
CLASS
  1
DM_PLACEHOLDER
  2
AcDmSelsetPlaceholder
  3
AcMechDwgViewMgmt
 90
        0
280
     0
281
     0
  0
CLASS
  1
VAACXREFPANELOBJECT
  2
VaAcXREFPanelObject
  3
VAAC_ADDIN
 90
    32768
280
     0
281
     0
  0
CLASS
  1
VAACIMAGEINVENTORY
  2
VaAcImageInventory
  3
VAAC_ADDIN
 90
    32768
280
     0
281
     0
  0
CLASS
  1
AMDTEDGESTANDARDISO13715
  2
AmdtEdgeStdISO13715
  3
"Amdt_StdImp|Product Description: AutoCAD Mechanical 2004 DX|Company: Autodesk"
 90
        0
280
     0
281
     0
  0
CLASS
  1
AMDTNOTETEMPLATEDB
  2
AmdtNoteTemplateDB
  3
AMDT_STDIMP_MODULE_NAME
 90
        0
280
     0
281
     0
  0
CLASS
  1
ACRFATTGENMGR
  2
AcRfAttGeneralMgr
  3
AcAttribServices
 90
        0
280
     0
281
     0
  0
CLASS
  1
STDPART2D
  2
AmgStdPart
  3
"AmgStdPart|Product Description: AutoCAD Mechanical 2000|Company: Autodesk"
 90
    33791
280
     0
281
     1
  0
CLASS
  1
ACAMSTDPCOMPDEF
  2
AcAmStdpCompDef
  3
DesignerAssemblies
 90
    32768
280
     0
281
     0
  0
CLASS
  1
ACRFOBJATTMGR
  2
AcRfObjAttGroupMgr
  3
AcAttribServices
 90
    32768
280
     0
281
     0
  0
CLASS
  1
ACRFMCADAPIATTHOLDER
  2
AcRfMCADAPIAttHolder
  3
AcAttribServices
 90
    32768
280
     0
281
     0
  0
CLASS
  1
AMDTSYSATTR
  2
AmdtSystemAttribute
  3
AcAttribServices
 90
    32768
280
     0
281
     0
  0
CLASS
  1
ACAMCOMP
  2
AcAmComp
  3
DesignerAssemblies
 90
    32768
280
     0
281
     0
  0
CLASS
  1
AC_AM_STDP_VIEW_DEF
  2
AcAmStdpViewDef
  3
DesignerAssemblies
 90
    32768
280
     0
281
     0
  0
CLASS
  1
AC_AM_MVD_DEP_MGR
  2
AcAmMVDdepMgr
  3
DesignerAssemblies
 90
        0
280
     0
281
     0
  0
CLASS
  1
AC_AM_MASTER_VIEW_DEF
  2
AcAmMasterViewDef
  3
DesignerAssemblies
 90
        0
280
     0
281
     0
  0
CLASS
  1
AC_AM_DIRTY_NODES
  2
AcAmDirtyNodes
  3
DesignerAssemblies
 90
        0
280
     0
281
     0
  0
CLASS
  1
AC_AM_MAPPER_CACHE
  2
AcAmMapperCache
  3
DesignerAssemblies
 90
        0
280
     0
281
     0
  0
CLASS
  1
ACAMMVDBACKUPOBJECT
  2
AcAmMVDBackupObject
  3
DesignerAssemblies
 90
        0
280
     0
281
     0
  0
CLASS
  1
AC_AM_COMP_VIEW_INST
  2
AcAmCompView
  3
DesignerAssemblies
 90
    32768
280
     0
281
     0
  0
CLASS
  1
AC_AM_2D_XREF_MGR
  2
AcAmXrefMgr2d
  3
DesignerAssemblies
 90
        0
280
     0
281
     0
  0
CLASS
  1
SORTENTSTABLE
  2
AcDbSortentsTable
  3
ObjectDBX Classes
 90
        0
280
     0
281
     0
  0
ENDSEC
  0
SECTION
  2
TABLES
  0
TABLE
  2
VPORT
  5
8
330
0
100
AcDbSymbolTable
 70
     3
  0
VPORT
  5
51FB
330
8
100
AcDbSymbolTableRecord
100
AcDbViewportTableRecord
  2
*Active
 70
     0
 10
0.0
 20
0.0
 11
1.0
 21
1.0
 12
1144.656275196407
 22
1090.554812232336
 13
0.0
 23
0.0
 14
2.5
 24
2.5
 15
10.0
 25
10.0
 16
0.0
 26
0.0
 36
1.0
 17
0.0
 27
0.0
 37
0.0
 40
367.7737803298795
 41
1.81766917293233
 42
50.0
 43
0.0
 44
0.0
 50
0.0
 51
0.0
 71
     0
 72
   100
 73
     1
 74
     3
 75
     0
 76
     0
 77
     0
 78
     0
281
     0
 65
     1
110
0.0
120
0.0
130
0.0
111
1.0
121
0.0
131
0.0
112
0.0
122
1.0
132
0.0
 79
     0
146
0.0
  0
ENDTAB
  0
TABLE
  2
LTYPE
  5
5
330
0
100
AcDbSymbolTable
 70
    14
  0
LTYPE
  5
14
330
5
100
AcDbSymbolTableRecord
100
AcDbLinetypeTableRecord
  2
ByBlock
 70
     0
  3

 72
    65
 73
     0
 40
0.0
  0
LTYPE
  5
15
330
5
100
AcDbSymbolTableRecord
100
AcDbLinetypeTableRecord
  2
ByLayer
 70
     0
  3

 72
    65
 73
     0
 40
0.0
  0
LTYPE
  5
16
330
5
100
AcDbSymbolTableRecord
100
AcDbLinetypeTableRecord
  2
Continuous
 70
     0
  3
Solid line
 72
    65
 73
     0
 40
0.0
  0
LTYPE
  5
4D
330
5
100
AcDbSymbolTableRecord
100
AcDbLinetypeTableRecord
  2
AM_ISO02W050
 70
     0
  3
__ __ __ __ __ __ __ __ __ __ __ __ __ __ __
 72
    65
 73
     2
 40
7.5
 49
6.0
 74
     0
 49
-1.5
 74
     0
  0
LTYPE
  5
4E
330
5
100
AcDbSymbolTableRecord
100
AcDbLinetypeTableRecord
  2
AM_ISO08W050
 70
     0
  3
____ . ____ . ____ . ____ . ____ . ____ . ____
 72
    65
 73
     4
 40
18.0
 49
12.0
 74
     0
 49
-1.5
 74
     0
 49
3.0
 74
     0
 49
-1.5
 74
     0
  0
LTYPE
  5
4F
330
5
100
AcDbSymbolTableRecord
100
AcDbLinetypeTableRecord
  2
AM_ISO09W050
 70
     0
  3
_____ . . _____ . . _____ . . ____ .. ____
 72
    65
 73
     6
 40
22.5
 49
12.0
 74
     0
 49
-1.5
 74
     0
 49
3.0
 74
     0
 49
-1.5
 74
     0
 49
3.0
 74
     0
 49
-1.5
 74
     0
  0
LTYPE
  5
50
330
5
100
AcDbSymbolTableRecord
100
AcDbLinetypeTableRecord
  2
Amconstr
 70
     0
  3
_______________________
 72
    65
 73
     2
 40
9999.0
 49
9999.0
 74
     0
 49
0.0
 74
     0
  0
LTYPE
  5
51
330
5
100
AcDbSymbolTableRecord
100
AcDbLinetypeTableRecord
  2
AM_ISO08W050x2
 70
     0
  3
__ . __ . __ . __ . __ . __
 72
    65
 73
     4
 40
9.0
 49
6.0
 74
     0
 49
-0.75
 74
     0
 49
1.5
 74
     0
 49
-0.75
 74
     0
  0
LTYPE
  5
52
330
5
100
AcDbSymbolTableRecord
100
AcDbLinetypeTableRecord
  2
AM_ISO02W050x2
 70
     0
  3
 _ _ _ _ _ _ _ _ _ _ _ _
 72
    65
 73
     2
 40
3.75
 49
3.0
 74
     0
 49
-0.75
 74
     0
  0
LTYPE
  5
55
330
5
100
AcDbSymbolTableRecord
100
AcDbLinetypeTableRecord
  2
Amzigzag
 70
     0
  3
/\/-/\/-/\/-/\/-/\/-/\/
 72
    65
 73
     2
 40
11.0001
 49
0.0001
 74
     4
 75
   135
340
54
 46
0.04
 50
0.0
 44
0.0
 45
0.0
 49
-11.0
 74
     0
  0
LTYPE
  5
63
330
5
100
AcDbSymbolTableRecord
100
AcDbLinetypeTableRecord
  2
ACISOWELD
 70
     0
  3
_ _ _ _ _
 72
    65
 73
     2
 40
2.0
 49
2.0
 74
     0
 49
-1.0
 74
     0
  0
LTYPE
  5
64
330
5
100
AcDbSymbolTableRecord
100
AcDbLinetypeTableRecord
  2
ACISOTGB
 70
     0
  3
__ . . __ . .
 72
    65
 73
     6
 40
9.0
 49
4.0
 74
     0
 49
-1.0
 74
     0
 49
1.0
 74
     0
 49
-1.0
 74
     0
 49
1.0
 74
     0
 49
-1.0
 74
     0
  0
LTYPE
  5
65
330
5
100
AcDbSymbolTableRecord
100
AcDbLinetypeTableRecord
  2
ACISOTGL
 70
     0
  3
_ _ _ _ _
 72
    65
 73
     2
 40
3.0
 49
2.0
 74
     0
 49
-1.0
 74
     0
  0
LTYPE
  5
68
330
5
100
AcDbSymbolTableRecord
100
AcDbLinetypeTableRecord
  2
CENTER
 70
     0
  3
__ . __
 72
    65
 73
     4
 40
7.0
 49
4.0
 74
     0
 49
-1.0
 74
     0
 49
1.0
 74
     0
 49
-1.0
 74
     0
  0
LTYPE
  5
932
330
5
100
AcDbSymbolTableRecord
100
AcDbLinetypeTableRecord
  2
HIDDEN
 70
     0
  3
Hidden __ __ __ __ __ __ __ __ __ __ __ __ __ _
 72
    65
 73
     2
 40
9.524999999999998
 49
6.349999999999999
 74
     0
 49
-3.174999999999999
 74
     0
  0
LTYPE
  5
933
330
5
100
AcDbSymbolTableRecord
100
AcDbLinetypeTableRecord
  2
PHANTOM2
 70
     0
  3
Phantom (.5x) ___ _ _ ___ _ _ ___ _ _ ___ _ _
 72
    65
 73
     6
 40
31.75
 49
15.875
 74
     0
 49
-3.174999999999999
 74
     0
 49
3.174999999999999
 74
     0
 49
-3.174999999999999
 74
     0
 49
3.174999999999999
 74
     0
 49
-3.174999999999999
 74
     0
  0
ENDTAB
  0
TABLE
  2
LAYER
  5
2
102
{ACAD_XDICTIONARY
360
E05
102
}
330
0
100
AcDbSymbolTable
 70
     6
  0
LAYER
  5
10
330
2
100
AcDbSymbolTableRecord
100
AcDbLayerTableRecord
  2
0
 70
     0
 62
     7
  6
Continuous
370
    -3
390
F
  0
LAYER
  5
2D7
330
2
100
AcDbSymbolTableRecord
100
AcDbLayerTableRecord
  2
M_1
 70
     0
 62
     7
  6
Continuous
370
    -3
390
F
  0
LAYER
  5
42A
330
2
100
AcDbSymbolTableRecord
100
AcDbLayerTableRecord
  2
AM_5
 70
     0
 62
     5
  6
Continuous
370
    50
390
F
  0
LAYER
  5
43E
330
2
100
AcDbSymbolTableRecord
100
AcDbLayerTableRecord
  2
Defpoints
 70
     0
 62
     7
  6
Continuous
290
     0
370
    -3
390
F
  0
LAYER
  5
E7E
330
2
100
AcDbSymbolTableRecord
100
AcDbLayerTableRecord
  2
AM_7
 70
     0
 62
     1
  6
CENTER
370
    25
390
F
  0
LAYER
  5
2787
330
2
100
AcDbSymbolTableRecord
100
AcDbLayerTableRecord
  2
LOGO
 70
     0
 62
     7
  6
Continuous
370
    -3
390
F
  0
ENDTAB
  0
TABLE
  2
STYLE
  5
3
330
0
100
AcDbSymbolTable
 70
     8
  0
STYLE
  5
11
330
3
100
AcDbSymbolTableRecord
100
AcDbTextStyleTableRecord
  2
STANDARD
 70
     0
 40
0.0
 41
1.0
 50
0.0
 71
     0
 42
3.5
  3
ISOCP.SHX
  4
CHINESET.SHX
  0
STYLE
  5
54
330
3
100
AcDbSymbolTableRecord
100
AcDbTextStyleTableRecord
  2

 70
     1
 40
0.0
 41
1.0
 50
0.0
 71
     0
 42
2.5
  3
ltypeshp.shx
  4

  0
STYLE
  5
56
330
3
100
AcDbSymbolTableRecord
100
AcDbTextStyleTableRecord
  2
ACISOTS
 70
     0
 40
1.0
 41
1.0
 50
0.0
 71
     0
 42
2.5
  3
isocp.shx
  4
chineset.shx
  0
STYLE
  5
62
330
3
100
AcDbSymbolTableRecord
100
AcDbTextStyleTableRecord
  2
ACISOGDT
 70
     0
 40
0.0
 41
1.0
 50
0.0
 71
     0
 42
3.5
  3
amgdt.shx
  4

  0
STYLE
  5
9E
330
3
100
AcDbSymbolTableRecord
100
AcDbTextStyleTableRecord
  2
DAYUS
 70
     0
 40
0.0
 41
1.0
 50
0.0
 71
     0
 42
2.5
  3
simplex
  4
dayus
  0
STYLE
  5
10CF
330
3
100
AcDbSymbolTableRecord
100
AcDbTextStyleTableRecord
  2
CHINESET
 70
     0
 40
0.0
 41
0.75
 50
0.0
 71
     0
 42
3.0
  3
simplex.shx
  4
CHINESET.SHX
  0
STYLE
  5
2BA6
330
3
100
AcDbSymbolTableRecord
100
AcDbTextStyleTableRecord
  2
China
 70
     0
 40
0.0
 41
1.0
 50
0.0
 71
     0
 42
2.5
  3
romans.shx
  4
chineset.shx
  0
ENDTAB
  0
TABLE
  2
VIEW
  5
6
330
0
100
AcDbSymbolTable
 70
     0
  0
ENDTAB
  0
TABLE
  2
UCS
  5
7
330
0
100
AcDbSymbolTable
 70
     0
  0
ENDTAB
  0
TABLE
  2
APPID
  5
9
330
0
100
AcDbSymbolTable
 70
    31
  0
APPID
  5
12
330
9
100
AcDbSymbolTableRecord
100
AcDbRegAppTableRecord
  2
ACAD
 70
     0
  0
APPID
  5
30
330
9
100
AcDbSymbolTableRecord
100
AcDbRegAppTableRecord
  2
MCAD_NO_VIS
 70
     0
  0
APPID
  5
31
330
9
100
AcDbSymbolTableRecord
100
AcDbRegAppTableRecord
  2
ACAD_TEMP_GRAPHIC
 70
     0
  0
APPID
  5
42
330
9
100
AcDbSymbolTableRecord
100
AcDbRegAppTableRecord
  2
ACATTRIBSERVICES
 70
     0
  0
APPID
  5
20A
330
9
100
AcDbSymbolTableRecord
100
AcDbRegAppTableRecord
  2
GENIUS_GENODEF_13
 70
     0
  0
APPID
  5
20B
330
9
100
AcDbSymbolTableRecord
100
AcDbRegAppTableRecord
  2
GENIUS_GENOBJ-N-HTC_13
 70
     0
  0
APPID
  5
20C
330
9
100
AcDbSymbolTableRecord
100
AcDbRegAppTableRecord
  2
GENIUS_GENHATCH_13
 70
     0
  0
APPID
  5
935
330
9
100
AcDbSymbolTableRecord
100
AcDbRegAppTableRecord
  2
AD_DRAW
 70
     0
  0
APPID
  5
953
330
9
100
AcDbSymbolTableRecord
100
AcDbRegAppTableRecord
  2
DESIGNERASSEMBLIES
 70
     0
  0
APPID
  5
958
330
9
100
AcDbSymbolTableRecord
100
AcDbRegAppTableRecord
  2
ACADM_DIM_EDIT
 70
     0
  0
APPID
  5
959
330
9
100
AcDbSymbolTableRecord
100
AcDbRegAppTableRecord
  2
AMDT_DM_ADJ
 70
     0
  0
APPID
  5
E24
330
9
100
AcDbSymbolTableRecord
100
AcDbRegAppTableRecord
  2
ACAD_DSTYLE_DIMTEXT_FILL
 70
     0
  0
APPID
  5
10D0
330
9
100
AcDbSymbolTableRecord
100
AcDbRegAppTableRecord
  2
ACAD_PSEXT
 70
     0
  0
APPID
  5
16F7
330
9
100
AcDbSymbolTableRecord
100
AcDbRegAppTableRecord
  2
ACAD_DIMASSOC_DIMLFAC
 70
     0
  0
APPID
  5
16F8
330
9
100
AcDbSymbolTableRecord
100
AcDbRegAppTableRecord
  2
ACAD_DIMASSOC_CALC_DIMLFAC
 70
     0
  0
APPID
  5
16F9
330
9
100
AcDbSymbolTableRecord
100
AcDbRegAppTableRecord
  2
ACAD_DIMASSOC_OVERRIDDEN_DIMLFAC
 70
     0
  0
APPID
  5
1997
330
9
100
AcDbSymbolTableRecord
100
AcDbRegAppTableRecord
  2
GEVID1139552286
 70
     0
  0
APPID
  5
1998
330
9
100
AcDbSymbolTableRecord
100
AcDbRegAppTableRecord
  2
GEVDC
 70
     0
  0
APPID
  5
1999
330
9
100
AcDbSymbolTableRecord
100
AcDbRegAppTableRecord
  2
GEVRADREF
 70
     0
  0
APPID
  5
19A2
330
9
100
AcDbSymbolTableRecord
100
AcDbRegAppTableRecord
  2
AMG_2DHIDE
 70
     0
  0
APPID
  5
19A3
330
9
100
AcDbSymbolTableRecord
100
AcDbRegAppTableRecord
  2
AMG_2DSTRUCT_BTR
 70
     0
  0
APPID
  5
19B4
330
9
100
AcDbSymbolTableRecord
100
AcDbRegAppTableRecord
  2
ACADM_2DVIEW_IGN_NOTIFY
 70
     0
  0
APPID
  5
19DC
330
9
100
AcDbSymbolTableRecord
100
AcDbRegAppTableRecord
  2
GENIUS_GENOENT_13
 70
     0
  0
APPID
  5
19DD
330
9
100
AcDbSymbolTableRecord
100
AcDbRegAppTableRecord
  2
GENIUS_GENOBJ-N-CRS_13
 70
     0
  0
APPID
  5
19DE
330
9
100
AcDbSymbolTableRecord
100
AcDbRegAppTableRecord
  2
GENIUS_GENOLIS_13
 70
     0
  0
APPID
  5
19DF
330
9
100
AcDbSymbolTableRecord
100
AcDbRegAppTableRecord
  2
GENIUS_GENOREF_13
 70
     0
  0
APPID
  5
1B28
330
9
100
AcDbSymbolTableRecord
100
AcDbRegAppTableRecord
  2
GENIUS_GENOBJ-N-CEN_13
 70
     0
  0
APPID
  5
1B29
330
9
100
AcDbSymbolTableRecord
100
AcDbRegAppTableRecord
  2
GENIUS_GENCEN_19
 70
     0
  0
APPID
  5
2753
330
9
100
AcDbSymbolTableRecord
100
AcDbRegAppTableRecord
  2
GENIUS_GENDTOL_13
 70
     0
  0
APPID
  5
2788
330
9
100
AcDbSymbolTableRecord
100
AcDbRegAppTableRecord
  2
GENIUS_GENREC_14
 70
     0
  0
APPID
  5
2789
330
9
100
AcDbSymbolTableRecord
100
AcDbRegAppTableRecord
  2
GENIUS_GENOBJ-N-REC_13
 70
     0
  0
ENDTAB
  0
TABLE
  2
DIMSTYLE
  5
A
330
0
100
AcDbSymbolTable
 70
    10
100
AcDbDimStyleTable
 71
     2
340
6B
340
75
  0
DIMSTYLE
105
6B
330
A
100
AcDbSymbolTableRecord
100
AcDbDimStyleTableRecord
  2
AM_ISO
 70
     0
  4
"
 41
3.5
 42
1.0
 43
8.0
 44
1.5
 47
0.1
 48
0.1
 73
     0
 74
     0
 77
     1
 78
     8
 79
     2
140
4.0
141
3.0
143
0.0393701
146
0.71
147
0.8
172
     1
176
   256
177
   256
178
   256
271
     2
272
     2
283
     0
284
     8
340
11
371
    -1
372
    -1
  0
DIMSTYLE
105
6C
330
A
100
AcDbSymbolTableRecord
100
AcDbDimStyleTableRecord
  2
AM_ISO$3
 70
     0
  4
"
 41
3.5
 42
1.0
 43
8.0
 44
1.5
 47
0.1
 48
0.1
 73
     0
 77
     1
 78
     8
 79
     2
140
4.0
141
3.0
143
0.0393701
146
0.71
147
0.8
176
   256
177
   256
178
   256
271
     2
272
     2
283
     0
284
     8
288
     1
289
     0
340
11
371
    -1
372
    -1
  0
DIMSTYLE
105
6D
330
A
100
AcDbSymbolTableRecord
100
AcDbDimStyleTableRecord
  2
AM_ISO$4
 70
     0
  4
"
 41
3.5
 42
1.0
 43
8.0
 44
1.5
 47
0.1
 48
0.1
 73
     0
 77
     1
 78
     8
 79
     2
140
4.0
141
3.0
143
0.0393701
146
0.71
147
0.8
176
   256
177
   256
178
   256
271
     2
272
     2
283
     0
284
     8
288
     1
289
     0
340
11
371
    -1
372
    -1
  0
DIMSTYLE
105
6E
330
A
100
AcDbSymbolTableRecord
100
AcDbDimStyleTableRecord
  2
AM_ISO$6
 70
     0
  4
"
 41
3.5
 42
1.0
 43
8.0
 44
1.5
 47
0.1
 48
0.1
 73
     0
 74
     0
 78
     8
 79
     2
140
4.0
141
3.0
143
0.0393701
146
0.71
147
0.8
172
     1
176
   256
177
   256
178
   256
271
     2
272
     2
283
     0
284
     8
340
11
371
    -1
372
    -1
  0
DIMSTYLE
105
6F
102
{ACAD_REACTORS
330
4B1C
330
4B1B
102
}
330
A
100
AcDbSymbolTableRecord
100
AcDbDimStyleTableRecord
  2
AM_ISO$7
 70
     0
  4
"
 41
3.5
 42
1.0
 43
8.0
 44
1.5
 47
0.1
 48
0.1
 73
     0
 74
     0
 77
     1
 78
     8
 79
     2
140
5.0
141
3.0
143
0.0393701
146
0.71
147
0.8
172
     1
176
   256
177
   256
178
   256
271
     2
272
     2
283
     0
284
     8
340
11
371
    -1
372
    -1
  0
DIMSTYLE
105
70
330
A
100
AcDbSymbolTableRecord
100
AcDbDimStyleTableRecord
  2
AM_ISO$SF
 70
     0
  4
"
 41
2.5
 42
1.0
 43
10.0
 44
1.0
 47
0.1
 48
0.1
 73
     0
 74
     0
 75
     1
 76
     1
 77
     1
 78
     8
 79
     2
140
3.5
141
0.0
143
0.0393701
146
0.71
147
1.5
172
     1
176
   256
177
   256
178
     2
271
     2
272
     3
274
     4
283
     0
284
     8
340
11
371
    -1
372
    -1
  0
DIMSTYLE
105
75
330
A
100
AcDbSymbolTableRecord
100
AcDbDimStyleTableRecord
  2
AM_ISO$SH
 70
     0
  4
"
 41
2.5
 42
1.0
 43
10.0
 44
1.0
 47
0.1
 48
0.1
 73
     0
 74
     0
 75
     1
 76
     1
 77
     1
 78
     8
 79
     2
140
3.5
141
0.0
143
0.0393701
144
2.0
146
0.71
147
1.5
172
     1
173
     1
176
   256
177
   256
178
     2
271
     2
272
     3
274
     4
283
     0
284
     8
340
11
343
71
371
    -1
372
    -1
  0
DIMSTYLE
105
E7F
102
{ACAD_REACTORS
330
4BBF
330
4B0D
330
4BF1
330
4BC3
330
4B14
330
4B13
330
4BD4
330
4BCC
330
4BCB
330
4BC1
330
4AD9
330
4AEC
330
4AD7
330
4BFA
330
4BFB
330
4ABB
330
4BF7
330
4AD0
330
4ACF
330
4ACE
330
4B2F
330
4B28
102
}
330
A
100
AcDbSymbolTableRecord
100
AcDbDimStyleTableRecord
  2
AM_ISO$0
 70
     0
  4
"
 41
3.5
 42
1.0
 43
8.0
 44
1.5
 47
0.1
 48
0.1
 73
     0
 74
     0
 77
     1
 78
     8
 79
     2
140
4.0
141
3.0
143
0.0393701
146
0.71
147
0.8
172
     1
176
   256
177
   256
178
   256
271
     2
272
     2
283
     0
284
     8
340
11
371
    -1
372
    -1
  0
DIMSTYLE
105
1597
330
A
100
AcDbSymbolTableRecord
100
AcDbDimStyleTableRecord
  2
AM_ISO$2
 70
     0
  4
"
 41
3.5
 42
1.0
 43
8.0
 44
1.5
 47
0.1
 48
0.1
 73
     0
 74
     0
 77
     1
 78
     8
 79
     2
140
4.0
141
3.0
143
0.0393701
146
0.71
147
0.8
172
     1
176
   256
177
   256
178
   256
271
     2
272
     2
283
     0
284
     8
340
11
371
    -1
372
    -1
  0
ENDTAB
  0
TABLE
  2
BLOCK_RECORD
  5
1
330
0
100
AcDbSymbolTable
 70
    28
  0
BLOCK_RECORD
  5
1F
102
{ACAD_XDICTIONARY
360
7D
102
}
330
1
100
AcDbSymbolTableRecord
100
AcDbBlockTableRecord
  2
*Model_Space
340
22
  0
BLOCK_RECORD
  5
1B
330
1
100
AcDbSymbolTableRecord
100
AcDbBlockTableRecord
  2
*Paper_Space
340
1E
  0
BLOCK_RECORD
  5
23
330
1
100
AcDbSymbolTableRecord
100
AcDbBlockTableRecord
  2
*Paper_Space0
340
26
  0
BLOCK_RECORD
  5
71
330
1
100
AcDbSymbolTableRecord
100
AcDbBlockTableRecord
  2
GENAXEH
340
0
  0
BLOCK_RECORD
  5
19B9
330
1
100
AcDbSymbolTableRecord
100
AcDbBlockTableRecord
  2
*U4
340
0
  0
BLOCK_RECORD
  5
4C49
330
1
100
AcDbSymbolTableRecord
100
AcDbBlockTableRecord
  2
*D5
340
0
  0
BLOCK_RECORD
  5
4C55
330
1
100
AcDbSymbolTableRecord
100
AcDbBlockTableRecord
  2
*D6
340
0
  0
BLOCK_RECORD
  5
4C61
330
1
100
AcDbSymbolTableRecord
100
AcDbBlockTableRecord
  2
*D7
340
0
  0
BLOCK_RECORD
  5
4C6E
330
1
100
AcDbSymbolTableRecord
100
AcDbBlockTableRecord
  2
*D8
340
0
  0
BLOCK_RECORD
  5
4C7A
330
1
100
AcDbSymbolTableRecord
100
AcDbBlockTableRecord
  2
*D9
340
0
  0
BLOCK_RECORD
  5
4C86
330
1
100
AcDbSymbolTableRecord
100
AcDbBlockTableRecord
  2
*D10
340
0
  0
BLOCK_RECORD
  5
4C92
330
1
100
AcDbSymbolTableRecord
100
AcDbBlockTableRecord
  2
*D11
340
0
  0
BLOCK_RECORD
  5
4C9D
330
1
100
AcDbSymbolTableRecord
100
AcDbBlockTableRecord
  2
*D12
340
0
  0
BLOCK_RECORD
  5
4CA9
330
1
100
AcDbSymbolTableRecord
100
AcDbBlockTableRecord
  2
*D13
340
0
  0
BLOCK_RECORD
  5
4CB5
330
1
100
AcDbSymbolTableRecord
100
AcDbBlockTableRecord
  2
*D14
340
0
  0
BLOCK_RECORD
  5
4CC1
330
1
100
AcDbSymbolTableRecord
100
AcDbBlockTableRecord
  2
*D15
340
0
  0
BLOCK_RECORD
  5
4CCD
330
1
100
AcDbSymbolTableRecord
100
AcDbBlockTableRecord
  2
*D16
340
0
  0
BLOCK_RECORD
  5
4CD9
330
1
100
AcDbSymbolTableRecord
100
AcDbBlockTableRecord
  2
*D17
340
0
  0
BLOCK_RECORD
  5
4CE4
330
1
100
AcDbSymbolTableRecord
100
AcDbBlockTableRecord
  2
*D18
340
0
  0
BLOCK_RECORD
  5
4CF1
330
1
100
AcDbSymbolTableRecord
100
AcDbBlockTableRecord
  2
*D19
340
0
  0
BLOCK_RECORD
  5
4CFF
330
1
100
AcDbSymbolTableRecord
100
AcDbBlockTableRecord
  2
*D20
340
0
  0
BLOCK_RECORD
  5
4D0B
330
1
100
AcDbSymbolTableRecord
100
AcDbBlockTableRecord
  2
*D21
340
0
  0
BLOCK_RECORD
  5
4D16
330
1
100
AcDbSymbolTableRecord
100
AcDbBlockTableRecord
  2
*D22
340
0
  0
BLOCK_RECORD
  5
4D21
330
1
100
AcDbSymbolTableRecord
100
AcDbBlockTableRecord
  2
*D23
340
0
  0
BLOCK_RECORD
  5
4D2E
330
1
100
AcDbSymbolTableRecord
100
AcDbBlockTableRecord
  2
*D24
340
0
  0
BLOCK_RECORD
  5
4D3A
330
1
100
AcDbSymbolTableRecord
100
AcDbBlockTableRecord
  2
*D25
340
0
  0
BLOCK_RECORD
  5
4D46
330
1
100
AcDbSymbolTableRecord
100
AcDbBlockTableRecord
  2
*D26
340
0
  0
ENDTAB
  0
ENDSEC
  0
SECTION
  2
BLOCKS
  0
BLOCK
  5
20
330
1F
100
AcDbEntity
  8
0
100
AcDbBlockBegin
  2
*Model_Space
 70
     0
 10
0.0
 20
0.0
 30
0.0
  3
*Model_Space
  1

  0
ENDBLK
  5
21
330
1F
100
AcDbEntity
  8
0
100
AcDbBlockEnd
  0
BLOCK
  5
1C
330
1B
100
AcDbEntity
 67
     1
  8
0
100
AcDbBlockBegin
  2
*Paper_Space
 70
     0
 10
0.0
 20
0.0
 30
0.0
  3
*Paper_Space
  1

  0
ENDBLK
  5
1D
330
1B
100
AcDbEntity
 67
     1
  8
0
100
AcDbBlockEnd
  0
BLOCK
  5
24
330
23
100
AcDbEntity
  8
0
100
AcDbBlockBegin
  2
*Paper_Space0
 70
     0
 10
0.0
 20
0.0
 30
0.0
  3
*Paper_Space0
  1

  0
ENDBLK
  5
25
330
23
100
AcDbEntity
  8
0
100
AcDbBlockEnd
  0
BLOCK
  5
73
330
71
100
AcDbEntity
  8
0
100
AcDbBlockBegin
  2
GENAXEH
 70
     0
 10
0.0
 20
0.0
 30
0.0
  3
GENAXEH
  1

  0
LINE
  5
72
330
71
100
AcDbEntity
  8
0
100
AcDbLine
 10
-1.0
 20
0.0
 30
0.0
 11
1.0
 21
0.0
 31
0.0
  0
ENDBLK
  5
74
330
71
100
AcDbEntity
  8
0
100
AcDbBlockEnd
  0
BLOCK
  5
19BA
330
19B9
100
AcDbEntity
  8
0
100
AcDbBlockBegin
  2
*U4
 70
     1
 10
0.0
 20
0.0
 30
0.0
  3
*U4
  1

  0
ENDBLK
  5
19BB
330
19B9
100
AcDbEntity
  8
0
100
AcDbBlockEnd
  0
BLOCK
  5
4C53
330
4C49
100
AcDbEntity
  8
0
100
AcDbBlockBegin
  2
*D5
 70
     1
 10
0.0
 20
0.0
 30
0.0
  3
*D5
  1

  0
LINE
  5
4F45
330
4C49
100
AcDbEntity
  8
AM_5
100
AcDbLine
 10
1251.91575637398
 20
1011.722034640885
 30
0.0
 11
1195.346815181615
 21
1019.169803416905
 31
0.0
  0
LINE
  5
4F46
330
4C49
100
AcDbEntity
  8
AM_5
100
AcDbLine
 10
1251.00203734326
 20
1004.781953702611
 30
0.0
 11
1194.433096150896
 21
1012.229722478631
 31
0.0
  0
LINE
  5
4F47
330
4C49
100
AcDbEntity
  8
AM_5
100
AcDbLine
 10
1197.290842715879
 20
1022.444060118207
 30
0.0
 11
1197.747704068492
 21
1025.914114542058
 31
0.0
  0
LINE
  5
4F48
330
4C49
100
AcDbEntity
  8
AM_5
100
AcDbLine
 10
1195.463400979932
 20
1008.563870332232
 30
0.0
 11
1195.006539627319
 21
1005.093815908381
 31
0.0
  0
LINE
  5
4F49
330
4C49
100
AcDbEntity
  8
AM_5
100
AcDbLine
 10
1196.833981363266
 20
1018.974005694356
 30
0.0
 11
1195.920262332546
 21
1012.033924756083
 31
0.0
  0
SOLID
  5
4F4A
330
4C49
100
AcDbEntity
  8
AM_5
100
AcDbTrace
 10
1196.712500311904
 20
1022.520203676976
 30
0.0
 11
1197.869185119854
 21
1022.367916559438
 31
0.0
 12
1196.833981363266
 22
1018.974005694356
 32
0.0
 13
1196.833981363266
 23
1018.974005694356
 33
0.0
  0
SOLID
  5
4F4B
330
4C49
100
AcDbEntity
  8
AM_5
100
AcDbTrace
 10
1194.885058575957
 20
1008.640013891
 30
0.0
 11
1196.041743383908
 21
1008.487726773463
 31
0.0
 12
1195.920262332546
 22
1012.033924756083
 32
0.0
 13
1195.920262332546
 23
1012.033924756083
 33
0.0
  0
MTEXT
  5
4F4C
330
4C49
100
AcDbEntity
  8
AM_5
100
AcDbMText
 10
1193.601078308825
 20
1015.86945430731
 30
0.0
 40
4.0
 41
0.0
 71
     5
 72
     1
  1
7
 11
0.1305318150323849
 21
0.9914441211003026
 31
0.0
 73
     1
 44
1.0
1001
ACAD
1000
MTEXTBEGIN
1070
    73
1070
     1
1070
    44
1040
1.0
1070
    74
1070
     0
1000
MTEXTEND
  0
POINT
  5
4F4D
330
4C49
100
AcDbEntity
  8
Defpoints
 62
     0
100
AcDbPoint
 10
1252.90720049508
 20
1011.591502825852
 30
0.0
  0
POINT
  5
4F4E
330
4C49
100
AcDbEntity
  8
Defpoints
 62
     0
100
AcDbPoint
 10
1251.99348146436
 20
1004.651421887579
 30
0.0
  0
POINT
  5
4F4F
330
4C49
100
AcDbEntity
  8
Defpoints
 62
     0
100
AcDbPoint
 10
1195.920262332546
 20
1012.033924756083
 30
0.0
  0
ENDBLK
  5
4C54
330
4C49
100
AcDbEntity
  8
0
100
AcDbBlockEnd
  0
BLOCK
  5
4C5F
330
4C55
100
AcDbEntity
  8
0
100
AcDbBlockBegin
  2
*D6
 70
     1
 10
0.0
 20
0.0
 30
0.0
  3
*D6
  1

  0
LINE
  5
5015
330
4C55
100
AcDbEntity
  8
AM_5
100
AcDbLine
 10
973.0208152790076
 20
1041.148963450704
 30
0.0
 11
973.0208152790076
 21
988.1417452154121
 31
0.0
  0
LINE
  5
5016
330
4C55
100
AcDbEntity
  8
AM_5
100
AcDbLine
 10
990.0208152790076
 20
1041.181963450704
 30
0.0
 11
990.0208152790076
 21
988.1417452154121
 31
0.0
  0
LINE
  5
5017
330
4C55
100
AcDbEntity
  8
AM_5
100
AcDbLine
 10
976.5208152790076
 20
989.6417452154121
 30
0.0
 11
986.5208152790076
 21
989.6417452154121
 31
0.0
  0
SOLID
  5
5018
330
4C55
100
AcDbEntity
  8
AM_5
100
AcDbTrace
 10
976.5208152790076
 20
990.2250785487455
 30
0.0
 11
976.5208152790076
 21
989.0584118820788
 31
0.0
 12
973.0208152790076
 22
989.6417452154121
 32
0.0
 13
973.0208152790076
 23
989.6417452154121
 33
0.0
  0
SOLID
  5
5019
330
4C55
100
AcDbEntity
  8
AM_5
100
AcDbTrace
 10
986.5208152790076
 20
990.2250785487455
 30
0.0
 11
986.5208152790076
 21
989.0584118820788
 31
0.0
 12
990.0208152790076
 22
989.6417452154121
 32
0.0
 13
990.0208152790076
 23
989.6417452154121
 33
0.0
  0
MTEXT
  5
501A
330
4C55
100
AcDbEntity
  8
AM_5
100
AcDbMText
 10
981.5208152790075
 20
992.441745215412
 30
0.0
 40
4.0
 41
0.0
 71
     5
 72
     1
  1
17
 73
     1
 44
1.0
1001
ACAD
1000
MTEXTBEGIN
1070
    73
1070
     1
1070
    44
1040
1.0
1070
    74
1070
     0
1000
MTEXTEND
  0
POINT
  5
501B
330
4C55
100
AcDbEntity
  8
Defpoints
 62
     0
100
AcDbPoint
 10
973.0208152790076
 20
1042.148963450705
 30
0.0
  0
POINT
  5
501C
330
4C55
100
AcDbEntity
  8
Defpoints
 62
     0
100
AcDbPoint
 10
990.0208152790076
 20
1042.181963450705
 30
0.0
  0
POINT
  5
501D
330
4C55
100
AcDbEntity
  8
Defpoints
 62
     0
100
AcDbPoint
 10
990.0208152790076
 20
989.6417452154121
 30
0.0
  0
ENDBLK
  5
4C60
330
4C55
100
AcDbEntity
  8
0
100
AcDbBlockEnd
  0
BLOCK
  5
4C6C
330
4C61
100
AcDbEntity
  8
0
100
AcDbBlockBegin
  2
*D7
 70
     1
 10
0.0
 20
0.0
 30
0.0
  3
*D7
  1

  0
LINE
  5
503F
330
4C61
100
AcDbEntity
  8
AM_5
100
AcDbLine
 10
990.0208152790076
 20
997.0088483509217
 30
0.0
 11
990.0208152790076
 21
988.1417452154121
 31
0.0
  0
LINE
  5
5040
330
4C61
100
AcDbEntity
  8
AM_5
100
AcDbLine
 10
995.5208152790076
 20
1038.797214787603
 30
0.0
 11
995.5208152790076
 21
988.1417452154121
 31
0.0
  0
LINE
  5
5041
330
4C61
100
AcDbEntity
  8
AM_5
100
AcDbLine
 10
986.5208152790076
 20
989.6417452154121
 30
0.0
 11
983.0208152790076
 21
989.6417452154121
 31
0.0
  0
LINE
  5
5042
330
4C61
100
AcDbEntity
  8
AM_5
100
AcDbLine
 10
999.0208152790076
 20
989.6417452154121
 30
0.0
 11
1009.886500703957
 21
989.6417452154121
 31
0.0
  0
LINE
  5
5043
330
4C61
100
AcDbEntity
  8
AM_5
100
AcDbLine
 10
990.0208152790076
 20
989.6417452154121
 30
0.0
 11
995.5208152790076
 21
989.6417452154121
 31
0.0
  0
SOLID
  5
5044
330
4C61
100
AcDbEntity
  8
AM_5
100
AcDbTrace
 10
986.5208152790076
 20
990.2250785487455
 30
0.0
 11
986.5208152790076
 21
989.0584118820788
 31
0.0
 12
990.0208152790076
 22
989.6417452154121
 32
0.0
 13
990.0208152790076
 23
989.6417452154121
 33
0.0
  0
SOLID
  5
5045
330
4C61
100
AcDbEntity
  8
AM_5
100
AcDbTrace
 10
999.0208152790076
 20
990.2250785487455
 30
0.0
 11
999.0208152790076
 21
989.0584118820788
 31
0.0
 12
995.5208152790076
 22
989.6417452154121
 32
0.0
 13
995.5208152790076
 23
989.6417452154121
 33
0.0
  0
MTEXT
  5
5046
330
4C61
100
AcDbEntity
  8
AM_5
100
AcDbMText
 10
1006.203657991482
 20
992.441745215412
 30
0.0
 40
4.0
 41
0.0
 71
     5
 72
     1
  1
5.5
 73
     1
 44
1.0
1001
ACAD
1000
MTEXTBEGIN
1070
    73
1070
     1
1070
    44
1040
1.0
1070
    74
1070
     0
1000
MTEXTEND
  0
POINT
  5
5047
330
4C61
100
AcDbEntity
  8
Defpoints
 62
     0
100
AcDbPoint
 10
990.0208152790076
 20
998.0088483509216
 30
0.0
  0
POINT
  5
5048
330
4C61
100
AcDbEntity
  8
Defpoints
 62
     0
100
AcDbPoint
 10
995.5208152790076
 20
1039.797214787603
 30
0.0
  0
POINT
  5
5049
330
4C61
100
AcDbEntity
  8
Defpoints
 62
     0
100
AcDbPoint
 10
995.5208152790076
 20
989.6417452154121
 30
0.0
  0
ENDBLK
  5
4C6D
330
4C61
100
AcDbEntity
  8
0
100
AcDbBlockEnd
  0
BLOCK
  5
4C78
330
4C6E
100
AcDbEntity
  8
0
100
AcDbBlockBegin
  2
*D8
 70
     1
 10
0.0
 20
0.0
 30
0.0
  3
*D8
  1

  0
LINE
  5
5001
330
4C6E
100
AcDbEntity
  8
AM_5
100
AcDbLine
 10
967.5208152790075
 20
1032.794963450704
 30
0.0
 11
967.5208152790075
 21
980.1417452154121
 31
0.0
  0
LINE
  5
5002
330
4C6E
100
AcDbEntity
  8
AM_5
100
AcDbLine
 10
1018.520815279007
 20
1044.796963450704
 30
0.0
 11
1018.520815279007
 21
980.1417452154121
 31
0.0
  0
LINE
  5
5003
330
4C6E
100
AcDbEntity
  8
AM_5
100
AcDbLine
 10
971.0208152790075
 20
981.6417452154121
 30
0.0
 11
1015.020815279007
 21
981.6417452154121
 31
0.0
  0
SOLID
  5
5004
330
4C6E
100
AcDbEntity
  8
AM_5
100
AcDbTrace
 10
971.0208152790075
 20
982.2250785487455
 30
0.0
 11
971.0208152790075
 21
981.0584118820788
 31
0.0
 12
967.5208152790075
 22
981.6417452154121
 32
0.0
 13
967.5208152790075
 23
981.6417452154121
 33
0.0
  0
SOLID
  5
5005
330
4C6E
100
AcDbEntity
  8
AM_5
100
AcDbTrace
 10
1015.020815279007
 20
982.2250785487455
 30
0.0
 11
1015.020815279007
 21
981.0584118820788
 31
0.0
 12
1018.520815279007
 22
981.6417452154121
 32
0.0
 13
1018.520815279007
 23
981.6417452154121
 33
0.0
  0
MTEXT
  5
5006
330
4C6E
100
AcDbEntity
  8
AM_5
100
AcDbMText
 10
993.0208152790076
 20
984.441745215412
 30
0.0
 40
4.0
 41
0.0
 71
     5
 72
     1
  1
51
 73
     1
 44
1.0
1001
ACAD
1000
MTEXTBEGIN
1070
    73
1070
     1
1070
    44
1040
1.0
1070
    74
1070
     0
1000
MTEXTEND
  0
POINT
  5
5007
330
4C6E
100
AcDbEntity
  8
Defpoints
 62
     0
100
AcDbPoint
 10
967.5208152790075
 20
1033.794963450704
 30
0.0
  0
POINT
  5
5008
330
4C6E
100
AcDbEntity
  8
Defpoints
 62
     0
100
AcDbPoint
 10
1018.520815279007
 20
1045.796963450704
 30
0.0
  0
POINT
  5
5009
330
4C6E
100
AcDbEntity
  8
Defpoints
 62
     0
100
AcDbPoint
 10
1018.520815279007
 20
981.6417452154121
 30
0.0
  0
ENDBLK
  5
4C79
330
4C6E
100
AcDbEntity
  8
0
100
AcDbBlockEnd
  0
BLOCK
  5
4C84
330
4C7A
100
AcDbEntity
  8
0
100
AcDbBlockBegin
  2
*D9
 70
     1
 10
0.0
 20
0.0
 30
0.0
  3
*D9
  1

  0
LINE
  5
5083
330
4C7A
100
AcDbEntity
  8
AM_5
100
AcDbLine
 10
1113.41033268412
 20
994.6289634507046
 30
0.0
 11
1113.41033268412
 21
984.807088009953
 31
0.0
  0
LINE
  5
5084
330
4C7A
100
AcDbEntity
  8
AM_5
100
AcDbLine
 10
1157.41033268412
 20
1001.796963450704
 30
0.0
 11
1157.41033268412
 21
984.807088009953
 31
0.0
  0
LINE
  5
5085
330
4C7A
100
AcDbEntity
  8
AM_5
100
AcDbLine
 10
1116.91033268412
 20
986.3070880099531
 30
0.0
 11
1153.91033268412
 21
986.3070880099531
 31
0.0
  0
SOLID
  5
5086
330
4C7A
100
AcDbEntity
  8
AM_5
100
AcDbTrace
 10
1116.91033268412
 20
986.8904213432864
 30
0.0
 11
1116.91033268412
 21
985.7237546766198
 31
0.0
 12
1113.41033268412
 22
986.3070880099531
 32
0.0
 13
1113.41033268412
 23
986.3070880099531
 33
0.0
  0
SOLID
  5
5087
330
4C7A
100
AcDbEntity
  8
AM_5
100
AcDbTrace
 10
1153.91033268412
 20
986.8904213432864
 30
0.0
 11
1153.91033268412
 21
985.7237546766198
 31
0.0
 12
1157.41033268412
 22
986.3070880099531
 32
0.0
 13
1157.41033268412
 23
986.3070880099531
 33
0.0
  0
MTEXT
  5
5088
330
4C7A
100
AcDbEntity
  8
AM_5
100
AcDbMText
 10
1135.41033268412
 20
989.107088009953
 30
0.0
 40
4.0
 41
0.0
 71
     5
 72
     1
  1
44
 73
     1
 44
1.0
1001
ACAD
1000
MTEXTBEGIN
1070
    73
1070
     1
1070
    44
1040
1.0
1070
    74
1070
     0
1000
MTEXTEND
  0
POINT
  5
5089
330
4C7A
100
AcDbEntity
  8
Defpoints
 62
     0
100
AcDbPoint
 10
1113.41033268412
 20
995.6289634507045
 30
0.0
  0
POINT
  5
508A
330
4C7A
100
AcDbEntity
  8
Defpoints
 62
     0
100
AcDbPoint
 10
1157.41033268412
 20
1002.796963450705
 30
0.0
  0
POINT
  5
508B
330
4C7A
100
AcDbEntity
  8
Defpoints
 62
     0
100
AcDbPoint
 10
1157.41033268412
 20
986.3070880099531
 30
0.0
  0
ENDBLK
  5
4C85
330
4C7A
100
AcDbEntity
  8
0
100
AcDbBlockEnd
  0
BLOCK
  5
4C90
330
4C86
100
AcDbEntity
  8
0
100
AcDbBlockBegin
  2
*D10
 70
     1
 10
0.0
 20
0.0
 30
0.0
  3
*D10
  1

  0
LINE
  5
4F0F
330
4C86
100
AcDbEntity
  8
AM_5
100
AcDbLine
 10
1039.322790195825
 20
997.7619235656227
 30
0.0
 11
1047.118536470823
 21
984.2583917262816
 31
0.0
  0
LINE
  5
4F10
330
4C86
100
AcDbEntity
  8
AM_5
100
AcDbLine
 10
1049.715790195826
 20
1003.761923565622
 30
0.0
 11
1057.511536470823
 21
990.2583917262816
 31
0.0
  0
LINE
  5
4F11
330
4C86
100
AcDbEntity
  8
AM_5
100
AcDbLine
 10
1049.399713693382
 20
987.307363762768
 30
0.0
 11
1053.730434497809
 21
989.8075393450408
 31
0.0
  0
SOLID
  5
4F12
330
4C86
100
AcDbEntity
  8
AM_5
100
AcDbTrace
 10
1049.108061658571
 20
987.8125536957325
 30
0.0
 11
1049.691365728192
 21
986.8021738298036
 31
0.0
 12
1046.368574095596
 22
985.5574515539043
 32
0.0
 13
1046.368574095596
 23
985.5574515539043
 33
0.0
  0
SOLID
  5
4F13
330
4C86
100
AcDbEntity
  8
AM_5
100
AcDbTrace
 10
1053.438782462998
 20
990.3127292780052
 30
0.0
 11
1054.022086532619
 21
989.3023494120765
 31
0.0
 12
1056.761574095596
 22
991.5574515539045
 32
0.0
 13
1056.761574095596
 23
991.5574515539045
 33
0.0
  0
MTEXT
  5
4F14
330
4C86
100
AcDbEntity
  8
AM_5
100
AcDbMText
 10
1050.164947487986
 20
990.9827041927185
 30
0.0
 40
4.0
 41
0.0
 71
     5
 72
     1
  1
12h9
 11
0.8660398850818911
 21
0.4999749168181788
 31
0.0
 73
     1
 44
1.0
1001
ACAD
1000
MTEXTBEGIN
1070
    73
1070
     1
1070
    44
1040
1.0
1070
    74
1070
     0
1000
MTEXTEND
  0
POINT
  5
4F15
330
4C86
100
AcDbEntity
  8
Defpoints
 62
     0
100
AcDbPoint
 10
1038.822815279007
 20
998.6279634507047
 30
0.0
  0
POINT
  5
4F16
330
4C86
100
AcDbEntity
  8
Defpoints
 62
     0
100
AcDbPoint
 10
1049.215815279007
 20
1004.627963450705
 30
0.0
  0
POINT
  5
4F17
330
4C86
100
AcDbEntity
  8
Defpoints
 62
     0
100
AcDbPoint
 10
1056.761574095596
 20
991.5574515539045
 30
0.0
  0
ENDBLK
  5
4C91
330
4C86
100
AcDbEntity
  8
0
100
AcDbBlockEnd
  0
BLOCK
  5
4C9B
330
4C92
100
AcDbEntity
  8
0
100
AcDbBlockBegin
  2
*D11
 70
     1
 10
0.0
 20
0.0
 30
0.0
  3
*D11
  1

  0
LINE
  5
507A
330
4C92
100
AcDbEntity
  8
AM_5
100
AcDbLine
 10
1113.41033268412
 20
986.446780259696
 30
0.0
 11
1113.41033268412
 21
987.807088009953
 31
0.0
  0
LINE
  5
507B
330
4C92
100
AcDbEntity
  8
AM_5
100
AcDbLine
 10
1102.41033268412
 20
994.6289634507046
 30
0.0
 11
1102.41033268412
 21
984.807088009953
 31
0.0
  0
LINE
  5
507C
330
4C92
100
AcDbEntity
  8
AM_5
100
AcDbLine
 10
1109.91033268412
 20
986.3070880099531
 30
0.0
 11
1105.91033268412
 21
986.3070880099531
 31
0.0
  0
SOLID
  5
507D
330
4C92
100
AcDbEntity
  8
AM_5
100
AcDbTrace
 10
1109.91033268412
 20
986.8904213432864
 30
0.0
 11
1109.91033268412
 21
985.7237546766198
 31
0.0
 12
1113.41033268412
 22
986.3070880099531
 32
0.0
 13
1113.41033268412
 23
986.3070880099531
 33
0.0
  0
SOLID
  5
507E
330
4C92
100
AcDbEntity
  8
AM_5
100
AcDbTrace
 10
1105.91033268412
 20
986.8904213432864
 30
0.0
 11
1105.91033268412
 21
985.7237546766198
 31
0.0
 12
1102.41033268412
 22
986.3070880099531
 32
0.0
 13
1102.41033268412
 23
986.3070880099531
 33
0.0
  0
MTEXT
  5
507F
330
4C92
100
AcDbEntity
  8
AM_5
100
AcDbMText
 10
1107.91033268412
 20
989.107088009953
 30
0.0
 40
4.0
 41
0.0
 71
     5
 72
     1
  1
11
 73
     1
 44
1.0
1001
ACAD
1000
MTEXTBEGIN
1070
    73
1070
     1
1070
    44
1040
1.0
1070
    74
1070
     0
1000
MTEXTEND
  0
POINT
  5
5080
330
4C92
100
AcDbEntity
  8
Defpoints
 62
     0
100
AcDbPoint
 10
1113.41033268412
 20
985.4467802596959
 30
0.0
  0
POINT
  5
5081
330
4C92
100
AcDbEntity
  8
Defpoints
 62
     0
100
AcDbPoint
 10
1102.41033268412
 20
995.6289634507045
 30
0.0
  0
POINT
  5
5082
330
4C92
100
AcDbEntity
  8
Defpoints
 62
     0
100
AcDbPoint
 10
1102.41033268412
 20
986.3070880099531
 30
0.0
  0
ENDBLK
  5
4C9C
330
4C92
100
AcDbEntity
  8
0
100
AcDbBlockEnd
  0
BLOCK
  5
4CA7
330
4C9D
100
AcDbEntity
  8
0
100
AcDbBlockBegin
  2
*D12
 70
     1
 10
0.0
 20
0.0
 30
0.0
  3
*D12
  1

  0
LINE
  5
4FA0
330
4C9D
100
AcDbEntity
  8
AM_5
100
AcDbLine
 10
1145.41133268412
 20
1197.923963450704
 30
0.0
 11
1145.41133268412
 21
1227.068254717522
 31
0.0
  0
LINE
  5
4FA1
330
4C9D
100
AcDbEntity
  8
AM_5
100
AcDbLine
 10
1157.41133268412
 20
1209.796963450705
 30
0.0
 11
1157.41133268412
 21
1227.068254717522
 31
0.0
  0
LINE
  5
4FA2
330
4C9D
100
AcDbEntity
  8
AM_5
100
AcDbLine
 10
1148.91133268412
 20
1225.568254717522
 30
0.0
 11
1153.91133268412
 21
1225.568254717522
 31
0.0
  0
SOLID
  5
4FA3
330
4C9D
100
AcDbEntity
  8
AM_5
100
AcDbTrace
 10
1148.91133268412
 20
1226.151588050856
 30
0.0
 11
1148.91133268412
 21
1224.984921384189
 31
0.0
 12
1145.41133268412
 22
1225.568254717522
 32
0.0
 13
1145.41133268412
 23
1225.568254717522
 33
0.0
  0
SOLID
  5
4FA4
330
4C9D
100
AcDbEntity
  8
AM_5
100
AcDbTrace
 10
1153.91133268412
 20
1226.151588050856
 30
0.0
 11
1153.91133268412
 21
1224.984921384189
 31
0.0
 12
1157.41133268412
 22
1225.568254717522
 32
0.0
 13
1157.41133268412
 23
1225.568254717522
 33
0.0
  0
MTEXT
  5
4FA5
330
4C9D
100
AcDbEntity
  8
AM_5
100
AcDbMText
 10
1151.41133268412
 20
1228.36864841831
 30
0.0
 40
4.0
 41
0.0
 71
     5
 72
     1
  1
12
 73
     1
 44
1.0
1001
ACAD
1000
MTEXTBEGIN
1070
    73
1070
     1
1070
    44
1040
1.0
1070
    74
1070
     0
1000
MTEXTEND
  0
POINT
  5
4FA6
330
4C9D
100
AcDbEntity
  8
Defpoints
 62
     0
100
AcDbPoint
 10
1145.41133268412
 20
1196.923963450704
 30
0.0
  0
POINT
  5
4FA7
330
4C9D
100
AcDbEntity
  8
Defpoints
 62
     0
100
AcDbPoint
 10
1157.41133268412
 20
1208.796963450704
 30
0.0
  0
POINT
  5
4FA8
330
4C9D
100
AcDbEntity
  8
Defpoints
 62
     0
100
AcDbPoint
 10
1157.41133268412
 20
1225.568254717522
 30
0.0
  0
ENDBLK
  5
4CA8
330
4C9D
100
AcDbEntity
  8
0
100
AcDbBlockEnd
  0
BLOCK
  5
4CB3
330
4CA9
100
AcDbEntity
  8
0
100
AcDbBlockBegin
  2
*D13
 70
     1
 10
0.0
 20
0.0
 30
0.0
  3
*D13
  1

  0
LINE
  5
4F8E
330
4CA9
100
AcDbEntity
  8
AM_5
100
AcDbLine
 10
1095.41133268412
 20
1204.795963450705
 30
0.0
 11
1095.41133268412
 21
1235.068254717522
 31
0.0
  0
LINE
  5
4F8F
330
4CA9
100
AcDbEntity
  8
AM_5
100
AcDbLine
 10
1157.41133268412
 20
1217.464391386202
 30
0.0
 11
1157.41133268412
 21
1235.068254717522
 31
0.0
  0
LINE
  5
4F90
330
4CA9
100
AcDbEntity
  8
AM_5
100
AcDbLine
 10
1098.91133268412
 20
1233.568254717522
 30
0.0
 11
1153.91133268412
 21
1233.568254717522
 31
0.0
  0
SOLID
  5
4F91
330
4CA9
100
AcDbEntity
  8
AM_5
100
AcDbTrace
 10
1098.91133268412
 20
1234.151588050856
 30
0.0
 11
1098.91133268412
 21
1232.984921384189
 31
0.0
 12
1095.41133268412
 22
1233.568254717522
 32
0.0
 13
1095.41133268412
 23
1233.568254717522
 33
0.0
  0
SOLID
  5
4F92
330
4CA9
100
AcDbEntity
  8
AM_5
100
AcDbTrace
 10
1153.91133268412
 20
1234.151588050856
 30
0.0
 11
1153.91133268412
 21
1232.984921384189
 31
0.0
 12
1157.41133268412
 22
1233.568254717522
 32
0.0
 13
1157.41133268412
 23
1233.568254717522
 33
0.0
  0
MTEXT
  5
4F93
330
4CA9
100
AcDbEntity
  8
AM_5
100
AcDbMText
 10
1125.944053928531
 20
1236.36864841831
 30
0.0
 40
4.0
 41
0.0
 71
     5
 72
     1
  1
62
 73
     1
 44
1.0
1001
ACAD
1000
MTEXTBEGIN
1070
    73
1070
     1
1070
    44
1040
1.0
1070
    74
1070
     0
1000
MTEXTEND
  0
POINT
  5
4F94
330
4CA9
100
AcDbEntity
  8
Defpoints
 62
     0
100
AcDbPoint
 10
1095.41133268412
 20
1203.795963450704
 30
0.0
  0
POINT
  5
4F95
330
4CA9
100
AcDbEntity
  8
Defpoints
 62
     0
100
AcDbPoint
 10
1157.41133268412
 20
1216.464391386202
 30
0.0
  0
POINT
  5
4F96
330
4CA9
100
AcDbEntity
  8
Defpoints
 62
     0
100
AcDbPoint
 10
1157.41133268412
 20
1233.568254717522
 30
0.0
  0
ENDBLK
  5
4CB4
330
4CA9
100
AcDbEntity
  8
0
100
AcDbBlockEnd
  0
BLOCK
  5
4CBF
330
4CB5
100
AcDbEntity
  8
0
100
AcDbBlockBegin
  2
*D14
 70
     1
 10
0.0
 20
0.0
 30
0.0
  3
*D14
  1

  0
LINE
  5
4F85
330
4CB5
100
AcDbEntity
  8
AM_5
100
AcDbLine
 10
1157.41133268412
 20
1233.712508671384
 30
0.0
 11
1157.41133268412
 21
1243.068254717522
 31
0.0
  0
LINE
  5
4F86
330
4CB5
100
AcDbEntity
  8
AM_5
100
AcDbLine
 10
1091.41133268412
 20
1233.712508671384
 30
0.0
 11
1091.41133268412
 21
1243.068254717522
 31
0.0
  0
LINE
  5
4F87
330
4CB5
100
AcDbEntity
  8
AM_5
100
AcDbLine
 10
1153.91133268412
 20
1241.568254717522
 30
0.0
 11
1094.91133268412
 21
1241.568254717522
 31
0.0
  0
SOLID
  5
4F88
330
4CB5
100
AcDbEntity
  8
AM_5
100
AcDbTrace
 10
1153.91133268412
 20
1242.151588050856
 30
0.0
 11
1153.91133268412
 21
1240.984921384189
 31
0.0
 12
1157.41133268412
 22
1241.568254717522
 32
0.0
 13
1157.41133268412
 23
1241.568254717522
 33
0.0
  0
SOLID
  5
4F89
330
4CB5
100
AcDbEntity
  8
AM_5
100
AcDbTrace
 10
1094.91133268412
 20
1242.151588050856
 30
0.0
 11
1094.91133268412
 21
1240.984921384189
 31
0.0
 12
1091.41133268412
 22
1241.568254717522
 32
0.0
 13
1091.41133268412
 23
1241.568254717522
 33
0.0
  0
MTEXT
  5
4F8A
330
4CB5
100
AcDbEntity
  8
AM_5
100
AcDbMText
 10
1124.41133268412
 20
1244.368254717522
 30
0.0
 40
4.0
 41
0.0
 71
     5
 72
     1
  1
66
 73
     1
 44
1.0
1001
ACAD
1000
MTEXTBEGIN
1070
    73
1070
     1
1070
    44
1040
1.0
1070
    74
1070
     0
1000
MTEXTEND
  0
POINT
  5
4F8B
330
4CB5
100
AcDbEntity
  8
Defpoints
 62
     0
100
AcDbPoint
 10
1157.41133268412
 20
1232.712508671383
 30
0.0
  0
POINT
  5
4F8C
330
4CB5
100
AcDbEntity
  8
Defpoints
 62
     0
100
AcDbPoint
 10
1091.41133268412
 20
1232.712508671383
 30
0.0
  0
POINT
  5
4F8D
330
4CB5
100
AcDbEntity
  8
Defpoints
 62
     0
100
AcDbPoint
 10
1091.41133268412
 20
1241.568254717522
 30
0.0
  0
ENDBLK
  5
4CC0
330
4CB5
100
AcDbEntity
  8
0
100
AcDbBlockEnd
  0
BLOCK
  5
4CCB
330
4CC1
100
AcDbEntity
  8
0
100
AcDbBlockBegin
  2
*D15
 70
     1
 10
0.0
 20
0.0
 30
0.0
  3
*D15
  1

  0
LINE
  5
506B
330
4CC1
100
AcDbEntity
  8
AM_5
100
AcDbLine
 10
966.5208152790075
 20
1057.794963450704
 30
0.0
 11
946.0208152790075
 21
1057.794963450704
 31
0.0
  0
LINE
  5
506C
330
4CC1
100
AcDbEntity
  8
AM_5
100
AcDbLine
 10
966.5208152790075
 20
1033.794963450704
 30
0.0
 11
946.0208152790075
 21
1033.794963450704
 31
0.0
  0
LINE
  5
506D
330
4CC1
100
AcDbEntity
  8
AM_5
100
AcDbLine
 10
947.5208152790075
 20
1054.294963450704
 30
0.0
 11
947.5208152790075
 21
1037.294963450704
 31
0.0
  0
SOLID
  5
506E
330
4CC1
100
AcDbEntity
  8
AM_5
100
AcDbTrace
 10
946.9374819456742
 20
1054.294963450704
 30
0.0
 11
948.1041486123409
 21
1054.294963450704
 31
0.0
 12
947.5208152790075
 22
1057.794963450704
 32
0.0
 13
947.5208152790075
 23
1057.794963450704
 33
0.0
  0
SOLID
  5
506F
330
4CC1
100
AcDbEntity
  8
AM_5
100
AcDbTrace
 10
946.9374819456742
 20
1037.294963450704
 30
0.0
 11
948.1041486123409
 21
1037.294963450704
 31
0.0
 12
947.5208152790075
 22
1033.794963450704
 32
0.0
 13
947.5208152790075
 23
1033.794963450704
 33
0.0
  0
MTEXT
  5
5070
330
4CC1
100
AcDbEntity
  8
AM_5
100
AcDbMText
 10
944.7204215782202
 20
1045.794963450704
 30
0.0
 40
4.0
 41
0.0
 71
     5
 72
     1
  1
24
 11
0.0000000000000001
 21
1.0
 31
0.0
 73
     1
 44
1.0
1001
ACAD
1000
MTEXTBEGIN
1070
    73
1070
     1
1070
    44
1040
1.0
1070
    74
1070
     0
1000
MTEXTEND
  0
POINT
  5
5071
330
4CC1
100
AcDbEntity
  8
Defpoints
 62
     0
100
AcDbPoint
 10
967.5208152790075
 20
1057.794963450704
 30
0.0
  0
POINT
  5
5072
330
4CC1
100
AcDbEntity
  8
Defpoints
 62
     0
100
AcDbPoint
 10
967.5208152790075
 20
1033.794963450704
 30
0.0
  0
POINT
  5
5073
330
4CC1
100
AcDbEntity
  8
Defpoints
 62
     0
100
AcDbPoint
 10
947.5208152790075
 20
1033.794963450704
 30
0.0
  0
ENDBLK
  5
4CCC
330
4CC1
100
AcDbEntity
  8
0
100
AcDbBlockEnd
  0
BLOCK
  5
4CD7
330
4CCD
100
AcDbEntity
  8
0
100
AcDbBlockBegin
  2
*D16
 70
     1
 10
0.0
 20
0.0
 30
0.0
  3
*D16
  1

  0
LINE
  5
5062
330
4CCD
100
AcDbEntity
  8
AM_5
100
AcDbLine
 10
966.5218152790075
 20
1051.797963450704
 30
0.0
 11
954.0208152790075
 21
1051.797963450704
 31
0.0
  0
LINE
  5
5063
330
4CCD
100
AcDbEntity
  8
AM_5
100
AcDbLine
 10
966.5208152790075
 20
1039.797963450705
 30
0.0
 11
954.0208152790075
 21
1039.797963450705
 31
0.0
  0
LINE
  5
5064
330
4CCD
100
AcDbEntity
  8
AM_5
100
AcDbLine
 10
955.5208152790076
 20
1048.297963450704
 30
0.0
 11
955.5208152790076
 21
1043.297963450704
 31
0.0
  0
SOLID
  5
5065
330
4CCD
100
AcDbEntity
  8
AM_5
100
AcDbTrace
 10
954.9374819456742
 20
1048.297963450704
 30
0.0
 11
956.1041486123409
 21
1048.297963450704
 31
0.0
 12
955.5208152790076
 22
1051.797963450704
 32
0.0
 13
955.5208152790076
 23
1051.797963450704
 33
0.0
  0
SOLID
  5
5066
330
4CCD
100
AcDbEntity
  8
AM_5
100
AcDbTrace
 10
954.9374819456742
 20
1043.297963450704
 30
0.0
 11
956.1041486123409
 21
1043.297963450704
 31
0.0
 12
955.5208152790076
 22
1039.797963450705
 32
0.0
 13
955.5208152790076
 23
1039.797963450705
 33
0.0
  0
MTEXT
  5
5067
330
4CCD
100
AcDbEntity
  8
AM_5
100
AcDbMText
 10
952.7204215782202
 20
1045.797963450705
 30
0.0
 40
4.0
 41
0.0
 71
     5
 72
     1
  1
12
 11
0.0000000000000001
 21
1.0
 31
0.0
 73
     1
 44
1.0
1001
ACAD
1000
MTEXTBEGIN
1070
    73
1070
     1
1070
    44
1040
1.0
1070
    74
1070
     0
1000
MTEXTEND
  0
POINT
  5
5068
330
4CCD
100
AcDbEntity
  8
Defpoints
 62
     0
100
AcDbPoint
 10
967.5218152790076
 20
1051.797963450704
 30
0.0
  0
POINT
  5
5069
330
4CCD
100
AcDbEntity
  8
Defpoints
 62
     0
100
AcDbPoint
 10
967.5208152790075
 20
1039.797963450705
 30
0.0
  0
POINT
  5
506A
330
4CCD
100
AcDbEntity
  8
Defpoints
 62
     0
100
AcDbPoint
 10
955.5208152790076
 20
1039.797963450705
 30
0.0
  0
ENDBLK
  5
4CD8
330
4CCD
100
AcDbEntity
  8
0
100
AcDbBlockEnd
  0
BLOCK
  5
4CE2
330
4CD9
100
AcDbEntity
  8
0
100
AcDbBlockBegin
  2
*D17
 70
     1
 10
0.0
 20
0.0
 30
0.0
  3
*D17
  1

  0
LINE
  5
4F97
330
4CD9
100
AcDbEntity
  8
AM_5
100
AcDbLine
 10
1145.41133268412
 20
1217.464391386202
 30
0.0
 11
1145.41133268412
 21
1227.068254717522
 31
0.0
  0
LINE
  5
4F98
330
4CD9
100
AcDbEntity
  8
AM_5
100
AcDbLine
 10
1123.41133268412
 20
1174.406963450705
 30
0.0
 11
1123.41133268412
 21
1227.068254717522
 31
0.0
  0
LINE
  5
4F99
330
4CD9
100
AcDbEntity
  8
AM_5
100
AcDbLine
 10
1141.91133268412
 20
1225.568254717522
 30
0.0
 11
1126.91133268412
 21
1225.568254717522
 31
0.0
  0
SOLID
  5
4F9A
330
4CD9
100
AcDbEntity
  8
AM_5
100
AcDbTrace
 10
1141.91133268412
 20
1226.151588050856
 30
0.0
 11
1141.91133268412
 21
1224.984921384189
 31
0.0
 12
1145.41133268412
 22
1225.568254717522
 32
0.0
 13
1145.41133268412
 23
1225.568254717522
 33
0.0
  0
SOLID
  5
4F9B
330
4CD9
100
AcDbEntity
  8
AM_5
100
AcDbTrace
 10
1126.91133268412
 20
1226.151588050856
 30
0.0
 11
1126.91133268412
 21
1224.984921384189
 31
0.0
 12
1123.41133268412
 22
1225.568254717522
 32
0.0
 13
1123.41133268412
 23
1225.568254717522
 33
0.0
  0
MTEXT
  5
4F9C
330
4CD9
100
AcDbEntity
  8
AM_5
100
AcDbMText
 10
1134.41133268412
 20
1228.36864841831
 30
0.0
 40
4.0
 41
0.0
 71
     5
 72
     1
  1
22
 73
     1
 44
1.0
1001
ACAD
1000
MTEXTBEGIN
1070
    73
1070
     1
1070
    44
1040
1.0
1070
    74
1070
     0
1000
MTEXTEND
  0
POINT
  5
4F9D
330
4CD9
100
AcDbEntity
  8
Defpoints
 62
     0
100
AcDbPoint
 10
1145.41133268412
 20
1216.464391386202
 30
0.0
  0
POINT
  5
4F9E
330
4CD9
100
AcDbEntity
  8
Defpoints
 62
     0
100
AcDbPoint
 10
1123.41133268412
 20
1173.406963450704
 30
0.0
  0
POINT
  5
4F9F
330
4CD9
100
AcDbEntity
  8
Defpoints
 62
     0
100
AcDbPoint
 10
1123.41133268412
 20
1225.568254717522
 30
0.0
  0
ENDBLK
  5
4CE3
330
4CD9
100
AcDbEntity
  8
0
100
AcDbBlockEnd
  0
BLOCK
  5
4CEF
330
4CE4
100
AcDbEntity
  8
0
100
AcDbBlockBegin
  2
*D18
 70
     1
 10
0.0
 20
0.0
 30
0.0
  3
*D18
  1

  0
LINE
  5
4FCA
330
4CE4
100
AcDbEntity
  8
AM_5
100
AcDbLine
 10
1082.486600549548
 20
1199.796963450705
 30
0.0
 11
1077.904609829711
 21
1199.796963450705
 31
0.0
  0
LINE
  5
4FCB
330
4CE4
100
AcDbEntity
  8
AM_5
100
AcDbLine
 10
1090.41133268412
 20
1205.796963450704
 30
0.0
 11
1077.904609829711
 21
1205.796963450704
 31
0.0
  0
LINE
  5
4FCC
330
4CE4
100
AcDbEntity
  8
AM_5
100
AcDbLine
 10
1079.404609829711
 20
1196.296963450705
 30
0.0
 11
1079.404609829711
 21
1192.796963450704
 31
0.0
  0
LINE
  5
4FCD
330
4CE4
100
AcDbEntity
  8
AM_5
100
AcDbLine
 10
1079.404609829711
 20
1209.296963450704
 30
0.0
 11
1079.404609829711
 21
1222.522707445452
 31
0.0
  0
LINE
  5
4FCE
330
4CE4
100
AcDbEntity
  8
AM_5
100
AcDbLine
 10
1079.404609829711
 20
1199.796963450705
 30
0.0
 11
1079.404609829711
 21
1205.796963450704
 31
0.0
  0
SOLID
  5
4FCF
330
4CE4
100
AcDbEntity
  8
AM_5
100
AcDbTrace
 10
1078.821276496377
 20
1196.296963450705
 30
0.0
 11
1079.987943163044
 21
1196.296963450705
 31
0.0
 12
1079.404609829711
 22
1199.796963450705
 32
0.0
 13
1079.404609829711
 23
1199.796963450705
 33
0.0
  0
SOLID
  5
4FD0
330
4CE4
100
AcDbEntity
  8
AM_5
100
AcDbTrace
 10
1078.821276496377
 20
1209.296963450704
 30
0.0
 11
1079.987943163044
 21
1209.296963450704
 31
0.0
 12
1079.404609829711
 22
1205.796963450704
 32
0.0
 13
1079.404609829711
 23
1205.796963450704
 33
0.0
  0
MTEXT
  5
4FD1
330
4CE4
100
AcDbEntity
  8
AM_5
100
AcDbMText
 10
1076.60460982971
 20
1217.659835448078
 30
0.0
 40
4.0
 41
0.0
 71
     5
 72
     1
  1
6H9
 11
0.0000000000000001
 21
1.0
 31
0.0
 73
     1
 44
1.0
1001
ACAD
1000
MTEXTBEGIN
1070
    73
1070
     1
1070
    44
1040
1.0
1070
    74
1070
     0
1000
MTEXTEND
  0
POINT
  5
4FD2
330
4CE4
100
AcDbEntity
  8
Defpoints
 62
     0
100
AcDbPoint
 10
1083.486600549548
 20
1199.796963450705
 30
0.0
  0
POINT
  5
4FD3
330
4CE4
100
AcDbEntity
  8
Defpoints
 62
     0
100
AcDbPoint
 10
1091.41133268412
 20
1205.796963450704
 30
0.0
  0
POINT
  5
4FD4
330
4CE4
100
AcDbEntity
  8
Defpoints
 62
     0
100
AcDbPoint
 10
1079.404609829711
 20
1205.796963450704
 30
0.0
  0
ENDBLK
  5
4CF0
330
4CE4
100
AcDbEntity
  8
0
100
AcDbBlockEnd
  0
BLOCK
  5
4CFD
330
4CF1
100
AcDbEntity
  8
0
100
AcDbBlockBegin
  2
*D19
 70
     1
 10
0.0
 20
0.0
 30
0.0
  3
*D19
  1

  0
LINE
  5
4F7A
330
4CF1
100
AcDbEntity
  8
AM_5
100
AcDbLine
 10
1094.41133268412
 20
1206.796963450704
 30
0.0
 11
1094.41133268412
 21
1227.068254717522
 31
0.0
  0
LINE
  5
4F7B
330
4CF1
100
AcDbEntity
  8
AM_5
100
AcDbLine
 10
1091.41133268412
 20
1217.796963450705
 30
0.0
 11
1091.41133268412
 21
1227.068254717522
 31
0.0
  0
LINE
  5
4F7C
330
4CF1
100
AcDbEntity
  8
AM_5
100
AcDbLine
 10
1097.91133268412
 20
1225.568254717522
 30
0.0
 11
1101.41133268412
 21
1225.568254717522
 31
0.0
  0
LINE
  5
4F7D
330
4CF1
100
AcDbEntity
  8
AM_5
100
AcDbLine
 10
1087.91133268412
 20
1225.568254717522
 30
0.0
 11
1081.04564725917
 21
1225.568254717522
 31
0.0
  0
LINE
  5
4F7E
330
4CF1
100
AcDbEntity
  8
AM_5
100
AcDbLine
 10
1094.41133268412
 20
1225.568254717522
 30
0.0
 11
1091.41133268412
 21
1225.568254717522
 31
0.0
  0
SOLID
  5
4F7F
330
4CF1
100
AcDbEntity
  8
AM_5
100
AcDbTrace
 10
1097.91133268412
 20
1226.151588050856
 30
0.0
 11
1097.91133268412
 21
1224.984921384189
 31
0.0
 12
1094.41133268412
 22
1225.568254717522
 32
0.0
 13
1094.41133268412
 23
1225.568254717522
 33
0.0
  0
SOLID
  5
4F80
330
4CF1
100
AcDbEntity
  8
AM_5
100
AcDbTrace
 10
1087.91133268412
 20
1226.151588050856
 30
0.0
 11
1087.91133268412
 21
1224.984921384189
 31
0.0
 12
1091.41133268412
 22
1225.568254717522
 32
0.0
 13
1091.41133268412
 23
1225.568254717522
 33
0.0
  0
MTEXT
  5
4F81
330
4CF1
100
AcDbEntity
  8
AM_5
100
AcDbMText
 10
1082.728489971645
 20
1228.368254717522
 30
0.0
 40
4.0
 41
0.0
 71
     5
 72
     1
  1
3
 73
     1
 44
1.0
1001
ACAD
1000
MTEXTBEGIN
1070
    73
1070
     1
1070
    44
1040
1.0
1070
    74
1070
     0
1000
MTEXTEND
  0
POINT
  5
4F82
330
4CF1
100
AcDbEntity
  8
Defpoints
 62
     0
100
AcDbPoint
 10
1094.41133268412
 20
1205.796963450704
 30
0.0
  0
POINT
  5
4F83
330
4CF1
100
AcDbEntity
  8
Defpoints
 62
     0
100
AcDbPoint
 10
1091.41133268412
 20
1216.796963450704
 30
0.0
  0
POINT
  5
4F84
330
4CF1
100
AcDbEntity
  8
Defpoints
 62
     0
100
AcDbPoint
 10
1091.41133268412
 20
1225.568254717522
 30
0.0
  0
ENDBLK
  5
4CFE
330
4CF1
100
AcDbEntity
  8
0
100
AcDbBlockEnd
  0
BLOCK
  5
4D09
330
4CFF
100
AcDbEntity
  8
0
100
AcDbBlockBegin
  2
*D20
 70
     1
 10
0.0
 20
0.0
 30
0.0
  3
*D20
  1

  0
LINE
  5
4FC1
330
4CFF
100
AcDbEntity
  8
AM_5
100
AcDbLine
 10
1082.59233268412
 20
1165.796963450705
 30
0.0
 11
1077.904609829711
 21
1165.796963450705
 31
0.0
  0
LINE
  5
4FC2
330
4CFF
100
AcDbEntity
  8
AM_5
100
AcDbLine
 10
1090.41133268412
 20
1188.796963450704
 30
0.0
 11
1077.904609829711
 21
1188.796963450704
 31
0.0
  0
LINE
  5
4FC3
330
4CFF
100
AcDbEntity
  8
AM_5
100
AcDbLine
 10
1079.404609829711
 20
1169.296963450705
 30
0.0
 11
1079.404609829711
 21
1185.296963450704
 31
0.0
  0
SOLID
  5
4FC4
330
4CFF
100
AcDbEntity
  8
AM_5
100
AcDbTrace
 10
1078.821276496377
 20
1169.296963450705
 30
0.0
 11
1079.987943163044
 21
1169.296963450705
 31
0.0
 12
1079.404609829711
 22
1165.796963450705
 32
0.0
 13
1079.404609829711
 23
1165.796963450705
 33
0.0
  0
SOLID
  5
4FC5
330
4CFF
100
AcDbEntity
  8
AM_5
100
AcDbTrace
 10
1078.821276496377
 20
1185.296963450704
 30
0.0
 11
1079.987943163044
 21
1185.296963450704
 31
0.0
 12
1079.404609829711
 22
1188.796963450704
 32
0.0
 13
1079.404609829711
 23
1188.796963450704
 33
0.0
  0
MTEXT
  5
4FC6
330
4CFF
100
AcDbEntity
  8
AM_5
100
AcDbMText
 10
1076.604216128923
 20
1177.296963450705
 30
0.0
 40
4.0
 41
0.0
 71
     5
 72
     1
  1
23
 11
0.0000000000000001
 21
1.0
 31
0.0
 73
     1
 44
1.0
1001
ACAD
1000
MTEXTBEGIN
1070
    73
1070
     1
1070
    44
1040
1.0
1070
    74
1070
     0
1000
MTEXTEND
  0
POINT
  5
4FC7
330
4CFF
100
AcDbEntity
  8
Defpoints
 62
     0
100
AcDbPoint
 10
1083.59233268412
 20
1165.796963450705
 30
0.0
  0
POINT
  5
4FC8
330
4CFF
100
AcDbEntity
  8
Defpoints
 62
     0
100
AcDbPoint
 10
1091.41133268412
 20
1188.796963450704
 30
0.0
  0
POINT
  5
4FC9
330
4CFF
100
AcDbEntity
  8
Defpoints
 62
     0
100
AcDbPoint
 10
1079.404609829711
 20
1188.796963450704
 30
0.0
  0
ENDBLK
  5
4D0A
330
4CFF
100
AcDbEntity
  8
0
100
AcDbBlockEnd
  0
BLOCK
  5
4D14
330
4D0B
100
AcDbEntity
  8
0
100
AcDbBlockBegin
  2
*D21
 70
     1
 10
0.0
 20
0.0
 30
0.0
  3
*D21
  1

  0
LINE
  5
4FD5
330
4D0B
100
AcDbEntity
  8
AM_5
100
AcDbLine
 10
1090.41133268412
 20
1199.796963450705
 30
0.0
 11
1069.904609829711
 21
1199.796963450705
 31
0.0
  0
LINE
  5
4FD6
330
4D0B
100
AcDbEntity
  8
AM_5
100
AcDbLine
 10
1082.59233268412
 20
1165.796963450705
 30
0.0
 11
1069.904609829711
 21
1165.796963450705
 31
0.0
  0
LINE
  5
4FD7
330
4D0B
100
AcDbEntity
  8
AM_5
100
AcDbLine
 10
1071.404609829711
 20
1196.296963450705
 30
0.0
 11
1071.404609829711
 21
1169.296963450705
 31
0.0
  0
SOLID
  5
4FD8
330
4D0B
100
AcDbEntity
  8
AM_5
100
AcDbTrace
 10
1070.821276496377
 20
1196.296963450705
 30
0.0
 11
1071.987943163044
 21
1196.296963450705
 31
0.0
 12
1071.404609829711
 22
1199.796963450705
 32
0.0
 13
1071.404609829711
 23
1199.796963450705
 33
0.0
  0
SOLID
  5
4FD9
330
4D0B
100
AcDbEntity
  8
AM_5
100
AcDbTrace
 10
1070.821276496377
 20
1169.296963450705
 30
0.0
 11
1071.987943163044
 21
1169.296963450705
 31
0.0
 12
1071.404609829711
 22
1165.796963450705
 32
0.0
 13
1071.404609829711
 23
1165.796963450705
 33
0.0
  0
MTEXT
  5
4FDA
330
4D0B
100
AcDbEntity
  8
AM_5
100
AcDbMText
 10
1068.60460982971
 20
1182.796963450705
 30
0.0
 40
4.0
 41
0.0
 71
     5
 72
     1
  1
34
 11
0.0000000000000001
 21
1.0
 31
0.0
 73
     1
 44
1.0
1001
ACAD
1000
MTEXTBEGIN
1070
    73
1070
     1
1070
    44
1040
1.0
1070
    74
1070
     0
1000
MTEXTEND
  0
POINT
  5
4FDB
330
4D0B
100
AcDbEntity
  8
Defpoints
 62
     0
100
AcDbPoint
 10
1091.41133268412
 20
1199.796963450705
 30
0.0
  0
POINT
  5
4FDC
330
4D0B
100
AcDbEntity
  8
Defpoints
 62
     0
100
AcDbPoint
 10
1083.59233268412
 20
1165.796963450705
 30
0.0
  0
POINT
  5
4FDD
330
4D0B
100
AcDbEntity
  8
Defpoints
 62
     0
100
AcDbPoint
 10
1071.404609829711
 20
1165.796963450705
 30
0.0
  0
ENDBLK
  5
4D15
330
4D0B
100
AcDbEntity
  8
0
100
AcDbBlockEnd
  0
BLOCK
  5
4D1F
330
4D16
100
AcDbEntity
  8
0
100
AcDbBlockBegin
  2
*D22
 70
     1
 10
0.0
 20
0.0
 30
0.0
  3
*D22
  1

  0
LINE
  5
4FAF
330
4D16
100
AcDbEntity
  8
AM_5
100
AcDbLine
 10
1082.486600549548
 20
1188.796963450704
 30
0.0
 11
1077.904609829711
 21
1188.796963450704
 31
0.0
  0
LINE
  5
4FB0
330
4D16
100
AcDbEntity
  8
AM_5
100
AcDbLine
 10
1090.41133268412
 20
1199.796963450705
 30
0.0
 11
1077.904609829711
 21
1199.796963450705
 31
0.0
  0
LINE
  5
4FB1
330
4D16
100
AcDbEntity
  8
AM_5
100
AcDbLine
 10
1079.404609829711
 20
1192.296963450704
 30
0.0
 11
1079.404609829711
 21
1196.296963450705
 31
0.0
  0
SOLID
  5
4FB2
330
4D16
100
AcDbEntity
  8
AM_5
100
AcDbTrace
 10
1078.821276496377
 20
1192.296963450704
 30
0.0
 11
1079.987943163044
 21
1192.296963450704
 31
0.0
 12
1079.404609829711
 22
1188.796963450704
 32
0.0
 13
1079.404609829711
 23
1188.796963450704
 33
0.0
  0
SOLID
  5
4FB3
330
4D16
100
AcDbEntity
  8
AM_5
100
AcDbTrace
 10
1078.821276496377
 20
1196.296963450705
 30
0.0
 11
1079.987943163044
 21
1196.296963450705
 31
0.0
 12
1079.404609829711
 22
1199.796963450705
 32
0.0
 13
1079.404609829711
 23
1199.796963450705
 33
0.0
  0
MTEXT
  5
4FB4
330
4D16
100
AcDbEntity
  8
AM_5
100
AcDbMText
 10
1076.60460982971
 20
1194.296963450705
 30
0.0
 40
4.0
 41
0.0
 71
     5
 72
     1
  1
11
 11
0.0000000000000001
 21
1.0
 31
0.0
 73
     1
 44
1.0
1001
ACAD
1000
MTEXTBEGIN
1070
    73
1070
     1
1070
    44
1040
1.0
1070
    74
1070
     0
1000
MTEXTEND
  0
POINT
  5
4FB5
330
4D16
100
AcDbEntity
  8
Defpoints
 62
     0
100
AcDbPoint
 10
1083.486600549548
 20
1188.796963450704
 30
0.0
  0
POINT
  5
4FB6
330
4D16
100
AcDbEntity
  8
Defpoints
 62
     0
100
AcDbPoint
 10
1091.41133268412
 20
1199.796963450705
 30
0.0
  0
POINT
  5
4FB7
330
4D16
100
AcDbEntity
  8
Defpoints
 62
     0
100
AcDbPoint
 10
1079.404609829711
 20
1199.796963450705
 30
0.0
  0
ENDBLK
  5
4D20
330
4D16
100
AcDbEntity
  8
0
100
AcDbBlockEnd
  0
BLOCK
  5
4D2C
330
4D21
100
AcDbEntity
  8
0
100
AcDbBlockBegin
  2
*D23
 70
     1
 10
0.0
 20
0.0
 30
0.0
  3
*D23
  1

  0
LINE
  5
4F6F
330
4D21
100
AcDbEntity
  8
AM_5
100
AcDbLine
 10
1095.41133268412
 20
1233.712508671384
 30
0.0
 11
1095.41133268412
 21
1235.068254717522
 31
0.0
  0
LINE
  5
4F70
330
4D21
100
AcDbEntity
  8
AM_5
100
AcDbLine
 10
1091.41133268412
 20
1224.427871061919
 30
0.0
 11
1091.41133268412
 21
1235.068254717522
 31
0.0
  0
LINE
  5
4F71
330
4D21
100
AcDbEntity
  8
AM_5
100
AcDbLine
 10
1098.91133268412
 20
1233.568254717522
 30
0.0
 11
1102.41133268412
 21
1233.568254717522
 31
0.0
  0
LINE
  5
4F72
330
4D21
100
AcDbEntity
  8
AM_5
100
AcDbLine
 10
1087.91133268412
 20
1233.568254717522
 30
0.0
 11
1084.41133268412
 21
1233.568254717522
 31
0.0
  0
LINE
  5
4F73
330
4D21
100
AcDbEntity
  8
AM_5
100
AcDbLine
 10
1095.41133268412
 20
1233.568254717522
 30
0.0
 11
1091.41133268412
 21
1233.568254717522
 31
0.0
  0
SOLID
  5
4F74
330
4D21
100
AcDbEntity
  8
AM_5
100
AcDbTrace
 10
1098.91133268412
 20
1234.151588050856
 30
0.0
 11
1098.91133268412
 21
1232.984921384189
 31
0.0
 12
1095.41133268412
 22
1233.568254717522
 32
0.0
 13
1095.41133268412
 23
1233.568254717522
 33
0.0
  0
SOLID
  5
4F75
330
4D21
100
AcDbEntity
  8
AM_5
100
AcDbTrace
 10
1087.91133268412
 20
1234.151588050856
 30
0.0
 11
1087.91133268412
 21
1232.984921384189
 31
0.0
 12
1091.41133268412
 22
1233.568254717522
 32
0.0
 13
1091.41133268412
 23
1233.568254717522
 33
0.0
  0
MTEXT
  5
4F76
330
4D21
100
AcDbEntity
  8
AM_5
100
AcDbMText
 10
1093.41133268412
 20
1236.368254717522
 30
0.0
 40
4.0
 41
0.0
 71
     5
 72
     1
  1
4
 73
     1
 44
1.0
1001
ACAD
1000
MTEXTBEGIN
1070
    73
1070
     1
1070
    44
1040
1.0
1070
    74
1070
     0
1000
MTEXTEND
  0
POINT
  5
4F77
330
4D21
100
AcDbEntity
  8
Defpoints
 62
     0
100
AcDbPoint
 10
1095.41133268412
 20
1232.712508671383
 30
0.0
  0
POINT
  5
4F78
330
4D21
100
AcDbEntity
  8
Defpoints
 62
     0
100
AcDbPoint
 10
1091.41133268412
 20
1223.427871061919
 30
0.0
  0
POINT
  5
4F79
330
4D21
100
AcDbEntity
  8
Defpoints
 62
     0
100
AcDbPoint
 10
1091.41133268412
 20
1233.568254717522
 30
0.0
  0
ENDBLK
  5
4D2D
330
4D21
100
AcDbEntity
  8
0
100
AcDbBlockEnd
  0
BLOCK
  5
4D38
330
4D2E
100
AcDbEntity
  8
0
100
AcDbBlockBegin
  2
*D24
 70
     1
 10
0.0
 20
0.0
 30
0.0
  3
*D24
  1

  0
LINE
  5
4F5D
330
4D2E
100
AcDbEntity
  8
AM_5
100
AcDbLine
 10
1158.41133268412
 20
1208.796963450704
 30
0.0
 11
1172.528724038219
 21
1208.796963450704
 31
0.0
  0
LINE
  5
4F5E
330
4D2E
100
AcDbEntity
  8
AM_5
100
AcDbLine
 10
1158.41133268412
 20
1122.796963450704
 30
0.0
 11
1172.528724038219
 21
1122.796963450704
 31
0.0
  0
LINE
  5
4F5F
330
4D2E
100
AcDbEntity
  8
AM_5
100
AcDbLine
 10
1171.028724038219
 20
1205.296963450704
 30
0.0
 11
1171.028724038219
 21
1126.296963450704
 31
0.0
  0
SOLID
  5
4F60
330
4D2E
100
AcDbEntity
  8
AM_5
100
AcDbTrace
 10
1170.445390704886
 20
1205.296963450704
 30
0.0
 11
1171.612057371552
 21
1205.296963450704
 31
0.0
 12
1171.028724038219
 22
1208.796963450704
 32
0.0
 13
1171.028724038219
 23
1208.796963450704
 33
0.0
  0
SOLID
  5
4F61
330
4D2E
100
AcDbEntity
  8
AM_5
100
AcDbTrace
 10
1170.445390704886
 20
1126.296963450704
 30
0.0
 11
1171.612057371552
 21
1126.296963450704
 31
0.0
 12
1171.028724038219
 22
1122.796963450704
 32
0.0
 13
1171.028724038219
 23
1122.796963450704
 33
0.0
  0
MTEXT
  5
4F62
330
4D2E
100
AcDbEntity
  8
AM_5
100
AcDbMText
 10
1168.228724038219
 20
1165.796963450705
 30
0.0
 40
4.0
 41
0.0
 71
     5
 72
     1
  1
%%C86
 11
0.0000000000000001
 21
1.0
 31
0.0
 73
     1
 44
1.0
1001
ACAD
1000
MTEXTBEGIN
1070
    73
1070
     1
1070
    44
1040
1.0
1070
    74
1070
     0
1000
MTEXTEND
  0
POINT
  5
4F63
330
4D2E
100
AcDbEntity
  8
Defpoints
 62
     0
100
AcDbPoint
 10
1157.41133268412
 20
1208.796963450704
 30
0.0
  0
POINT
  5
4F64
330
4D2E
100
AcDbEntity
  8
Defpoints
 62
     0
100
AcDbPoint
 10
1157.41133268412
 20
1122.796963450704
 30
0.0
  0
POINT
  5
4F65
330
4D2E
100
AcDbEntity
  8
Defpoints
 62
     0
100
AcDbPoint
 10
1171.028724038219
 20
1122.796963450704
 30
0.0
  0
ENDBLK
  5
4D39
330
4D2E
100
AcDbEntity
  8
0
100
AcDbBlockEnd
  0
BLOCK
  5
4D44
330
4D3A
100
AcDbEntity
  8
0
100
AcDbBlockBegin
  2
*D25
 70
     1
 10
0.0
 20
0.0
 30
0.0
  3
*D25
  1

  0
LINE
  5
4F33
330
4D3A
100
AcDbEntity
  8
AM_5
100
AcDbLine
 10
1261.379391917671
 20
1083.602333108367
 30
0.0
 11
1204.810450725308
 21
1091.050101884387
 31
0.0
  0
LINE
  5
4F34
330
4D3A
100
AcDbEntity
  8
AM_5
100
AcDbLine
 10
1256.419453696832
 20
1045.929512969826
 30
0.0
 11
1199.850512504468
 21
1053.377281745845
 31
0.0
  0
LINE
  5
4F35
330
4D3A
100
AcDbEntity
  8
AM_5
100
AcDbLine
 10
1205.840755554345
 20
1087.384249737987
 30
0.0
 11
1201.794540038732
 21
1056.651538447148
 31
0.0
  0
SOLID
  5
4F36
330
4D3A
100
AcDbEntity
  8
AM_5
100
AcDbTrace
 10
1205.26241315037
 20
1087.460393296756
 30
0.0
 11
1206.41909795832
 21
1087.308106179218
 31
0.0
 12
1206.297616906958
 22
1090.854304161838
 32
0.0
 13
1206.297616906958
 23
1090.854304161838
 33
0.0
  0
SOLID
  5
4F37
330
4D3A
100
AcDbEntity
  8
AM_5
100
AcDbTrace
 10
1201.216197634757
 20
1056.727682005917
 30
0.0
 11
1202.372882442707
 21
1056.575394888379
 31
0.0
 12
1201.337678686119
 22
1053.181484023297
 32
0.0
 13
1201.337678686119
 23
1053.181484023297
 33
0.0
  0
MTEXT
  5
4F38
330
4D3A
100
AcDbEntity
  8
AM_5
100
AcDbMText
 10
1201.041604257458
 20
1072.383383174658
 30
0.0
 40
4.0
 41
0.0
 71
     5
 72
     1
  1
38
 11
0.1305318150323725
 21
0.991444121100304
 31
0.0
 73
     1
 44
1.0
1001
ACAD
1000
MTEXTBEGIN
1070
    73
1070
     1
1070
    44
1040
1.0
1070
    74
1070
     0
1000
MTEXTEND
  0
POINT
  5
4F39
330
4D3A
100
AcDbEntity
  8
Defpoints
 62
     0
100
AcDbPoint
 10
1262.370836038772
 20
1083.471801293335
 30
0.0
  0
POINT
  5
4F3A
330
4D3A
100
AcDbEntity
  8
Defpoints
 62
     0
100
AcDbPoint
 10
1257.410897817933
 20
1045.798981154794
 30
0.0
  0
POINT
  5
4F3B
330
4D3A
100
AcDbEntity
  8
Defpoints
 62
     0
100
AcDbPoint
 10
1201.337678686119
 20
1053.181484023297
 30
0.0
  0
ENDBLK
  5
4D45
330
4D3A
100
AcDbEntity
  8
0
100
AcDbBlockEnd
  0
BLOCK
  5
4D50
330
4D46
100
AcDbEntity
  8
0
100
AcDbBlockBegin
  2
*D26
 70
     1
 10
0.0
 20
0.0
 30
0.0
  3
*D26
  1

  0
LINE
  5
4F3C
330
4D46
100
AcDbEntity
  8
AM_5
100
AcDbLine
 10
1251.915756373979
 20
1011.722034640884
 30
0.0
 11
1195.346815181614
 21
1019.169803416904
 31
0.0
  0
LINE
  5
4F3D
330
4D46
100
AcDbEntity
  8
AM_5
100
AcDbLine
 10
1256.419051858777
 20
1045.926460840529
 30
0.0
 11
1199.850110666412
 21
1053.374229616549
 31
0.0
  0
LINE
  5
4F3E
330
4D46
100
AcDbEntity
  8
AM_5
100
AcDbLine
 10
1197.290842715878
 20
1022.444060118206
 30
0.0
 11
1200.880415495449
 21
1049.708377470149
 31
0.0
  0
SOLID
  5
4F3F
330
4D46
100
AcDbEntity
  8
AM_5
100
AcDbTrace
 10
1196.712500311903
 20
1022.520203676975
 30
0.0
 11
1197.869185119853
 21
1022.367916559437
 31
0.0
 12
1196.833981363265
 22
1018.974005694355
 32
0.0
 13
1196.833981363265
 23
1018.974005694355
 33
0.0
  0
SOLID
  5
4F40
330
4D46
100
AcDbEntity
  8
AM_5
100
AcDbTrace
 10
1200.302073091474
 20
1049.784521028918
 30
0.0
 11
1201.458757899424
 21
1049.63223391138
 31
0.0
 12
1201.337276848063
 22
1053.178431894
 32
0.0
 13
1201.337276848063
 23
1053.178431894
 33
0.0
  0
MTEXT
  5
4F41
330
4D46
100
AcDbEntity
  8
AM_5
100
AcDbMText
 10
1196.309585566583
 20
1036.441707876269
 30
0.0
 40
4.0
 41
0.0
 71
     5
 72
     1
  1
34.5
 11
0.1305318150323712
 21
0.9914441211003042
 31
0.0
 73
     1
 44
1.0
1001
ACAD
1000
MTEXTBEGIN
1070
    73
1070
     1
1070
    44
1040
1.0
1070
    74
1070
     0
1000
MTEXTEND
  0
POINT
  5
4F42
330
4D46
100
AcDbEntity
  8
Defpoints
 62
     0
100
AcDbPoint
 10
1252.907200495079
 20
1011.591502825852
 30
0.0
  0
POINT
  5
4F43
330
4D46
100
AcDbEntity
  8
Defpoints
 62
     0
100
AcDbPoint
 10
1257.410495979877
 20
1045.795929025497
 30
0.0
  0
POINT
  5
4F44
330
4D46
100
AcDbEntity
  8
Defpoints
 62
     0
100
AcDbPoint
 10
1201.337276848063
 20
1053.178431894
 30
0.0
  0
ENDBLK
  5
4D51
330
4D46
100
AcDbEntity
  8
0
100
AcDbBlockEnd
  0
ENDSEC
  0
SECTION
  2
ENTITIES
  0
TEXT
  5
AE3
330
1F
100
AcDbEntity
  8
M_1
 62
     4
100
AcDbText
 10
298.4979942115772
 20
71.23545134413652
 30
0.0
 40
5.0
  1

 41
0.75
  7
DAYUS
 11
298.4979942115772
 21
71.23545134413652
 31
0.0
100
AcDbText
 73
     1
  0
LINE
  5
2824
330
1F
100
AcDbEntity
  8
LOGO
 62
     1
100
AcDbLine
 10
1394.626615776878
 20
945.1237424469898
 30
0.0
 11
894.7756157768777
 21
945.1237424469898
 31
0.0
  0
LWPOLYLINE
  5
2838
330
1F
100
AcDbEntity
  8
0
 62
     4
100
AcDbPolyline
 90
        4
 70
     1
 43
0.0
 10
894.7756157768777
 20
945.1237424469898
 10
1394.626615776877
 20
945.1237424469898
 10
1394.626615776877
 20
1272.304206200835
 10
894.7756157768777
 20
1272.304206200835
1001
GENIUS_GENREC_14
1002
{
1000
PYDIR
1011
894.7756157768777
1021
1272.304206200835
1031
0.0
1002
}
1002
{
1000
PXDIR
1011
1394.626615776877
1021
945.1237424469898
1031
0.0
1002
}
1002
{
1000
PORI
1011
894.7756157768777
1021
945.1237424469898
1031
0.0
1002
}
1002
{
1000
PINS
1011
894.7756157768777
1021
945.1237424469898
1031
0.0
1002
}
1002
{
1000
PINS2
1011
1394.626615776877
1021
1272.304206200835
1031
0.0
1002
}
1002
{
1000
C
1070
     1
1002
}
1001
GENIUS_GENODEF_13
1002
{
1000
HIER
1070
     0
1002
}
1002
{
1000
MANEDIT
1070
     0
1002
}
1002
{
1000
NOSEL
1070
     0
1002
}
1002
{
1000
BEHIND
1070
     0
1002
}
1002
{
1000
OTHER
1070
     0
1002
}
1002
{
1000
REACTOR
1002
}
1001
GENIUS_GENOBJ-N-REC_13
1002
{
1000
OWNER
1000
GEN
1002
}
  0
LWPOLYLINE
  5
2872
330
1F
100
AcDbEntity
  8
LOGO
 62
     4
100
AcDbPolyline
 90
        4
 70
     1
 43
0.0
 10
894.7756157768777
 20
945.1237424469898
 10
1394.626615776877
 20
945.1237424469898
 10
1394.626615776877
 20
908.7762062008353
 10
894.7756157768777
 20
908.7762062008353
1001
GENIUS_GENREC_14
1002
{
1000
PYDIR
1011
894.7756157768777
1021
908.7762062008353
1031
0.0
1002
}
1002
{
1000
PXDIR
1011
1394.626615776877
1021
945.1237424469898
1031
0.0
1002
}
1002
{
1000
PORI
1011
894.7756157768777
1021
945.1237424469898
1031
0.0
1002
}
1002
{
1000
PINS
1011
894.7756157768777
1021
945.1237424469898
1031
0.0
1002
}
1002
{
1000
PINS2
1011
1394.626615776877
1021
908.7762062008353
1031
0.0
1002
}
1002
{
1000
C
1070
     1
1002
}
1001
GENIUS_GENOBJ-N-REC_13
1002
{
1000
OWNER
1000
GEN
1002
}
1001
GENIUS_GENODEF_13
1002
{
1000
HIER
1070
     0
1002
}
1002
{
1000
MANEDIT
1070
     0
1002
}
1002
{
1000
NOSEL
1070
     0
1002
}
1002
{
1000
BEHIND
1070
     0
1002
}
1002
{
1000
OTHER
1070
     0
1002
}
1002
{
1000
REACTOR
1002
}
  0
LINE
  5
2873
330
1F
100
AcDbEntity
  8
LOGO
 62
     4
100
AcDbLine
 10
1048.966309270218
 20
925.1325975116056
 30
0.0
 11
1048.966309270218
 21
911.8051675546817
 31
0.0
  0
LINE
  5
2874
330
1F
100
AcDbEntity
  8
LOGO
 62
     4
100
AcDbLine
 10
1024.734618439449
 20
925.1325975116056
 30
0.0
 11
1024.734618439449
 21
911.8051675546817
 31
0.0
  0
LINE
  5
2875
330
1F
100
AcDbEntity
  8
LOGO
 62
     4
100
AcDbLine
 10
1048.966309270218
 20
911.8051675546817
 30
0.0
 11
1024.734618439449
 21
911.8051675546817
 31
0.0
  0
LINE
  5
2876
330
1F
100
AcDbEntity
  8
LOGO
 62
     4
100
AcDbLine
 10
1060.248200474481
 20
941.4889888223742
 30
0.0
 11
1024.734618439449
 21
941.4889888223742
 31
0.0
  0
LINE
  5
2877
330
1F
100
AcDbEntity
  8
LOGO
 62
     4
100
AcDbLine
 10
1060.248200474481
 20
930.5847279485282
 30
0.0
 11
1024.734618439449
 21
930.5847279485282
 31
0.0
  0
LINE
  5
2878
330
1F
100
AcDbEntity
  8
LOGO
 62
     4
100
AcDbLine
 10
1024.734618439449
 20
941.4889888223742
 30
0.0
 11
1024.734618439449
 21
930.5847279485282
 31
0.0
  0
LINE
  5
2879
330
1F
100
AcDbEntity
  8
LOGO
 62
     4
100
AcDbLine
 10
1060.248200474481
 20
941.4889888223742
 30
0.0
 11
1060.248200474481
 21
930.5847279485282
 31
0.0
  0
LINE
  5
287A
330
1F
100
AcDbEntity
  8
LOGO
 62
     4
100
AcDbLine
 10
1038.114749491291
 20
930.5847279485282
 30
0.0
 11
1038.114749491291
 21
925.1325975116056
 31
0.0
  0
TEXT
  5
287B
330
1F
100
AcDbEntity
  8
LOGO
  6
Continuous
100
AcDbText
 10
1026.672134820693
 20
932.8609764639159
 30
0.0
 40
6.36174
  1
MCHG2
  7
CHINESET
100
AcDbText
  0
LINE
  5
287C
330
1F
100
AcDbEntity
  8
LOGO
 62
     4
100
AcDbLine
 10
1048.966309270218
 20
925.1325975116056
 30
0.0
 11
1024.734618439449
 21
925.1325975116056
 31
0.0
  0
TEXT
  5
287D
330
1F
100
AcDbEntity
  8
LOGO
  6
Continuous
100
AcDbText
 10
1032.510491310676
 20
913.6863060316299
 30
238.2157646504969
 40
2.726459999999999
  1
Model
 41
0.8
  7
CHINESET
100
AcDbText
  0
TEXT
  5
287E
330
1F
100
AcDbEntity
  8
LOGO
100
AcDbText
 10
1031.78479629044
 20
918.7405752775621
 30
238.2157646504969
 40
4.5441
  1
型號
  7
CHINESET
100
AcDbText
  0
LINE
  5
288A
330
1F
100
AcDbEntity
  8
LOGO
  6
Continuous
100
AcDbLine
 10
1061.793209781445
 20
935.9982337701557
 30
0.0
 11
1066.608133504535
 21
935.9982337701557
 31
0.0
  0
LINE
  5
288B
330
1F
100
AcDbEntity
  8
LOGO
 62
     4
100
AcDbLine
 10
1076.369145204171
 20
925.1325975116056
 30
0.0
 11
1076.369145204171
 21
911.8051675546817
 31
0.0
  0
LINE
  5
288C
330
1F
100
AcDbEntity
  8
LOGO
 62
     4
100
AcDbLine
 10
1052.137454373401
 20
925.1325975116056
 30
0.0
 11
1052.137454373401
 21
911.8051675546817
 31
0.0
  0
LINE
  5
288D
330
1F
100
AcDbEntity
  8
LOGO
 62
     4
100
AcDbLine
 10
1076.369145204171
 20
911.8051675546817
 30
0.0
 11
1052.137454373401
 21
911.8051675546817
 31
0.0
  0
LINE
  5
288E
330
1F
100
AcDbEntity
  8
LOGO
 62
     4
100
AcDbLine
 10
1086.759605923746
 20
941.4889888223742
 30
0.0
 11
1068.126988129394
 21
941.4889888223742
 31
0.0
  0
LINE
  5
288F
330
1F
100
AcDbEntity
  8
LOGO
 62
     4
100
AcDbLine
 10
1086.759605923746
 20
930.5847279485282
 30
0.0
 11
1068.126988129394
 21
930.5847279485282
 31
0.0
  0
LINE
  5
2890
330
1F
100
AcDbEntity
  8
LOGO
 62
     4
100
AcDbLine
 10
1068.126988129394
 20
941.4889888223742
 30
0.0
 11
1068.126988129394
 21
930.5847279485282
 31
0.0
  0
LINE
  5
2891
330
1F
100
AcDbEntity
  8
LOGO
 62
     4
100
AcDbLine
 10
1086.759605923746
 20
941.4889888223742
 30
0.0
 11
1086.759605923746
 21
930.5847279485282
 31
0.0
  0
LINE
  5
2892
330
1F
100
AcDbEntity
  8
LOGO
 62
     4
100
AcDbLine
 10
1076.504933596393
 20
930.5847279485282
 30
0.0
 11
1076.504933596393
 21
927.8586627300668
 31
0.0
  0
TEXT
  5
2893
330
1F
100
AcDbEntity
  8
LOGO
  6
Continuous
100
AcDbText
 10
1072.780113651268
 20
932.8609764639159
 30
0.0
 40
6.36174
  1
63
  7
CHINESET
100
AcDbText
  0
LINE
  5
2894
330
1F
100
AcDbEntity
  8
LOGO
 62
     4
100
AcDbLine
 10
1076.369145204171
 20
925.1325975116056
 30
0.0
 11
1052.137454373401
 21
925.1325975116056
 31
0.0
  0
LINE
  5
2895
330
1F
100
AcDbEntity
  8
LOGO
  6
Continuous
100
AcDbLine
 10
1107.633588188844
 20
935.9982337701557
 30
0.0
 11
1112.448511911935
 21
935.9982337701557
 31
0.0
  0
LINE
  5
2896
330
1F
100
AcDbEntity
  8
LOGO
 62
     4
100
AcDbLine
 10
1132.941320556489
 20
925.1325975116056
 30
0.0
 11
1132.941320556489
 21
911.8051675546817
 31
0.0
  0
LINE
  5
2897
330
1F
100
AcDbEntity
  8
LOGO
 62
     4
100
AcDbLine
 10
1105.046375567735
 20
925.1325975116056
 30
0.0
 11
1105.046375567735
 21
911.8051675546817
 31
0.0
  0
LINE
  5
2898
330
1F
100
AcDbEntity
  8
LOGO
 62
     4
100
AcDbLine
 10
1132.941320556489
 20
911.8051675546817
 30
0.0
 11
1105.046375567735
 21
911.8051675546817
 31
0.0
  0
LINE
  5
2899
330
1F
100
AcDbEntity
  8
LOGO
 62
     4
100
AcDbLine
 10
1125.569197297401
 20
941.4889888223742
 30
0.0
 11
1113.967366536793
 21
941.4889888223742
 31
0.0
  0
LINE
  5
289A
330
1F
100
AcDbEntity
  8
LOGO
 62
     4
100
AcDbLine
 10
1125.569197297401
 20
930.5847279485282
 30
0.0
 11
1113.967366536793
 21
930.5847279485282
 31
0.0
  0
LINE
  5
289B
330
1F
100
AcDbEntity
  8
LOGO
 62
     4
100
AcDbLine
 10
1113.967366536793
 20
941.4889888223742
 30
0.0
 11
1113.967366536793
 21
930.5847279485282
 31
0.0
  0
LINE
  5
289C
330
1F
100
AcDbEntity
  8
LOGO
 62
     4
100
AcDbLine
 10
1125.569197297401
 20
941.4889888223742
 30
0.0
 11
1125.569197297401
 21
930.5847279485282
 31
0.0
  0
LINE
  5
289D
330
1F
100
AcDbEntity
  8
LOGO
 62
     4
100
AcDbLine
 10
1119.768281917097
 20
930.5847279485282
 30
0.0
 11
1119.768281917097
 21
925.1325975116056
 31
0.0
  0
LINE
  5
289F
330
1F
100
AcDbEntity
  8
LOGO
 62
     4
100
AcDbLine
 10
1132.941320556489
 20
925.1325975116056
 30
0.0
 11
1105.046375567735
 21
925.1325975116056
 31
0.0
  0
TEXT
  5
28A2
330
1F
100
AcDbEntity
  8
LOGO
  6
Continuous
100
AcDbText
 10
1057.213003226905
 20
913.6863060316299
 30
238.2157646504969
 40
2.726459999999999
  1
Tube I.D.
 41
0.8
  7
CHINESET
100
AcDbText
  0
TEXT
  5
28A3
330
1F
100
AcDbEntity
  8
LOGO
100
AcDbText
 10
1058.31234127374
 20
918.7405752775621
 30
238.2157646504969
 40
4.5441
  1
內徑
  7
CHINESET
100
AcDbText
  0
TEXT
  5
28A4
330
1F
100
AcDbEntity
  8
LOGO
  6
Continuous
100
AcDbText
 10
1107.580316057502
 20
913.6863060316299
 30
238.2157646504969
 40
2.726459999999999
  1
Sensor switch
 41
0.8
  7
CHINESET
100
AcDbText
  0
TEXT
  5
28A5
330
1F
100
AcDbEntity
  8
LOGO
100
AcDbText
 10
1107.391272283728
 20
918.7405752775621
 30
238.2157646504969
 40
4.5441
  1
感應器型式
  7
CHINESET
100
AcDbText
  0
LINE
  5
28A6
330
1F
100
AcDbEntity
  8
LOGO
 62
     4
100
AcDbLine
 10
1105.537781340756
 20
941.4889888223742
 30
0.0
 11
1088.298716085922
 21
941.4889888223742
 31
0.0
  0
LINE
  5
28A7
330
1F
100
AcDbEntity
  8
LOGO
 62
     4
100
AcDbLine
 10
1105.537781340756
 20
930.5847279485282
 30
0.0
 11
1088.298716085922
 21
930.5847279485282
 31
0.0
  0
LINE
  5
28A8
330
1F
100
AcDbEntity
  8
LOGO
 62
     4
100
AcDbLine
 10
1088.298716085922
 20
941.4889888223742
 30
0.0
 11
1088.298716085922
 21
930.5847279485282
 31
0.0
  0
LINE
  5
28A9
330
1F
100
AcDbEntity
  8
LOGO
 62
     4
100
AcDbLine
 10
1105.537781340756
 20
941.4889888223742
 30
0.0
 11
1105.537781340756
 21
930.5847279485282
 31
0.0
  0
TEXT
  5
28AA
330
1F
100
AcDbEntity
  8
LOGO
  6
Continuous
100
AcDbText
 10
1090.832894649056
 20
932.8609764639159
 30
0.0
 40
6.36174
  1
(M)
  7
CHINESET
100
AcDbText
  0
LINE
  5
28AB
330
1F
100
AcDbEntity
  8
LOGO
 62
     4
100
AcDbLine
 10
1101.063299876293
 20
925.1325975116056
 30
0.0
 11
1101.063299876293
 21
911.8051675546817
 31
0.0
  0
LINE
  5
28AC
330
1F
100
AcDbEntity
  8
LOGO
 62
     4
100
AcDbLine
 10
1081.322724651418
 20
925.1325975116056
 30
0.0
 11
1081.322724651418
 21
911.8051675546817
 31
0.0
  0
LINE
  5
28AD
330
1F
100
AcDbEntity
  8
LOGO
 62
     4
100
AcDbLine
 10
1101.063299876293
 20
911.8051675546817
 30
0.0
 11
1081.322724651418
 21
911.8051675546817
 31
0.0
  0
LINE
  5
28AE
330
1F
100
AcDbEntity
  8
LOGO
 62
     4
100
AcDbLine
 10
1101.063299876293
 20
925.1325975116056
 30
0.0
 11
1081.322724651418
 21
925.1325975116056
 31
0.0
  0
TEXT
  5
28AF
330
1F
100
AcDbEntity
  8
LOGO
  6
Continuous
100
AcDbText
 10
1085.613817666009
 20
913.6863060316299
 30
238.2157646504969
 40
2.726459999999999
  1
Magnet
 41
0.8
  7
CHINESET
100
AcDbText
  0
TEXT
  5
28B0
330
1F
100
AcDbEntity
  8
LOGO
100
AcDbText
 10
1084.159838330043
 20
918.7405752775621
 30
238.2157646504969
 40
4.5441
  1
附磁石
  7
CHINESET
100
AcDbText
  0
LINE
  5
28B1
330
1F
100
AcDbEntity
  8
LOGO
 62
     4
100
AcDbLine
 10
1096.91824871334
 20
930.5847279485282
 30
0.0
 11
1096.91824871334
 21
927.8586627300668
 31
0.0
  0
LINE
  5
28B9
330
1F
100
AcDbEntity
  8
LOGO
 62
     4
100
AcDbLine
 10
1076.504933596393
 20
927.8586627300668
 30
0.0
 11
1064.253299788786
 21
927.8586627300668
 31
0.0
  0
LINE
  5
28BA
330
1F
100
AcDbEntity
  8
LOGO
 62
     4
100
AcDbLine
 10
1064.253299788786
 20
925.1325975116056
 30
0.0
 11
1064.253299788786
 21
927.8586627300668
 31
0.0
  0
LINE
  5
28BB
330
1F
100
AcDbEntity
  8
LOGO
 62
     4
100
AcDbLine
 10
1096.91824871334
 20
927.8586627300668
 30
0.0
 11
1091.193012263856
 21
927.8586627300668
 31
0.0
  0
LINE
  5
28BC
330
1F
100
AcDbEntity
  8
LOGO
 62
     4
100
AcDbLine
 10
1091.193012263856
 20
925.1325975116056
 30
0.0
 11
1091.193012263856
 21
927.8586627300668
 31
0.0
  0
TEXT
  5
299D
330
1F
100
AcDbEntity
  8
LOGO
 62
     7
100
AcDbText
 10
976.845945889444
 20
929.2005053237303
 30
0.0
 40
4.846338166153845
  1
Order example:
 41
0.8
  7
CHINESET
100
AcDbText
  0
TEXT
  5
299E
330
1F
100
AcDbEntity
  8
LOGO
 62
     7
100
AcDbText
 10
977.7154190340382
 20
936.0231460145538
 30
0.0
 40
7.269507249230768
  1
訂購代號:
  7
CHINESET
100
AcDbText
  0
LINE
  5
29A0
330
1F
100
AcDbEntity
  8
LOGO
 62
     4
100
AcDbLine
 10
974.7401955184161
 20
908.7762062008357
 30
0.0
 11
974.7401955184161
 21
945.12374244699
 31
0.0
  0
TEXT
  5
29A1
330
1F
100
AcDbEntity
  8
LOGO
  6
Continuous
100
AcDbText
 10
907.8318141818328
 20
915.9166248431779
 30
0.0
 40
5.452130436923075
  1
金器工業股份有限公司
  7
CHINESET
100
AcDbText
  0
TEXT
  5
29A2
330
1F
100
AcDbEntity
  8
LOGO
  6
Continuous
100
AcDbText
 10
897.8173292200185
 20
910.4634262161527
 30
0.0
 40
3.634753624615384
  1
MINDMAN INDUSTRIAL CO., LTD.
 41
0.85
  7
CHINESET
100
AcDbText
  0
LINE
  5
29A3
330
1F
100
AcDbEntity
  8
LOGO
100
AcDbLine
 10
974.7401955184161
 20
937.8542351977589
 30
0.0
 11
921.4304756907235
 21
937.8542351977589
 31
0.0
  0
LINE
  5
29A4
330
1F
100
AcDbEntity
  8
LOGO
100
AcDbLine
 10
974.7401955184161
 20
930.5847279485282
 30
0.0
 11
921.4304756907235
 21
930.5847279485282
 31
0.0
  0
LINE
  5
29A5
330
1F
100
AcDbEntity
  8
LOGO
 62
     4
100
AcDbLine
 10
974.7401955184161
 20
923.3152206992979
 30
0.0
 11
894.7756157768777
 21
923.3152206992979
 31
0.0
  0
LINE
  5
29A6
330
1F
100
AcDbEntity
  8
LOGO
 62
     4
100
AcDbLine
 10
921.4304756907235
 20
923.3152206992979
 30
0.0
 11
921.4304756907235
 21
945.12374244699
 31
0.0
  0
TEXT
  5
29A7
330
1F
100
AcDbEntity
  8
LOGO
100
AcDbText
 10
957.8651530125018
 20
925.1325975116051
 30
0.0
 40
3.634753624615384
  1
mm
  7
CHINESET
 72
     1
 11
962.3653241667875
 21
926.9499743239128
 31
0.0
100
AcDbText
 73
     2
  0
TEXT
  5
29A8
330
1F
100
AcDbEntity
  8
LOGO
100
AcDbText
 10
955.961234447227
 20
939.6716120100666
 30
0.0
 40
3.634753624615384
  1
1 : 1
  7
CHINESET
 72
     1
 11
962.3653241667875
 21
941.4889888223742
 31
0.0
100
AcDbText
 73
     2
  0
LINE
  5
29A9
330
1F
100
AcDbEntity
  8
LOGO
 62
     4
100
AcDbLine
 10
950.5085046876466
 20
923.3152206992979
 30
0.0
 11
950.5085046876466
 21
945.12374244699
 31
0.0
  0
CIRCLE
  5
29AA
330
1F
100
AcDbEntity
  8
LOGO
  6
Continuous
100
AcDbCircle
 10
957.2387056514187
 20
934.2272563377454
 30
0.0
 40
2.110423506907992
  0
CIRCLE
  5
29AB
330
1F
100
AcDbEntity
  8
LOGO
  6
Continuous
100
AcDbCircle
 10
957.2387056514187
 20
934.2272563377454
 30
0.0
 40
1.236521349825336
  0
LINE
  5
29AC
330
1F
100
AcDbEntity
  8
LOGO
100
AcDbLine
 10
970.5008518520166
 20
932.116832830837
 30
0.0
 11
970.5008518520166
 21
936.3376798446537
 31
0.0
  0
LINE
  5
29AD
330
1F
100
AcDbEntity
  8
LOGO
100
AcDbLine
 10
963.8847953019499
 20
932.9907349879201
 30
0.0
 11
963.8847953019499
 21
935.4637776875707
 31
0.0
  0
LINE
  5
29AE
330
1F
100
AcDbEntity
  8
LOGO
  6
Continuous
100
AcDbLine
 10
963.8847953019499
 20
935.4637776875707
 30
0.0
 11
970.5008518520166
 21
936.3376798446537
 31
0.0
  0
LINE
  5
29AF
330
1F
100
AcDbEntity
  8
LOGO
  6
Continuous
100
AcDbLine
 10
963.8847953019499
 20
932.9907349879201
 30
0.0
 11
970.5008518520166
 21
932.116832830837
 31
0.0
  0
TEXT
  5
29B0
330
1F
100
AcDbEntity
  8
LOGO
100
AcDbText
 10
924.4275247731634
 20
939.6734007667715
 30
238.2157646504969
 40
3.634753624615384
  1
比例 Scale:
 41
0.9
  7
CHINESET
 72
     4
 11
935.9694901891852
 21
941.4889888223742
 31
238.2157646504969
100
AcDbText
  0
TEXT
  5
29B1
330
1F
100
AcDbEntity
  8
LOGO
100
AcDbText
 10
924.2182019081743
 20
932.4532333899878
 30
238.2157646504969
 40
3.634753624615384
  1
投影  View:
 41
0.9
  7
CHINESET
 72
     4
 11
935.9694901891852
 21
934.2194815731433
 31
238.2157646504969
100
AcDbText
  0
TEXT
  5
29B2
330
1F
100
AcDbEntity
  8
LOGO
100
AcDbText
 10
924.5735639812952
 20
925.1325975116051
 30
238.2157646504969
 40
3.634753624615384
  1
單位  Unit:
 41
0.9
  7
CHINESET
 72
     4
 11
935.9694901891852
 21
926.9499743239128
 31
238.2157646504969
100
AcDbText
  0
SOLID
  5
29B4
330
1F
100
AcDbEntity
  8
LOGO
 62
     5
100
AcDbTrace
 10
898.5467309957746
 20
929.3574812337825
 30
0.0
 11
900.1183030871231
 21
929.3574812337821
 31
0.0
 12
906.6755521579221
 22
944.2603200310539
 32
0.0
 13
908.2471242492713
 23
944.2603200310529
 33
0.0
  0
SOLID
  5
29B5
330
1F
100
AcDbEntity
  8
LOGO
 62
     5
100
AcDbTrace
 10
900.7686087800966
 20
929.3574812337825
 30
0.0
 11
902.3401808714451
 21
929.3574812337825
 31
0.0
 12
908.2471242492713
 22
943.0680929272714
 32
0.0
 13
906.6755521579221
 23
937.3056619256599
 33
0.0
  0
SOLID
  5
29B6
330
1F
100
AcDbEntity
  8
LOGO
 62
     2
100
AcDbTrace
 10
900.1183030871231
 20
929.3574812337821
 30
0.0
 11
900.7686087800966
 21
929.3574812337825
 31
0.0
 12
908.2471242492713
 22
944.2603200310529
 32
0.0
 13
908.8974299422444
 23
944.2603200310529
 33
0.0
  0
SOLID
  5
29B7
330
1F
100
AcDbEntity
  8
LOGO
 62
     5
100
AcDbTrace
 10
896.0271155366577
 20
923.9382671256842
 30
0.0
 11
896.5690369474682
 21
923.9382671256842
 31
0.0
 12
898.0951298201002
 22
926.6478741797332
 32
0.0
 13
898.637051230909
 23
926.6478741797332
 33
0.0
  0
SOLID
  5
29B8
330
1F
100
AcDbEntity
  8
LOGO
 62
     5
100
AcDbTrace
 10
898.0951298201002
 20
926.6478741797332
 30
0.0
 11
898.637051230909
 21
926.6478741797332
 31
0.0
 12
898.0951298201002
 22
923.9382671256842
 32
0.0
 13
898.637051230909
 23
923.9382671256842
 33
0.0
  0
SOLID
  5
29B9
330
1F
100
AcDbEntity
  8
LOGO
 62
     5
100
AcDbTrace
 10
898.0951298201002
 20
923.9382671256842
 30
0.0
 11
898.637051230909
 21
923.9382671256842
 31
0.0
 12
900.1631441035438
 22
926.6478741797332
 32
0.0
 13
900.7050655143531
 23
926.6478741797332
 33
0.0
  0
SOLID
  5
29BA
330
1F
100
AcDbEntity
  8
LOGO
 62
     5
100
AcDbTrace
 10
900.1631441035438
 20
926.6478741797332
 30
0.0
 11
900.7050655143531
 21
926.6478741797332
 31
0.0
 12
900.1631441035438
 22
923.9382671256842
 32
0.0
 13
900.7050655143531
 23
923.9382671256842
 33
0.0
  0
POLYLINE
  5
29BB
330
1F
100
AcDbEntity
  8
LOGO
 62
     5
100
AcDb2dPolyline
 66
     1
 10
0.0
 20
0.0
 30
0.0
 40
0.5427898746092307
 41
0.5427898746092307
  0
VERTEX
  5
29BC
330
29BB
100
AcDbEntity
  8
LOGO
 62
     5
100
AcDbVertex
100
AcDb2dVertex
 10
918.3281651860346
 20
925.5640313581134
 30
0.0
 42
1.0
  0
VERTEX
  5
29BD
330
29BB
100
AcDbEntity
  8
LOGO
 62
     5
100
AcDbVertex
100
AcDb2dVertex
 10
916.6997955622067
 20
925.5640313581134
 30
0.0
 42
1.0
  0
SEQEND
  5
29BE
330
29BB
100
AcDbEntity
  8
LOGO
 62
     5
  0
POLYLINE
  5
29BF
330
1F
100
AcDbEntity
  8
LOGO
 62
     5
100
AcDb2dPolyline
 66
     1
 10
0.0
 20
0.0
 30
0.0
 70
     1
  0
VERTEX
  5
29C0
330
29BF
100
AcDbEntity
  8
LOGO
 62
     5
100
AcDbVertex
100
AcDb2dVertex
 10
913.6302463914097
 20
925.2930706527083
 30
0.0
 42
1.000000057330635
  0
VERTEX
  5
29C1
330
29BF
100
AcDbEntity
  8
LOGO
 62
     5
100
AcDbVertex
100
AcDb2dVertex
 10
915.2560106238393
 20
925.2930706527083
 30
0.0
 42
1.000000057330635
  0
SEQEND
  5
29C2
330
29BF
100
AcDbEntity
  8
LOGO
 62
     5
  0
CIRCLE
  5
29C3
330
1F
100
AcDbEntity
  8
LOGO
 62
     5
100
AcDbCircle
 10
914.4431285076256
 20
925.2930706527083
 30
0.0
 40
0.812882116214784
  0
POLYLINE
  5
29C4
330
1F
100
AcDbEntity
  8
LOGO
 62
     5
100
AcDb2dPolyline
 66
     1
 10
0.0
 20
0.0
 30
0.0
 70
     1
 40
0.5427898746092307
 41
0.5427898746092307
  0
VERTEX
  5
29C5
330
29C4
100
AcDbEntity
  8
LOGO
 62
     5
100
AcDbVertex
100
AcDb2dVertex
 10
913.3575487584064
 20
925.2930706527083
 30
0.0
 42
1.0
  0
VERTEX
  5
29C6
330
29C4
100
AcDbEntity
  8
LOGO
 62
     5
100
AcDbVertex
100
AcDb2dVertex
 10
915.5287082568431
 20
925.2930706527083
 30
0.0
 42
1.0
  0
SEQEND
  5
29C7
330
29C4
100
AcDbEntity
  8
LOGO
 62
     5
  0
LINE
  5
29C8
330
1F
100
AcDbEntity
  8
LOGO
100
AcDbLine
 10
918.5978231957394
 20
923.9382671256842
 30
0.0
 11
918.5978231957394
 21
925.5640313581134
 31
0.0
  0
SOLID
  5
29C9
330
1F
100
AcDbEntity
  8
LOGO
 62
     5
100
AcDbTrace
 10
915.2559564317007
 20
926.6478741797332
 30
0.0
 11
915.7978778425093
 21
926.6478741797332
 31
0.0
 12
915.2559564317007
 22
923.9382671256842
 32
0.0
 13
915.7978778425093
 23
923.9382671256842
 33
0.0
  0
SOLID
  5
29CA
330
1F
100
AcDbEntity
  8
LOGO
 62
     5
100
AcDbTrace
 10
916.4301375524999
 20
923.9382671256842
 30
0.0
 11
916.9720589633106
 21
923.9382671256842
 31
0.0
 12
916.4301375524999
 22
926.6478741797332
 32
0.0
 13
916.9720589633106
 23
926.6478741797332
 33
0.0
  0
SOLID
  5
29CB
330
1F
100
AcDbEntity
  8
LOGO
 62
     5
100
AcDbTrace
 10
918.0559017849304
 20
925.5640313581134
 30
0.0
 11
918.5978231957394
 21
925.5640313581134
 31
0.0
 12
918.0559017849304
 22
923.9382671256842
 32
0.0
 13
918.5978231957394
 23
923.9382671256842
 33
0.0
  0
SOLID
  5
29CC
330
1F
100
AcDbEntity
  8
LOGO
 62
     5
100
AcDbTrace
 10
916.375945411419
 20
943.0680929272714
 30
0.0
 11
914.8043733200712
 21
937.3056619256599
 31
0.0
 12
916.375945411419
 22
929.3574812337821
 32
0.0
 13
914.8043733200712
 23
929.3574812337821
 33
0.0
  0
SOLID
  5
29CD
330
1F
100
AcDbEntity
  8
LOGO
 62
     5
100
AcDbTrace
 10
917.0262511043915
 20
929.3574812337821
 30
0.0
 11
918.5978231957394
 21
929.3574812337821
 31
0.0
 12
917.0262511043915
 22
944.2603200310529
 32
0.0
 13
918.5978231957394
 23
944.2603200310539
 33
0.0
  0
SOLID
  5
29CE
330
1F
100
AcDbEntity
  8
LOGO
 62
     2
100
AcDbTrace
 10
916.375945411419
 20
944.2603200310539
 30
0.0
 11
917.0262511043915
 21
944.2603200310529
 31
0.0
 12
916.375945411419
 22
929.3574812337821
 32
0.0
 13
917.0262511043915
 23
929.3574812337821
 33
0.0
  0
POLYLINE
  5
29CF
330
1F
100
AcDbEntity
  8
LOGO
 62
     5
100
AcDb2dPolyline
 66
     1
 10
0.0
 20
0.0
 30
0.0
 40
0.5427898746092307
 41
0.5427898746092307
  0
VERTEX
  5
29D0
330
29CF
100
AcDbEntity
  8
LOGO
 62
     5
100
AcDbVertex
100
AcDb2dVertex
 10
910.5605888363326
 20
925.5640313581134
 30
0.0
 42
1.0
  0
VERTEX
  5
29D1
330
29CF
100
AcDbEntity
  8
LOGO
 62
     5
100
AcDbVertex
100
AcDb2dVertex
 10
908.9322192125045
 20
925.5640313581134
 30
0.0
 42
1.0
  0
SEQEND
  5
29D2
330
29CF
100
AcDbEntity
  8
LOGO
 62
     5
  0
POLYLINE
  5
29D3
330
1F
100
AcDbEntity
  8
LOGO
 62
     5
100
AcDb2dPolyline
 66
     1
 10
0.0
 20
0.0
 30
0.0
 40
0.5427898746092307
 41
0.5427898746092307
  0
VERTEX
  5
29D4
330
29D3
100
AcDbEntity
  8
LOGO
 62
     5
100
AcDbVertex
100
AcDb2dVertex
 10
912.1863530687607
 20
925.5640313581134
 30
0.0
 42
1.0
  0
VERTEX
  5
29D5
330
29D3
100
AcDbEntity
  8
LOGO
 62
     5
100
AcDbVertex
100
AcDb2dVertex
 10
910.5579834449335
 20
925.5640313581134
 30
0.0
 42
1.0
  0
SEQEND
  5
29D6
330
29D3
100
AcDbEntity
  8
LOGO
 62
     5
  0
POLYLINE
  5
29D7
330
1F
100
AcDbEntity
  8
LOGO
 62
     5
100
AcDb2dPolyline
 66
     1
 10
0.0
 20
0.0
 30
0.0
 40
0.5427898746092307
 41
0.5427898746092307
  0
VERTEX
  5
29D8
330
29D7
100
AcDbEntity
  8
LOGO
 62
     5
100
AcDbVertex
100
AcDb2dVertex
 10
904.4187767190591
 20
925.5640313581134
 30
0.0
 42
1.0
  0
VERTEX
  5
29D9
330
29D7
100
AcDbEntity
  8
LOGO
 62
     5
100
AcDbVertex
100
AcDb2dVertex
 10
902.7904070952317
 20
925.5640313581134
 30
0.0
 42
1.0
  0
SEQEND
  5
29DA
330
29D7
100
AcDbEntity
  8
LOGO
 62
     5
  0
SOLID
  5
29DB
330
1F
100
AcDbEntity
  8
LOGO
 62
     5
100
AcDbTrace
 10
902.520749085526
 20
926.6478741797332
 30
0.0
 11
903.0626704963349
 21
926.6478741797332
 31
0.0
 12
902.520749085526
 22
923.9382671256842
 32
0.0
 13
903.0626704963349
 23
923.9382671256842
 33
0.0
  0
SOLID
  5
29DC
330
1F
100
AcDbEntity
  8
LOGO
 62
     5
100
AcDbTrace
 10
904.1465133179558
 20
925.5640313581134
 30
0.0
 11
904.6884347287662
 21
925.5640313581134
 31
0.0
 12
904.1465133179558
 22
923.9382671256842
 32
0.0
 13
904.6884347287662
 23
923.9382671256842
 33
0.0
  0
POLYLINE
  5
29DD
330
1F
100
AcDbEntity
  8
LOGO
 62
     5
100
AcDb2dPolyline
 66
     1
 10
0.0
 20
0.0
 30
0.0
 70
     1
 40
0.5427898746092307
 41
0.5427898746092307
  0
VERTEX
  5
29DE
330
29DD
100
AcDbEntity
  8
LOGO
 62
     5
100
AcDbVertex
100
AcDb2dVertex
 10
905.5899724087037
 20
925.2930706527083
 30
0.0
 42
1.0
  0
VERTEX
  5
29DF
330
29DD
100
AcDbEntity
  8
LOGO
 62
     5
100
AcDbVertex
100
AcDb2dVertex
 10
907.7611319071412
 20
925.2930706527083
 30
0.0
 42
1.0
  0
SEQEND
  5
29E0
330
29DD
100
AcDbEntity
  8
LOGO
 62
     5
  0
SOLID
  5
29E1
330
1F
100
AcDbEntity
  8
LOGO
 62
     5
100
AcDbTrace
 10
907.4883800819968
 20
927.4607562959484
 30
0.0
 11
908.0303014928068
 21
927.4607562959484
 31
0.0
 12
907.4883800819968
 22
923.9382671256842
 32
0.0
 13
908.0303014928068
 23
923.9382671256842
 33
0.0
  0
SOLID
  5
29E2
330
1F
100
AcDbEntity
  8
LOGO
 62
     5
100
AcDbTrace
 10
908.6625612027999
 20
926.6478741797332
 30
0.0
 11
909.2044826136087
 21
926.6478741797332
 31
0.0
 12
908.6625612027999
 22
923.9382671256842
 32
0.0
 13
909.2044826136087
 23
923.9382671256842
 33
0.0
  0
SOLID
  5
29E3
330
1F
100
AcDbEntity
  8
LOGO
 62
     5
100
AcDbTrace
 10
910.2883254352279
 20
925.5640313581134
 30
0.0
 11
910.8302468460383
 21
925.5640313581134
 31
0.0
 12
910.2883254352279
 22
923.9382671256842
 32
0.0
 13
910.8302468460383
 23
923.9382671256842
 33
0.0
  0
SOLID
  5
29E4
330
1F
100
AcDbEntity
  8
LOGO
 62
     5
100
AcDbTrace
 10
911.9140896676576
 20
925.5640313581134
 30
0.0
 11
912.4560110784672
 21
925.5640313581134
 31
0.0
 12
911.9140896676576
 22
923.9382671256832
 32
0.0
 13
912.4560110784672
 23
923.9382671256832
 33
0.0
  0
SOLID
  5
29E5
330
1F
100
AcDbEntity
  8
LOGO
 62
     5
100
AcDbTrace
 10
901.3465679647239
 20
927.0272191673003
 30
0.0
 11
901.8884893755354
 21
927.0272191673003
 31
0.0
 12
901.3465679647239
 22
927.4607562959484
 32
0.0
 13
901.8884893755354
 23
927.4607562959484
 33
0.0
  0
SOLID
  5
29E6
330
1F
100
AcDbEntity
  8
LOGO
 62
     5
100
AcDbTrace
 10
901.3465679647239
 20
926.6478741797332
 30
0.0
 11
901.8884893755354
 21
926.6478741797332
 31
0.0
 12
901.3465679647239
 22
923.9382671256832
 32
0.0
 13
901.8884893755354
 23
923.9382671256842
 33
0.0
  0
SOLID
  5
29E7
330
1F
100
AcDbEntity
  8
LOGO
 62
     5
100
AcDbTrace
 10
906.6755521579221
 20
929.3574812337825
 30
0.0
 11
908.2471242492713
 21
929.3574812337825
 31
0.0
 12
906.6755521579221
 22
937.3056619256599
 32
0.0
 13
908.2471242492713
 23
943.0680929272714
 33
0.0
  0
SOLID
  5
29E8
330
1F
100
AcDbEntity
  8
LOGO
 62
     5
100
AcDbTrace
 10
908.8974299422444
 20
944.2603200310529
 30
0.0
 11
910.4690020335919
 21
944.2603200310539
 31
0.0
 12
908.8974299422444
 22
930.5497083375639
 32
0.0
 13
910.4690020335919
 23
936.3121393391754
 33
0.0
  0
SOLID
  5
29E9
330
1F
100
AcDbEntity
  8
LOGO
 62
     2
100
AcDbTrace
 10
908.2471242492713
 20
944.2603200310529
 30
0.0
 11
908.8974299422444
 21
944.2603200310529
 31
0.0
 12
908.2471242492713
 22
929.3574812337825
 32
0.0
 13
908.8974299422444
 23
929.3574812337825
 33
0.0
  0
SOLID
  5
29EA
330
1F
100
AcDbEntity
  8
LOGO
 62
     5
100
AcDbTrace
 10
908.8974299422444
 20
930.5497083375639
 30
0.0
 11
910.4690020335919
 21
936.3121393391754
 31
0.0
 12
916.375945411419
 22
944.2603200310539
 32
0.0
 13
914.8043733200712
 23
944.2603200310539
 33
0.0
  0
SOLID
  5
29EB
330
1F
100
AcDbEntity
  8
LOGO
 62
     5
100
AcDbTrace
 10
908.8974299422444
 20
929.3574812337825
 30
0.0
 11
910.4690020335919
 21
929.3574812337825
 31
0.0
 12
916.375945411419
 22
943.0680929272714
 32
0.0
 13
914.8043733200712
 23
937.3056619256599
 33
0.0
  0
SOLID
  5
29EC
330
1F
100
AcDbEntity
  8
LOGO
 62
     2
100
AcDbTrace
 10
908.2471242492713
 20
929.3574812337825
 30
0.0
 11
908.8974299422444
 21
929.3574812337825
 31
0.0
 12
916.375945411419
 22
944.2603200310539
 32
0.0
 13
917.0262511043915
 23
944.2603200310529
 33
0.0
  0
TEXT
  5
2A2D
330
1F
100
AcDbEntity
  8
LOGO
100
AcDbText
 10
976.4243036704732
 20
910.709880782989
 30
0.0
 40
3.635279999999999
  1
10603100
 41
0.7
  7
CHINESET
 72
     1
 11
985.2701516704733
 21
910.709880782989
 31
0.0
100
AcDbText
  0
LINE
  5
2A2E
330
1F
100
AcDbEntity
  8
LOGO
 62
     4
100
AcDbLine
 10
996.5518755184145
 20
916.0457134500674
 30
0.0
 11
996.5518755184161
 21
908.7762062008362
 31
0.0
  0
LINE
  5
2A2F
330
1F
100
AcDbEntity
  8
LOGO
 62
     4
100
AcDbLine
 10
996.5518755184145
 20
916.0457134500674
 30
0.0
 11
974.7401955184161
 21
916.0457134500674
 31
0.0
  0
LINE
  5
2A30
330
1F
100
AcDbEntity
  8
LOGO
  6
AM_ISO08W050x2
 48
0.3
100
AcDbLine
 10
954.3294552460423
 20
934.2272563377454
 30
0.0
 11
960.1479560567948
 21
934.2272563377454
 31
0.0
1001
GENIUS_GENOREF_13
1005
2A35
  0
LINE
  5
2A31
330
1F
100
AcDbEntity
  8
LOGO
  6
AM_ISO08W050x2
 48
0.3
100
AcDbLine
 10
957.2387056514187
 20
931.3180059323689
 30
0.0
 11
957.2387056514187
 21
937.1365067431215
 31
0.0
1001
GENIUS_GENOREF_13
1005
2A34
  0
LINE
  5
2A32
330
1F
100
AcDbEntity
  8
LOGO
  6
AM_ISO08W050x2
 48
0.3
100
AcDbLine
 10
963.3556946703761
 20
934.2272563377454
 30
0.0
 11
971.1670673293291
 21
934.2272563377454
 31
0.0
1001
GENIUS_GENOREF_13
1005
2A33
  0
POINT
  5
2A33
330
1F
100
AcDbEntity
  8
0
 60
     1
100
AcDbPoint
 10
-1846.718893173345
 20
-1185.064967107847
 30
0.0
1001
GENIUS_GENOBJ-N-CRS_13
1002
{
1000
OWNER
1000
GEN
1002
}
1001
GENIUS_GENOLIS_13
1002
{
1000
ENT
1005
0
1005
0
1005
0
1005
2A32
1002
}
1001
GENIUS_GENOENT_13
1002
{
1000
MYREF
1005
2A33
1002
}
1002
{
1000
GRP
1005
0
1002
}
1001
GENIUS_GENODEF_13
1002
{
1000
HIER
1070
    10
1002
}
1002
{
1000
MANEDIT
1070
     1
1002
}
1002
{
1000
NOSEL
1070
     0
1002
}
1002
{
1000
BEHIND
1070
     0
1002
}
1002
{
1000
OTHER
1070
     0
1002
}
1002
{
1000
REACTOR
1002
}
  0
POINT
  5
2A34
330
1F
100
AcDbEntity
  8
0
 60
     1
100
AcDbPoint
 10
-1858.0434783962
 20
-1176.18938062921
 30
0.0
1001
GENIUS_GENOBJ-N-CRS_13
1002
{
1000
OWNER
1000
GEN
1002
}
1001
GENIUS_GENOLIS_13
1002
{
1000
ENT
1005
0
1005
0
1005
0
1005
2A31
1002
}
1001
GENIUS_GENOENT_13
1002
{
1000
MYREF
1005
2A34
1002
}
1002
{
1000
GRP
1005
0
1002
}
1001
GENIUS_GENODEF_13
1002
{
1000
HIER
1070
    10
1002
}
1002
{
1000
MANEDIT
1070
     1
1002
}
1002
{
1000
NOSEL
1070
     0
1002
}
1002
{
1000
BEHIND
1070
     0
1002
}
1002
{
1000
OTHER
1070
     0
1002
}
1002
{
1000
REACTOR
1002
}
  0
POINT
  5
2A35
330
1F
100
AcDbEntity
  8
0
 60
     1
100
AcDbPoint
 10
-1851.684804698363
 20
-1185.064967107847
 30
0.0
1001
GENIUS_GENOBJ-N-CRS_13
1002
{
1000
OWNER
1000
GEN
1002
}
1001
GENIUS_GENOLIS_13
1002
{
1000
ENT
1005
0
1005
0
1005
0
1005
2A30
1002
}
1001
GENIUS_GENOENT_13
1002
{
1000
MYREF
1005
2A35
1002
}
1002
{
1000
GRP
1005
0
1002
}
1001
GENIUS_GENODEF_13
1002
{
1000
HIER
1070
    10
1002
}
1002
{
1000
MANEDIT
1070
     1
1002
}
1002
{
1000
NOSEL
1070
     0
1002
}
1002
{
1000
BEHIND
1070
     0
1002
}
1002
{
1000
OTHER
1070
     0
1002
}
1002
{
1000
REACTOR
1002
}
  0
LINE
  5
4AB4
330
1F
100
AcDbEntity
  8
0
  6
Continuous
 62
     7
100
AcDbLine
 10
1260.25033268412
 20
1011.265963450704
 30
0.0
 11
1260.89033268412
 21
1007.621963450704
 31
0.0
  0
LINE
  5
4AB5
330
1F
100
AcDbEntity
  8
0
  6
Continuous
 62
     7
100
AcDbLine
 10
1266.55033268412
 20
1012.376963450704
 30
0.0
 11
1267.19033268412
 21
1008.731963450705
 31
0.0
  0
ARC
  5
4AB6
330
1F
100
AcDbEntity
  8
0
  6
Continuous
 62
     7
100
AcDbCircle
 10
1252.58033268412
 20
1009.112963450705
 30
0.0
 40
2.5
100
AcDbArc
 50
352.7569999999975
 51
172.7019999999999
  0
LINE
  5
4AB8
330
1F
100
AcDbEntity
  8
0
  6
Continuous
 62
     7
100
AcDbLine
 10
1221.51633268412
 20
1007.628963450704
 30
0.0
 11
1226.37033268412
 21
1016.036963450704
 31
0.0
  0
ARC
  5
4AB9
330
1F
100
AcDbEntity
  8
0
  6
Continuous
 62
     7
100
AcDbCircle
 10
1257.41033268412
 20
1045.796963450704
 30
0.0
 40
43.00019999999999
100
AcDbArc
 50
203.3310000000033
 51
276.6660000000003
  0
DIMENSION
  5
4ABB
330
1F
100
AcDbEntity
  8
AM_5
100
AcDbDimension
  2
*D5
 10
1195.920262332546
 20
1012.033924756083
 30
0.0
 11
1193.601078308825
 21
1015.86945430731
 31
0.0
 70
    33
 71
     5
 42
6.99997184972085
  3
AM_ISO$0
100
AcDbAlignedDimension
 13
1252.90720049508
 23
1011.591502825852
 33
0.0
 14
1251.99348146436
 24
1004.651421887579
 34
0.0
  0
LINE
  5
4ABD
330
1F
100
AcDbEntity
  8
AM_7
100
AcDbLine
 10
1262.81033268412
 20
1086.809963450704
 30
0.0
 11
1251.89033268412
 21
1003.867963450704
 31
0.0
  0
CIRCLE
  5
4ABF
330
1F
100
AcDbEntity
  8
0
  6
CENTER
 62
     2
100
AcDbCircle
 10
1257.41033268412
 20
1045.796963450704
 30
0.0
 40
38.0
  0
ARC
  5
4AC0
330
1F
100
AcDbEntity
  8
0
  6
Continuous
 62
     7
100
AcDbCircle
 10
1257.41033268412
 20
1045.796963450704
 30
0.0
 40
43.00019999999999
100
AcDbArc
 50
323.3320000000012
 51
156.6669999999979
  0
ARC
  5
4AC1
330
1F
100
AcDbEntity
  8
0
  6
Continuous
 62
     7
100
AcDbCircle
 10
1257.41033268412
 20
1045.796963450704
 30
0.0
 40
43.00019999999999
100
AcDbArc
 50
283.3330000000016
 51
316.6649999999999
  0
LINE
  5
4AC2
330
1F
100
AcDbEntity
  8
AM_5
100
AcDbLine
 10
1280.39033268412
 20
1022.815963450705
 30
0.0
 11
1298.429599062534
 21
996.7246475184754
 31
0.0
  0
LINE
  5
4AC3
330
1F
100
AcDbEntity
  8
0
  6
Continuous
 62
     7
100
AcDbLine
 10
1102.41033268412
 20
1016.036963450704
 30
0.0
 11
1102.41033268412
 21
995.6289634507045
 31
0.0
  0
LINE
  5
4AC4
330
1F
100
AcDbEntity
  8
0
  6
Continuous
 62
     7
100
AcDbLine
 10
1113.41033268412
 20
1016.036963450704
 30
0.0
 11
1113.41033268412
 21
995.6289634507045
 31
0.0
  0
LINE
  5
4AC5
330
1F
100
AcDbEntity
  8
0
  6
Continuous
 62
     7
100
AcDbLine
 10
1157.41033268412
 20
1088.796963450704
 30
0.0
 11
1157.41033268412
 21
1002.796963450705
 31
0.0
  0
LINE
  5
4AC6
330
1F
100
AcDbEntity
  8
0
  6
Continuous
 62
     7
100
AcDbLine
 10
1091.41033268412
 20
1028.877963450704
 30
0.0
 11
1091.41033268412
 21
998.6289634507047
 31
0.0
  0
LINE
  5
4AC7
330
1F
100
AcDbEntity
  8
0
  6
Continuous
 62
     7
100
AcDbLine
 10
1049.559815279007
 20
1016.036963450704
 30
0.0
 11
1054.413815279007
 21
1007.629963450704
 31
0.0
  0
LINE
  5
4AC8
330
1F
100
AcDbEntity
  8
0
  6
Continuous
 62
     7
100
AcDbLine
 10
1015.678815279007
 20
1011.264963450704
 30
0.0
 11
1015.036815279007
 21
1007.621963450704
 31
0.0
  0
LINE
  5
4AC9
330
1F
100
AcDbEntity
  8
0
  6
Continuous
 62
     7
100
AcDbLine
 10
1009.375815279007
 20
1012.376963450704
 30
0.0
 11
1008.733815279007
 21
1008.732963450704
 31
0.0
  0
ARC
  5
4ACA
330
1F
100
AcDbEntity
  8
0
  6
Continuous
 62
     7
100
AcDbCircle
 10
999.5198152790075
 20
1012.887963450705
 30
0.0
 40
3.299999999999999
100
AcDbArc
 50
240.7379999999984
 51
240.6269999999979
  0
ARC
  5
4ACB
330
1F
100
AcDbEntity
  8
0
  6
Continuous
 62
     7
100
AcDbCircle
 10
999.5198152790075
 20
1012.887963450705
 30
0.0
 40
5.5
100
AcDbArc
 50
329.9980000000029
 51
149.998000000003
  0
ARC
  5
4ACC
330
1F
100
AcDbEntity
  8
AM_7
100
AcDbCircle
 10
1018.520815279007
 20
1045.796963450704
 30
0.0
 40
38.0
100
AcDbArc
 50
233.3520000000012
 51
247.6759999999985
  0
ARC
  5
4ACD
330
1F
100
AcDbEntity
  8
0
  6
Continuous
 62
     7
100
AcDbCircle
 10
1018.520815279007
 20
1045.796963450704
 30
0.0
 40
43.00019999999999
100
AcDbArc
 50
223.3069999999968
 51
256.6639999999971
  0
DIMENSION
  5
4ACE
330
1F
100
AcDbEntity
  8
AM_5
100
AcDbDimension
  2
*D6
 10
990.0208152790076
 20
989.6417452154121
 30
0.0
 11
981.5208152790075
 21
992.441745215412
 31
0.0
 70
    32
 71
     5
 42
17.0
  3
AM_ISO$0
100
AcDbAlignedDimension
 13
973.0208152790076
 23
1042.148963450705
 33
0.0
 14
990.0208152790076
 24
1042.181963450705
 34
0.0
100
AcDbRotatedDimension
  0
DIMENSION
  5
4ACF
330
1F
100
AcDbEntity
  8
AM_5
100
AcDbDimension
  2
*D7
 10
995.5208152790076
 20
989.6417452154121
 30
0.0
 11
1006.203657991482
 21
989.6417452154121
 31
0.0
 70
   160
 71
     5
 42
5.5
  3
AM_ISO$0
100
AcDbAlignedDimension
 13
990.0208152790076
 23
998.0088483509216
 33
0.0
 14
995.5208152790076
 24
1039.797214787603
 34
0.0
100
AcDbRotatedDimension
  0
DIMENSION
  5
4AD0
330
1F
100
AcDbEntity
  8
AM_5
100
AcDbDimension
  2
*D8
 10
1018.520815279007
 20
981.6417452154121
 30
0.0
 11
993.0208152790076
 21
981.6417452154121
 31
0.0
 70
   160
 71
     5
 42
51.0
  3
AM_ISO$0
100
AcDbAlignedDimension
 13
967.5208152790075
 23
1033.794963450704
 33
0.0
 14
1018.520815279007
 24
1045.796963450704
 34
0.0
100
AcDbRotatedDimension
  0
LINE
  5
4AD1
330
1F
100
AcDbEntity
  8
0
  6
Continuous
 62
     7
100
AcDbLine
 10
1030.516815279007
 20
1037.017963450704
 30
0.0
 11
1049.215815279007
 21
1004.627963450704
 31
0.0
  0
LINE
  5
4AD2
330
1F
100
AcDbEntity
  8
AM_7
100
AcDbLine
 10
995.4758152790075
 20
1085.714963450704
 30
0.0
 11
1044.544815279007
 21
1000.716963450704
 31
0.0
  0
LINE
  5
4AD3
330
1F
100
AcDbEntity
  8
AM_7
100
AcDbLine
 10
1045.643815279007
 20
1092.770963450704
 30
0.0
 11
995.4918152790076
 21
1005.911963450704
 31
0.0
  0
LINE
  5
4AD4
330
1F
100
AcDbEntity
  8
0
  6
Continuous
 62
     7
100
AcDbLine
 10
1020.123815279007
 20
1031.017963450705
 30
0.0
 11
1038.822815279007
 21
998.6279634507047
 31
0.0
  0
LINE
  5
4AD5
330
1F
100
AcDbEntity
  8
0
  6
Continuous
 62
     7
100
AcDbLine
 10
1033.323815279008
 20
1008.153963450705
 30
0.0
 11
1043.716815279007
 21
1014.153963450704
 31
0.0
  0
LINE
  5
4AD6
330
1F
100
AcDbEntity
  8
0
  6
Continuous
 62
     7
100
AcDbLine
 10
1113.41033268412
 20
1002.796963450705
 30
0.0
 11
1157.41033268412
 21
1002.796963450705
 31
0.0
  0
DIMENSION
  5
4AD7
330
1F
100
AcDbEntity
  8
AM_5
100
AcDbDimension
  2
*D9
 10
1157.41033268412
 20
986.3070880099531
 30
0.0
 11
1135.41033268412
 21
989.107088009953
 31
0.0
 70
    32
 71
     5
 42
44.0
  3
AM_ISO$0
100
AcDbAlignedDimension
 13
1113.41033268412
 23
995.6289634507045
 33
0.0
 14
1157.41033268412
 24
1002.796963450705
 34
0.0
100
AcDbRotatedDimension
  0
DIMENSION
  5
4AD9
330
1F
100
AcDbEntity
  8
AM_5
100
AcDbDimension
  2
*D10
 10
1056.761574095596
 20
991.5574515539045
 30
0.0
 11
1050.164947487986
 21
990.9827041927185
 31
0.0
 70
    33
  1
12h9
 71
     5
 42
12.00060202656527
  3
AM_ISO$0
100
AcDbAlignedDimension
 13
1038.822815279007
 23
998.6279634507047
 33
0.0
 14
1049.215815279007
 24
1004.627963450704
 34
0.0
  0
LINE
  5
4ADA
330
1F
100
AcDbEntity
  8
0
  6
Continuous
 62
     7
100
AcDbLine
 10
1033.629815279007
 20
995.6299634507045
 30
0.0
 11
1054.413815279007
 21
1007.629963450704
 31
0.0
  0
ARC
  5
4ADB
330
1F
100
AcDbEntity
  8
0
  6
Continuous
 62
     7
100
AcDbCircle
 10
1018.520815279007
 20
1045.796963450704
 30
0.0
 40
38.0
100
AcDbArc
 50
264.8269999999994
 51
290.912999999997
  0
ARC
  5
4ADC
330
1F
100
AcDbEntity
  8
0
  6
Continuous
 62
     7
100
AcDbCircle
 10
1018.520815279007
 20
1045.796963450704
 30
0.0
 40
43.00019999999999
100
AcDbArc
 50
263.3300000000028
 51
291.9760000000019
  0
ARC
  5
4ADD
330
1F
100
AcDbEntity
  8
0
  6
Continuous
 62
     7
100
AcDbCircle
 10
1018.520815279007
 20
1045.796963450704
 30
0.0
 40
38.0
100
AcDbArc
 50
248.2969999999993
 51
255.1659999999985
  0
LINE
  5
4ADE
330
1F
100
AcDbEntity
  8
0
  6
Continuous
 62
     7
100
AcDbLine
 10
1004.282815279007
 20
1010.137963450705
 30
0.0
 11
1001.958815279007
 21
1006.113963450705
 31
0.0
  0
LINE
  5
4ADF
330
1F
100
AcDbEntity
  8
0
  6
Continuous
 62
     7
100
AcDbLine
 10
1008.733815279007
 20
1008.731963450705
 30
0.0
 11
1009.352815279007
 21
1008.212963450704
 31
0.0
  0
LINE
  5
4AE0
330
1F
100
AcDbEntity
  8
0
  6
Continuous
 62
     7
100
AcDbLine
 10
1009.352815279007
 20
1008.212963450704
 30
0.0
 11
1008.601815279007
 21
1003.955963450704
 31
0.0
  0
LINE
  5
4AE1
330
1F
100
AcDbEntity
  8
0
  6
Continuous
 62
     7
100
AcDbLine
 10
1015.036815279007
 20
1007.621963450704
 30
0.0
 11
1014.276815279007
 21
1007.344963450704
 31
0.0
  0
LINE
  5
4AE2
330
1F
100
AcDbEntity
  8
0
  6
Continuous
 62
     7
100
AcDbLine
 10
1014.276815279007
 20
1007.344963450704
 30
0.0
 11
1013.525815279007
 21
1003.086963450704
 31
0.0
  0
LINE
  5
4AE4
330
1F
100
AcDbEntity
  8
0
  6
Continuous
 62
     7
100
AcDbLine
 10
1028.775815279007
 20
1004.036963450704
 30
0.0
 11
1033.629815279007
 21
995.6299634507045
 31
0.0
  0
ARC
  5
4AE5
330
1F
100
AcDbEntity
  8
0
  6
Continuous
 62
     7
100
AcDbCircle
 10
1041.268815279007
 20
1006.390963450704
 30
0.0
 40
2.067
100
AcDbArc
 50
30.69200000000083
 51
30.80499999999937
  0
ARC
  5
4AE6
330
1F
100
AcDbEntity
  8
0
  6
Continuous
 62
     2
100
AcDbCircle
 10
1041.268815279007
 20
1006.390963450704
 30
0.0
 40
2.5
100
AcDbArc
 50
30.69200000000083
 51
30.80499999999937
  0
LINE
  5
4AE7
330
1F
100
AcDbEntity
  8
AM_7
100
AcDbLine
 10
1038.043815279007
 20
1004.527963450704
 30
0.0
 11
1044.430815279008
 21
1008.214963450704
 31
0.0
  0
CIRCLE
  5
4AE8
330
1F
100
AcDbEntity
  8
0
  6
Continuous
 62
     2
100
AcDbCircle
 10
1041.269815279007
 20
1006.390963450704
 30
0.0
 40
2.5
  0
CIRCLE
  5
4AE9
330
1F
100
AcDbEntity
  8
0
  6
Continuous
 62
     7
100
AcDbCircle
 10
1041.269815279007
 20
1006.390963450704
 30
0.0
 40
2.067
  0
LINE
  5
4AEA
330
1F
100
AcDbEntity
  8
0
  6
Continuous
 62
     7
100
AcDbLine
 10
1102.41033268412
 20
1007.629963450704
 30
0.0
 11
1113.41033268412
 21
1007.629963450704
 31
0.0
  0
LINE
  5
4AEB
330
1F
100
AcDbEntity
  8
0
  6
Continuous
 62
     7
100
AcDbLine
 10
1102.41033268412
 20
995.6289634507045
 30
0.0
 11
1113.41033268412
 21
995.6289634507045
 31
0.0
  0
DIMENSION
  5
4AEC
330
1F
100
AcDbEntity
  8
AM_5
100
AcDbDimension
  2
*D11
 10
1102.41033268412
 20
986.3070880099531
 30
0.0
 11
1107.91033268412
 21
989.107088009953
 31
0.0
 70
    32
 71
     5
 42
11.0
  3
AM_ISO$0
100
AcDbAlignedDimension
 13
1113.41033268412
 23
985.4467802596959
 33
0.0
 14
1102.41033268412
 24
995.6289634507045
 34
0.0
100
AcDbRotatedDimension
  0
LINE
  5
4AED
330
1F
100
AcDbEntity
  8
0
  6
Continuous
 62
     7
100
AcDbLine
 10
1091.41033268412
 20
1004.628963450704
 30
0.0
 11
1102.41033268412
 21
1004.628963450704
 31
0.0
  0
LINE
  5
4AEE
330
1F
100
AcDbEntity
  8
0
  6
Continuous
 62
     7
100
AcDbLine
 10
1091.41033268412
 20
998.6289634507047
 30
0.0
 11
1102.40933268412
 21
998.6289634507047
 31
0.0
  0
TEXT
  5
4AEF
330
1F
100
AcDbEntity
  8
AM_5
100
AcDbText
 10
1315.219599062534
 20
1000.963647518475
 30
0.0
 40
1.6
  1
+0.074
  7
China
100
AcDbText
  0
LINE
  5
4AF0
330
1F
100
AcDbEntity
  8
AM_5
100
AcDbLine
 10
1298.429599062534
 20
996.7246475184754
 30
0.0
 11
1350.559599062534
 21
996.7246475184754
 31
0.0
  0
LINE
  5
4AF1
330
1F
100
AcDbEntity
  8
AM_5
100
AcDbLine
 10
1249.84033268412
 20
1007.456963450704
 30
0.0
 11
1246.33033268412
 21
980.8049634507046
 31
0.0
  0
LINE
  5
4AF2
330
1F
100
AcDbEntity
  8
AM_5
100
AcDbLine
 10
1236.92033268412
 20
983.0529634507046
 30
0.0
 11
1291.69033268412
 21
975.8409634507046
 31
0.0
  0
LINE
  5
4AF3
330
1F
100
AcDbEntity
  8
0
  6
Continuous
 62
     7
100
AcDbLine
 10
1242.30033268412
 20
995.6289634507045
 30
0.0
 11
1221.51633268412
 21
1007.628963450704
 31
0.0
  0
LINE
  5
4AF4
330
1F
100
AcDbEntity
  8
AM_5
100
AcDbLine
 10
1246.46033268412
 20
981.7959634507046
 30
0.0
 11
1243.59033268412
 21
982.9839634507047
 31
0.0
  0
LINE
  5
4AF5
330
1F
100
AcDbEntity
  8
AM_5
100
AcDbLine
 10
1246.46033268412
 20
981.7959634507046
 30
0.0
 11
1243.38033268412
 21
981.3909634507046
 31
0.0
  0
ARC
  5
4AF6
330
1F
100
AcDbEntity
  8
0
  6
Continuous
 62
     2
100
AcDbCircle
 10
1238.41033268412
 20
1012.887963450705
 30
0.0
 40
3.0
100
AcDbArc
 50
270.1730000000003
 51
270.2849999999987
  0
LINE
  5
4AF7
330
1F
100
AcDbEntity
  8
0
  6
Continuous
 62
     7
100
AcDbLine
 10
1242.30033268412
 20
995.6289634507045
 30
0.0
 11
1247.16033268412
 21
1004.036963450704
 31
0.0
  0
TEXT
  5
4AF8
330
1F
100
AcDbEntity
  8
AM_5
100
AcDbText
 10
1273.12517868412
 20
979.6454934507046
 30
0.0
 40
3.2
  1
DEPTH5
 50
352.500000000001
  7
China
100
AcDbText
  0
TEXT
  5
4AF9
330
1F
100
AcDbEntity
  8
AM_5
100
AcDbText
 10
1263.81275568412
 20
983.1822284507046
 30
0.0
 40
1.6
  1
+0.030
 50
352.500000000001
  7
China
100
AcDbText
  0
LINE
  5
4AFA
330
1F
100
AcDbEntity
  8
AM_5
100
AcDbLine
 10
1254.80033268412
 20
1006.804963450704
 30
0.0
 11
1251.29033268412
 21
980.1519634507046
 31
0.0
  0
TEXT
  5
4AFB
330
1F
100
AcDbEntity
  8
AM_5
100
AcDbText
 10
1253.83517868412
 20
982.2524934507045
 30
0.0
 40
3.2
  1
5H9
 50
352.500000000001
  7
China
100
AcDbText
  0
LINE
  5
4AFC
330
1F
100
AcDbEntity
  8
AM_5
100
AcDbLine
 10
1251.42033268412
 20
981.1429634507046
 30
0.0
 11
1254.29033268412
 21
979.9549634507046
 31
0.0
  0
LINE
  5
4AFD
330
1F
100
AcDbEntity
  8
AM_5
100
AcDbLine
 10
1251.42033268412
 20
981.1429634507046
 30
0.0
 11
1254.50033268412
 21
981.5489634507045
 31
0.0
  0
TEXT
  5
4AFE
330
1F
100
AcDbEntity
  8
AM_5
100
AcDbText
 10
1265.01275568412
 20
980.2162284507046
 30
0.0
 40
1.6
  1
0
 50
352.500000000001
  7
China
100
AcDbText
  0
LINE
  5
4AFF
330
1F
100
AcDbEntity
  8
0
  6
Continuous
 62
     7
100
AcDbLine
 10
1249.84033268412
 20
1007.456963450704
 30
0.0
 11
1250.10033268412
 21
1009.439963450704
 31
0.0
  0
ARC
  5
4B00
330
1F
100
AcDbEntity
  8
0
  6
CENTER
 62
     2
100
AcDbCircle
 10
1257.41033268412
 20
1045.796963450704
 30
0.0
 40
38.0
100
AcDbArc
 50
270.1730000000003
 51
270.2849999999987
  0
LINE
  5
4B01
330
1F
100
AcDbEntity
  8
0
  6
Continuous
 62
     7
100
AcDbLine
 10
1254.80033268412
 20
1006.804963450704
 30
0.0
 11
1255.06033268412
 21
1008.787963450704
 31
0.0
  0
ARC
  5
4B02
330
1F
100
AcDbEntity
  8
0
  6
Continuous
 62
     7
100
AcDbCircle
 10
1252.32033268412
 20
1007.129963450704
 30
0.0
 40
2.5
100
AcDbArc
 50
172.4990000000012
 51
352.4990000000012
  0
LINE
  5
4B03
330
1F
100
AcDbEntity
  8
0
  6
Continuous
 62
     7
100
AcDbLine
 10
1260.89033268412
 20
1007.620963450704
 30
0.0
 11
1261.65033268412
 21
1007.344963450704
 31
0.0
  0
LINE
  5
4B04
330
1F
100
AcDbEntity
  8
0
  6
Continuous
 62
     7
100
AcDbLine
 10
1267.19033268412
 20
1008.731963450705
 30
0.0
 11
1266.57033268412
 21
1008.212963450704
 31
0.0
  0
LINE
  5
4B05
330
1F
100
AcDbEntity
  8
0
  6
Continuous
 62
     7
100
AcDbLine
 10
1261.65033268412
 20
1007.344963450704
 30
0.0
 11
1262.40033268412
 21
1003.086963450704
 31
0.0
  0
LINE
  5
4B06
330
1F
100
AcDbEntity
  8
0
  6
Continuous
 62
     7
100
AcDbLine
 10
1266.57033268412
 20
1008.212963450704
 30
0.0
 11
1267.33033268412
 21
1003.954963450705
 31
0.0
  0
ARC
  5
4B07
330
1F
100
AcDbEntity
  8
0
  6
Continuous
 62
     7
100
AcDbCircle
 10
1276.41033268412
 20
1012.886963450704
 30
0.0
 40
3.299999999999999
100
AcDbArc
 50
270.1730000000003
 51
270.2849999999987
  0
TEXT
  5
4B08
330
1F
100
AcDbEntity
  8
AM_5
100
AcDbText
 10
1302.259599062534
 20
998.5906475184755
 30
0.0
 40
3.2
  1
65H9
  7
China
100
AcDbText
  0
CIRCLE
  5
4B09
330
1F
100
AcDbEntity
  8
AM_5
100
AcDbCircle
 10
1300.579599062534
 20
999.9286475184755
 30
0.0
 40
0.9
  0
LINE
  5
4B0A
330
1F
100
AcDbEntity
  8
AM_5
100
AcDbLine
 10
1299.989599062534
 20
998.3306475184754
 30
0.0
 11
1301.159599062535
 21
1001.525647518475
 31
0.0
  0
TEXT
  5
4B0B
330
1F
100
AcDbEntity
  8
AM_5
100
AcDbText
 10
1325.349599062534
 20
998.5906475184755
 30
0.0
 40
3.2
  1
DEPTH2.5
  7
China
100
AcDbText
  0
TEXT
  5
4B0C
330
1F
100
AcDbEntity
  8
AM_5
100
AcDbText
 10
1316.829599062534
 20
998.1986475184754
 30
0.0
 40
1.6
  1
0
  7
China
100
AcDbText
  0
DIMENSION
  5
4B0D
330
1F
100
AcDbEntity
  8
AM_5
100
AcDbDimension
  2
*D12
 10
1157.41133268412
 20
1225.568254717522
 30
0.0
 11
1151.41133268412
 21
1228.36864841831
 31
0.0
 70
    32
 71
     5
 42
12.0
  3
AM_ISO$0
100
AcDbAlignedDimension
 13
1145.41133268412
 23
1196.923963450704
 33
0.0
 14
1157.41133268412
 24
1208.796963450704
 34
0.0
100
AcDbRotatedDimension
  0
LINE
  5
4B0E
330
1F
100
AcDbEntity
  8
0
  6
Continuous
 62
     7
100
AcDbLine
 10
1113.41133268412
 20
1208.796963450704
 30
0.0
 11
1157.41133268412
 21
1208.796963450704
 31
0.0
  0
LINE
  5
4B0F
330
1F
100
AcDbEntity
  8
0
  6
Continuous
 62
     7
100
AcDbLine
 10
1098.29833268412
 20
1125.475963450704
 30
0.0
 11
1157.41133268412
 21
1125.475963450704
 31
0.0
  0
LINE
  5
4B10
330
1F
100
AcDbEntity
  8
0
  6
Continuous
 62
     7
100
AcDbLine
 10
1098.29833268412
 20
1124.013963450704
 30
0.0
 11
1157.41133268412
 21
1124.013963450704
 31
0.0
  0
LINE
  5
4B11
330
1F
100
AcDbEntity
  8
0
  6
Continuous
 62
     7
100
AcDbLine
 10
1098.29833268412
 20
1122.796963450704
 30
0.0
 11
1157.41133268412
 21
1122.796963450704
 31
0.0
  0
LINE
  5
4B12
330
1F
100
AcDbEntity
  8
AM_7
100
AcDbLine
 10
1083.59233268412
 20
1165.796963450705
 30
0.0
 11
1159.839977484682
 21
1165.796963450705
 31
0.0
  0
DIMENSION
  5
4B13
330
1F
100
AcDbEntity
  8
AM_5
100
AcDbDimension
  2
*D13
 10
1157.41133268412
 20
1233.568254717522
 30
0.0
 11
1125.944053928531
 21
1233.568254717522
 31
0.0
 70
   160
 71
     5
 42
62.0
  3
AM_ISO$0
100
AcDbAlignedDimension
 13
1095.41133268412
 23
1203.795963450704
 33
0.0
 14
1157.41133268412
 24
1216.464391386202
 34
0.0
100
AcDbRotatedDimension
  0
DIMENSION
  5
4B14
330
1F
100
AcDbEntity
  8
AM_5
100
AcDbDimension
  2
*D14
 10
1091.41133268412
 20
1241.568254717522
 30
0.0
 11
1124.41133268412
 21
1244.368254717522
 31
0.0
 70
    32
 71
     5
 42
66.0
  3
AM_ISO$0
100
AcDbAlignedDimension
 13
1157.41133268412
 23
1232.712508671383
 33
0.0
 14
1091.41133268412
 24
1232.712508671383
 34
0.0
100
AcDbRotatedDimension
  0
LINE
  5
4B15
330
1F
100
AcDbEntity
  8
0
  6
Continuous
 62
     7
100
AcDbLine
 10
1113.41033268412
 20
1088.796963450704
 30
0.0
 11
1157.41033268412
 21
1088.796963450704
 31
0.0
  0
LINE
  5
4B16
330
1F
100
AcDbEntity
  8
0
  6
Continuous
 62
     7
100
AcDbLine
 10
1098.29733268412
 20
1055.957963450704
 30
0.0
 11
1157.40933268412
 21
1055.957963450704
 31
0.0
  0
LINE
  5
4B17
330
1F
100
AcDbEntity
  8
0
  6
Continuous
 62
     7
100
AcDbLine
 10
1098.29633268412
 20
1060.738963450704
 30
0.0
 11
1157.41033268412
 21
1060.738963450704
 31
0.0
  0
LINE
  5
4B18
330
1F
100
AcDbEntity
  8
0
  6
Continuous
 62
     7
100
AcDbLine
 10
1157.41033268412
 20
1030.853963450705
 30
0.0
 11
1098.29733268412
 21
1030.853963450705
 31
0.0
  0
LINE
  5
4B19
330
1F
100
AcDbEntity
  8
0
  6
Continuous
 62
     7
100
AcDbLine
 10
1157.40933268412
 20
1035.634963450704
 30
0.0
 11
1098.29733268412
 21
1035.634963450704
 31
0.0
  0
LINE
  5
4B1A
330
1F
100
AcDbEntity
  8
AM_7
100
AcDbLine
 10
1083.59233268412
 20
1045.796963450704
 30
0.0
 11
1160.867577546217
 21
1045.796963450704
 31
0.0
  0
LEADER
  5
4B1B
330
1F
100
AcDbEntity
  8
AM_5
100
AcDbLeader
  3
AM_ISO$7
 76
     3
 10
1126.89502810617
 20
1170.218413497498
 30
0.0
 10
1181.690155154331
 20
1196.506329561915
 30
0.0
 10
1212.180494651554
 20
1196.506329561915
 30
0.0
1001
ACAD
1000
DSTYLE
1002
{
1070
   140
1040
4.0
1002
}
  0
LEADER
  5
4B1C
330
1F
100
AcDbEntity
  8
AM_5
100
AcDbLeader
  3
AM_ISO$7
 76
     3
 10
1149.311336814196
 20
1194.683012384029
 30
0.0
 10
1179.437512019685
 20
1227.54173919442
 30
0.0
 10
1208.301699320465
 20
1227.54173919442
 30
0.0
1001
ACAD
1000
DSTYLE
1002
{
1070
   140
1040
4.0
1002
}
  0
ARC
  5
4B1D
330
1F
100
AcDbEntity
  8
AM_7
100
AcDbCircle
 10
1018.520815279007
 20
1045.796963450704
 30
0.0
 40
38.0
100
AcDbArc
 50
114.3980000000004
 51
127.1549999999982
  0
ARC
  5
4B1E
330
1F
100
AcDbEntity
  8
0
  6
Continuous
 62
     7
100
AcDbCircle
 10
999.5218152790075
 20
1078.705963450704
 30
0.0
 40
5.5
100
AcDbArc
 50
210.6369999999982
 51
30.80499999999937
  0
ARC
  5
4B1F
330
1F
100
AcDbEntity
  8
0
  6
Continuous
 62
     7
100
AcDbCircle
 10
999.5218152790075
 20
1078.705963450704
 30
0.0
 40
3.299999999999999
100
AcDbArc
 50
240.7379999999984
 51
240.6269999999979
  0
ARC
  5
4B20
330
1F
100
AcDbEntity
  8
0
  6
Continuous
 62
     7
100
AcDbCircle
 10
1018.520815279007
 20
1045.796963450704
 30
0.0
 40
21.0
100
AcDbArc
 50
76.59890000000131
 51
163.3970000000021
  0
LINE
  5
4B21
330
1F
100
AcDbEntity
  8
0
  6
Continuous
 62
     7
100
AcDbLine
 10
1004.920815279007
 20
1051.796963450704
 30
0.0
 11
967.5218152790076
 21
1051.797963450704
 31
0.0
  0
LINE
  5
4B22
330
1F
100
AcDbEntity
  8
0
  6
Continuous
 62
     7
100
AcDbLine
 10
1004.920815279007
 20
1039.796963450704
 30
0.0
 11
967.5208152790075
 21
1039.797963450705
 31
0.0
  0
ARC
  5
4B23
330
1F
100
AcDbEntity
  8
0
  6
Continuous
 62
     7
100
AcDbCircle
 10
1018.520815279007
 20
1045.796963450704
 30
0.0
 40
43.00019999999999
100
AcDbArc
 50
68.01849999999726
 51
171.9770000000018
  0
ARC
  5
4B24
330
1F
100
AcDbEntity
  8
0
  6
Continuous
 62
     7
100
AcDbCircle
 10
1018.520815279007
 20
1045.796963450704
 30
0.0
 40
21.0
100
AcDbArc
 50
196.600000000001
 51
283.395999999999
  0
LINE
  5
4B25
330
1F
100
AcDbEntity
  8
AM_7
100
AcDbLine
 10
1064.998815279007
 20
1045.794963450704
 30
0.0
 11
964.1238152790075
 21
1045.794963450704
 31
0.0
  0
LINE
  5
4B26
330
1F
100
AcDbEntity
  8
0
  6
Continuous
 62
     7
100
AcDbLine
 10
992.4358152790075
 20
1079.980963450704
 30
0.0
 11
994.7588152790077
 21
1075.955963450704
 31
0.0
  0
ARC
  5
4B27
330
1F
100
AcDbEntity
  8
0
  6
Continuous
 62
     7
100
AcDbCircle
 10
1018.520815279007
 20
1045.796963450704
 30
0.0
 40
38.0
100
AcDbArc
 50
128.2980000000006
 51
170.9140000000014
  0
DIMENSION
  5
4B28
330
1F
100
AcDbEntity
  8
AM_5
100
AcDbDimension
  2
*D15
 10
947.5208152790075
 20
1033.794963450704
 30
0.0
 11
944.7204215782202
 21
1045.794963450704
 31
0.0
 70
    32
 71
     5
 42
24.0
  3
AM_ISO$0
100
AcDbAlignedDimension
 13
967.5208152790075
 23
1057.794963450704
 33
0.0
 14
967.5208152790075
 24
1033.794963450704
 34
0.0
 50
90.0
100
AcDbRotatedDimension
  0
LINE
  5
4B29
330
1F
100
AcDbEntity
  8
0
  6
Continuous
 62
     7
100
AcDbLine
 10
995.5208152790076
 20
1051.796963450704
 30
0.0
 11
995.5208152790076
 21
1039.796963450704
 31
0.0
  0
LINE
  5
4B2A
330
1F
100
AcDbEntity
  8
AM_7
100
AcDbLine
 10
990.0208152790076
 20
1049.910963450704
 30
0.0
 11
990.0208152790076
 21
1042.181963450705
 31
0.0
  0
LINE
  5
4B2B
330
1F
100
AcDbEntity
  8
0
  6
Continuous
 62
     7
100
AcDbLine
 10
984.5208152790076
 20
1051.797963450704
 30
0.0
 11
984.5208152790076
 21
1039.797963450705
 31
0.0
  0
LINE
  5
4B2C
330
1F
100
AcDbEntity
  8
0
  6
Continuous
 62
     7
100
AcDbLine
 10
978.5208152790076
 20
1051.797963450704
 30
0.0
 11
978.5208152790076
 21
1039.797963450705
 31
0.0
  0
ARC
  5
4B2D
330
1F
100
AcDbEntity
  8
0
  6
Continuous
 62
     2
100
AcDbCircle
 10
973.0208152790076
 20
1045.798963450704
 30
0.0
 40
2.5
100
AcDbArc
 50
270.7289999999988
 51
270.6179999999975
  0
LINE
  5
4B2E
330
1F
100
AcDbEntity
  8
AM_7
100
AcDbLine
 10
973.0208152790076
 20
1049.523963450704
 30
0.0
 11
973.0208152790076
 21
1042.148963450705
 31
0.0
  0
DIMENSION
  5
4B2F
330
1F
100
AcDbEntity
  8
AM_5
100
AcDbDimension
  2
*D16
 10
955.5208152790076
 20
1039.797963450705
 30
0.0
 11
952.7204215782202
 21
1045.797963450705
 31
0.0
 70
    32
 71
     5
 42
12.0
  3
AM_ISO$0
100
AcDbAlignedDimension
 13
967.5218152790076
 23
1051.797963450704
 33
0.0
 14
967.5208152790075
 24
1039.797963450705
 34
0.0
 50
90.0
100
AcDbRotatedDimension
  0
ARC
  5
4B30
330
1F
100
AcDbEntity
  8
0
  6
Continuous
 62
     2
100
AcDbCircle
 10
990.0208152790076
 20
1045.797963450704
 30
0.0
 40
2.5
100
AcDbArc
 50
270.7289999999988
 51
270.6179999999975
  0
LINE
  5
4B31
330
1F
100
AcDbEntity
  8
0
  6
Continuous
 62
     7
100
AcDbLine
 10
967.5208152790075
 20
1057.794963450704
 30
0.0
 11
967.5208152790075
 21
1033.794963450704
 31
0.0
  0
LINE
  5
4B32
330
1F
100
AcDbEntity
  8
0
  6
Continuous
 62
     7
100
AcDbLine
 10
977.2288152790075
 20
1033.794963450704
 30
0.0
 11
967.5208152790075
 21
1033.794963450704
 31
0.0
  0
ARC
  5
4B33
330
1F
100
AcDbEntity
  8
0
  6
Continuous
 62
     7
100
AcDbCircle
 10
1018.520815279007
 20
1045.796963450704
 30
0.0
 40
43.00019999999999
100
AcDbArc
 50
188.0189999999992
 51
216.642000000002
  0
ARC
  5
4B34
330
1F
100
AcDbEntity
  8
0
  6
Continuous
 62
     7
100
AcDbCircle
 10
1018.519815279008
 20
1045.795963450705
 30
0.0
 40
38.0
100
AcDbArc
 50
189.0829999999969
 51
215.141999999997
  0
LINE
  5
4B35
330
1F
100
AcDbEntity
  8
0
  6
Continuous
 62
     7
100
AcDbLine
 10
990.0608152790075
 20
1026.116963450705
 30
0.0
 11
987.2248152790076
 21
1023.737963450704
 31
0.0
  0
LINE
  5
4B36
330
1F
100
AcDbEntity
  8
0
  6
Continuous
 62
     7
100
AcDbLine
 10
990.5778152790075
 20
1019.110963450704
 30
0.0
 11
987.2298152790076
 21
1016.301963450704
 31
0.0
  0
LINE
  5
4B37
330
1F
100
AcDbEntity
  8
0
  6
Continuous
 62
     7
100
AcDbLine
 10
987.2248152790076
 20
1023.737963450704
 30
0.0
 11
987.3648152790076
 21
1022.941963450704
 31
0.0
  0
LINE
  5
4B38
330
1F
100
AcDbEntity
  8
0
  6
Continuous
 62
     7
100
AcDbLine
 10
987.3648152790076
 20
1022.941963450704
 30
0.0
 11
984.0178152790075
 21
1020.132963450705
 31
0.0
  0
LINE
  5
4B39
330
1F
100
AcDbEntity
  8
0
  6
Continuous
 62
     7
100
AcDbLine
 10
994.7568152790076
 20
1015.637963450704
 30
0.0
 11
992.4328152790076
 21
1011.613963450704
 31
0.0
  0
ARC
  5
4B3A
330
1F
100
AcDbEntity
  8
0
  6
Continuous
 62
     7
100
AcDbCircle
 10
1018.520815279007
 20
1045.796963450704
 30
0.0
 40
38.0
100
AcDbArc
 50
224.8019999999995
 51
231.6970000000017
  0
LINE
  5
4B3B
330
1F
100
AcDbEntity
  8
0
  6
Continuous
 62
     7
100
AcDbLine
 10
994.1738152790076
 20
1021.214963450704
 30
0.0
 11
991.3378152790075
 21
1018.834963450705
 31
0.0
  0
LINE
  5
4B3C
330
1F
100
AcDbEntity
  8
0
  6
Continuous
 62
     7
100
AcDbLine
 10
991.3378152790075
 20
1018.834963450705
 30
0.0
 11
990.5778152790075
 21
1019.110963450704
 31
0.0
  0
LINE
  5
4B3D
330
1F
100
AcDbEntity
  8
0
  6
Continuous
 62
     7
100
AcDbLine
 10
994.1738152790076
 20
1021.214963450704
 30
0.0
 11
990.0608152790075
 21
1026.116963450705
 31
0.0
  0
LINE
  5
4B3E
330
1F
100
AcDbEntity
  8
0
  6
Continuous
 62
     7
100
AcDbLine
 10
977.2288152790075
 20
1057.794963450704
 30
0.0
 11
967.5208152790075
 21
1057.794963450704
 31
0.0
  0
ARC
  5
4B3F
330
1F
100
AcDbEntity
  8
0
  6
Continuous
 62
     7
100
AcDbCircle
 10
973.0208152790076
 20
1045.798963450704
 30
0.0
 40
2.067
100
AcDbArc
 50
270.7289999999988
 51
270.6179999999975
  0
ARC
  5
4B40
330
1F
100
AcDbEntity
  8
0
  6
Continuous
 62
     7
100
AcDbCircle
 10
990.0208152790076
 20
1045.797963450704
 30
0.0
 40
2.067
100
AcDbArc
 50
270.7289999999988
 51
270.6179999999975
  0
TEXT
  5
4B41
330
1F
100
AcDbEntity
  8
AM_5
100
AcDbText
 10
934.5428152790075
 20
1108.623963450704
 30
0.0
 40
3.2
  1
6.6BORE11xDEPTH14
  7
China
100
AcDbText
  0
LINE
  5
4B42
330
1F
100
AcDbEntity
  8
AM_5
100
AcDbLine
 10
925.2988152790075
 20
1107.561963450704
 30
0.0
 11
982.8618152790076
 21
1107.561963450704
 31
0.0
  0
LINE
  5
4B43
330
1F
100
AcDbEntity
  8
AM_5
100
AcDbLine
 10
925.2988152790075
 20
1097.561963450704
 30
0.0
 11
988.6348152790075
 21
1097.561963450704
 31
0.0
  0
CIRCLE
  5
4B44
330
1F
100
AcDbEntity
  8
AM_5
100
AcDbCircle
 10
932.9428152790075
 20
1110.223963450705
 30
0.0
 40
0.9
  0
LINE
  5
4B45
330
1F
100
AcDbEntity
  8
AM_5
100
AcDbLine
 10
932.3618152790075
 20
1108.626963450704
 30
0.0
 11
933.5248152790075
 21
1111.820963450704
 31
0.0
  0
TEXT
  5
4B46
330
1F
100
AcDbEntity
  8
AM_5
100
AcDbText
 10
924.9428152790075
 20
1108.623963450704
 30
0.0
 40
3.2
  1
3-
  7
China
100
AcDbText
  0
TEXT
  5
4B47
330
1F
100
AcDbEntity
  8
AM_5
100
AcDbText
 10
925.7718152790076
 20
1098.255963450704
 30
0.0
 40
3.2
  1
P.C.D.76
  7
China
100
AcDbText
  0
LINE
  5
4B48
330
1F
100
AcDbEntity
  8
AM_5
100
AcDbLine
 10
982.8618152790076
 20
1107.561963450704
 30
0.0
 11
997.8718152790076
 21
1081.563963450705
 31
0.0
  0
LINE
  5
4B49
330
1F
100
AcDbEntity
  8
0
  6
Continuous
 62
     7
100
AcDbLine
 10
1102.41133268412
 20
1155.544963450704
 30
0.0
 11
1102.41133268412
 21
1129.905963450704
 31
0.0
  0
LINE
  5
4B4A
330
1F
100
AcDbEntity
  8
0
  6
Continuous
 62
     7
100
AcDbLine
 10
1113.41133268412
 20
1155.544963450704
 30
0.0
 11
1113.41133268412
 21
1129.905963450704
 31
0.0
  0
LINE
  5
4B4B
330
1F
100
AcDbEntity
  8
0
  6
Continuous
 62
     7
100
AcDbLine
 10
1091.41133268412
 20
1159.493963450705
 30
0.0
 11
1091.41133268412
 21
1135.101963450704
 31
0.0
  0
LINE
  5
4B4C
330
1F
100
AcDbEntity
  8
0
  6
Continuous
 62
     7
100
AcDbLine
 10
1049.558815279007
 20
1075.556963450704
 30
0.0
 11
1054.411815279007
 21
1083.963963450704
 31
0.0
  0
ARC
  5
4B4D
330
1F
100
AcDbEntity
  8
0
  6
Continuous
 62
     7
100
AcDbCircle
 10
1018.520815279007
 20
1045.796963450704
 30
0.0
 40
43.00019999999999
100
AcDbArc
 50
23.3297000000014
 51
51.97670000000076
  0
LINE
  5
4B4E
330
1F
100
AcDbEntity
  8
0
  6
Continuous
 62
     7
100
AcDbLine
 10
1049.218815279007
 20
1086.962963450704
 30
0.0
 11
1030.517815279007
 21
1054.573963450704
 31
0.0
  0
LINE
  5
4B4F
330
1F
100
AcDbEntity
  8
0
  6
Continuous
 62
     7
100
AcDbLine
 10
1038.826815279007
 20
1092.962963450704
 30
0.0
 11
1020.125815279008
 21
1060.574963450704
 31
0.0
  0
LINE
  5
4B50
330
1F
100
AcDbEntity
  8
0
  6
Continuous
 62
     7
100
AcDbLine
 10
1040.718815279007
 20
1072.240963450704
 30
0.0
 11
1030.325815279008
 21
1078.240963450704
 31
0.0
  0
ARC
  5
4B51
330
1F
100
AcDbEntity
  8
0
  6
Continuous
 62
     7
100
AcDbCircle
 10
1018.520815279007
 20
1045.796963450704
 30
0.0
 40
38.0
100
AcDbArc
 50
24.82690000000134
 51
50.91280000000189
  0
ARC
  5
4B52
330
1F
100
AcDbEntity
  8
0
  6
Continuous
 62
     7
100
AcDbCircle
 10
1018.520815279007
 20
1045.796963450704
 30
0.0
 40
38.0
100
AcDbArc
 50
309.0820000000008
 51
335.1410000000011
  0
ARC
  5
4B53
330
1F
100
AcDbEntity
  8
0
  6
Continuous
 62
     7
100
AcDbCircle
 10
1018.520815279007
 20
1045.796963450704
 30
0.0
 40
43.00019999999999
100
AcDbArc
 50
308.0189999999991
 51
336.6420000000008
  0
LINE
  5
4B54
330
1F
100
AcDbEntity
  8
0
  6
Continuous
 62
     7
100
AcDbLine
 10
1004.920815279007
 20
1051.796963450704
 30
0.0
 11
1004.920815279007
 21
1039.796963450704
 31
0.0
  0
ARC
  5
4B55
330
1F
100
AcDbEntity
  8
0
  6
Continuous
 62
     7
100
AcDbCircle
 10
1018.520815279007
 20
1045.796963450704
 30
0.0
 40
21.0
100
AcDbArc
 50
316.5990000000014
 51
43.39580000000093
  0
LINE
  5
4B56
330
1F
100
AcDbEntity
  8
0
  6
Continuous
 62
     7
100
AcDbLine
 10
1020.124815279007
 20
1031.017963450705
 30
0.0
 11
1030.517815279007
 21
1037.016963450704
 31
0.0
  0
LINE
  5
4B57
330
1F
100
AcDbEntity
  8
0
  6
Continuous
 62
     7
100
AcDbLine
 10
1015.678815279007
 20
1011.264963450704
 30
0.0
 11
1009.375815279007
 21
1012.376963450704
 31
0.0
  0
LINE
  5
4B58
330
1F
100
AcDbEntity
  8
0
  6
Continuous
 62
     7
100
AcDbLine
 10
1024.823815279008
 20
1022.876963450704
 30
0.0
 11
1035.216815279007
 21
1028.875963450704
 31
0.0
  0
LINE
  5
4B59
330
1F
100
AcDbEntity
  8
0
  6
Continuous
 62
     7
100
AcDbLine
 10
1030.323815279007
 20
1013.349963450704
 30
0.0
 11
1040.716815279008
 21
1019.349963450705
 31
0.0
  0
CIRCLE
  5
4B5A
330
1F
100
AcDbEntity
  8
0
  6
Continuous
 62
     2
100
AcDbCircle
 10
1032.769815279007
 20
1021.113963450704
 30
0.0
 40
2.5
  0
LINE
  5
4B5B
330
1F
100
AcDbEntity
  8
AM_7
100
AcDbLine
 10
1029.207815279008
 20
1019.056963450704
 30
0.0
 11
1035.901815279007
 21
1022.920963450705
 31
0.0
  0
ARC
  5
4B5C
330
1F
100
AcDbEntity
  8
0
  6
Continuous
 62
     2
100
AcDbCircle
 10
1032.769815279007
 20
1021.113963450704
 30
0.0
 40
2.5
100
AcDbArc
 50
30.69200000000083
 51
30.80499999999937
  0
ARC
  5
4B5D
330
1F
100
AcDbEntity
  8
0
  6
Continuous
 62
     7
100
AcDbCircle
 10
1032.769815279007
 20
1021.113963450704
 30
0.0
 40
2.067
100
AcDbArc
 50
30.69200000000083
 51
30.80499999999937
  0
CIRCLE
  5
4B5E
330
1F
100
AcDbEntity
  8
0
  6
Continuous
 62
     7
100
AcDbCircle
 10
1032.769815279007
 20
1021.113963450704
 30
0.0
 40
2.067
  0
LINE
  5
4B5F
330
1F
100
AcDbEntity
  8
0
  6
Continuous
 62
     7
100
AcDbLine
 10
1030.517815279007
 20
1054.573963450704
 30
0.0
 11
1020.125815279008
 21
1060.574963450704
 31
0.0
  0
POINT
  5
4B60
330
1F
100
AcDbEntity
  8
0
100
AcDbPoint
 10
1018.520815279007
 20
1045.796963450704
 30
0.0
  0
LINE
  5
4B61
330
1F
100
AcDbEntity
  8
0
  6
Continuous
 62
     7
100
AcDbLine
 10
1035.217815279007
 20
1062.714963450704
 30
0.0
 11
1024.825815279007
 21
1068.714963450704
 31
0.0
  0
CIRCLE
  5
4B62
330
1F
100
AcDbEntity
  8
0
  6
Continuous
 62
     2
100
AcDbCircle
 10
1032.771815279007
 20
1070.477963450704
 30
0.0
 40
2.5
  0
LINE
  5
4B63
330
1F
100
AcDbEntity
  8
AM_7
100
AcDbLine
 10
1036.333815279007
 20
1068.420963450704
 30
0.0
 11
1029.640815279007
 21
1072.285963450704
 31
0.0
  0
ARC
  5
4B64
330
1F
100
AcDbEntity
  8
0
  6
Continuous
 62
     7
100
AcDbCircle
 10
1032.771815279007
 20
1070.477963450704
 30
0.0
 40
2.067
100
AcDbArc
 50
150.6549999999998
 51
150.7679999999968
  0
ARC
  5
4B65
330
1F
100
AcDbEntity
  8
0
  6
Continuous
 62
     2
100
AcDbCircle
 10
1032.771815279007
 20
1070.477963450704
 30
0.0
 40
2.5
100
AcDbArc
 50
150.6549999999998
 51
150.7679999999968
  0
CIRCLE
  5
4B66
330
1F
100
AcDbEntity
  8
0
  6
Continuous
 62
     7
100
AcDbCircle
 10
1032.771815279007
 20
1070.477963450704
 30
0.0
 40
2.067
  0
ARC
  5
4B67
330
1F
100
AcDbEntity
  8
AM_7
100
AcDbCircle
 10
1018.520815279007
 20
1045.796963450704
 30
0.0
 40
38.0
100
AcDbArc
 50
354.881999999999
 51
7.63941999999901
  0
ARC
  5
4B68
330
1F
100
AcDbEntity
  8
0
  6
Continuous
 62
     7
100
AcDbCircle
 10
1056.520815279007
 20
1045.794963450704
 30
0.0
 40
5.5
100
AcDbArc
 50
89.99770000000241
 51
269.9980000000002
  0
ARC
  5
4B69
330
1F
100
AcDbEntity
  8
0
  6
Continuous
 62
     7
100
AcDbCircle
 10
1056.520815279007
 20
1045.794963450704
 30
0.0
 40
3.299999999999999
100
AcDbArc
 50
240.7379999999984
 51
240.6269999999979
  0
ARC
  5
4B6A
330
1F
100
AcDbEntity
  8
0
  6
Continuous
 62
     7
100
AcDbCircle
 10
1018.520815279007
 20
1045.796963450704
 30
0.0
 40
43.00019999999999
100
AcDbArc
 50
343.3070000000034
 51
16.66369999999703
  0
LINE
  5
4B6B
330
1F
100
AcDbEntity
  8
0
  6
Continuous
 62
     7
100
AcDbLine
 10
1061.167815279008
 20
1040.294963450704
 30
0.0
 11
1056.120815279008
 21
1040.294963450704
 31
0.0
  0
LINE
  5
4B6C
330
1F
100
AcDbEntity
  8
0
  6
Continuous
 62
     7
100
AcDbLine
 10
1056.587815279007
 20
1034.581963450705
 30
0.0
 11
1059.708815279007
 21
1033.444963450704
 31
0.0
  0
LINE
  5
4B6D
330
1F
100
AcDbEntity
  8
0
  6
Continuous
 62
     7
100
AcDbLine
 10
1052.967815279007
 20
1036.643963450704
 30
0.0
 11
1050.779815279007
 21
1030.629963450704
 31
0.0
  0
LINE
  5
4B6E
330
1F
100
AcDbEntity
  8
0
  6
Continuous
 62
     7
100
AcDbLine
 10
1050.778815279008
 20
1030.629963450704
 30
0.0
 11
1054.257815279007
 21
1029.363963450705
 31
0.0
  0
LINE
  5
4B6F
330
1F
100
AcDbEntity
  8
0
  6
Continuous
 62
     7
100
AcDbLine
 10
1054.257815279007
 20
1029.363963450705
 30
0.0
 11
1054.876815279008
 21
1029.883963450704
 31
0.0
  0
LINE
  5
4B70
330
1F
100
AcDbEntity
  8
0
  6
Continuous
 62
     7
100
AcDbLine
 10
1052.967815279007
 20
1036.643963450704
 30
0.0
 11
1056.446815279008
 21
1035.376963450704
 31
0.0
  0
POINT
  5
4B71
330
1F
100
AcDbEntity
  8
0
100
AcDbPoint
 10
1051.873815279007
 20
1033.636963450704
 30
0.0
  0
LINE
  5
4B72
330
1F
100
AcDbEntity
  8
0
  6
Continuous
 62
     7
100
AcDbLine
 10
1056.446815279008
 20
1035.376963450704
 30
0.0
 11
1056.587815279007
 21
1034.580963450704
 31
0.0
  0
LINE
  5
4B73
330
1F
100
AcDbEntity
  8
0
  6
Continuous
 62
     7
100
AcDbLine
 10
1054.876815279008
 20
1029.883963450704
 30
0.0
 11
1057.996815279007
 21
1028.747963450705
 31
0.0
  0
ARC
  5
4B74
330
1F
100
AcDbEntity
  8
0
  6
Continuous
 62
     7
100
AcDbCircle
 10
1018.520815279007
 20
1045.796963450704
 30
0.0
 40
38.0
100
AcDbArc
 50
344.8009999999984
 51
351.6750000000014
  0
LINE
  5
4B75
330
1F
100
AcDbEntity
  8
0
  6
Continuous
 62
     7
100
AcDbLine
 10
1050.786815279007
 20
1060.942963450704
 30
0.0
 11
1052.975815279008
 21
1054.928963450704
 31
0.0
  0
LINE
  5
4B76
330
1F
100
AcDbEntity
  8
0
  6
Continuous
 62
     7
100
AcDbLine
 10
1061.167815279008
 20
1051.294963450704
 30
0.0
 11
1056.521815279007
 21
1051.294963450704
 31
0.0
  0
LINE
  5
4B77
330
1F
100
AcDbEntity
  8
0
  6
Continuous
 62
     7
100
AcDbLine
 10
1056.592815279007
 20
1056.990963450704
 30
0.0
 11
1059.714815279007
 21
1058.126963450704
 31
0.0
  0
LINE
  5
4B78
330
1F
100
AcDbEntity
  8
0
  6
Continuous
 62
     7
100
AcDbLine
 10
1052.975815279008
 20
1054.928963450704
 30
0.0
 11
1056.452815279008
 21
1056.194963450704
 31
0.0
  0
POINT
  5
4B79
330
1F
100
AcDbEntity
  8
0
100
AcDbPoint
 10
1051.880815279007
 20
1057.935963450704
 30
0.0
  0
LINE
  5
4B7A
330
1F
100
AcDbEntity
  8
0
  6
Continuous
 62
     7
100
AcDbLine
 10
1056.452815279008
 20
1056.194963450704
 30
0.0
 11
1056.592815279007
 21
1056.990963450704
 31
0.0
  0
ARC
  5
4B7B
330
1F
100
AcDbEntity
  8
0
  6
Continuous
 62
     7
100
AcDbCircle
 10
1018.520815279007
 20
1045.796963450704
 30
0.0
 40
38.0
100
AcDbArc
 50
8.31918000000132
 51
15.16580000000239
  0
LINE
  5
4B7C
330
1F
100
AcDbEntity
  8
0
  6
Continuous
 62
     7
100
AcDbLine
 10
1050.786815279007
 20
1060.942963450704
 30
0.0
 11
1054.262815279007
 21
1062.207963450704
 31
0.0
  0
LINE
  5
4B7D
330
1F
100
AcDbEntity
  8
0
  6
Continuous
 62
     7
100
AcDbLine
 10
1054.262815279007
 20
1062.207963450704
 30
0.0
 11
1054.881815279007
 21
1061.688963450704
 31
0.0
  0
LINE
  5
4B7E
330
1F
100
AcDbEntity
  8
0
  6
Continuous
 62
     7
100
AcDbLine
 10
1054.881815279007
 20
1061.688963450704
 30
0.0
 11
1058.005815279007
 21
1062.825963450704
 31
0.0
  0
LINE
  5
4B7F
330
1F
100
AcDbEntity
  8
AM_5
100
AcDbLine
 10
998.5300135195014
 20
1107.561963450704
 30
0.0
 11
1054.183815279007
 21
1107.561963450704
 31
0.0
  0
TEXT
  5
4B80
330
1F
100
AcDbEntity
  8
AM_5
100
AcDbText
 10
1013.963013519501
 20
1108.516963450704
 30
0.0
 40
3.2
  1
0.8DEPTH10
  7
China
100
AcDbText
  0
LINE
  5
4B81
330
1F
100
AcDbEntity
  8
0
  6
Continuous
 62
     7
100
AcDbLine
 10
1054.411815279007
 20
1083.963963450704
 30
0.0
 11
1033.627815279007
 21
1095.963963450704
 31
0.0
  0
LINE
  5
4B82
330
1F
100
AcDbEntity
  8
AM_5
100
AcDbLine
 10
1054.183815279007
 20
1107.561963450704
 30
0.0
 11
1042.522815279007
 21
1087.364963450704
 31
0.0
  0
LINE
  5
4B83
330
1F
100
AcDbEntity
  8
AM_5
100
AcDbLine
 10
1011.464013519501
 20
1111.188963450704
 30
0.0
 11
1013.263013519501
 21
1109.043963450704
 31
0.0
  0
LINE
  5
4B84
330
1F
100
AcDbEntity
  8
AM_5
100
AcDbLine
 10
1011.464013519501
 20
1109.043963450704
 30
0.0
 11
1013.263013519501
 21
1111.188963450704
 31
0.0
  0
TEXT
  5
4B85
330
1F
100
AcDbEntity
  8
AM_5
100
AcDbText
 10
997.9630135195014
 20
1108.516963450704
 30
0.0
 40
3.2
  1
6-M5
  7
China
100
AcDbText
  0
ARC
  5
4B86
330
1F
100
AcDbEntity
  8
0
  6
Continuous
 62
     7
100
AcDbCircle
 10
1018.520815279007
 20
1045.796963450704
 30
0.0
 40
38.0
100
AcDbArc
 50
69.08229999999713
 51
111.6979999999986
  0
LINE
  5
4B87
330
1F
100
AcDbEntity
  8
0
  6
Continuous
 62
     7
100
AcDbLine
 10
1001.961815279007
 20
1085.480963450704
 30
0.0
 11
1004.285815279007
 21
1081.455963450704
 31
0.0
  0
LINE
  5
4B88
330
1F
100
AcDbEntity
  8
0
  6
Continuous
 62
     7
100
AcDbLine
 10
1028.773815279007
 20
1087.556963450704
 30
0.0
 11
1033.627815279007
 21
1095.963963450704
 31
0.0
  0
LINE
  5
4B89
330
1F
100
AcDbEntity
  8
0
  6
Continuous
 62
     7
100
AcDbLine
 10
1043.717815279007
 20
1077.436963450705
 30
0.0
 11
1033.325815279007
 21
1083.436963450705
 31
0.0
  0
LINE
  5
4B8A
330
1F
100
AcDbEntity
  8
AM_7
100
AcDbLine
 10
1044.498815279007
 20
1083.336963450705
 30
0.0
 11
1038.111815279008
 21
1087.024963450704
 31
0.0
  0
CIRCLE
  5
4B8B
330
1F
100
AcDbEntity
  8
0
  6
Continuous
 62
     7
100
AcDbCircle
 10
1041.272815279007
 20
1085.199963450705
 30
0.0
 40
2.067
  0
ARC
  5
4B8C
330
1F
100
AcDbEntity
  8
0
  6
Continuous
 62
     7
100
AcDbCircle
 10
1041.272815279007
 20
1085.199963450705
 30
0.0
 40
2.067
100
AcDbArc
 50
150.6549999999998
 51
150.7679999999968
  0
ARC
  5
4B8D
330
1F
100
AcDbEntity
  8
0
  6
Continuous
 62
     2
100
AcDbCircle
 10
1041.272815279007
 20
1085.199963450705
 30
0.0
 40
2.5
100
AcDbArc
 50
150.6549999999998
 51
150.7679999999968
  0
CIRCLE
  5
4B8E
330
1F
100
AcDbEntity
  8
0
  6
Continuous
 62
     2
100
AcDbCircle
 10
1041.272815279007
 20
1085.199963450705
 30
0.0
 40
2.5
  0
LINE
  5
4B8F
330
1F
100
AcDbEntity
  8
0
  6
Continuous
 62
     7
100
AcDbLine
 10
1102.41033268412
 20
1095.964963450705
 30
0.0
 11
1102.41033268412
 21
1075.556963450704
 31
0.0
  0
LINE
  5
4B90
330
1F
100
AcDbEntity
  8
0
  6
Continuous
 62
     7
100
AcDbLine
 10
1113.41033268412
 20
1095.964963450705
 30
0.0
 11
1113.41033268412
 21
1075.556963450704
 31
0.0
  0
LINE
  5
4B91
330
1F
100
AcDbEntity
  8
0
  6
Continuous
 62
     7
100
AcDbLine
 10
1098.29733268412
 20
1079.671963450705
 30
0.0
 11
1098.29733268412
 21
1060.738963450704
 31
0.0
  0
LINE
  5
4B92
330
1F
100
AcDbEntity
  8
0
  6
Continuous
 62
     7
100
AcDbLine
 10
1094.41033268412
 20
1077.437963450704
 30
0.0
 11
1094.41033268412
 21
1072.241963450704
 31
0.0
  0
LINE
  5
4B93
330
1F
100
AcDbEntity
  8
0
  6
Continuous
 62
     7
100
AcDbLine
 10
1091.41033268412
 20
1092.964963450705
 30
0.0
 11
1091.41033268412
 21
1062.715963450705
 31
0.0
  0
LINE
  5
4B94
330
1F
100
AcDbEntity
  8
0
  6
Continuous
 62
     7
100
AcDbLine
 10
1095.41033268412
 20
1075.733963450705
 30
0.0
 11
1098.29733268412
 21
1079.671963450705
 31
0.0
  0
LINE
  5
4B95
330
1F
100
AcDbEntity
  8
0
  6
Continuous
 62
     7
100
AcDbLine
 10
1102.41033268412
 20
1075.556963450704
 30
0.0
 11
1113.41033268412
 21
1075.556963450704
 31
0.0
  0
LINE
  5
4B96
330
1F
100
AcDbEntity
  8
0
  6
Continuous
 62
     7
100
AcDbLine
 10
1098.29633268412
 20
1040.296963450704
 30
0.0
 11
1109.40933268412
 21
1040.296963450704
 31
0.0
  0
LINE
  5
4B97
330
1F
100
AcDbEntity
  8
0
  6
Continuous
 62
     7
100
AcDbLine
 10
1098.29733268412
 20
1051.296963450704
 30
0.0
 11
1109.41033268412
 21
1051.296963450704
 31
0.0
  0
LINE
  5
4B98
330
1F
100
AcDbEntity
  8
0
  6
Continuous
 62
     7
100
AcDbLine
 10
1102.41033268412
 20
1016.036963450704
 30
0.0
 11
1113.41033268412
 21
1016.036963450704
 31
0.0
  0
LINE
  5
4B99
330
1F
100
AcDbEntity
  8
0
  6
Continuous
 62
     7
100
AcDbLine
 10
1091.41033268412
 20
1051.799963450704
 30
0.0
 11
1091.41033268412
 21
1039.799963450704
 31
0.0
  0
LINE
  5
4B9A
330
1F
100
AcDbEntity
  8
0
  6
Continuous
 62
     7
100
AcDbLine
 10
1095.41033268412
 20
1075.733963450705
 30
0.0
 11
1095.41033268412
 21
1015.859963450704
 31
0.0
  0
LINE
  5
4B9B
330
1F
100
AcDbEntity
  8
0
  6
Continuous
 62
     7
100
AcDbLine
 10
1098.29733268412
 20
1030.853963450705
 30
0.0
 11
1098.29733268412
 21
1011.921963450705
 31
0.0
  0
LINE
  5
4B9C
330
1F
100
AcDbEntity
  8
0
  6
Continuous
 62
     7
100
AcDbLine
 10
1095.41033268412
 20
1015.859963450704
 30
0.0
 11
1098.29733268412
 21
1011.921963450705
 31
0.0
  0
LINE
  5
4B9D
330
1F
100
AcDbEntity
  8
0
  6
Continuous
 62
     7
100
AcDbLine
 10
1094.40933268412
 20
1014.155963450704
 30
0.0
 11
1094.40933268412
 21
1019.351963450704
 31
0.0
  0
LINE
  5
4B9E
330
1F
100
AcDbEntity
  8
0
  6
Continuous
 62
     7
100
AcDbLine
 10
1091.41033268412
 20
1014.155963450704
 30
0.0
 11
1094.40933268412
 21
1014.155963450704
 31
0.0
  0
LINE
  5
4B9F
330
1F
100
AcDbEntity
  8
0
  6
Continuous
 62
     7
100
AcDbLine
 10
1091.41033268412
 20
1019.351963450704
 30
0.0
 11
1094.40933268412
 21
1019.351963450704
 31
0.0
  0
LINE
  5
4BA0
330
1F
100
AcDbEntity
  8
0
  6
Continuous
 62
     7
100
AcDbLine
 10
1098.29733268412
 20
1011.921963450705
 30
0.0
 11
1102.40933268412
 21
1011.921963450705
 31
0.0
  0
LINE
  5
4BA1
330
1F
100
AcDbEntity
  8
0
  6
Continuous
 62
     7
100
AcDbLine
 10
1095.41033268412
 20
1032.591963450704
 30
0.0
 11
1098.29733268412
 21
1030.853963450705
 31
0.0
  0
LINE
  5
4BA2
330
1F
100
AcDbEntity
  8
0
  6
Continuous
 62
     7
100
AcDbLine
 10
1095.41033268412
 20
1040.936963450705
 30
0.0
 11
1098.29633268412
 21
1040.296963450704
 31
0.0
  0
LINE
  5
4BA3
330
1F
100
AcDbEntity
  8
0
  6
Continuous
 62
     7
100
AcDbLine
 10
1095.41033268412
 20
1036.817963450704
 30
0.0
 11
1098.29633268412
 21
1035.634963450704
 31
0.0
  0
LINE
  5
4BA4
330
1F
100
AcDbEntity
  8
0
  6
Continuous
 62
     7
100
AcDbLine
 10
1091.41033268412
 20
1039.799963450704
 30
0.0
 11
1095.41033268412
 21
1039.799963450704
 31
0.0
  0
LINE
  5
4BA5
330
1F
100
AcDbEntity
  8
0
  6
Continuous
 62
     7
100
AcDbLine
 10
1091.41033268412
 20
1028.877963450704
 30
0.0
 11
1095.41033268412
 21
1028.877963450704
 31
0.0
  0
LINE
  5
4BA6
330
1F
100
AcDbEntity
  8
0
  6
Continuous
 62
     7
100
AcDbLine
 10
1098.29733268412
 20
1040.296963450704
 30
0.0
 11
1098.29733268412
 21
1035.634963450704
 31
0.0
  0
LINE
  5
4BA7
330
1F
100
AcDbEntity
  8
0
  6
Continuous
 62
     7
100
AcDbLine
 10
1095.41033268412
 20
1059.001963450704
 30
0.0
 11
1098.29733268412
 21
1060.738963450704
 31
0.0
  0
LINE
  5
4BA8
330
1F
100
AcDbEntity
  8
0
  6
Continuous
 62
     7
100
AcDbLine
 10
1098.29633268412
 20
1055.957963450704
 30
0.0
 11
1095.41033268412
 21
1054.775963450705
 31
0.0
  0
LINE
  5
4BA9
330
1F
100
AcDbEntity
  8
0
  6
Continuous
 62
     7
100
AcDbLine
 10
1095.41033268412
 20
1050.657963450705
 30
0.0
 11
1098.29633268412
 21
1051.296963450704
 31
0.0
  0
LINE
  5
4BAA
330
1F
100
AcDbEntity
  8
0
  6
Continuous
 62
     7
100
AcDbLine
 10
1091.41033268412
 20
1051.799963450704
 30
0.0
 11
1095.41033268412
 21
1051.799963450704
 31
0.0
  0
LINE
  5
4BAB
330
1F
100
AcDbEntity
  8
0
  6
Continuous
 62
     7
100
AcDbLine
 10
1098.29733268412
 20
1055.957963450704
 30
0.0
 11
1098.29733268412
 21
1051.296963450704
 31
0.0
  0
LINE
  5
4BAC
330
1F
100
AcDbEntity
  8
0
  6
Continuous
 62
     7
100
AcDbLine
 10
1091.41033268412
 20
1072.242963450705
 30
0.0
 11
1094.41033268412
 21
1072.242963450705
 31
0.0
  0
LINE
  5
4BAD
330
1F
100
AcDbEntity
  8
0
  6
Continuous
 62
     7
100
AcDbLine
 10
1091.41033268412
 20
1062.715963450705
 30
0.0
 11
1095.41033268412
 21
1062.715963450705
 31
0.0
  0
LINE
  5
4BAE
330
1F
100
AcDbEntity
  8
0
  6
Continuous
 62
     7
100
AcDbLine
 10
1109.40933268412
 20
1040.296963450704
 30
0.0
 11
1109.40933268412
 21
1051.296963450704
 31
0.0
  0
LINE
  5
4BAF
330
1F
100
AcDbEntity
  8
0
  6
Continuous
 62
     7
100
AcDbLine
 10
1102.41133268412
 20
1129.905963450704
 30
0.0
 11
1113.41133268412
 21
1129.905963450704
 31
0.0
  0
LINE
  5
4BB0
330
1F
100
AcDbEntity
  8
0
  6
Continuous
 62
     7
100
AcDbLine
 10
1102.41033268412
 20
1095.964963450705
 30
0.0
 11
1113.41033268412
 21
1095.964963450705
 31
0.0
  0
LINE
  5
4BB1
330
1F
100
AcDbEntity
  8
0
  6
Continuous
 62
     7
100
AcDbLine
 10
1102.41033268412
 20
1083.963963450704
 30
0.0
 11
1113.41033268412
 21
1083.963963450704
 31
0.0
  0
LINE
  5
4BB2
330
1F
100
AcDbEntity
  8
0
  6
Continuous
 62
     7
100
AcDbLine
 10
1091.41033268412
 20
1086.964963450704
 30
0.0
 11
1102.41033268412
 21
1086.964963450704
 31
0.0
  0
LINE
  5
4BB3
330
1F
100
AcDbEntity
  8
0
  6
Continuous
 62
     7
100
AcDbLine
 10
1091.41033268412
 20
1092.964963450705
 30
0.0
 11
1102.41033268412
 21
1092.964963450705
 31
0.0
  0
LINE
  5
4BB4
330
1F
100
AcDbEntity
  8
0
  6
Continuous
 62
     7
100
AcDbLine
 10
1091.41033268412
 20
1077.438963450704
 30
0.0
 11
1094.41033268412
 21
1077.438963450704
 31
0.0
  0
LINE
  5
4BB5
330
1F
100
AcDbEntity
  8
0
  6
Continuous
 62
     7
100
AcDbLine
 10
1098.29733268412
 20
1079.671963450705
 30
0.0
 11
1102.41033268412
 21
1079.671963450705
 31
0.0
  0
LINE
  5
4BB6
330
1F
100
AcDbEntity
  8
0
  6
Continuous
 62
     7
100
AcDbLine
 10
1098.29833268412
 20
1135.101963450704
 30
0.0
 11
1098.29833268412
 21
1122.796963450704
 31
0.0
  0
LINE
  5
4BB7
330
1F
100
AcDbEntity
  8
0
  6
Continuous
 62
     7
100
AcDbLine
 10
1095.41133268412
 20
1130.163963450704
 30
0.0
 11
1098.29833268412
 21
1125.475963450704
 31
0.0
  0
LINE
  5
4BB8
330
1F
100
AcDbEntity
  8
0
  6
Continuous
 62
     7
100
AcDbLine
 10
1095.41133268412
 20
1128.872963450705
 30
0.0
 11
1098.29833268412
 21
1124.013963450704
 31
0.0
  0
LINE
  5
4BB9
330
1F
100
AcDbEntity
  8
0
  6
Continuous
 62
     7
100
AcDbLine
 10
1095.41033268412
 20
1127.797963450704
 30
0.0
 11
1098.29833268412
 21
1122.796963450704
 31
0.0
  0
LINE
  5
4BBA
330
1F
100
AcDbEntity
  8
0
  6
Continuous
 62
     7
100
AcDbLine
 10
1091.41133268412
 20
1135.101963450704
 30
0.0
 11
1102.41133268412
 21
1135.101963450704
 31
0.0
  0
LINE
  5
4BBB
330
1F
100
AcDbEntity
  8
0
  6
Continuous
 62
     7
100
AcDbLine
 10
1095.41133268412
 20
1135.101963450704
 30
0.0
 11
1095.41133268412
 21
1127.797963450704
 31
0.0
  0
LINE
  5
4BBC
330
1F
100
AcDbEntity
  8
0
  6
Continuous
 62
     7
100
AcDbLine
 10
1113.41133268412
 20
1207.087963450704
 30
0.0
 11
1113.41133268412
 21
1216.796963450704
 31
0.0
  0
LINE
  5
4BBD
330
1F
100
AcDbEntity
  8
0
  6
Continuous
 62
     7
100
AcDbLine
 10
1102.41133268412
 20
1207.088963450704
 30
0.0
 11
1102.41133268412
 21
1216.796963450704
 31
0.0
  0
LINE
  5
4BBE
330
1F
100
AcDbEntity
  8
0
  6
Continuous
 62
     7
100
AcDbLine
 10
1098.29833268412
 20
1208.796963450704
 30
0.0
 11
1098.29833268412
 21
1191.884963450704
 31
0.0
  0
DIMENSION
  5
4BBF
330
1F
100
AcDbEntity
  8
AM_5
100
AcDbDimension
  2
*D17
 10
1123.41133268412
 20
1225.568254717522
 30
0.0
 11
1134.41133268412
 21
1228.36864841831
 31
0.0
 70
    32
 71
     5
 42
22.0
  3
AM_ISO$0
100
AcDbAlignedDimension
 13
1145.41133268412
 23
1216.464391386202
 33
0.0
 14
1123.41133268412
 24
1173.406963450704
 34
0.0
100
AcDbRotatedDimension
  0
LINE
  5
4BC0
330
1F
100
AcDbEntity
  8
0
  6
Continuous
 62
     7
100
AcDbLine
 10
1091.41133268412
 20
1216.796963450704
 30
0.0
 11
1091.41133268412
 21
1205.796963450704
 31
0.0
  0
DIMENSION
  5
4BC1
330
1F
100
AcDbEntity
  8
AM_5
100
AcDbDimension
  2
*D18
 10
1079.404609829711
 20
1205.796963450704
 30
0.0
 11
1079.40460982971
 21
1217.659835448078
 31
0.0
 70
   160
  1
6H9
 71
     5
 42
6.0
  3
AM_ISO$0
100
AcDbAlignedDimension
 13
1083.486600549548
 23
1199.796963450705
 33
0.0
 14
1091.41133268412
 24
1205.796963450704
 34
0.0
 50
90.0
100
AcDbRotatedDimension
  0
LINE
  5
4BC2
330
1F
100
AcDbEntity
  8
0
  6
Continuous
 62
     7
100
AcDbLine
 10
1095.41133268412
 20
1203.795963450704
 30
0.0
 11
1098.29833268412
 21
1208.796963450704
 31
0.0
  0
DIMENSION
  5
4BC3
330
1F
100
AcDbEntity
  8
AM_5
100
AcDbDimension
  2
*D19
 10
1091.41133268412
 20
1225.568254717522
 30
0.0
 11
1082.728489971645
 21
1228.368254717522
 31
0.0
 70
    32
 71
     5
 42
3.0
  3
AM_ISO$0
100
AcDbAlignedDimension
 13
1094.41133268412
 23
1205.796963450704
 33
0.0
 14
1091.41133268412
 24
1216.796963450704
 34
0.0
100
AcDbRotatedDimension
  0
LINE
  5
4BC4
330
1F
100
AcDbEntity
  8
0
  6
Continuous
 62
     7
100
AcDbLine
 10
1102.41133268412
 20
1207.088963450704
 30
0.0
 11
1113.41133268412
 21
1207.087963450704
 31
0.0
  0
LINE
  5
4BC5
330
1F
100
AcDbEntity
  8
0
  6
Continuous
 62
     7
100
AcDbLine
 10
1098.29833268412
 20
1191.884963450704
 30
0.0
 11
1109.41133268412
 21
1191.884963450704
 31
0.0
  0
LINE
  5
4BC6
330
1F
100
AcDbEntity
  8
0
  6
Continuous
 62
     7
100
AcDbLine
 10
1098.29833268412
 20
1182.358963450704
 30
0.0
 11
1109.41133268412
 21
1182.358963450704
 31
0.0
  0
LINE
  5
4BC7
330
1F
100
AcDbEntity
  8
0
  6
Continuous
 62
     7
100
AcDbLine
 10
1102.41133268412
 20
1155.544963450704
 30
0.0
 11
1113.41133268412
 21
1155.544963450704
 31
0.0
  0
LINE
  5
4BC8
330
1F
100
AcDbEntity
  8
0
  6
Continuous
 62
     7
100
AcDbLine
 10
1102.41133268412
 20
1150.690963450704
 30
0.0
 11
1113.41133268412
 21
1150.690963450704
 31
0.0
  0
LINE
  5
4BC9
330
1F
100
AcDbEntity
  8
0
  6
Continuous
 62
     7
100
AcDbLine
 10
1098.29833268412
 20
1182.358963450704
 30
0.0
 11
1098.29833268412
 21
1149.704963450704
 31
0.0
  0
LINE
  5
4BCA
330
1F
100
AcDbEntity
  8
0
  6
Continuous
 62
     7
100
AcDbLine
 10
1095.41133268412
 20
1203.795963450704
 30
0.0
 11
1095.41133268412
 21
1151.575963450705
 31
0.0
  0
DIMENSION
  5
4BCB
330
1F
100
AcDbEntity
  8
AM_5
100
AcDbDimension
  2
*D20
 10
1079.404609829711
 20
1188.796963450704
 30
0.0
 11
1076.604216128923
 21
1177.296963450705
 31
0.0
 70
    32
 71
     5
 42
23.0
  3
AM_ISO$0
100
AcDbAlignedDimension
 13
1083.59233268412
 23
1165.796963450705
 33
0.0
 14
1091.41133268412
 24
1188.796963450704
 34
0.0
 50
90.0
100
AcDbRotatedDimension
  0
DIMENSION
  5
4BCC
330
1F
100
AcDbEntity
  8
AM_5
100
AcDbDimension
  2
*D21
 10
1071.404609829711
 20
1165.796963450705
 30
0.0
 11
1068.60460982971
 21
1182.796963450705
 31
0.0
 70
    32
 71
     5
 42
34.0
  3
AM_ISO$0
100
AcDbAlignedDimension
 13
1091.41133268412
 23
1199.796963450705
 33
0.0
 14
1083.59233268412
 24
1165.796963450705
 34
0.0
 50
90.0
100
AcDbRotatedDimension
  0
LINE
  5
4BCD
330
1F
100
AcDbEntity
  8
0
  6
Continuous
 62
     7
100
AcDbLine
 10
1091.41133268412
 20
1145.494963450704
 30
0.0
 11
1102.41133268412
 21
1145.494963450704
 31
0.0
  0
LINE
  5
4BCE
330
1F
100
AcDbEntity
  8
0
  6
Continuous
 62
     7
100
AcDbLine
 10
1095.41133268412
 20
1151.575963450705
 30
0.0
 11
1098.29833268412
 21
1149.704963450704
 31
0.0
  0
LINE
  5
4BCF
330
1F
100
AcDbEntity
  8
0
  6
Continuous
 62
     7
100
AcDbLine
 10
1091.41133268412
 20
1153.993963450705
 30
0.0
 11
1094.41133268412
 21
1153.993963450705
 31
0.0
  0
LINE
  5
4BD0
330
1F
100
AcDbEntity
  8
0
  6
Continuous
 62
     7
100
AcDbLine
 10
1091.41133268412
 20
1150.993963450704
 30
0.0
 11
1094.41133268412
 21
1150.993963450704
 31
0.0
  0
LINE
  5
4BD1
330
1F
100
AcDbEntity
  8
0
  6
Continuous
 62
     7
100
AcDbLine
 10
1094.41133268412
 20
1153.993963450705
 30
0.0
 11
1094.41133268412
 21
1150.993963450704
 31
0.0
  0
LINE
  5
4BD2
330
1F
100
AcDbEntity
  8
0
  6
Continuous
 62
     7
100
AcDbLine
 10
1098.29833268412
 20
1149.704963450704
 30
0.0
 11
1102.41133268412
 21
1149.704963450704
 31
0.0
  0
LINE
  5
4BD3
330
1F
100
AcDbEntity
  8
0
  6
Continuous
 62
     7
100
AcDbLine
 10
1091.41133268412
 20
1159.493963450705
 30
0.0
 11
1095.41133268412
 21
1159.493963450705
 31
0.0
  0
DIMENSION
  5
4BD4
330
1F
100
AcDbEntity
  8
AM_5
100
AcDbDimension
  2
*D22
 10
1079.404609829711
 20
1199.796963450705
 30
0.0
 11
1076.60460982971
 21
1194.296963450705
 31
0.0
 70
    32
 71
     5
 42
11.0
  3
AM_ISO$0
100
AcDbAlignedDimension
 13
1083.486600549548
 23
1188.796963450704
 33
0.0
 14
1091.41133268412
 24
1199.796963450705
 34
0.0
 50
90.0
100
AcDbRotatedDimension
  0
LINE
  5
4BD5
330
1F
100
AcDbEntity
  8
0
  6
Continuous
 62
     7
100
AcDbLine
 10
1091.41133268412
 20
1199.796963450705
 30
0.0
 11
1091.41133268412
 21
1188.796963450704
 31
0.0
  0
LINE
  5
4BD6
330
1F
100
AcDbEntity
  8
0
  6
Continuous
 62
     7
100
AcDbLine
 10
1095.41133268412
 20
1188.850963450704
 30
0.0
 11
1098.29833268412
 21
1191.884963450704
 31
0.0
  0
LINE
  5
4BD7
330
1F
100
AcDbEntity
  8
0
  6
Continuous
 62
     7
100
AcDbLine
 10
1098.29833268412
 20
1182.358963450704
 30
0.0
 11
1095.41133268412
 21
1180.432963450704
 31
0.0
  0
LINE
  5
4BD8
330
1F
100
AcDbEntity
  8
0
  6
Continuous
 62
     7
100
AcDbLine
 10
1091.41133268412
 20
1188.796963450704
 30
0.0
 11
1095.41133268412
 21
1188.796963450704
 31
0.0
  0
LINE
  5
4BD9
330
1F
100
AcDbEntity
  8
0
  6
Continuous
 62
     7
100
AcDbLine
 10
1091.41133268412
 20
1205.796963450704
 30
0.0
 11
1094.41133268412
 21
1205.796963450704
 31
0.0
  0
LINE
  5
4BDA
330
1F
100
AcDbEntity
  8
0
  6
Continuous
 62
     7
100
AcDbLine
 10
1091.41133268412
 20
1199.796963450705
 30
0.0
 11
1094.41133268412
 21
1199.796963450705
 31
0.0
  0
LINE
  5
4BDB
330
1F
100
AcDbEntity
  8
0
  6
Continuous
 62
     7
100
AcDbLine
 10
1094.41133268412
 20
1205.796963450704
 30
0.0
 11
1094.41133268412
 21
1199.796963450705
 31
0.0
  0
ARC
  5
4BDC
330
1F
100
AcDbEntity
  8
0
  6
Continuous
 62
     7
100
AcDbCircle
 10
1123.41133268412
 20
1167.445963450704
 30
0.0
 40
5.000049999999999
100
AcDbArc
 50
180.2530000000006
 51
359.7469999999993
  0
LINE
  5
4BDD
330
1F
100
AcDbEntity
  8
AM_7
100
AcDbLine
 10
1130.09633268412
 20
1167.423963450704
 30
0.0
 11
1117.17033268412
 21
1167.423963450704
 31
0.0
  0
ARC
  5
4BDE
330
1F
100
AcDbEntity
  8
0
  6
Continuous
 62
     7
100
AcDbCircle
 10
1123.41133268412
 20
1167.292963450704
 30
0.0
 40
5.00173
100
AcDbArc
 50
1.509190000002843
 51
178.4909999999971
  0
LINE
  5
4BDF
330
1F
100
AcDbEntity
  8
AM_7
100
AcDbLine
 10
1123.41133268412
 20
1161.163963450704
 30
0.0
 11
1123.41133268412
 21
1173.406963450704
 31
0.0
  0
ARC
  5
4BE0
330
1F
100
AcDbEntity
  8
0
  6
Continuous
 62
     7
100
AcDbCircle
 10
1123.41133268412
 20
1167.386963450704
 30
0.0
 40
2.49867
100
AcDbArc
 50
179.1479999999968
 51
0.8470000000027136
  0
ARC
  5
4BE1
330
1F
100
AcDbEntity
  8
0
  6
Continuous
 62
     7
100
AcDbCircle
 10
1123.41133268412
 20
1167.281963450705
 30
0.0
 40
2.502429999999999
100
AcDbArc
 50
3.253599999998491
 51
176.740999999999
  0
LINE
  5
4BE2
330
1F
100
AcDbEntity
  8
0
  6
Continuous
 62
     7
100
AcDbLine
 10
1109.41133268412
 20
1191.884963450704
 30
0.0
 11
1109.41133268412
 21
1182.358963450704
 31
0.0
  0
LINE
  5
4BE3
330
1F
100
AcDbEntity
  8
AM_7
100
AcDbLine
 10
1145.41133268412
 20
1188.192963450704
 30
0.0
 11
1145.41133268412
 21
1196.923963450704
 31
0.0
  0
ARC
  5
4BE4
330
1F
100
AcDbEntity
  8
0
  6
Continuous
 62
     7
100
AcDbCircle
 10
1146.64133268412
 20
1192.299963450705
 30
0.0
 40
1.274999999999999
100
AcDbArc
 50
291.0130000000011
 51
66.63950000000355
  0
ARC
  5
4BE5
330
1F
100
AcDbEntity
  8
0
  6
Continuous
 62
     7
100
AcDbCircle
 10
1147.93833268412
 20
1192.622963450705
 30
0.0
 40
2.47567
100
AcDbArc
 50
301.6900000000021
 51
56.3169000000012
  0
ARC
  5
4BE6
330
1F
100
AcDbEntity
  8
0
  6
Continuous
 62
     7
100
AcDbCircle
 10
1142.88433268412
 20
1192.622963450705
 30
0.0
 40
2.47567
100
AcDbArc
 50
123.6779999999968
 51
238.3249999999994
  0
ARC
  5
4BE7
330
1F
100
AcDbEntity
  8
0
  6
Continuous
 62
     7
100
AcDbCircle
 10
1144.18133268412
 20
1192.299963450705
 30
0.0
 40
1.274999999999999
100
AcDbArc
 50
113.3709999999981
 51
248.9620000000021
  0
ARC
  5
4BE8
330
1F
100
AcDbEntity
  8
0
  6
Continuous
 62
     7
100
AcDbCircle
 10
1145.41133268412
 20
1195.863963450705
 30
0.0
 40
6.576039999999998
100
AcDbArc
 50
234.4130000000013
 51
305.5929999999979
  0
ARC
  5
4BE9
330
1F
100
AcDbEntity
  8
0
  6
Continuous
 62
     7
100
AcDbCircle
 10
1145.41133268412
 20
1194.236963450705
 30
0.0
 40
3.553119999999999
100
AcDbArc
 50
241.6379999999965
 51
298.3539999999961
  0
ARC
  5
4BEA
330
1F
100
AcDbEntity
  8
0
  6
Continuous
 62
     7
100
AcDbCircle
 10
1145.41133268412
 20
1187.971963450704
 30
0.0
 40
7.762089999999999
100
AcDbArc
 50
59.84050000000213
 51
120.1590000000012
  0
LINE
  5
4BEB
330
1F
100
AcDbEntity
  8
AM_7
100
AcDbLine
 10
1151.84933268412
 20
1192.733963450704
 30
0.0
 11
1139.16933268412
 21
1192.733963450704
 31
0.0
  0
ARC
  5
4BEC
330
1F
100
AcDbEntity
  8
0
  6
Continuous
 62
     7
100
AcDbCircle
 10
1145.41133268412
 20
1190.230963450704
 30
0.0
 40
3.67504
100
AcDbArc
 50
61.69330000000095
 51
118.1880000000037
  0
LINE
  5
4BED
330
1F
100
AcDbEntity
  8
0
  6
Continuous
 62
     7
100
AcDbLine
 10
1091.41133268412
 20
1216.796963450704
 30
0.0
 11
1113.41133268412
 21
1216.796963450704
 31
0.0
  0
DIMENSION
  5
4BF1
330
1F
100
AcDbEntity
  8
AM_5
100
AcDbDimension
  2
*D23
 10
1091.41133268412
 20
1233.568254717522
 30
0.0
 11
1093.41133268412
 21
1236.368254717522
 31
0.0
 70
    32
 71
     5
 42
4.0
  3
AM_ISO$0
100
AcDbAlignedDimension
 13
1095.41133268412
 23
1232.712508671383
 33
0.0
 14
1091.41133268412
 24
1223.427871061919
 34
0.0
100
AcDbRotatedDimension
  0
LINE
  5
4BF2
330
1F
100
AcDbEntity
  8
0
  6
Continuous
 62
     7
100
AcDbLine
 10
1098.29833268412
 20
1208.796963450704
 30
0.0
 11
1102.41133268412
 21
1208.796963450704
 31
0.0
  0
TEXT
  5
4BF3
330
1F
100
AcDbEntity
  8
AM_5
100
AcDbText
 10
1308.077439278217
 20
1108.672963450704
 30
0.0
 40
3.2
  1
3-M6
  7
China
100
AcDbText
  0
LINE
  5
4BF4
330
1F
100
AcDbEntity
  8
AM_5
100
AcDbLine
 10
1307.917439278217
 20
1107.563963450704
 30
0.0
 11
1346.067439278217
 21
1107.563963450704
 31
0.0
  0
TEXT
  5
4BF5
330
1F
100
AcDbEntity
  8
AM_5
100
AcDbText
 10
1308.347439278217
 20
1103.146963450704
 30
0.0
 40
3.2
  1
P.C.D.76
  7
China
100
AcDbText
  0
LINE
  5
4BF6
330
1F
100
AcDbEntity
  8
0
  6
Continuous
 62
     7
100
AcDbLine
 10
1157.41133268412
 20
1208.796963450704
 30
0.0
 11
1157.41133268412
 21
1122.796963450704
 31
0.0
  0
DIMENSION
  5
4BF7
330
1F
100
AcDbEntity
  8
AM_5
100
AcDbDimension
  2
*D24
 10
1171.028724038219
 20
1122.796963450704
 30
0.0
 11
1168.228724038219
 21
1165.796963450705
 31
0.0
 70
    32
  1
%%C<>
 71
     5
 42
86.0
  3
AM_ISO$0
100
AcDbAlignedDimension
 13
1157.41133268412
 23
1208.796963450704
 33
0.0
 14
1157.41133268412
 24
1122.796963450704
 34
0.0
 50
90.0
100
AcDbRotatedDimension
  0
TEXT
  5
4BF8
330
1F
100
AcDbEntity
  8
AM_5
100
AcDbText
 10
1247.37033268412
 20
1109.962963450704
 30
0.0
 40
1.6
  1
+0.030
  7
China
100
AcDbText
  0
LINE
  5
4BF9
330
1F
100
AcDbEntity
  8
AM_5
100
AcDbLine
 10
1234.99033268412
 20
1107.563963450704
 30
0.0
 11
1276.28033268412
 21
1107.563963450704
 31
0.0
  0
DIMENSION
  5
4BFA
330
1F
100
AcDbEntity
  8
AM_5
100
AcDbDimension
  2
*D25
 10
1201.337678686119
 20
1053.181484023297
 30
0.0
 11
1201.041604257458
 21
1072.383383174658
 31
0.0
 70
    33
 71
     5
 42
37.99792579004043
  3
AM_ISO$0
100
AcDbAlignedDimension
 13
1262.370836038772
 23
1083.471801293335
 33
0.0
 14
1257.410897817932
 24
1045.798981154793
 34
0.0
  0
DIMENSION
  5
4BFB
330
1F
100
AcDbEntity
  8
AM_5
100
AcDbDimension
  2
*D26
 10
1201.337276848063
 20
1053.178431894
 30
0.0
 11
1196.309585566583
 21
1036.441707876269
 31
0.0
 70
    33
 71
     5
 42
34.49960060450508
  3
AM_ISO$0
100
AcDbAlignedDimension
 13
1252.90720049508
 23
1011.591502825852
 33
0.0
 14
1257.410495979878
 24
1045.795929025497
 34
0.0
  0
CIRCLE
  5
4BFD
330
1F
100
AcDbEntity
  8
0
  6
Continuous
 62
     7
100
AcDbCircle
 10
1257.41033268412
 20
1045.796963450704
 30
0.0
 40
32.5
  0
LINE
  5
4BFF
330
1F
100
AcDbEntity
  8
0
  6
Continuous
 62
     7
100
AcDbLine
 10
1221.51733268412
 20
1083.964963450704
 30
0.0
 11
1226.37033268412
 21
1075.556963450704
 31
0.0
  0
POINT
  5
4C01
330
1F
100
AcDbEntity
  8
0
100
AcDbPoint
 10
1157.40933268412
 20
1045.796963450704
 30
0.0
  0
CIRCLE
  5
4C02
330
1F
100
AcDbEntity
  8
0
  6
Continuous
 62
     7
100
AcDbCircle
 10
1219.41033268412
 20
1045.796963450704
 30
0.0
 40
3.299999999999999
  0
ARC
  5
4C03
330
1F
100
AcDbEntity
  8
0
  6
Continuous
 62
     7
100
AcDbCircle
 10
1257.41033268412
 20
1045.796963450704
 30
0.0
 40
43.00019999999999
100
AcDbArc
 50
163.3330000000018
 51
196.6650000000023
  0
LINE
  5
4C04
330
1F
100
AcDbEntity
  8
0
  6
Continuous
 62
     7
100
AcDbLine
 10
1222.95533268412
 20
1036.662963450704
 30
0.0
 11
1225.14033268412
 21
1030.648963450705
 31
0.0
  0
LINE
  5
4C05
330
1F
100
AcDbEntity
  8
0
  6
Continuous
 62
     7
100
AcDbLine
 10
1225.14033268412
 20
1030.648963450705
 30
0.0
 11
1221.66633268412
 21
1029.382963450705
 31
0.0
  0
ARC
  5
4C06
330
1F
100
AcDbEntity
  8
0
  6
Continuous
 62
     7
100
AcDbCircle
 10
1219.41033268412
 20
1045.796963450704
 30
0.0
 40
3.299999999999999
100
AcDbArc
 50
270.1730000000003
 51
270.2849999999987
  0
LINE
  5
4C07
330
1F
100
AcDbEntity
  8
0
  6
Continuous
 62
     7
100
AcDbLine
 10
1222.95533268412
 20
1036.662963450704
 30
0.0
 11
1219.47933268412
 21
1035.397963450704
 31
0.0
  0
LINE
  5
4C08
330
1F
100
AcDbEntity
  8
0
  6
Continuous
 62
     7
100
AcDbLine
 10
1221.04733268412
 20
1029.902963450704
 30
0.0
 11
1217.92533268412
 21
1028.765963450704
 31
0.0
  0
LINE
  5
4C09
330
1F
100
AcDbEntity
  8
0
  6
Continuous
 62
     7
100
AcDbLine
 10
1219.33933268412
 20
1034.601963450705
 30
0.0
 11
1216.21533268412
 21
1033.464963450704
 31
0.0
  0
LINE
  5
4C0A
330
1F
100
AcDbEntity
  8
0
  6
Continuous
 62
     7
100
AcDbLine
 10
1219.47933268412
 20
1035.397963450704
 30
0.0
 11
1219.33933268412
 21
1034.601963450705
 31
0.0
  0
LINE
  5
4C0B
330
1F
100
AcDbEntity
  8
0
  6
Continuous
 62
     7
100
AcDbLine
 10
1221.66633268412
 20
1029.382963450705
 30
0.0
 11
1221.04733268412
 21
1029.902963450704
 31
0.0
  0
POINT
  5
4C0C
330
1F
100
AcDbEntity
  8
0
100
AcDbPoint
 10
1224.05033268412
 20
1033.655963450704
 30
0.0
  0
LINE
  5
4C0D
330
1F
100
AcDbEntity
  8
0
  6
Continuous
 62
     7
100
AcDbLine
 10
1225.14033268412
 20
1060.944963450704
 30
0.0
 11
1222.95633268412
 21
1054.930963450704
 31
0.0
  0
LINE
  5
4C0E
330
1F
100
AcDbEntity
  8
0
  6
Continuous
 62
     7
100
AcDbLine
 10
1225.14033268412
 20
1060.945963450705
 30
0.0
 11
1221.66833268412
 21
1062.210963450704
 31
0.0
  0
LINE
  5
4C0F
330
1F
100
AcDbEntity
  8
0
  6
Continuous
 62
     7
100
AcDbLine
 10
1222.95633268412
 20
1054.930963450704
 30
0.0
 11
1219.47933268412
 21
1056.196963450704
 31
0.0
  0
LINE
  5
4C10
330
1F
100
AcDbEntity
  8
0
  6
Continuous
 62
     7
100
AcDbLine
 10
1219.47933268412
 20
1056.196963450704
 30
0.0
 11
1219.33933268412
 21
1056.992963450705
 31
0.0
  0
LINE
  5
4C11
330
1F
100
AcDbEntity
  8
0
  6
Continuous
 62
     7
100
AcDbLine
 10
1219.33833268412
 20
1056.992963450705
 30
0.0
 11
1216.21633268412
 21
1058.128963450704
 31
0.0
  0
POINT
  5
4C12
330
1F
100
AcDbEntity
  8
0
100
AcDbPoint
 10
1224.05033268412
 20
1057.937963450704
 30
0.0
  0
LINE
  5
4C13
330
1F
100
AcDbEntity
  8
0
  6
Continuous
 62
     7
100
AcDbLine
 10
1221.04933268412
 20
1061.690963450705
 30
0.0
 11
1217.92633268412
 21
1062.827963450704
 31
0.0
  0
LINE
  5
4C14
330
1F
100
AcDbEntity
  8
0
  6
Continuous
 62
     7
100
AcDbLine
 10
1221.66833268412
 20
1062.210963450704
 30
0.0
 11
1221.04933268412
 21
1061.690963450705
 31
0.0
  0
ARC
  5
4C15
330
1F
100
AcDbEntity
  8
0
  6
Continuous
 62
     2
100
AcDbCircle
 10
1238.41033268412
 20
1078.705963450704
 30
0.0
 40
3.0
100
AcDbArc
 50
270.1730000000003
 51
270.2849999999987
  0
TEXT
  5
4C16
330
1F
100
AcDbEntity
  8
AM_5
100
AcDbText
 10
1237.72033268412
 20
1108.296963450704
 30
0.0
 40
3.2
  1
5H9
  7
China
100
AcDbText
  0
LINE
  5
4C17
330
1F
100
AcDbEntity
  8
AM_5
100
AcDbLine
 10
1235.64033268412
 20
1108.298963450704
 30
0.0
 11
1236.81033268412
 21
1111.493963450705
 31
0.0
  0
CIRCLE
  5
4C18
330
1F
100
AcDbEntity
  8
AM_5
100
AcDbCircle
 10
1236.23033268412
 20
1109.896963450704
 30
0.0
 40
0.9
  0
LINE
  5
4C19
330
1F
100
AcDbEntity
  8
0
  6
Continuous
 62
     7
100
AcDbLine
 10
1221.51733268412
 20
1083.964963450704
 30
0.0
 11
1242.30033268412
 21
1095.964963450705
 31
0.0
  0
LINE
  5
4C1A
330
1F
100
AcDbEntity
  8
0
  6
Continuous
 62
     7
100
AcDbLine
 10
1242.30033268412
 20
1095.964963450705
 30
0.0
 11
1247.16033268412
 21
1087.556963450704
 31
0.0
  0
LINE
  5
4C1C
330
1F
100
AcDbEntity
  8
AM_5
100
AcDbLine
 10
1307.917439278217
 20
1107.563963450704
 30
0.0
 11
1296.91033268412
 21
1048.393963450704
 31
0.0
  0
CIRCLE
  5
4C1D
330
1F
100
AcDbEntity
  8
0
  6
Continuous
 62
     2
100
AcDbCircle
 10
1295.41033268412
 20
1045.795963450705
 30
0.0
 40
3.0
  0
CIRCLE
  5
4C1E
330
1F
100
AcDbEntity
  8
0
  6
Continuous
 62
     7
100
AcDbCircle
 10
1295.41033268412
 20
1045.795963450705
 30
0.0
 40
2.458499999999999
  0
LINE
  5
4C1F
330
1F
100
AcDbEntity
  8
0
  6
Continuous
 62
     7
100
AcDbLine
 10
1266.55033268412
 20
1012.376963450704
 30
0.0
 11
1260.25033268412
 21
1011.265963450704
 31
0.0
  0
LINE
  5
4C20
330
1F
100
AcDbEntity
  8
0
  6
Continuous
 62
     7
100
AcDbLine
 10
1285.89033268412
 20
1026.070963450705
 30
0.0
 11
1281.78033268412
 21
1021.167963450704
 31
0.0
  0
LINE
  5
4C21
330
1F
100
AcDbEntity
  8
0
  6
Continuous
 62
     7
100
AcDbLine
 10
1281.78033268412
 20
1021.167963450704
 30
0.0
 11
1284.61033268412
 21
1018.789963450704
 31
0.0
  0
LINE
  5
4C22
330
1F
100
AcDbEntity
  8
0
  6
Continuous
 62
     7
100
AcDbLine
 10
1285.89033268412
 20
1026.070963450705
 30
0.0
 11
1288.73033268412
 21
1023.692963450704
 31
0.0
  0
LINE
  5
4C23
330
1F
100
AcDbEntity
  8
0
  6
Continuous
 62
     7
100
AcDbLine
 10
1288.73033268412
 20
1023.692963450704
 30
0.0
 11
1288.59033268412
 21
1022.896963450705
 31
0.0
  0
LINE
  5
4C24
330
1F
100
AcDbEntity
  8
0
  6
Continuous
 62
     7
100
AcDbLine
 10
1285.37033268412
 20
1019.066963450704
 30
0.0
 11
1288.69033268412
 21
1016.287963450704
 31
0.0
  0
LINE
  5
4C25
330
1F
100
AcDbEntity
  8
0
  6
Continuous
 62
     7
100
AcDbLine
 10
1284.61033268412
 20
1018.789963450704
 30
0.0
 11
1285.37033268412
 21
1019.066963450704
 31
0.0
  0
LINE
  5
4C26
330
1F
100
AcDbEntity
  8
0
  6
Continuous
 62
     7
100
AcDbLine
 10
1288.59033268412
 20
1022.896963450705
 30
0.0
 11
1291.90033268412
 21
1020.117963450704
 31
0.0
  0
POINT
  5
4C27
330
1F
100
AcDbEntity
  8
0
100
AcDbPoint
 10
1257.41033268412
 20
1045.796963450704
 30
0.0
  0
ARC
  5
4C28
330
1F
100
AcDbEntity
  8
0
  6
Continuous
 62
     7
100
AcDbCircle
 10
1276.41033268412
 20
1078.704963450705
 30
0.0
 40
3.299999999999999
100
AcDbArc
 50
270.1730000000003
 51
270.2849999999987
  0
LINE
  5
4C29
330
1F
100
AcDbEntity
  8
0
  6
Continuous
 62
     7
100
AcDbLine
 10
1308.41033268412
 20
1057.795963450705
 30
0.0
 11
1308.41033268412
 21
1033.795963450705
 31
0.0
  0
LINE
  5
4C2A
330
1F
100
AcDbEntity
  8
0
  6
Continuous
 62
     7
100
AcDbLine
 10
1308.41033268412
 20
1033.795963450705
 30
0.0
 11
1298.70033268412
 21
1033.795963450705
 31
0.0
  0
ARC
  5
4C2B
330
1F
100
AcDbEntity
  8
0
  6
Continuous
 62
     2
100
AcDbCircle
 10
1295.41033268412
 20
1045.795963450705
 30
0.0
 40
3.0
100
AcDbArc
 50
270.1730000000003
 51
270.2849999999987
  0
LINE
  5
4C2C
330
1F
100
AcDbEntity
  8
0
  6
Continuous
 62
     7
100
AcDbLine
 10
1308.41033268412
 20
1057.795963450705
 30
0.0
 11
1298.70033268412
 21
1057.795963450705
 31
0.0
  0
TEXT
  5
4C2D
330
1F
100
AcDbEntity
  8
AM_5
100
AcDbText
 10
1248.98033268412
 20
1108.043963450704
 30
0.0
 40
1.6
  1
0
  7
China
100
AcDbText
  0
TEXT
  5
4C2E
330
1F
100
AcDbEntity
  8
AM_5
100
AcDbText
 10
1257.35033268412
 20
1108.420963450704
 30
0.0
 40
3.2
  1
DEPTH5
  7
China
100
AcDbText
  0
LINE
  5
4C2F
330
1F
100
AcDbEntity
  8
AM_5
100
AcDbLine
 10
1276.28033268412
 20
1107.563963450704
 30
0.0
 11
1263.62033268412
 21
1085.635963450704
 31
0.0
  0
CIRCLE
  5
4C30
330
1F
100
AcDbEntity
  8
0
  6
Continuous
 62
     7
100
AcDbCircle
 10
1262.37033268412
 20
1083.470963450704
 30
0.0
 40
2.5
  0
ARC
  5
4C31
330
1F
100
AcDbEntity
  8
0
  6
Continuous
 62
     7
100
AcDbCircle
 10
1262.37033268412
 20
1083.470963450704
 30
0.0
 40
2.5
100
AcDbArc
 50
262.7850000000011
 51
262.8980000000035
  0
POINT
  5
4C32
330
1F
100
AcDbEntity
  8
0
100
AcDbPoint
 10
1157.41133268412
 20
1165.796963450705
 30
0.0
  0
TEXT
  5
4C33
330
1F
100
AcDbEntity
  8
AM_5
100
AcDbText
 10
1193.159941257797
 20
1197.422322813492
 30
0.0
 40
3.2
  1
0.8
  7
China
100
AcDbText
  0
TEXT
  5
4C34
330
1F
100
AcDbEntity
  8
AM_5
100
AcDbText
 10
1183.559941257797
 20
1197.422322813492
 30
0.0
 40
3.2
  1
M5
  7
China
100
AcDbText
  0
LINE
  5
4C35
330
1F
100
AcDbEntity
  8
AM_5
100
AcDbLine
 10
1190.659941257797
 20
1197.949322813492
 30
0.0
 11
1192.459941257797
 21
1200.094322813493
 31
0.0
  0
LINE
  5
4C36
330
1F
100
AcDbEntity
  8
AM_5
100
AcDbLine
 10
1190.659941257797
 20
1200.094322813493
 30
0.0
 11
1192.459941257797
 21
1197.949322813492
 31
0.0
  0
TEXT
  5
4C37
330
1F
100
AcDbEntity
  8
AM_5
100
AcDbText
 10
1191.356697994822
 20
1228.802730487839
 30
0.0
 40
3.2
  1
0.8
  7
China
100
AcDbText
  0
LINE
  5
4C38
330
1F
100
AcDbEntity
  8
AM_5
100
AcDbLine
 10
1188.856697994822
 20
1229.330730487838
 30
0.0
 11
1190.655697994822
 21
1231.474730487839
 31
0.0
  0
LINE
  5
4C39
330
1F
100
AcDbEntity
  8
AM_5
100
AcDbLine
 10
1188.856697994822
 20
1231.474730487839
 30
0.0
 11
1190.656697994821
 21
1229.330730487838
 31
0.0
  0
TEXT
  5
4C3A
330
1F
100
AcDbEntity
  8
AM_5
100
AcDbText
 10
1181.756697994821
 20
1228.802730487839
 30
0.0
 40
3.2
  1
M5
  7
China
100
AcDbText
  0
LINE
  5
4C3B
330
1F
100
AcDbEntity
  8
AM_5
100
AcDbLine
 10
1321.577439278217
 20
1111.345963450705
 30
0.0
 11
1323.377439278217
 21
1109.200963450704
 31
0.0
  0
LINE
  5
4C3C
330
1F
100
AcDbEntity
  8
AM_5
100
AcDbLine
 10
1321.577439278217
 20
1109.200963450704
 30
0.0
 11
1323.377439278217
 21
1111.345963450705
 31
0.0
  0
TEXT
  5
4C3D
330
1F
100
AcDbEntity
  8
AM_5
100
AcDbText
 10
1324.077439278217
 20
1108.672963450704
 30
0.0
 40
3.2
  1
1DEPTH9
  7
China
100
AcDbText
  0
TEXT
  5
4C3E
330
1F
100
AcDbEntity
  8
AM_5
100
AcDbText
 10
1180.506884270556
 20
1191.027478797391
 30
0.0
 40
3.2
  1
(Finger closing port)
  7
China
100
AcDbText
  0
TEXT
  5
4C40
330
1F
100
AcDbEntity
  8
AM_5
100
AcDbText
 10
999.3769965441686
 20
1098.551467723189
 30
0.0
 40
3.2
  1
attachment)
  7
China
100
AcDbText
  0
TEXT
  5
4C41
330
1F
100
AcDbEntity
  8
AM_5
100
AcDbText
 10
996.993945486882
 20
1102.879375570388
 30
0.0
 40
3.2
  1
(Thread for mounting 
  7
China
100
AcDbText
  0
TEXT
  5
4C42
330
1F
100
AcDbEntity
  8
AM_5
100
AcDbText
 10
924.7104858506675
 20
1093.072556279041
 30
0.0
 40
3.2
  1
(Mounting hole)
  7
China
100
AcDbText
  0
TEXT
  5
4C43
330
1F
100
AcDbEntity
  8
AM_5
100
AcDbText
 10
1307.621521267128
 20
1097.504698404551
 30
0.0
 40
3.2
  1
(Mounting thread)
  7
China
100
AcDbText
  0
LINE
  5
4E27
330
1F
100
AcDbEntity
  8
AM_7
100
AcDbLine
 10
1219.41033268412
 20
1045.796963450704
 30
0.0
 11
1223.71033268412
 21
1045.796963450704
 31
0.0
1001
GENIUS_GENOREF_13
1005
4E2B
  0
LINE
  5
4E28
330
1F
100
AcDbEntity
  8
AM_7
100
AcDbLine
 10
1219.41033268412
 20
1045.796963450704
 30
0.0
 11
1219.41033268412
 21
1050.096963450704
 31
0.0
1001
GENIUS_GENOREF_13
1005
4E2B
  0
LINE
  5
4E29
330
1F
100
AcDbEntity
  8
AM_7
100
AcDbLine
 10
1219.41033268412
 20
1045.796963450704
 30
0.0
 11
1215.11033268412
 21
1045.796963450704
 31
0.0
1001
GENIUS_GENOREF_13
1005
4E2B
  0
LINE
  5
4E2A
330
1F
100
AcDbEntity
  8
AM_7
100
AcDbLine
 10
1219.41033268412
 20
1045.796963450704
 30
0.0
 11
1219.41033268412
 21
1041.496963450704
 31
0.0
1001
GENIUS_GENOREF_13
1005
4E2B
  0
POINT
  5
4E2B
330
1F
100
AcDbEntity
  8
0
 60
     1
100
AcDbPoint
 10
0.0
 20
0.0
 30
0.0
1001
GENIUS_GENOBJ-N-CRS_13
1002
{
1000
OWNER
1000
GEN
1002
}
1001
GENIUS_GENOENT_13
1002
{
1000
MYREF
1005
4E2B
1002
}
1002
{
1000
GRP
1005
0
1002
}
1001
GENIUS_GENODEF_13
1002
{
1000
HIER
1070
    10
1002
}
1002
{
1000
MANEDIT
1070
     0
1002
}
1002
{
1000
NOSEL
1070
     0
1002
}
1002
{
1000
BEHIND
1070
     0
1002
}
1002
{
1000
OTHER
1070
     0
1002
}
1002
{
1000
REACTOR
1002
}
1001
GENIUS_GENOLIS_13
1002
{
1000
ENT
1005
4E2A
1005
4E29
1005
4E28
1005
4E27
1002
}
  0
LINE
  5
4E39
330
1F
100
AcDbEntity
  8
AM_7
  6
AM_ISO08W050x2
100
AcDbLine
 10
1295.41033268412
 20
1045.795963450705
 30
0.0
 11
1299.41033268412
 21
1045.795963450705
 31
0.0
1001
GENIUS_GENOREF_13
1005
4E3D
  0
LINE
  5
4E3A
330
1F
100
AcDbEntity
  8
AM_7
  6
AM_ISO08W050x2
100
AcDbLine
 10
1295.41033268412
 20
1045.795963450705
 30
0.0
 11
1295.41033268412
 21
1049.795963450705
 31
0.0
1001
GENIUS_GENOREF_13
1005
4E3D
  0
LINE
  5
4E3B
330
1F
100
AcDbEntity
  8
AM_7
  6
AM_ISO08W050x2
100
AcDbLine
 10
1295.41033268412
 20
1045.795963450705
 30
0.0
 11
1291.41033268412
 21
1045.795963450705
 31
0.0
1001
GENIUS_GENOREF_13
1005
4E3D
  0
LINE
  5
4E3C
330
1F
100
AcDbEntity
  8
AM_7
  6
AM_ISO08W050x2
100
AcDbLine
 10
1295.41033268412
 20
1045.795963450705
 30
0.0
 11
1295.41033268412
 21
1041.795963450705
 31
0.0
1001
GENIUS_GENOREF_13
1005
4E3D
  0
POINT
  5
4E3D
330
1F
100
AcDbEntity
  8
0
 60
     1
100
AcDbPoint
 10
0.0
 20
0.0
 30
0.0
1001
GENIUS_GENOLIS_13
1002
{
1000
ENT
1005
4E3C
1005
4E3B
1005
4E3A
1005
4E39
1002
}
1001
GENIUS_GENOENT_13
1002
{
1000
MYREF
1005
4E3D
1002
}
1002
{
1000
GRP
1005
0
1002
}
1001
GENIUS_GENODEF_13
1002
{
1000
HIER
1070
    10
1002
}
1002
{
1000
MANEDIT
1070
     0
1002
}
1002
{
1000
NOSEL
1070
     0
1002
}
1002
{
1000
BEHIND
1070
     0
1002
}
1002
{
1000
OTHER
1070
     0
1002
}
1002
{
1000
REACTOR
1002
}
1001
GENIUS_GENOBJ-N-CRS_13
1002
{
1000
OWNER
1000
GEN
1002
}
  0
CIRCLE
  5
4E3E
330
1F
100
AcDbEntity
  8
0
  6
Continuous
 62
     7
100
AcDbCircle
 10
1276.41033268412
 20
1012.887998106896
 30
0.0
 40
3.299999999999999
  0
ARC
  5
4E3F
330
1F
100
AcDbEntity
  8
0
  6
Continuous
 62
     7
100
AcDbCircle
 10
1276.41033268412
 20
1012.887998106896
 30
0.0
 40
3.299999999999999
100
AcDbArc
 50
30.17300000000023
 51
30.28499999999864
  0
CIRCLE
  5
4E40
330
1F
100
AcDbEntity
  8
0
  6
Continuous
 62
     2
100
AcDbCircle
 10
1238.411198709524
 20
1078.706428794514
 30
0.0
 40
3.0
  0
CIRCLE
  5
4E41
330
1F
100
AcDbEntity
  8
0
  6
Continuous
 62
     7
100
AcDbCircle
 10
1238.411198709524
 20
1078.706428794514
 30
0.0
 40
2.458499999999999
  0
ARC
  5
4E42
330
1F
100
AcDbEntity
  8
0
  6
Continuous
 62
     2
100
AcDbCircle
 10
1238.411198709524
 20
1078.706428794514
 30
0.0
 40
3.0
100
AcDbArc
 50
30.17300000000023
 51
30.28499999999864
  0
LINE
  5
4E43
330
1F
100
AcDbEntity
  8
AM_7
100
AcDbLine
 10
1276.41033268412
 20
1012.887998106896
 30
0.0
 11
1274.26033268412
 21
1016.611907343169
 31
0.0
1001
GENIUS_GENOREF_13
1005
4E4C
  0
LINE
  5
4E44
330
1F
100
AcDbEntity
  8
AM_7
100
AcDbLine
 10
1276.41033268412
 20
1012.887998106896
 30
0.0
 11
1272.686423447847
 21
1010.737998106896
 31
0.0
1001
GENIUS_GENOREF_13
1005
4E4C
  0
LINE
  5
4E45
330
1F
100
AcDbEntity
  8
AM_7
100
AcDbLine
 10
1276.41033268412
 20
1012.887998106896
 30
0.0
 11
1278.56033268412
 21
1009.164088870623
 31
0.0
1001
GENIUS_GENOREF_13
1005
4E4C
  0
LINE
  5
4E46
330
1F
100
AcDbEntity
  8
AM_7
100
AcDbLine
 10
1276.41033268412
 20
1012.887998106896
 30
0.0
 11
1280.134241920393
 21
1015.037998106896
 31
0.0
1001
GENIUS_GENOREF_13
1005
4E4C
  0
LINE
  5
4E47
330
1F
100
AcDbEntity
  8
AM_7
  6
AM_ISO08W050x2
100
AcDbLine
 10
1238.411198709524
 20
1078.706428794514
 30
0.0
 11
1236.411198709524
 21
1082.170530409651
 31
0.0
1001
GENIUS_GENOREF_13
1005
4E4B
  0
LINE
  5
4E48
330
1F
100
AcDbEntity
  8
AM_7
  6
AM_ISO08W050x2
100
AcDbLine
 10
1238.411198709524
 20
1078.706428794514
 30
0.0
 11
1234.947097094386
 21
1076.706428794513
 31
0.0
1001
GENIUS_GENOREF_13
1005
4E4B
  0
LINE
  5
4E49
330
1F
100
AcDbEntity
  8
AM_7
  6
AM_ISO08W050x2
100
AcDbLine
 10
1238.411198709524
 20
1078.706428794514
 30
0.0
 11
1240.411198709524
 21
1075.242327179375
 31
0.0
1001
GENIUS_GENOREF_13
1005
4E4B
  0
LINE
  5
4E4A
330
1F
100
AcDbEntity
  8
AM_7
  6
AM_ISO08W050x2
100
AcDbLine
 10
1238.411198709524
 20
1078.706428794514
 30
0.0
 11
1241.875300324661
 21
1080.706428794513
 31
0.0
1001
GENIUS_GENOREF_13
1005
4E4B
  0
POINT
  5
4E4B
330
1F
100
AcDbEntity
  8
0
 60
     1
100
AcDbPoint
 10
2791.802236575116
 20
479.7461540905664
 30
0.0
1001
GENIUS_GENOLIS_13
1002
{
1000
ENT
1005
4E4A
1005
4E49
1005
4E48
1005
4E47
1002
}
1001
GENIUS_GENOENT_13
1002
{
1000
MYREF
1005
4E4B
1002
}
1002
{
1000
GRP
1005
0
1002
}
1001
GENIUS_GENODEF_13
1002
{
1000
HIER
1070
    10
1002
}
1002
{
1000
MANEDIT
1070
     0
1002
}
1002
{
1000
NOSEL
1070
     0
1002
}
1002
{
1000
BEHIND
1070
     0
1002
}
1002
{
1000
OTHER
1070
     0
1002
}
1002
{
1000
REACTOR
1002
}
1001
GENIUS_GENOBJ-N-CRS_13
1002
{
1000
OWNER
1000
GEN
1002
}
  0
POINT
  5
4E4C
330
1F
100
AcDbEntity
  8
0
 60
     1
100
AcDbPoint
 10
2791.802236575116
 20
479.7461540905664
 30
0.0
1001
GENIUS_GENOBJ-N-CRS_13
1002
{
1000
OWNER
1000
GEN
1002
}
1001
GENIUS_GENOENT_13
1002
{
1000
MYREF
1005
4E4C
1002
}
1002
{
1000
GRP
1005
0
1002
}
1001
GENIUS_GENODEF_13
1002
{
1000
HIER
1070
    10
1002
}
1002
{
1000
MANEDIT
1070
     0
1002
}
1002
{
1000
NOSEL
1070
     0
1002
}
1002
{
1000
BEHIND
1070
     0
1002
}
1002
{
1000
OTHER
1070
     0
1002
}
1002
{
1000
REACTOR
1002
}
1001
GENIUS_GENOLIS_13
1002
{
1000
ENT
1005
4E46
1005
4E45
1005
4E44
1005
4E43
1002
}
  0
CIRCLE
  5
4E4D
330
1F
100
AcDbEntity
  8
0
  6
Continuous
 62
     7
100
AcDbCircle
 10
1276.41033268412
 20
1078.705928794513
 30
0.0
 40
3.299999999999999
  0
ARC
  5
4E4E
330
1F
100
AcDbEntity
  8
0
  6
Continuous
 62
     7
100
AcDbCircle
 10
1276.41033268412
 20
1078.705928794513
 30
0.0
 40
3.299999999999999
100
AcDbArc
 50
150.1730000000003
 51
150.2849999999986
  0
CIRCLE
  5
4E4F
330
1F
100
AcDbEntity
  8
0
  6
Continuous
 62
     2
100
AcDbCircle
 10
1238.409466658716
 20
1012.888498106896
 30
0.0
 40
3.0
  0
CIRCLE
  5
4E50
330
1F
100
AcDbEntity
  8
0
  6
Continuous
 62
     7
100
AcDbCircle
 10
1238.409466658716
 20
1012.888498106896
 30
0.0
 40
2.458499999999999
  0
ARC
  5
4E51
330
1F
100
AcDbEntity
  8
0
  6
Continuous
 62
     2
100
AcDbCircle
 10
1238.409466658716
 20
1012.888498106896
 30
0.0
 40
3.0
100
AcDbArc
 50
150.1730000000003
 51
150.2849999999986
  0
LINE
  5
4E52
330
1F
100
AcDbEntity
  8
AM_7
100
AcDbLine
 10
1276.41033268412
 20
1078.705928794513
 30
0.0
 11
1274.26033268412
 21
1074.98201955824
 31
0.0
1001
GENIUS_GENOREF_13
1005
4E5B
  0
LINE
  5
4E53
330
1F
100
AcDbEntity
  8
AM_7
100
AcDbLine
 10
1276.41033268412
 20
1078.705928794513
 30
0.0
 11
1280.134241920393
 21
1076.555928794513
 31
0.0
1001
GENIUS_GENOREF_13
1005
4E5B
  0
LINE
  5
4E54
330
1F
100
AcDbEntity
  8
AM_7
100
AcDbLine
 10
1276.41033268412
 20
1078.705928794513
 30
0.0
 11
1278.56033268412
 21
1082.429838030786
 31
0.0
1001
GENIUS_GENOREF_13
1005
4E5B
  0
LINE
  5
4E55
330
1F
100
AcDbEntity
  8
AM_7
100
AcDbLine
 10
1276.41033268412
 20
1078.705928794513
 30
0.0
 11
1272.686423447847
 21
1080.855928794513
 31
0.0
1001
GENIUS_GENOREF_13
1005
4E5B
  0
LINE
  5
4E56
330
1F
100
AcDbEntity
  8
AM_7
  6
AM_ISO08W050x2
100
AcDbLine
 10
1238.409466658716
 20
1012.888498106895
 30
0.0
 11
1236.409466658716
 21
1009.424396491758
 31
0.0
1001
GENIUS_GENOREF_13
1005
4E5A
  0
LINE
  5
4E57
330
1F
100
AcDbEntity
  8
AM_7
  6
AM_ISO08W050x2
100
AcDbLine
 10
1238.409466658716
 20
1012.888498106895
 30
0.0
 11
1241.873568273854
 21
1010.888498106895
 31
0.0
1001
GENIUS_GENOREF_13
1005
4E5A
  0
LINE
  5
4E58
330
1F
100
AcDbEntity
  8
AM_7
  6
AM_ISO08W050x2
100
AcDbLine
 10
1238.409466658716
 20
1012.888498106895
 30
0.0
 11
1240.409466658716
 21
1016.352599722033
 31
0.0
1001
GENIUS_GENOREF_13
1005
4E5A
  0
LINE
  5
4E59
330
1F
100
AcDbEntity
  8
AM_7
  6
AM_ISO08W050x2
100
AcDbLine
 10
1238.409466658716
 20
1012.888498106895
 30
0.0
 11
1234.945365043578
 21
1014.888498106895
 31
0.0
1001
GENIUS_GENOREF_13
1005
4E5A
  0
POINT
  5
4E5A
330
1F
100
AcDbEntity
  8
0
 60
     1
100
AcDbPoint
 10
980.4287614772444
 20
2657.644736261547
 30
0.0
1001
GENIUS_GENOLIS_13
1002
{
1000
ENT
1005
4E59
1005
4E58
1005
4E57
1005
4E56
1002
}
1001
GENIUS_GENOENT_13
1002
{
1000
MYREF
1005
4E5A
1002
}
1002
{
1000
GRP
1005
0
1002
}
1001
GENIUS_GENODEF_13
1002
{
1000
HIER
1070
    10
1002
}
1002
{
1000
MANEDIT
1070
     0
1002
}
1002
{
1000
NOSEL
1070
     0
1002
}
1002
{
1000
BEHIND
1070
     0
1002
}
1002
{
1000
OTHER
1070
     0
1002
}
1002
{
1000
REACTOR
1002
}
1001
GENIUS_GENOBJ-N-CRS_13
1002
{
1000
OWNER
1000
GEN
1002
}
  0
POINT
  5
4E5B
330
1F
100
AcDbEntity
  8
0
 60
     1
100
AcDbPoint
 10
980.4287614772444
 20
2657.644736261547
 30
0.0
1001
GENIUS_GENOBJ-N-CRS_13
1002
{
1000
OWNER
1000
GEN
1002
}
1001
GENIUS_GENOENT_13
1002
{
1000
MYREF
1005
4E5B
1002
}
1002
{
1000
GRP
1005
0
1002
}
1001
GENIUS_GENODEF_13
1002
{
1000
HIER
1070
    10
1002
}
1002
{
1000
MANEDIT
1070
     0
1002
}
1002
{
1000
NOSEL
1070
     0
1002
}
1002
{
1000
BEHIND
1070
     0
1002
}
1002
{
1000
OTHER
1070
     0
1002
}
1002
{
1000
REACTOR
1002
}
1001
GENIUS_GENOLIS_13
1002
{
1000
ENT
1005
4E55
1005
4E54
1005
4E53
1005
4E52
1002
}
  0
LINE
  5
4E69
330
1F
100
AcDbEntity
  8
AM_7
100
AcDbLine
 10
1257.41033268412
 20
1045.796963450704
 30
0.0
 11
1309.410332693924
 21
1045.796963450704
 31
0.0
1001
GENIUS_GENOREF_13
1005
4E6D
  0
LINE
  5
4E6A
330
1F
100
AcDbEntity
  8
AM_7
100
AcDbLine
 10
1257.41033268412
 20
1045.796963450704
 30
0.0
 11
1257.41033268412
 21
1097.796963460508
 31
0.0
1001
GENIUS_GENOREF_13
1005
4E6D
  0
LINE
  5
4E6B
330
1F
100
AcDbEntity
  8
AM_7
100
AcDbLine
 10
1257.41033268412
 20
1045.796963450704
 30
0.0
 11
1205.410332674316
 21
1045.796963450704
 31
0.0
1001
GENIUS_GENOREF_13
1005
4E6D
  0
LINE
  5
4E6C
330
1F
100
AcDbEntity
  8
AM_7
100
AcDbLine
 10
1257.41033268412
 20
1045.796963450704
 30
0.0
 11
1257.41033268412
 21
993.7969634409007
 31
0.0
1001
GENIUS_GENOREF_13
1005
4E6D
  0
POINT
  5
4E6D
330
1F
100
AcDbEntity
  8
0
 60
     1
100
AcDbPoint
 10
0.0
 20
0.0
 30
0.0
1001
GENIUS_GENOBJ-N-CRS_13
1002
{
1000
OWNER
1000
GEN
1002
}
1001
GENIUS_GENOLIS_13
1002
{
1000
ENT
1005
4E6C
1005
4E6B
1005
4E6A
1005
4E69
1002
}
1001
GENIUS_GENOENT_13
1002
{
1000
MYREF
1005
4E6D
1002
}
1002
{
1000
GRP
1005
0
1002
}
1001
GENIUS_GENODEF_13
1002
{
1000
HIER
1070
    10
1002
}
1002
{
1000
MANEDIT
1070
     0
1002
}
1002
{
1000
NOSEL
1070
     0
1002
}
1002
{
1000
BEHIND
1070
     0
1002
}
1002
{
1000
OTHER
1070
     0
1002
}
1002
{
1000
REACTOR
1002
}
  0
TEXT
  5
4F66
330
1F
100
AcDbEntity
  8
AM_5
100
AcDbText
 10
1180.703060906071
 20
1222.193006673644
 30
0.0
 40
3.2
  1
(Finger opening port)
  7
China
100
AcDbText
  0
ENDSEC
  0
SECTION
  2
OBJECTS
  0
DICTIONARY
  5
C
330
0
100
AcDbDictionary
281
     1
  3
ACAD_COLOR
350
8FD
  3
ACAD_GROUP
350
D
  3
ACAD_LAYOUT
350
1A
  3
ACAD_MATERIAL
350
8FC
  3
ACAD_MLINESTYLE
350
17
  3
ACAD_PLOTSETTINGS
350
19
  3
ACAD_PLOTSTYLENAME
350
E
  3
ACAD_TABLESTYLE
350
8FE
  3
ACDBHEADERROUNDTRIPXREC
350
51FD
  3
AcDbVariableDictionary
350
82
  3
AcmDictionary
350
45
  3
AMG
350
2B
  3
AMGSNAPSETTINGS
350
2026
  3
DWGPROPS
350
51FC
  0
DICTIONARY
  5
E05
330
2
100
AcDbDictionary
280
     1
281
     1
  3
ACAD_LAYERFILTERS
360
E57
  3
ACAD_LAYERSTATES
360
E80
  3
ACLYDICTIONARY
360
E56
  3
AMLAYER_GROUPCOLORS
360
1991
  0
DICTIONARY
  5
7D
330
1F
100
AcDbDictionary
280
     1
281
     1
  3
ACAD_SORTENTS
360
19C4
  0
DICTIONARY
  5
8FD
102
{ACAD_REACTORS
330
C
102
}
330
C
100
AcDbDictionary
281
     1
  0
DICTIONARY
  5
D
102
{ACAD_REACTORS
330
C
102
}
330
C
100
AcDbDictionary
281
     1
  0
DICTIONARY
  5
1A
102
{ACAD_REACTORS
330
C
102
}
330
C
100
AcDbDictionary
281
     1
  3
Layout1
350
1E
  3
Layout2
350
26
  3
Model
350
22
  0
DICTIONARY
  5
8FC
102
{ACAD_REACTORS
330
C
102
}
330
C
100
AcDbDictionary
281
     1
  0
DICTIONARY
  5
17
102
{ACAD_REACTORS
330
C
102
}
330
C
100
AcDbDictionary
281
     1
  3
Standard
350
18
  0
DICTIONARY
  5
19
102
{ACAD_REACTORS
330
C
102
}
330
C
100
AcDbDictionary
281
     1
  0
ACDBDICTIONARYWDFLT
  5
E
102
{ACAD_REACTORS
330
C
102
}
330
C
100
AcDbDictionary
281
     1
  3
Normal
350
F
100
AcDbDictionaryWithDefault
340
F
  0
DICTIONARY
  5
8FE
102
{ACAD_REACTORS
330
C
102
}
330
C
100
AcDbDictionary
281
     1
  3
Standard
350
8FF
  0
DICTIONARY
  5
51FD
102
{ACAD_REACTORS
330
C
102
}
330
C
100
AcDbDictionary
281
     1
  0
DICTIONARY
  5
82
102
{ACAD_REACTORS
330
C
102
}
330
C
100
AcDbDictionary
281
     1
  3
CTABLESTYLE
350
972
  3
DIMASSOC
350
85
  3
HIDETEXT
350
84
  3
INDEXCTL
350
83
  3
PROJECTNAME
350
973
  0
DICTIONARY
  5
45
102
{ACAD_REACTORS
330
C
102
}
330
C
100
AcDbDictionary
281
     1
  3
AcmStdDictionary
350
4A
  3
AMDTSECTSYM_ARROWCOLOR
350
90B
  0
DICTIONARY
  5
2B
102
{ACAD_REACTORS
330
C
102
}
330
C
100
AcDbDictionary
281
     1
  0
DICTIONARY
  5
2026
102
{ACAD_REACTORS
330
C
102
}
330
C
100
AcDbDictionary
281
     1
  0
XRECORD
  5
51FC
102
{ACAD_REACTORS
330
C
102
}
330
C
100
AcDbXrecord
280
     1
  1
DWGPROPS COOKIE
  2

  3

  4

  6

  7

  8

  9

300
AmdtFileType=84
301
=
302
=
303
=
304
=
305
=
306
=
307
=
308
=
309
=
 40
0.4541389120370371
 41
2453021.369367211
 42
2453805.583967547
  1

 90
        1
  0
DICTIONARY
  5
E57
102
{ACAD_REACTORS
330
E05
102
}
330
E05
100
AcDbDictionary
281
     1
  0
DICTIONARY
  5
E80
102
{ACAD_REACTORS
330
E05
102
}
330
E05
100
AcDbDictionary
281
     1
  0
DICTIONARY
  5
E56
102
{ACAD_REACTORS
330
E05
102
}
330
E05
100
AcDbDictionary
281
     1
1001
ACAD
1000
<All
  0
DICTIONARY
  5
1991
102
{ACAD_REACTORS
330
E05
102
}
330
E05
100
AcDbDictionary
280
     1
281
     1
  0
SORTENTSTABLE
  5
19C4
102
{ACAD_REACTORS
330
7D
102
}
330
7D
100
AcDbSortentsTable
330
1F
331
AE3
  5
AE3
  0
LAYOUT
  5
1E
102
{ACAD_XDICTIONARY
360
51FE
102
}
102
{ACAD_REACTORS
330
1A
102
}
330
1A
100
AcDbPlotSettings
  1

  2
自動 RD 上的 Epson Stylus Photo 750 單色
  4

  6

 40
0.0
 41
0.0
 42
0.0
 43
0.0
 44
0.0
 45
0.0
 46
0.0
 47
0.0
 48
0.0
 49
0.0
140
0.0
141
0.0
142
1.0
143
1.0
 70
   688
 72
     0
 73
     0
 74
     5
  7
彩色出圖.ctb
 75
    16
147
1.0
148
0.0
149
0.0
100
AcDbLayout
  1
Layout1
 70
     1
 71
     1
 10
0.0
 20
0.0
 11
420.0
 21
297.0
 12
0.0
 22
0.0
 32
0.0
 14
1.000000000000000E+20
 24
1.000000000000000E+20
 34
1.000000000000000E+20
 15
-1.000000000000000E+20
 25
-1.000000000000000E+20
 35
-1.000000000000000E+20
146
0.0
 13
0.0
 23
0.0
 33
0.0
 16
1.0
 26
0.0
 36
0.0
 17
0.0
 27
1.0
 37
0.0
 76
     0
330
1B
  0
LAYOUT
  5
26
102
{ACAD_XDICTIONARY
360
5202
102
}
102
{ACAD_REACTORS
330
1A
102
}
330
1A
100
AcDbPlotSettings
  1

  2
自動 RD 上的 Epson Stylus Photo 750 單色
  4

  6

 40
0.0
 41
0.0
 42
0.0
 43
0.0
 44
0.0
 45
0.0
 46
0.0
 47
0.0
 48
0.0
 49
0.0
140
0.0
141
0.0
142
1.0
143
1.0
 70
   688
 72
     0
 73
     0
 74
     5
  7
彩色出圖.ctb
 75
    16
147
1.0
148
0.0
149
0.0
100
AcDbLayout
  1
Layout2
 70
     1
 71
     2
 10
0.0
 20
0.0
 11
12.0
 21
9.0
 12
0.0
 22
0.0
 32
0.0
 14
0.0
 24
0.0
 34
0.0
 15
0.0
 25
0.0
 35
0.0
146
0.0
 13
0.0
 23
0.0
 33
0.0
 16
1.0
 26
0.0
 36
0.0
 17
0.0
 27
1.0
 37
0.0
 76
     0
330
23
  0
LAYOUT
  5
22
102
{ACAD_XDICTIONARY
360
5200
102
}
102
{ACAD_REACTORS
330
1A
102
}
330
1A
100
AcDbPlotSettings
  1

  2
自動 RD 上的 Epson Stylus Photo 750 單色
  4
A4
  6

 40
3.757083177566528
 41
14.7637300491333
 42
3.757080078125
 43
3.757080078125
 44
209.9733276367187
 45
296.9683227539062
 46
7.54
 47
0.0
 48
0.0
 49
0.0
140
0.0
141
0.0
142
1.0
143
1.817317462545654
 70
 11956
 72
     1
 73
     0
 74
     1
  7
彩色出圖.ctb
 75
     0
147
0.5502615919395967
148
-125.5654918467224
149
222.8859553785132
100
AcDbLayout
  1
Model
 70
     1
 71
     0
 10
0.0
 20
0.0
 11
12.0
 21
9.0
 12
0.0
 22
0.0
 32
0.0
 14
0.0
 24
0.0
 34
0.0
 15
0.0
 25
0.0
 35
0.0
146
0.0
 13
0.0
 23
0.0
 33
0.0
 16
1.0
 26
0.0
 36
0.0
 17
0.0
 27
1.0
 37
0.0
 76
     0
330
1F
  0
MLINESTYLE
  5
18
102
{ACAD_REACTORS
330
17
102
}
330
17
100
AcDbMlineStyle
  2
STANDARD
 70
     0
  3

 62
   256
 51
90.0
 52
90.0
 71
     2
 49
0.5
 62
   256
  6
BYLAYER
 49
-0.5
 62
   256
  6
BYLAYER
  0
ACDBPLACEHOLDER
  5
F
102
{ACAD_REACTORS
330
E
102
}
330
E
  0
TABLESTYLE
  5
8FF
102
{ACAD_REACTORS
330
8FE
102
}
330
8FE
100
AcDbTableStyle
  3
Standard
 70
     0
 71
     0
 40
1.5
 41
1.5
280
     0
281
     0
  7
STANDARD
140
4.5
170
     2
 62
     0
 63
     7
283
     0
274
    -2
284
     1
 64
     0
275
    -2
285
     1
 65
     0
276
    -2
286
     1
 66
     0
277
    -2
287
     1
 67
     0
278
    -2
288
     1
 68
     0
279
    -2
289
     1
 69
     0
  7
STANDARD
140
6.0
170
     5
 62
     0
 63
     7
283
     0
274
    -2
284
     1
 64
     0
275
    -2
285
     1
 65
     0
276
    -2
286
     1
 66
     0
277
    -2
287
     1
 67
     0
278
    -2
288
     1
 68
     0
279
    -2
289
     1
 69
     0
  7
STANDARD
140
4.5
170
     5
 62
     0
 63
     7
283
     0
274
    -2
284
     1
 64
     0
275
    -2
285
     1
 65
     0
276
    -2
286
     1
 66
     0
277
    -2
287
     1
 67
     0
278
    -2
288
     1
 68
     0
279
    -2
289
     1
 69
     0
  0
DICTIONARYVAR
  5
972
102
{ACAD_REACTORS
330
82
102
}
330
82
100
DictionaryVariables
280
     0
  1
STANDARD
  0
DICTIONARYVAR
  5
85
102
{ACAD_REACTORS
330
82
102
}
330
82
100
DictionaryVariables
280
     0
  1
2
  0
DICTIONARYVAR
  5
84
102
{ACAD_REACTORS
330
82
102
}
330
82
100
DictionaryVariables
280
     0
  1
1
  0
DICTIONARYVAR
  5
83
102
{ACAD_REACTORS
330
82
102
}
330
82
100
DictionaryVariables
280
     0
  1
0
  0
DICTIONARYVAR
  5
973
102
{ACAD_REACTORS
330
82
102
}
330
82
100
DictionaryVariables
280
     0
  1

  0
DICTIONARY
  5
4A
102
{ACAD_REACTORS
330
45
102
}
330
45
100
AcDbDictionary
281
     1
  0
XRECORD
  5
90B
102
{ACAD_REACTORS
330
45
102
}
330
45
100
AcDbXrecord
280
     1
 90
-1023410169
  0
DICTIONARY
  5
51FE
330
1E
100
AcDbDictionary
280
     1
281
     1
  3
ACAD_XREC_ROUNDTRIP
360
51FF
  0
DICTIONARY
  5
5202
330
26
100
AcDbDictionary
280
     1
281
     1
  3
ACAD_XREC_ROUNDTRIP
360
5203
  0
DICTIONARY
  5
5200
330
22
100
AcDbDictionary
280
     1
281
     1
  3
ACAD_XREC_ROUNDTRIP
360
5201
  0
XRECORD
  5
51FF
102
{ACAD_REACTORS
330
51FE
102
}
330
51FE
100
AcDbXrecord
280
     1
102
SHADEPLOT
 70
     0
102
SHADEPLOTRESLEVEL
 70
     2
102
SHADEPLOTCUSTOMDPI
 70
   300
  0
XRECORD
  5
5203
102
{ACAD_REACTORS
330
5202
102
}
330
5202
100
AcDbXrecord
280
     1
102
SHADEPLOT
 70
     0
102
SHADEPLOTRESLEVEL
 70
     2
102
SHADEPLOTCUSTOMDPI
 70
   300
  0
XRECORD
  5
5201
102
{ACAD_REACTORS
330
5200
102
}
330
5200
100
AcDbXrecord
280
     1
102
SHADEPLOT
 70
     0
102
SHADEPLOTRESLEVEL
 70
     2
102
SHADEPLOTCUSTOMDPI
 70
   300
  0
ENDSEC
  0
EOF
