  0
SECTION
  2
HEADER
  9
$ACADVER
  1
AC1015
  9
$ACADMAINTVER
 70
    20
  9
$DWGCODEPAGE
  3
ANSI_950
  9
$INSBASE
 10
0.0
 20
0.0
 30
0.0
  9
$EXTMIN
 10
909.2805009497251
 20
2225.749062205679
 30
-0.0041665221923495
  9
$EXTMAX
 10
1678.81227861744
 20
2797.57670476322
 30
418.5430908162329
  9
$LIMMIN
 10
0.0
 20
0.0
  9
$LIMMAX
 10
420.0
 20
297.0
  9
$ORTHOMODE
 70
     1
  9
$REGENMODE
 70
     1
  9
$FILLMODE
 70
     1
  9
$QTEXTMODE
 70
     0
  9
$MIRRTEXT
 70
     1
  9
$LTSCALE
 40
5.0
  9
$ATTMODE
 70
     1
  9
$TEXTSIZE
 40
3.0
  9
$TRACEWID
 40
1.0
  9
$TEXTSTYLE
  7
CHINESET
  9
$CLAYER
  8
0
  9
$CELTYPE
  6
ByLayer
  9
$CECOLOR
 62
   256
  9
$CELTSCALE
 40
1.0
  9
$DISPSILH
 70
     0
  9
$DIMSCALE
 40
1.0
  9
$DIMASZ
 40
4.5
  9
$DIMEXO
 40
1.0
  9
$DIMDLI
 40
10.0
  9
$DIMRND
 40
0.0
  9
$DIMDLE
 40
0.0
  9
$DIMEXE
 40
1.5
  9
$DIMTP
 40
0.1
  9
$DIMTM
 40
0.1
  9
$DIMTXT
 40
5.0
  9
$DIMCEN
 40
3.0
  9
$DIMTSZ
 40
0.0
  9
$DIMTOL
 70
     0
  9
$DIMLIM
 70
     0
  9
$DIMTIH
 70
     0
  9
$DIMTOH
 70
     0
  9
$DIMSE1
 70
     0
  9
$DIMSE2
 70
     0
  9
$DIMTAD
 70
     1
  9
$DIMZIN
 70
     8
  9
$DIMBLK
  1

  9
$DIMASO
 70
     1
  9
$DIMSHO
 70
     1
  9
$DIMPOST
  1

  9
$DIMAPOST
  1
"
  9
$DIMALT
 70
     0
  9
$DIMALTD
 70
     2
  9
$DIMALTF
 40
0.0393701
  9
$DIMLFAC
 40
1.0
  9
$DIMTOFL
 70
     1
  9
$DIMTVP
 40
0.0
  9
$DIMTIX
 70
     0
  9
$DIMSOXD
 70
     0
  9
$DIMSAH
 70
     0
  9
$DIMBLK1
  1

  9
$DIMBLK2
  1

  9
$DIMSTYLE
  2
AM_ISO
  9
$DIMCLRD
 70
   256
  9
$DIMCLRE
 70
   256
  9
$DIMCLRT
 70
   256
  9
$DIMTFAC
 40
0.71
  9
$DIMGAP
 40
1.5
  9
$DIMJUST
 70
     0
  9
$DIMSD1
 70
     0
  9
$DIMSD2
 70
     0
  9
$DIMTOLJ
 70
     0
  9
$DIMTZIN
 70
     8
  9
$DIMALTZ
 70
     0
  9
$DIMALTTZ
 70
     0
  9
$DIMUPT
 70
     0
  9
$DIMDEC
 70
     2
  9
$DIMTDEC
 70
     8
  9
$DIMALTU
 70
     2
  9
$DIMALTTD
 70
     2
  9
$DIMTXSTY
  7
STANDARD
  9
$DIMAUNIT
 70
     0
  9
$DIMADEC
 70
     0
  9
$DIMALTRND
 40
0.0
  9
$DIMAZIN
 70
     2
  9
$DIMDSEP
 70
    46
  9
$DIMATFIT
 70
     3
  9
$DIMFRAC
 70
     0
  9
$DIMLDRBLK
  1

  9
$DIMLUNIT
 70
     2
  9
$DIMLWD
 70
    -1
  9
$DIMLWE
 70
    -1
  9
$DIMTMOVE
 70
     0
  9
$LUNITS
 70
     2
  9
$LUPREC
 70
     2
  9
$SKETCHINC
 40
1.0
  9
$FILLETRAD
 40
2.5
  9
$AUNITS
 70
     0
  9
$AUPREC
 70
     0
  9
$MENU
  1
.
  9
$ELEVATION
 40
0.0
  9
$PELEVATION
 40
0.0
  9
$THICKNESS
 40
0.0
  9
$LIMCHECK
 70
     0
  9
$CHAMFERA
 40
2.5
  9
$CHAMFERB
 40
2.5
  9
$CHAMFERC
 40
20.0
  9
$CHAMFERD
 40
0.0
  9
$SKPOLY
 70
     0
  9
$TDCREATE
 40
2453021.369367211
  9
$TDUCREATE
 40
2453021.036033877
  9
$TDUPDATE
 40
2454721.475352998
  9
$TDUUPDATE
 40
2454721.142019665
  9
$TDINDWG
 40
0.5542764583
  9
$TDUSRTIMER
 40
0.5542761111
  9
$USRTIMER
 70
     1
  9
$ANGBASE
 50
0.0
  9
$ANGDIR
 70
     0
  9
$PDMODE
 70
     0
  9
$PDSIZE
 40
0.0
  9
$PLINEWID
 40
0.0
  9
$SPLFRAME
 70
     0
  9
$SPLINETYPE
 70
     6
  9
$SPLINESEGS
 70
     8
  9
$HANDSEED
  5
70B3
  9
$SURFTAB1
 70
     6
  9
$SURFTAB2
 70
     6
  9
$SURFTYPE
 70
     6
  9
$SURFU
 70
     6
  9
$SURFV
 70
     6
  9
$UCSBASE
  2

  9
$UCSNAME
  2

  9
$UCSORG
 10
0.0
 20
0.0
 30
0.0
  9
$UCSXDIR
 10
1.0
 20
0.0
 30
0.0
  9
$UCSYDIR
 10
0.0
 20
1.0
 30
0.0
  9
$UCSORTHOREF
  2

  9
$UCSORTHOVIEW
 70
     0
  9
$UCSORGTOP
 10
0.0
 20
0.0
 30
0.0
  9
$UCSORGBOTTOM
 10
0.0
 20
0.0
 30
0.0
  9
$UCSORGLEFT
 10
0.0
 20
0.0
 30
0.0
  9
$UCSORGRIGHT
 10
0.0
 20
0.0
 30
0.0
  9
$UCSORGFRONT
 10
0.0
 20
0.0
 30
0.0
  9
$UCSORGBACK
 10
0.0
 20
0.0
 30
0.0
  9
$PUCSBASE
  2

  9
$PUCSNAME
  2

  9
$PUCSORG
 10
0.0
 20
0.0
 30
0.0
  9
$PUCSXDIR
 10
1.0
 20
0.0
 30
0.0
  9
$PUCSYDIR
 10
0.0
 20
1.0
 30
0.0
  9
$PUCSORTHOREF
  2

  9
$PUCSORTHOVIEW
 70
     0
  9
$PUCSORGTOP
 10
0.0
 20
0.0
 30
0.0
  9
$PUCSORGBOTTOM
 10
0.0
 20
0.0
 30
0.0
  9
$PUCSORGLEFT
 10
0.0
 20
0.0
 30
0.0
  9
$PUCSORGRIGHT
 10
0.0
 20
0.0
 30
0.0
  9
$PUCSORGFRONT
 10
0.0
 20
0.0
 30
0.0
  9
$PUCSORGBACK
 10
0.0
 20
0.0
 30
0.0
  9
$USERI1
 70
     0
  9
$USERI2
 70
     0
  9
$USERI3
 70
     0
  9
$USERI4
 70
     0
  9
$USERI5
 70
     0
  9
$USERR1
 40
0.0
  9
$USERR2
 40
0.0
  9
$USERR3
 40
0.0
  9
$USERR4
 40
0.0
  9
$USERR5
 40
0.0
  9
$WORLDVIEW
 70
     1
  9
$SHADEDGE
 70
     3
  9
$SHADEDIF
 70
    70
  9
$TILEMODE
 70
     1
  9
$MAXACTVP
 70
    64
  9
$PINSBASE
 10
0.0
 20
0.0
 30
0.0
  9
$PLIMCHECK
 70
     0
  9
$PEXTMIN
 10
1.000000000000000E+20
 20
1.000000000000000E+20
 30
1.000000000000000E+20
  9
$PEXTMAX
 10
-1.000000000000000E+20
 20
-1.000000000000000E+20
 30
-1.000000000000000E+20
  9
$PLIMMIN
 10
0.0
 20
0.0
  9
$PLIMMAX
 10
420.0
 20
297.0
  9
$UNITMODE
 70
     0
  9
$VISRETAIN
 70
     1
  9
$PLINEGEN
 70
     0
  9
$PSLTSCALE
 70
     1
  9
$TREEDEPTH
 70
  3020
  9
$CMLSTYLE
  2
Standard
  9
$CMLJUST
 70
     0
  9
$CMLSCALE
 40
20.0
  9
$PROXYGRAPHICS
 70
     1
  9
$MEASUREMENT
 70
     1
  9
$CELWEIGHT
370
    -1
  9
$ENDCAPS
280
     0
  9
$JOINSTYLE
280
     0
  9
$LWDISPLAY
290
     0
  9
$INSUNITS
 70
     4
  9
$HYPERLINKBASE
  1

  9
$STYLESHEET
  1
彩色出圖.ctb
  9
$XEDIT
290
     1
  9
$CEPSNTYPE
380
     0
  9
$PSTYLEMODE
290
     1
  9
$FINGERPRINTGUID
  2
{6C02722A-18D3-491A-897A-B8025DE410A9}
  9
$VERSIONGUID
  2
{8998A87D-CB03-436E-84A8-4037D1B64238}
  9
$EXTNAMES
290
     1
  9
$PSVPSCALE
 40
0.0
  9
$OLESTARTUP
290
     0
  0
ENDSEC
  0
SECTION
  2
CLASSES
  0
CLASS
  1
ACDBDICTIONARYWDFLT
  2
AcDbDictionaryWithDefault
  3
ObjectDBX Classes
 90
        0
280
     0
281
     0
  0
CLASS
  1
ACDBPLACEHOLDER
  2
AcDbPlaceHolder
  3
ObjectDBX Classes
 90
        0
280
     0
281
     0
  0
CLASS
  1
LAYOUT
  2
AcDbLayout
  3
ObjectDBX Classes
 90
        0
280
     0
281
     0
  0
CLASS
  1
AMGSETTINGSOBJ
  2
AmgSettingsObj
  3
"AcadM|Product Description: AutoCAD Mechanical 2000|Company: Autodesk"
 90
        0
280
     0
281
     0
  0
CLASS
  1
ACME_DOCUMENT
  2
AcMeDbDoc
  3
AcMeServices
 90
        0
280
     0
281
     0
  0
CLASS
  1
ACMESCOPE
  2
AcMeScope
  3
AcMeServices
 90
        0
280
     0
281
     0
  0
CLASS
  1
ACMECOMMANDHISTORY
  2
AcMeCommandHistory
  3
AcMeServices
 90
        0
280
     0
281
     0
  0
CLASS
  1
ACIMSYSVARMAN
  2
AcImSysVarManager
  3
AcMeServices
 90
        0
280
     0
281
     0
  0
CLASS
  1
ACIMREALSYSVAR
  2
AcImRealSysVar
  3
AcMeServices
 90
        0
280
     0
281
     0
  0
CLASS
  1
ACIMINTSYSVAR
  2
AcImIntSysVar
  3
AcMeServices
 90
        0
280
     0
281
     0
  0
CLASS
  1
ACMEDRAWINGMAN
  2
AcMeDrawingMan
  3
AcMeServices
 90
        0
280
     0
281
     0
  0
CLASS
  1
ACMEVIEW
  2
AcMeView
  3
AcMeServices
 90
        0
280
     0
281
     0
  0
CLASS
  1
ACDBENTITYCACHE
  2
AcMeEntityCache
  3
AcMeServices
 90
        0
280
     0
281
     0
  0
CLASS
  1
GSMANAGER
  2
AcMeGSManager
  3
AcMeServices
 90
        0
280
     0
281
     0
  0
CLASS
  1
AMDTINTERNALREACTOR
  2
AmdtInternalReactor
  3
AcMeServices
 90
        0
280
     0
281
     0
  0
CLASS
  1
ACMESTATEMGR
  2
AcMeStateMgr
  3
AcMeServices
 90
        0
280
     0
281
     0
  0
CLASS
  1
ACGREFMASTER
  2
AcGrefMaster
  3
AcAttribServices
 90
        0
280
     0
281
     0
  0
CLASS
  1
ACME_DATABASE
  2
AcMeDbDatabase
  3
AcMeServices
 90
        0
280
     0
281
     0
  0
CLASS
  1
ACRFINSADJUSTERMGR
  2
AcRfInsAdjusterMgr
  3
AcMeServices
 90
        0
280
     0
281
     0
  0
CLASS
  1
ACGREFACADMASTER
  2
AcGrefacadMaster
  3
AcGrefServices
 90
        0
280
     0
281
     0
  0
CLASS
  1
AMIMASTER
  2
AmiMaster
  3
AmiServices
 90
        0
280
     0
281
     0
  0
CLASS
  1
ACMDATADICTIONARY
  2
AcmDataDictionary
  3
"AcmSymBB|Product Description: AutoCAD Mechanical 2004 DX|Company: Autodesk"
 90
        0
280
     0
281
     0
  0
CLASS
  1
ACMDATAENTRYBLOCK
  2
AcmDataEntryBlock
  3
"AcmSymBB|Product Description: AutoCAD Mechanical 2004 DX|Company: Autodesk"
 90
    32768
280
     0
281
     0
  0
CLASS
  1
ACIMSTRSYSVAR
  2
AcImStrSysVar
  3
AcMeServices
 90
        0
280
     0
281
     0
  0
CLASS
  1
ACMSTANDARDISO
  2
AcmStandardISO
  3
"Amdt_StdImp|Product Description: AutoCAD Mechanical 2004 DX|Company: Autodesk"
 90
        0
280
     0
281
     0
  0
CLASS
  1
AMGOBJPROPCFG
  2
AmgObjPropCfg
  3
"AmgLay|Product Description: AutoCAD Mechanical 2000|Company: Autodesk"
 90
        1
280
     0
281
     0
  0
CLASS
  1
AMDTEDGESTANDARDISO
  2
AmdtEdgeStdISO
  3
"Amdt_StdImp|Product Description: AutoCAD Mechanical 2004 DX|Company: Autodesk"
 90
    32768
280
     0
281
     0
  0
CLASS
  1
ACMSURFSTANDARDISO
  2
AcmSurfTextStdISO
  3
"Amdt_StdImp|Product Description: AutoCAD Mechanical 2004 DX|Company: Autodesk"
 90
        0
280
     0
281
     0
  0
CLASS
  1
ACMFCFSTANDARDISO
  2
AcmFCFStdISO
  3
"Amdt_StdImp|Product Description: AutoCAD Mechanical 2004 DX|Company: Autodesk"
 90
        0
280
     0
281
     0
  0
CLASS
  1
ACMWELDSTANDARDISO
  2
AcmWeldingStdISO
  3
"Amdt_StdImp|Product Description: AutoCAD Mechanical 2004 DX|Company: Autodesk"
 90
        0
280
     0
281
     0
  0
CLASS
  1
ACMIDSTANDARDISO
  2
AcmIdStdISO
  3
"Amdt_StdImp|Product Description: AutoCAD Mechanical 2004 DX|Company: Autodesk"
 90
        0
280
     0
281
     0
  0
CLASS
  1
ACMDATUMSTANDARDISO
  2
AcmDatumStdISO
  3
"Amdt_StdImp|Product Description: AutoCAD Mechanical 2004 DX|Company: Autodesk"
 90
        0
280
     0
281
     0
  0
CLASS
  1
ACMBOMSTANDARDISO
  2
AcmBOMStdISO
  3
"Amdt_StdImp|Product Description: AutoCAD Mechanical 2004 DX|Company: Autodesk"
 90
        0
280
     0
281
     0
  0
CLASS
  1
ACMDETAILSTANDARDISO
  2
AmdtDetailSymStdISO
  3
"Amdt_StdImp|Product Description: AutoCAD Mechanical 2004 DX|Company: Autodesk"
 90
        0
280
     0
281
     0
  0
CLASS
  1
ACMSECTIONSTANDARDISO
  2
AmdtSectionSymStdISO
  3
"Amdt_StdImp|Product Description: AutoCAD Mechanical 2004 DX|Company: Autodesk"
 90
        0
280
     0
281
     0
  0
CLASS
  1
ACMCENTERLINESTANDARDISO
  2
AmdtCenterLineStdISO
  3
"Amdt_StdImp|Product Description: AutoCAD Mechanical 2004 DX|Company: Autodesk"
 90
        0
280
     0
281
     0
  0
CLASS
  1
ACMNOTESTANDARDISO
  2
AmdtNoteStdISO
  3
"Amdt_StdImp|Product Description: AutoCAD Mechanical 2004 DX|Company: Autodesk"
 90
        0
280
     0
281
     0
  0
CLASS
  1
ACAMGLAYSTD
  2
AcAmgLayStd
  3
"AcAmgLayStd|Product Description: AutoCAD Mechanical 2000|Company: Autodesk"
 90
        0
280
     0
281
     0
  0
CLASS
  1
ACAMGDIMSTD
  2
AcAmgDimStd
  3
"AcAmgDimStd|Product Description: AutoCAD Mechanical 2000|Company: Autodesk"
 90
        0
280
     0
281
     0
  0
CLASS
  1
ACAMGHOLECHARTSTDISO
  2
AcAmgHoleChartStdISO
  3
ACMSYMBB_MODULE_NAME
 90
        0
280
     0
281
     0
  0
CLASS
  1
ACAMGTITLESTD
  2
AcAmgTitleStd
  3
"TITLEAPP"
 90
        0
280
     0
281
     0
  0
CLASS
  1
LAYER_INDEX
  2
AcDbLayerIndex
  3
ObjectDBX Classes
 90
    32768
280
     0
281
     0
  0
CLASS
  1
IDBUFFER
  2
AcDbIdBuffer
  3
ObjectDBX Classes
 90
    32768
280
     0
281
     0
  0
CLASS
  1
DICTIONARYVAR
  2
AcDbDictionaryVar
  3
ObjectDBX Classes
 90
        0
280
     0
281
     0
  0
CLASS
  1
ACAMGFILTERDAT
  2
AcAmgFilterDat
  3
"AcadM|Product Description: AutoCAD Mechanical 2000|Company: Autodesk"
 90
    32768
280
     0
281
     0
  0
CLASS
  1
AMDTFORMULAUPDATEDISPATCHER
  2
AmdtFormulaUpdateDispatcher
  3
AcMeServices
 90
    32768
280
     0
281
     0
  0
CLASS
  1
DIMASSOC
  2
AcDbDimAssoc
  3
"AcDbDimAssoc|Product Desc:     AcDim ARX App For Dimension|Company:          Autodesk, Inc.|WEB Address:      www.autodesk.com"
 90
        0
280
     0
281
     0
  0
CLASS
  1
AMDTNOTE
  2
AmdtNote
  3
"AcmSymBB|Product Description: AutoCAD Mechanical 2004 DX|Company: Autodesk"
 90
    33791
280
     0
281
     1
  0
CLASS
  1
TABLESTYLE
  2
AcDbTableStyle
  3
ObjectDBX Classes
 90
     2047
280
     0
281
     0
  0
CLASS
  1
AM_DRAWING_MGR
  2
AcDmDwgMgr
  3
AcMechDwgViewMgmt
 90
        0
280
     0
281
     0
  0
CLASS
  1
AM_DWG_DOCUMENT
  2
AcDmDwgDocument
  3
AcMechDwgViewMgmt
 90
        0
280
     0
281
     0
  0
CLASS
  1
AM_DWG_SHEET
  2
AcDmSheet
  3
AcMechDwgViewMgmt
 90
        0
280
     0
281
     0
  0
CLASS
  1
AM_VIEWDIMPARMAP
  2
AcDmViewDimParMap
  3
AcMechDwgViewMgmt
 90
        0
280
     0
281
     0
  0
CLASS
  1
AM_DWGMGR_NAME
  2
AcDmDwgMgrName
  3
AcMechDwgViewMgmt
 90
        0
280
     0
281
     0
  0
CLASS
  1
AMDTMENUSTATEMGR
  2
AmdtMenuStateMgr
  3
McadcomServices
 90
        0
280
     0
281
     0
  0
CLASS
  1
AMDTMCOMMENUSTATE
  2
AmdtMcomMenuState
  3
McadcomServices
 90
        0
280
     0
281
     0
  0
CLASS
  1
MAPIAMMOUDLE
  2
MApiAmModule
  3
MApiAmServices
 90
        0
280
     0
281
     0
  0
CLASS
  1
AMDTADMENUSTATE
  2
AmdtAdMenuState
  3
DesignerServices
 90
        0
280
     0
281
     0
  0
CLASS
  1
ADAPPL
  2
AcAdAppl
  3
DesignerServices
 90
        0
280
     0
281
     0
  0
CLASS
  1
DEPMGR
  2
AcAdDepMgr
  3
DesignerServices
 90
        0
280
     0
281
     0
  0
CLASS
  1
PARAMMGR
  2
AcAdParamMgr
  3
DesignerServices
 90
        0
280
     0
281
     0
  0
CLASS
  1
PARAMSCOPE
  2
AcAdParamScope
  3
DesignerServices
 90
        0
280
     0
281
     0
  0
CLASS
  1
NAMEDAPPL
  2
AcAdNamedAppl
  3
DesignerServices
 90
        0
280
     0
281
     0
  0
CLASS
  1
AMDTDMMENUSTATE
  2
AmdtDmMenuState
  3
AcMechDwgViewMgmt
 90
        0
280
     0
281
     0
  0
CLASS
  1
AMDTAMMENUSTATE
  2
AmdtAmMenuState
  3
DesignerAssemblies
 90
        0
280
     0
281
     0
  0
CLASS
  1
ACAMPROJECT
  2
AcAmProject
  3
DesignerAssemblies
 90
        0
280
     0
281
     0
  0
CLASS
  1
ACAMGRCOMPDEF
  2
AcAmGrCompDef
  3
DesignerAssemblies
 90
        0
280
     0
281
     0
  0
CLASS
  1
ACCMCONTEXT
  2
AcCmContext
  3
DesignerAssemblies
 90
        0
280
     0
281
     0
  0
CLASS
  1
ACAMCOMPDEF
  2
AcAmCompDef
  3
DesignerAssemblies
 90
        0
280
     0
281
     0
  0
CLASS
  1
ACAMCOMPDEFMGR
  2
AcAmCompDefMgr
  3
DesignerAssemblies
 90
        0
280
     0
281
     0
  0
CLASS
  1
AMCONTEXTMGR
  2
AcAmContextMgr
  3
DesignerAssemblies
 90
        0
280
     0
281
     0
  0
CLASS
  1
ACAMCONTEXTMODELER
  2
AcAmContextModeler
  3
DesignerAssemblies
 90
        0
280
     0
281
     0
  0
CLASS
  1
ACMTHREADLINESTANDARDISO
  2
AmdtThreadLineStdISO
  3
"Amdt_StdImp|Product Description: AutoCAD Mechanical 2004 DX|Company: Autodesk"
 90
        0
280
     0
281
     0
  0
CLASS
  1
CATALOGSTATE
  2
AcAmCatalogState
  3
DesignerAssemblies
 90
        0
280
     0
281
     0
  0
CLASS
  1
ACAMGRCOMPDEFSET
  2
AcAmGrCompDefSet
  3
DesignerAssemblies
 90
        0
280
     0
281
     0
  0
CLASS
  1
AMDTBROWSERDBTAB
  2
AmdtBrowserDbTab
  3
McadcomServices
 90
        0
280
     0
281
     0
  0
CLASS
  1
CBROWSERAPPOBJECT
  2
CBrowserAppObject
  3
McadcomServices
 90
        0
280
     0
281
     0
  0
CLASS
  1
DM_PLACEHOLDER
  2
AcDmSelsetPlaceholder
  3
AcMechDwgViewMgmt
 90
        0
280
     0
281
     0
  0
CLASS
  1
VAACXREFPANELOBJECT
  2
VaAcXREFPanelObject
  3
VAAC_ADDIN
 90
    32768
280
     0
281
     0
  0
CLASS
  1
VAACIMAGEINVENTORY
  2
VaAcImageInventory
  3
VAAC_ADDIN
 90
    32768
280
     0
281
     0
  0
CLASS
  1
AMDTEDGESTANDARDISO13715
  2
AmdtEdgeStdISO13715
  3
"Amdt_StdImp|Product Description: AutoCAD Mechanical 2004 DX|Company: Autodesk"
 90
        0
280
     0
281
     0
  0
CLASS
  1
AMDTNOTETEMPLATEDB
  2
AmdtNoteTemplateDB
  3
AMDT_STDIMP_MODULE_NAME
 90
        0
280
     0
281
     0
  0
CLASS
  1
ACRFATTGENMGR
  2
AcRfAttGeneralMgr
  3
AcAttribServices
 90
        0
280
     0
281
     0
  0
CLASS
  1
STDPART2D
  2
AmgStdPart
  3
"AmgStdPart|Product Description: AutoCAD Mechanical 2000|Company: Autodesk"
 90
    33791
280
     0
281
     1
  0
CLASS
  1
ACAMSTDPCOMPDEF
  2
AcAmStdpCompDef
  3
DesignerAssemblies
 90
    32768
280
     0
281
     0
  0
CLASS
  1
ACRFOBJATTMGR
  2
AcRfObjAttGroupMgr
  3
AcAttribServices
 90
    32768
280
     0
281
     0
  0
CLASS
  1
ACRFMCADAPIATTHOLDER
  2
AcRfMCADAPIAttHolder
  3
AcAttribServices
 90
    32768
280
     0
281
     0
  0
CLASS
  1
AMDTSYSATTR
  2
AmdtSystemAttribute
  3
AcAttribServices
 90
    32768
280
     0
281
     0
  0
CLASS
  1
ACAMCOMP
  2
AcAmComp
  3
DesignerAssemblies
 90
    32768
280
     0
281
     0
  0
CLASS
  1
AC_AM_STDP_VIEW_DEF
  2
AcAmStdpViewDef
  3
DesignerAssemblies
 90
    32768
280
     0
281
     0
  0
CLASS
  1
AC_AM_MVD_DEP_MGR
  2
AcAmMVDdepMgr
  3
DesignerAssemblies
 90
    32768
280
     0
281
     0
  0
CLASS
  1
AC_AM_MASTER_VIEW_DEF
  2
AcAmMasterViewDef
  3
DesignerAssemblies
 90
    32768
280
     0
281
     0
  0
CLASS
  1
AC_AM_DIRTY_NODES
  2
AcAmDirtyNodes
  3
DesignerAssemblies
 90
    32768
280
     0
281
     0
  0
CLASS
  1
AC_AM_MAPPER_CACHE
  2
AcAmMapperCache
  3
DesignerAssemblies
 90
    32768
280
     0
281
     0
  0
CLASS
  1
ACAMMVDBACKUPOBJECT
  2
AcAmMVDBackupObject
  3
DesignerAssemblies
 90
    32768
280
     0
281
     0
  0
CLASS
  1
AC_AM_COMP_VIEW_INST
  2
AcAmCompView
  3
DesignerAssemblies
 90
    32768
280
     0
281
     0
  0
CLASS
  1
AC_AM_2D_XREF_MGR
  2
AcAmXrefMgr2d
  3
DesignerAssemblies
 90
    32768
280
     0
281
     0
  0
CLASS
  1
SORTENTSTABLE
  2
AcDbSortentsTable
  3
ObjectDBX Classes
 90
        0
280
     0
281
     0
  0
ENDSEC
  0
SECTION
  2
TABLES
  0
TABLE
  2
VPORT
  5
8
330
0
100
AcDbSymbolTable
 70
    23
  0
VPORT
  5
70AA
330
8
100
AcDbSymbolTableRecord
100
AcDbViewportTableRecord
  2
*Active
 70
     0
 10
0.0
 20
0.0
 11
1.0
 21
1.0
 12
1294.046389783582
 22
2511.66288348445
 13
0.0
 23
0.0
 14
2.5
 24
2.5
 15
10.0
 25
10.0
 16
0.0
 26
0.0
 36
1.0
 17
0.0
 27
0.0
 37
0.0
 40
800.1730185151698
 41
0.9693094629156011
 42
50.0
 43
0.0
 44
0.0
 50
0.0
 51
0.0
 71
     0
 72
   100
 73
     1
 74
     3
 75
     0
 76
     0
 77
     0
 78
     0
281
     0
 65
     1
110
0.0
120
0.0
130
0.0
111
1.0
121
0.0
131
0.0
112
0.0
122
1.0
132
0.0
 79
     0
146
0.0
  0
ENDTAB
  0
TABLE
  2
LTYPE
  5
5
330
0
100
AcDbSymbolTable
 70
    14
  0
LTYPE
  5
14
330
5
100
AcDbSymbolTableRecord
100
AcDbLinetypeTableRecord
  2
ByBlock
 70
     0
  3

 72
    65
 73
     0
 40
0.0
  0
LTYPE
  5
15
330
5
100
AcDbSymbolTableRecord
100
AcDbLinetypeTableRecord
  2
ByLayer
 70
     0
  3

 72
    65
 73
     0
 40
0.0
  0
LTYPE
  5
16
330
5
100
AcDbSymbolTableRecord
100
AcDbLinetypeTableRecord
  2
Continuous
 70
     0
  3
Solid line
 72
    65
 73
     0
 40
0.0
  0
LTYPE
  5
4D
330
5
100
AcDbSymbolTableRecord
100
AcDbLinetypeTableRecord
  2
AM_ISO02W050
 70
     0
  3
__ __ __ __ __ __ __ __ __ __ __ __ __ __ __
 72
    65
 73
     2
 40
7.5
 49
6.0
 74
     0
 49
-1.5
 74
     0
  0
LTYPE
  5
4E
330
5
100
AcDbSymbolTableRecord
100
AcDbLinetypeTableRecord
  2
AM_ISO08W050
 70
     0
  3
____ . ____ . ____ . ____ . ____ . ____ . ____
 72
    65
 73
     4
 40
18.0
 49
12.0
 74
     0
 49
-1.5
 74
     0
 49
3.0
 74
     0
 49
-1.5
 74
     0
  0
LTYPE
  5
4F
330
5
100
AcDbSymbolTableRecord
100
AcDbLinetypeTableRecord
  2
AM_ISO09W050
 70
     0
  3
_____ . . _____ . . _____ . . ____ .. ____
 72
    65
 73
     6
 40
22.5
 49
12.0
 74
     0
 49
-1.5
 74
     0
 49
3.0
 74
     0
 49
-1.5
 74
     0
 49
3.0
 74
     0
 49
-1.5
 74
     0
  0
LTYPE
  5
50
330
5
100
AcDbSymbolTableRecord
100
AcDbLinetypeTableRecord
  2
Amconstr
 70
     0
  3
_______________________
 72
    65
 73
     2
 40
9999.0
 49
9999.0
 74
     0
 49
0.0
 74
     0
  0
LTYPE
  5
51
330
5
100
AcDbSymbolTableRecord
100
AcDbLinetypeTableRecord
  2
AM_ISO08W050x2
 70
     0
  3
__ . __ . __ . __ . __ . __
 72
    65
 73
     4
 40
9.0
 49
6.0
 74
     0
 49
-0.75
 74
     0
 49
1.5
 74
     0
 49
-0.75
 74
     0
  0
LTYPE
  5
52
330
5
100
AcDbSymbolTableRecord
100
AcDbLinetypeTableRecord
  2
AM_ISO02W050x2
 70
     0
  3
 _ _ _ _ _ _ _ _ _ _ _ _
 72
    65
 73
     2
 40
3.75
 49
3.0
 74
     0
 49
-0.75
 74
     0
  0
LTYPE
  5
55
330
5
100
AcDbSymbolTableRecord
100
AcDbLinetypeTableRecord
  2
Amzigzag
 70
     0
  3
/\/-/\/-/\/-/\/-/\/-/\/
 72
    65
 73
     2
 40
11.0001
 49
0.0001
 74
     4
 75
   135
340
54
 46
0.04
 50
0.0
 44
0.0
 45
0.0
 49
-11.0
 74
     0
  0
LTYPE
  5
63
330
5
100
AcDbSymbolTableRecord
100
AcDbLinetypeTableRecord
  2
ACISOWELD
 70
     0
  3
_ _ _ _ _
 72
    65
 73
     2
 40
2.0
 49
2.0
 74
     0
 49
-1.0
 74
     0
  0
LTYPE
  5
64
330
5
100
AcDbSymbolTableRecord
100
AcDbLinetypeTableRecord
  2
ACISOTGB
 70
     0
  3
__ . . __ . .
 72
    65
 73
     6
 40
9.0
 49
4.0
 74
     0
 49
-1.0
 74
     0
 49
1.0
 74
     0
 49
-1.0
 74
     0
 49
1.0
 74
     0
 49
-1.0
 74
     0
  0
LTYPE
  5
65
330
5
100
AcDbSymbolTableRecord
100
AcDbLinetypeTableRecord
  2
ACISOTGL
 70
     0
  3
_ _ _ _ _
 72
    65
 73
     2
 40
3.0
 49
2.0
 74
     0
 49
-1.0
 74
     0
  0
LTYPE
  5
68
330
5
100
AcDbSymbolTableRecord
100
AcDbLinetypeTableRecord
  2
CENTER
 70
     0
  3
__ . __
 72
    65
 73
     4
 40
7.0
 49
4.0
 74
     0
 49
-1.0
 74
     0
 49
1.0
 74
     0
 49
-1.0
 74
     0
  0
LTYPE
  5
932
330
5
100
AcDbSymbolTableRecord
100
AcDbLinetypeTableRecord
  2
HIDDEN
 70
     0
  3
Hidden __ __ __ __ __ __ __ __ __ __ __ __ __ _
 72
    65
 73
     2
 40
9.524999999999998
 49
6.349999999999999
 74
     0
 49
-3.174999999999999
 74
     0
  0
LTYPE
  5
933
330
5
100
AcDbSymbolTableRecord
100
AcDbLinetypeTableRecord
  2
PHANTOM2
 70
     0
  3
Phantom (.5x) ___ _ _ ___ _ _ ___ _ _ ___ _ _
 72
    65
 73
     6
 40
31.75
 49
15.875
 74
     0
 49
-3.174999999999999
 74
     0
 49
3.174999999999999
 74
     0
 49
-3.174999999999999
 74
     0
 49
3.174999999999999
 74
     0
 49
-3.174999999999999
 74
     0
  0
ENDTAB
  0
TABLE
  2
LAYER
  5
2
102
{ACAD_XDICTIONARY
360
E05
102
}
330
0
100
AcDbSymbolTable
 70
     6
  0
LAYER
  5
10
330
2
100
AcDbSymbolTableRecord
100
AcDbLayerTableRecord
  2
0
 70
     0
 62
     7
  6
Continuous
370
    -3
390
F
  0
LAYER
  5
2D7
330
2
100
AcDbSymbolTableRecord
100
AcDbLayerTableRecord
  2
M_1
 70
     0
 62
     7
  6
Continuous
370
    -3
390
F
  0
LAYER
  5
42A
330
2
100
AcDbSymbolTableRecord
100
AcDbLayerTableRecord
  2
AM_5
 70
     0
 62
     5
  6
Continuous
370
    50
390
F
  0
LAYER
  5
43E
330
2
100
AcDbSymbolTableRecord
100
AcDbLayerTableRecord
  2
Defpoints
 70
     0
 62
     7
  6
Continuous
290
     0
370
    -3
390
F
  0
LAYER
  5
E7E
330
2
100
AcDbSymbolTableRecord
100
AcDbLayerTableRecord
  2
AM_7
 70
     0
 62
     1
  6
CENTER
370
    25
390
F
  0
LAYER
  5
2787
330
2
100
AcDbSymbolTableRecord
100
AcDbLayerTableRecord
  2
LOGO
 70
     0
 62
     7
  6
Continuous
370
    -3
390
F
  0
ENDTAB
  0
TABLE
  2
STYLE
  5
3
330
0
100
AcDbSymbolTable
 70
     7
  0
STYLE
  5
11
330
3
100
AcDbSymbolTableRecord
100
AcDbTextStyleTableRecord
  2
STANDARD
 70
     0
 40
0.0
 41
1.0
 50
0.0
 71
     0
 42
3.5
  3
ISOCP.SHX
  4
CHINESET.SHX
  0
STYLE
  5
54
330
3
100
AcDbSymbolTableRecord
100
AcDbTextStyleTableRecord
  2

 70
     1
 40
0.0
 41
1.0
 50
0.0
 71
     0
 42
2.5
  3
ltypeshp.shx
  4

  0
STYLE
  5
56
330
3
100
AcDbSymbolTableRecord
100
AcDbTextStyleTableRecord
  2
ACISOTS
 70
     0
 40
1.0
 41
1.0
 50
0.0
 71
     0
 42
2.5
  3
isocp.shx
  4
chineset.shx
  0
STYLE
  5
62
330
3
100
AcDbSymbolTableRecord
100
AcDbTextStyleTableRecord
  2
ACISOGDT
 70
     0
 40
0.0
 41
1.0
 50
0.0
 71
     0
 42
3.5
  3
amgdt.shx
  4

  0
STYLE
  5
9E
330
3
100
AcDbSymbolTableRecord
100
AcDbTextStyleTableRecord
  2
DAYUS
 70
     0
 40
0.0
 41
1.0
 50
0.0
 71
     0
 42
2.5
  3
simplex
  4
dayus
  0
STYLE
  5
10CF
330
3
100
AcDbSymbolTableRecord
100
AcDbTextStyleTableRecord
  2
CHINESET
 70
     0
 40
0.0
 41
0.75
 50
0.0
 71
     0
 42
3.0
  3
simplex.shx
  4
CHINESET.SHX
  0
STYLE
  5
2BA6
330
3
100
AcDbSymbolTableRecord
100
AcDbTextStyleTableRecord
  2
China
 70
     0
 40
0.0
 41
1.0
 50
0.0
 71
     0
 42
2.5
  3
romans.shx
  4
chineset.shx
  0
ENDTAB
  0
TABLE
  2
VIEW
  5
6
330
0
100
AcDbSymbolTable
 70
     0
  0
ENDTAB
  0
TABLE
  2
UCS
  5
7
330
0
100
AcDbSymbolTable
 70
     0
  0
ENDTAB
  0
TABLE
  2
APPID
  5
9
330
0
100
AcDbSymbolTable
 70
    31
  0
APPID
  5
12
330
9
100
AcDbSymbolTableRecord
100
AcDbRegAppTableRecord
  2
ACAD
 70
     0
  0
APPID
  5
30
330
9
100
AcDbSymbolTableRecord
100
AcDbRegAppTableRecord
  2
MCAD_NO_VIS
 70
     0
  0
APPID
  5
31
330
9
100
AcDbSymbolTableRecord
100
AcDbRegAppTableRecord
  2
ACAD_TEMP_GRAPHIC
 70
     0
  0
APPID
  5
42
330
9
100
AcDbSymbolTableRecord
100
AcDbRegAppTableRecord
  2
ACATTRIBSERVICES
 70
     0
  0
APPID
  5
20A
330
9
100
AcDbSymbolTableRecord
100
AcDbRegAppTableRecord
  2
GENIUS_GENODEF_13
 70
     0
  0
APPID
  5
20B
330
9
100
AcDbSymbolTableRecord
100
AcDbRegAppTableRecord
  2
GENIUS_GENOBJ-N-HTC_13
 70
     0
  0
APPID
  5
20C
330
9
100
AcDbSymbolTableRecord
100
AcDbRegAppTableRecord
  2
GENIUS_GENHATCH_13
 70
     0
  0
APPID
  5
935
330
9
100
AcDbSymbolTableRecord
100
AcDbRegAppTableRecord
  2
AD_DRAW
 70
     0
  0
APPID
  5
953
330
9
100
AcDbSymbolTableRecord
100
AcDbRegAppTableRecord
  2
DESIGNERASSEMBLIES
 70
     0
  0
APPID
  5
958
330
9
100
AcDbSymbolTableRecord
100
AcDbRegAppTableRecord
  2
ACADM_DIM_EDIT
 70
     0
  0
APPID
  5
959
330
9
100
AcDbSymbolTableRecord
100
AcDbRegAppTableRecord
  2
AMDT_DM_ADJ
 70
     0
  0
APPID
  5
E24
330
9
100
AcDbSymbolTableRecord
100
AcDbRegAppTableRecord
  2
ACAD_DSTYLE_DIMTEXT_FILL
 70
     0
  0
APPID
  5
10D0
330
9
100
AcDbSymbolTableRecord
100
AcDbRegAppTableRecord
  2
ACAD_PSEXT
 70
     0
  0
APPID
  5
16F7
330
9
100
AcDbSymbolTableRecord
100
AcDbRegAppTableRecord
  2
ACAD_DIMASSOC_DIMLFAC
 70
     0
  0
APPID
  5
16F8
330
9
100
AcDbSymbolTableRecord
100
AcDbRegAppTableRecord
  2
ACAD_DIMASSOC_CALC_DIMLFAC
 70
     0
  0
APPID
  5
16F9
330
9
100
AcDbSymbolTableRecord
100
AcDbRegAppTableRecord
  2
ACAD_DIMASSOC_OVERRIDDEN_DIMLFAC
 70
     0
  0
APPID
  5
1997
330
9
100
AcDbSymbolTableRecord
100
AcDbRegAppTableRecord
  2
GEVID1139552286
 70
     0
  0
APPID
  5
1998
330
9
100
AcDbSymbolTableRecord
100
AcDbRegAppTableRecord
  2
GEVDC
 70
     0
  0
APPID
  5
1999
330
9
100
AcDbSymbolTableRecord
100
AcDbRegAppTableRecord
  2
GEVRADREF
 70
     0
  0
APPID
  5
19A2
330
9
100
AcDbSymbolTableRecord
100
AcDbRegAppTableRecord
  2
AMG_2DHIDE
 70
     0
  0
APPID
  5
19A3
330
9
100
AcDbSymbolTableRecord
100
AcDbRegAppTableRecord
  2
AMG_2DSTRUCT_BTR
 70
     0
  0
APPID
  5
19B4
330
9
100
AcDbSymbolTableRecord
100
AcDbRegAppTableRecord
  2
ACADM_2DVIEW_IGN_NOTIFY
 70
     0
  0
APPID
  5
19DC
330
9
100
AcDbSymbolTableRecord
100
AcDbRegAppTableRecord
  2
GENIUS_GENOENT_13
 70
     0
  0
APPID
  5
19DD
330
9
100
AcDbSymbolTableRecord
100
AcDbRegAppTableRecord
  2
GENIUS_GENOBJ-N-CRS_13
 70
     0
  0
APPID
  5
19DE
330
9
100
AcDbSymbolTableRecord
100
AcDbRegAppTableRecord
  2
GENIUS_GENOLIS_13
 70
     0
  0
APPID
  5
19DF
330
9
100
AcDbSymbolTableRecord
100
AcDbRegAppTableRecord
  2
GENIUS_GENOREF_13
 70
     0
  0
APPID
  5
1B28
330
9
100
AcDbSymbolTableRecord
100
AcDbRegAppTableRecord
  2
GENIUS_GENOBJ-N-CEN_13
 70
     0
  0
APPID
  5
1B29
330
9
100
AcDbSymbolTableRecord
100
AcDbRegAppTableRecord
  2
GENIUS_GENCEN_19
 70
     0
  0
APPID
  5
2753
330
9
100
AcDbSymbolTableRecord
100
AcDbRegAppTableRecord
  2
GENIUS_GENDTOL_13
 70
     0
  0
APPID
  5
2788
330
9
100
AcDbSymbolTableRecord
100
AcDbRegAppTableRecord
  2
GENIUS_GENREC_14
 70
     0
  0
APPID
  5
2789
330
9
100
AcDbSymbolTableRecord
100
AcDbRegAppTableRecord
  2
GENIUS_GENOBJ-N-REC_13
 70
     0
  0
ENDTAB
  0
TABLE
  2
DIMSTYLE
  5
A
330
0
100
AcDbSymbolTable
 70
     9
100
AcDbDimStyleTable
 71
     2
340
6B
340
75
  0
DIMSTYLE
105
6B
330
A
100
AcDbSymbolTableRecord
100
AcDbDimStyleTableRecord
  2
AM_ISO
 70
     0
  4
"
 41
4.5
 42
1.0
 43
10.0
 44
1.5
 47
0.1
 48
0.1
 73
     0
 74
     0
 77
     1
 78
     8
 79
     2
140
5.0
141
3.0
143
0.0393701
146
0.71
147
1.5
172
     1
176
   256
177
   256
178
   256
271
     2
272
     2
283
     0
284
     8
340
11
371
    -1
372
    -1
  0
DIMSTYLE
105
6C
330
A
100
AcDbSymbolTableRecord
100
AcDbDimStyleTableRecord
  2
AM_ISO$3
 70
     0
  4
"
 41
4.5
 42
1.0
 43
10.0
 44
1.5
 47
0.1
 48
0.1
 73
     0
 77
     1
 78
     8
 79
     2
140
5.0
141
3.0
143
0.0393701
146
0.71
147
1.5
176
   256
177
   256
178
   256
271
     2
272
     2
283
     0
284
     8
288
     1
289
     0
340
11
371
    -1
372
    -1
  0
DIMSTYLE
105
6D
330
A
100
AcDbSymbolTableRecord
100
AcDbDimStyleTableRecord
  2
AM_ISO$4
 70
     0
  4
"
 41
4.5
 42
1.0
 43
10.0
 44
1.5
 47
0.1
 48
0.1
 73
     0
 77
     1
 78
     8
 79
     2
140
5.0
141
3.0
143
0.0393701
146
0.71
147
1.5
176
   256
177
   256
178
   256
271
     2
272
     2
283
     0
284
     8
288
     1
289
     0
340
11
371
    -1
372
    -1
  0
DIMSTYLE
105
6E
330
A
100
AcDbSymbolTableRecord
100
AcDbDimStyleTableRecord
  2
AM_ISO$6
 70
     0
  4
"
 41
4.5
 42
1.0
 43
10.0
 44
1.5
 47
0.1
 48
0.1
 73
     0
 74
     0
 78
     8
 79
     2
140
5.0
141
3.0
143
0.0393701
146
0.71
147
1.5
172
     1
176
   256
177
   256
178
   256
271
     2
272
     2
283
     0
284
     8
340
11
371
    -1
372
    -1
  0
DIMSTYLE
105
6F
102
{ACAD_REACTORS
330
6913
330
692A
102
}
330
A
100
AcDbSymbolTableRecord
100
AcDbDimStyleTableRecord
  2
AM_ISO$7
 70
     0
  4
"
 41
4.5
 42
1.0
 43
10.0
 44
1.5
 47
0.1
 48
0.1
 73
     0
 74
     0
 77
     1
 78
     8
 79
     2
140
5.0
141
3.0
143
0.0393701
146
0.71
147
1.5
172
     1
176
   256
177
   256
178
   256
271
     2
272
     2
283
     0
284
     8
340
11
371
    -1
372
    -1
  0
DIMSTYLE
105
70
330
A
100
AcDbSymbolTableRecord
100
AcDbDimStyleTableRecord
  2
AM_ISO$SF
 70
     0
  4
"
 41
2.5
 42
1.0
 43
10.0
 44
1.0
 47
0.1
 48
0.1
 73
     0
 74
     0
 75
     1
 76
     1
 77
     1
 78
     8
 79
     2
140
3.5
141
0.0
143
0.0393701
146
0.71
147
1.5
172
     1
176
   256
177
   256
178
     2
271
     2
272
     3
274
     4
283
     0
284
     8
340
11
371
    -1
372
    -1
  0
DIMSTYLE
105
75
330
A
100
AcDbSymbolTableRecord
100
AcDbDimStyleTableRecord
  2
AM_ISO$SH
 70
     0
  4
"
 41
2.5
 42
1.0
 43
10.0
 44
1.0
 47
0.1
 48
0.1
 73
     0
 74
     0
 75
     1
 76
     1
 77
     1
 78
     8
 79
     2
140
3.5
141
0.0
143
0.0393701
144
2.0
146
0.71
147
1.5
172
     1
173
     1
176
   256
177
   256
178
     2
271
     2
272
     3
274
     4
283
     0
284
     8
340
11
343
71
371
    -1
372
    -1
  0
DIMSTYLE
105
E7F
102
{ACAD_REACTORS
330
68ED
330
6934
330
691C
330
690C
330
68F5
330
6906
330
6903
330
6902
330
68F6
330
68EB
330
67BB
330
67A2
330
687B
330
67CB
330
67BA
330
67B9
330
6C27
330
6FBD
102
}
330
A
100
AcDbSymbolTableRecord
100
AcDbDimStyleTableRecord
  2
AM_ISO$0
 70
     0
  4
"
 41
4.5
 42
1.0
 43
10.0
 44
1.5
 47
0.1
 48
0.1
 73
     0
 74
     0
 77
     1
 78
     8
 79
     2
140
5.0
141
3.0
143
0.0393701
146
0.71
147
1.5
172
     1
176
   256
177
   256
178
   256
271
     2
272
     2
283
     0
284
     8
340
11
371
    -1
372
    -1
  0
DIMSTYLE
105
1597
330
A
100
AcDbSymbolTableRecord
100
AcDbDimStyleTableRecord
  2
AM_ISO$2
 70
     0
  4
"
 41
4.5
 42
1.0
 43
10.0
 44
1.5
 47
0.1
 48
0.1
 73
     0
 74
     0
 77
     1
 78
     8
 79
     2
140
5.0
141
3.0
143
0.0393701
146
0.71
147
1.5
172
     1
176
   256
177
   256
178
   256
271
     2
272
     2
283
     0
284
     8
340
11
371
    -1
372
    -1
  0
ENDTAB
  0
TABLE
  2
BLOCK_RECORD
  5
1
330
0
100
AcDbSymbolTable
 70
    23
  0
BLOCK_RECORD
  5
1F
102
{ACAD_XDICTIONARY
360
7D
102
}
330
1
100
AcDbSymbolTableRecord
100
AcDbBlockTableRecord
  2
*Model_Space
340
22
  0
BLOCK_RECORD
  5
1B
330
1
100
AcDbSymbolTableRecord
100
AcDbBlockTableRecord
  2
*Paper_Space
340
1E
  0
BLOCK_RECORD
  5
23
330
1
100
AcDbSymbolTableRecord
100
AcDbBlockTableRecord
  2
*Paper_Space0
340
26
  0
BLOCK_RECORD
  5
71
330
1
100
AcDbSymbolTableRecord
100
AcDbBlockTableRecord
  2
GENAXEH
340
0
  0
BLOCK_RECORD
  5
6950
330
1
100
AcDbSymbolTableRecord
100
AcDbBlockTableRecord
  2
*D4
340
0
  0
BLOCK_RECORD
  5
695C
330
1
100
AcDbSymbolTableRecord
100
AcDbBlockTableRecord
  2
*D5
340
0
  0
BLOCK_RECORD
  5
6968
330
1
100
AcDbSymbolTableRecord
100
AcDbBlockTableRecord
  2
*D6
340
0
  0
BLOCK_RECORD
  5
6974
330
1
100
AcDbSymbolTableRecord
100
AcDbBlockTableRecord
  2
*D7
340
0
  0
BLOCK_RECORD
  5
6980
330
1
100
AcDbSymbolTableRecord
100
AcDbBlockTableRecord
  2
*D8
340
0
  0
BLOCK_RECORD
  5
698C
330
1
100
AcDbSymbolTableRecord
100
AcDbBlockTableRecord
  2
*D9
340
0
  0
BLOCK_RECORD
  5
6997
330
1
100
AcDbSymbolTableRecord
100
AcDbBlockTableRecord
  2
*D10
340
0
  0
BLOCK_RECORD
  5
69A3
330
1
100
AcDbSymbolTableRecord
100
AcDbBlockTableRecord
  2
*D11
340
0
  0
BLOCK_RECORD
  5
69AF
330
1
100
AcDbSymbolTableRecord
100
AcDbBlockTableRecord
  2
*D12
340
0
  0
BLOCK_RECORD
  5
69BB
330
1
100
AcDbSymbolTableRecord
100
AcDbBlockTableRecord
  2
*D13
340
0
  0
BLOCK_RECORD
  5
69C6
330
1
100
AcDbSymbolTableRecord
100
AcDbBlockTableRecord
  2
*D14
340
0
  0
BLOCK_RECORD
  5
69D2
330
1
100
AcDbSymbolTableRecord
100
AcDbBlockTableRecord
  2
*D15
340
0
  0
BLOCK_RECORD
  5
69DF
330
1
100
AcDbSymbolTableRecord
100
AcDbBlockTableRecord
  2
*D16
340
0
  0
BLOCK_RECORD
  5
69EB
330
1
100
AcDbSymbolTableRecord
100
AcDbBlockTableRecord
  2
*D17
340
0
  0
BLOCK_RECORD
  5
69F9
330
1
100
AcDbSymbolTableRecord
100
AcDbBlockTableRecord
  2
*D18
340
0
  0
BLOCK_RECORD
  5
6A04
330
1
100
AcDbSymbolTableRecord
100
AcDbBlockTableRecord
  2
*D19
340
0
  0
BLOCK_RECORD
  5
6C28
330
1
100
AcDbSymbolTableRecord
100
AcDbBlockTableRecord
  2
*D20
340
0
  0
BLOCK_RECORD
  5
6FBE
330
1
100
AcDbSymbolTableRecord
100
AcDbBlockTableRecord
  2
*D22
340
0
  0
ENDTAB
  0
ENDSEC
  0
SECTION
  2
BLOCKS
  0
BLOCK
  5
20
330
1F
100
AcDbEntity
  8
0
100
AcDbBlockBegin
  2
*Model_Space
 70
     0
 10
0.0
 20
0.0
 30
0.0
  3
*Model_Space
  1

  0
ENDBLK
  5
21
330
1F
100
AcDbEntity
  8
0
100
AcDbBlockEnd
  0
BLOCK
  5
1C
330
1B
100
AcDbEntity
 67
     1
  8
0
100
AcDbBlockBegin
  2
*Paper_Space
 70
     0
 10
0.0
 20
0.0
 30
0.0
  3
*Paper_Space
  1

  0
ENDBLK
  5
1D
330
1B
100
AcDbEntity
 67
     1
  8
0
100
AcDbBlockEnd
  0
BLOCK
  5
24
330
23
100
AcDbEntity
  8
0
100
AcDbBlockBegin
  2
*Paper_Space0
 70
     0
 10
0.0
 20
0.0
 30
0.0
  3
*Paper_Space0
  1

  0
ENDBLK
  5
25
330
23
100
AcDbEntity
  8
0
100
AcDbBlockEnd
  0
BLOCK
  5
73
330
71
100
AcDbEntity
  8
0
100
AcDbBlockBegin
  2
GENAXEH
 70
     0
 10
0.0
 20
0.0
 30
0.0
  3
GENAXEH
  1

  0
LINE
  5
72
330
71
100
AcDbEntity
  8
0
100
AcDbLine
 10
-1.0
 20
0.0
 30
0.0
 11
1.0
 21
0.0
 31
0.0
  0
ENDBLK
  5
74
330
71
100
AcDbEntity
  8
0
100
AcDbBlockEnd
  0
BLOCK
  5
695A
330
6950
100
AcDbEntity
  8
0
100
AcDbBlockBegin
  2
*D4
 70
     1
 10
0.0
 20
0.0
 30
0.0
  3
*D4
  1

  0
LINE
  5
6FF4
330
6950
100
AcDbEntity
  8
AM_5
100
AcDbLine
 10
974.4587821656535
 20
2422.522696498215
 30
0.0
 11
974.4587821656535
 21
2333.987897972239
 31
0.0
  0
LINE
  5
6FF5
330
6950
100
AcDbEntity
  8
AM_5
100
AcDbLine
 10
1005.458782165653
 20
2422.658696498216
 30
0.0
 11
1005.458782165653
 21
2333.987897972239
 31
0.0
  0
LINE
  5
6FF6
330
6950
100
AcDbEntity
  8
AM_5
100
AcDbLine
 10
978.9587821656535
 20
2335.487897972239
 30
0.0
 11
1000.958782165653
 21
2335.487897972239
 31
0.0
  0
SOLID
  5
6FF7
330
6950
100
AcDbEntity
  8
AM_5
100
AcDbTrace
 10
978.9587821656535
 20
2336.237897972239
 30
0.0
 11
978.9587821656535
 21
2334.737897972239
 31
0.0
 12
974.4587821656535
 22
2335.487897972239
 32
0.0
 13
974.4587821656535
 23
2335.487897972239
 33
0.0
  0
SOLID
  5
6FF8
330
6950
100
AcDbEntity
  8
AM_5
100
AcDbTrace
 10
1000.958782165653
 20
2336.237897972239
 30
0.0
 11
1000.958782165653
 21
2334.737897972239
 31
0.0
 12
1005.458782165653
 22
2335.487897972239
 32
0.0
 13
1005.458782165653
 23
2335.487897972239
 33
0.0
  0
MTEXT
  5
6FF9
330
6950
100
AcDbEntity
  8
AM_5
100
AcDbMText
 10
989.9587821656536
 20
2339.487897972238
 30
0.0
 40
5.0
 41
0.0
 71
     5
 72
     1
  1
31
 73
     1
 44
1.0
1001
ACAD
1000
MTEXTBEGIN
1070
    73
1070
     1
1070
    44
1040
1.0
1070
    74
1070
     0
1000
MTEXTEND
  0
POINT
  5
6FFA
330
6950
100
AcDbEntity
  8
Defpoints
 62
     0
100
AcDbPoint
 10
974.4587821656535
 20
2423.522696498215
 30
0.0
  0
POINT
  5
6FFB
330
6950
100
AcDbEntity
  8
Defpoints
 62
     0
100
AcDbPoint
 10
1005.458782165653
 20
2423.658696498215
 30
0.0
  0
POINT
  5
6FFC
330
6950
100
AcDbEntity
  8
Defpoints
 62
     0
100
AcDbPoint
 10
1005.458782165653
 20
2335.487897972239
 30
0.0
  0
ENDBLK
  5
695B
330
6950
100
AcDbEntity
  8
0
100
AcDbBlockEnd
  0
BLOCK
  5
6966
330
695C
100
AcDbEntity
  8
0
100
AcDbBlockBegin
  2
*D5
 70
     1
 10
0.0
 20
0.0
 30
0.0
  3
*D5
  1

  0
LINE
  5
6FFD
330
695C
100
AcDbEntity
  8
AM_5
100
AcDbLine
 10
1527.014538378036
 20
2364.097808392216
 30
0.0
 11
1423.672959750261
 21
2377.702474738437
 31
0.0
  0
LINE
  5
6FFE
330
695C
100
AcDbEntity
  8
AM_5
100
AcDbLine
 10
1525.44841519497
 20
2352.201475329368
 30
0.0
 11
1422.106836567195
 21
2365.806141675589
 31
0.0
  0
LINE
  5
6FFF
330
695C
100
AcDbEntity
  8
AM_5
100
AcDbLine
 10
1425.747474190532
 20
2381.968197401376
 30
0.0
 11
1426.334820387894
 21
2386.429702130102
 31
0.0
  0
LINE
  5
7000
330
695C
100
AcDbEntity
  8
AM_5
100
AcDbLine
 10
1423.006658612742
 20
2361.148854881076
 30
0.0
 11
1422.41931241538
 21
2356.68735015235
 31
0.0
  0
LINE
  5
7001
330
695C
100
AcDbEntity
  8
AM_5
100
AcDbLine
 10
1425.16012799317
 20
2377.50669267265
 30
0.0
 11
1423.594004810104
 21
2365.610359609802
 31
0.0
  0
SOLID
  5
7002
330
695C
100
AcDbEntity
  8
AM_5
100
AcDbTrace
 10
1425.003890069078
 20
2382.06608843427
 30
0.0
 11
1426.491058311986
 21
2381.870306368482
 31
0.0
 12
1425.16012799317
 22
2377.50669267265
 32
0.0
 13
1425.16012799317
 23
2377.50669267265
 33
0.0
  0
SOLID
  5
7003
330
695C
100
AcDbEntity
  8
AM_5
100
AcDbTrace
 10
1422.263074491288
 20
2361.24674591397
 30
0.0
 11
1423.750242734197
 21
2361.050963848182
 31
0.0
 12
1423.594004810104
 22
2365.610359609802
 32
0.0
 13
1423.594004810104
 23
2365.610359609802
 33
0.0
  0
MTEXT
  5
7004
330
695C
100
AcDbEntity
  8
AM_5
100
AcDbMText
 10
1420.410796504457
 20
2372.080675882953
 30
0.0
 40
5.0
 41
0.0
 71
     5
 72
     1
  1
12
 11
0.1305213771915462
 21
0.9914454952724442
 31
0.0
 73
     1
 44
1.0
1001
ACAD
1000
MTEXTBEGIN
1070
    73
1070
     1
1070
    44
1040
1.0
1070
    74
1070
     0
1000
MTEXTEND
  0
POINT
  5
7005
330
695C
100
AcDbEntity
  8
Defpoints
 62
     0
100
AcDbPoint
 10
1528.005983873309
 20
2363.967287015024
 30
0.0
  0
POINT
  5
7006
330
695C
100
AcDbEntity
  8
Defpoints
 62
     0
100
AcDbPoint
 10
1526.439860690243
 20
2352.070953952177
 30
0.0
  0
POINT
  5
7007
330
695C
100
AcDbEntity
  8
Defpoints
 62
     0
100
AcDbPoint
 10
1423.594004810104
 20
2365.610359609802
 30
0.0
  0
ENDBLK
  5
6967
330
695C
100
AcDbEntity
  8
0
100
AcDbBlockEnd
  0
BLOCK
  5
6972
330
6968
100
AcDbEntity
  8
0
100
AcDbBlockBegin
  2
*D6
 70
     1
 10
0.0
 20
0.0
 30
0.0
  3
*D6
  1

  0
LINE
  5
7008
330
6968
100
AcDbEntity
  8
AM_5
100
AcDbLine
 10
1535.897759835221
 20
2431.517327824892
 30
0.0
 11
1432.557689954033
 21
2445.133454645748
 31
0.0
  0
LINE
  5
7009
330
6968
100
AcDbEntity
  8
AM_5
100
AcDbLine
 10
1527.014552858819
 20
2364.097918341701
 30
0.0
 11
1423.674482977632
 21
2377.714045162557
 31
0.0
  0
LINE
  5
700A
330
6968
100
AcDbEntity
  8
AM_5
100
AcDbLine
 10
1433.456995505723
 20
2440.476068090533
 30
0.0
 11
1425.749470469409
 21
2381.979537737743
 31
0.0
  0
SOLID
  5
700B
330
6968
100
AcDbEntity
  8
AM_5
100
AcDbTrace
 10
1432.713422244856
 20
2440.57404158554
 30
0.0
 11
1434.200568766589
 21
2440.378094595526
 31
0.0
 12
1434.044836475767
 22
2444.937507655734
 32
0.0
 13
1434.044836475767
 23
2444.937507655734
 33
0.0
  0
SOLID
  5
700C
330
6968
100
AcDbEntity
  8
AM_5
100
AcDbTrace
 10
1425.005897208543
 20
2382.07751123275
 30
0.0
 11
1426.493043730276
 21
2381.881564242736
 31
0.0
 12
1425.161629499366
 22
2377.518098172542
 32
0.0
 13
1425.161629499366
 23
2377.518098172542
 33
0.0
  0
MTEXT
  5
700D
330
6968
100
AcDbEntity
  8
AM_5
100
AcDbMText
 10
1425.63750892961
 20
2411.750328220844
 30
0.0
 40
5.0
 41
0.0
 71
     5
 72
     1
  1
68
 11
0.1306313266764115
 21
0.9914310144890368
 31
0.0
 73
     1
 44
1.0
1001
ACAD
1000
MTEXTBEGIN
1070
    73
1070
     1
1070
    44
1040
1.0
1070
    74
1070
     0
1000
MTEXTEND
  0
POINT
  5
700E
330
6968
100
AcDbEntity
  8
Defpoints
 62
     0
100
AcDbPoint
 10
1536.88919084971
 20
2431.386696498216
 30
0.0
  0
POINT
  5
700F
330
6968
100
AcDbEntity
  8
Defpoints
 62
     0
100
AcDbPoint
 10
1528.005983873308
 20
2363.967287015024
 30
0.0
  0
POINT
  5
7010
330
6968
100
AcDbEntity
  8
Defpoints
 62
     0
100
AcDbPoint
 10
1425.161629499366
 20
2377.518098172542
 30
0.0
  0
ENDBLK
  5
6973
330
6968
100
AcDbEntity
  8
0
100
AcDbBlockEnd
  0
BLOCK
  5
697E
330
6974
100
AcDbEntity
  8
0
100
AcDbBlockBegin
  2
*D7
 70
     1
 10
0.0
 20
0.0
 30
0.0
  3
*D7
  1

  0
LINE
  5
7011
330
6974
100
AcDbEntity
  8
AM_5
100
AcDbLine
 10
1545.548669026859
 20
2504.883791010221
 30
0.0
 11
1442.214566326553
 21
2518.487473168855
 31
0.0
  0
LINE
  5
7012
330
6974
100
AcDbEntity
  8
AM_5
100
AcDbLine
 10
1535.890671914517
 20
2431.521266522501
 30
0.0
 11
1432.556569214212
 21
2445.124948681135
 31
0.0
  0
LINE
  5
7013
330
6974
100
AcDbEntity
  8
AM_5
100
AcDbLine
 10
1443.1143883721
 20
2513.830186374342
 30
0.0
 11
1434.631083654482
 21
2449.390671344073
 31
0.0
  0
SOLID
  5
7014
330
6974
100
AcDbEntity
  8
AM_5
100
AcDbTrace
 10
1442.370804250646
 20
2513.928077407235
 30
0.0
 11
1443.857972493554
 21
2513.732295341448
 31
0.0
 12
1443.701734569462
 22
2518.291691103068
 32
0.0
 13
1443.701734569462
 23
2518.291691103068
 33
0.0
  0
SOLID
  5
7015
330
6974
100
AcDbEntity
  8
AM_5
100
AcDbTrace
 10
1433.887499533028
 20
2449.488562376967
 30
0.0
 11
1435.374667775937
 21
2449.292780311179
 31
0.0
 12
1434.043737457121
 22
2444.929166615347
 32
0.0
 13
1434.043737457121
 23
2444.929166615347
 33
0.0
  0
MTEXT
  5
7016
330
6974
100
AcDbEntity
  8
AM_5
100
AcDbMText
 10
1434.906954032201
 20
2482.132514367973
 30
0.0
 40
5.0
 41
0.0
 71
     5
 72
     1
  1
74
 11
0.1305213771915392
 21
0.9914454952724453
 31
0.0
 73
     1
 44
1.0
1001
ACAD
1000
MTEXTBEGIN
1070
    73
1070
     1
1070
    44
1040
1.0
1070
    74
1070
     0
1000
MTEXTEND
  0
POINT
  5
7017
330
6974
100
AcDbEntity
  8
Defpoints
 62
     0
100
AcDbPoint
 10
1546.540114522131
 20
2504.753269633029
 30
0.0
  0
POINT
  5
7018
330
6974
100
AcDbEntity
  8
Defpoints
 62
     0
100
AcDbPoint
 10
1536.882117409789
 20
2431.390745145309
 30
0.0
  0
POINT
  5
7019
330
6974
100
AcDbEntity
  8
Defpoints
 62
     0
100
AcDbPoint
 10
1434.043737457121
 20
2444.929166615347
 30
0.0
  0
ENDBLK
  5
697F
330
6974
100
AcDbEntity
  8
0
100
AcDbBlockEnd
  0
BLOCK
  5
698A
330
6980
100
AcDbEntity
  8
0
100
AcDbBlockBegin
  2
*D8
 70
     1
 10
0.0
 20
0.0
 30
0.0
  3
*D8
  1

  0
LINE
  5
701A
330
6980
100
AcDbEntity
  8
AM_5
100
AcDbLine
 10
1237.943780671269
 20
2335.519696498215
 30
0.0
 11
1237.943780671269
 21
2321.08576229257
 31
0.0
  0
LINE
  5
701B
330
6980
100
AcDbEntity
  8
AM_5
100
AcDbLine
 10
1255.943780671269
 20
2335.519696498215
 30
0.0
 11
1255.943780671269
 21
2321.08576229257
 31
0.0
  0
LINE
  5
701C
330
6980
100
AcDbEntity
  8
AM_5
100
AcDbLine
 10
1242.443780671269
 20
2322.58576229257
 30
0.0
 11
1251.443780671269
 21
2322.58576229257
 31
0.0
  0
SOLID
  5
701D
330
6980
100
AcDbEntity
  8
AM_5
100
AcDbTrace
 10
1242.443780671269
 20
2323.33576229257
 30
0.0
 11
1242.443780671269
 21
2321.83576229257
 31
0.0
 12
1237.943780671269
 22
2322.58576229257
 32
0.0
 13
1237.943780671269
 23
2322.58576229257
 33
0.0
  0
SOLID
  5
701E
330
6980
100
AcDbEntity
  8
AM_5
100
AcDbTrace
 10
1251.443780671269
 20
2323.33576229257
 30
0.0
 11
1251.443780671269
 21
2321.83576229257
 31
0.0
 12
1255.943780671269
 22
2322.58576229257
 32
0.0
 13
1255.943780671269
 23
2322.58576229257
 33
0.0
  0
MTEXT
  5
701F
330
6980
100
AcDbEntity
  8
AM_5
100
AcDbMText
 10
1246.943780671269
 20
2326.58576229257
 30
0.0
 40
5.0
 41
0.0
 71
     5
 72
     1
  1
18
 73
     1
 44
1.0
1001
ACAD
1000
MTEXTBEGIN
1070
    73
1070
     1
1070
    44
1040
1.0
1070
    74
1070
     0
1000
MTEXTEND
  0
POINT
  5
7020
330
6980
100
AcDbEntity
  8
Defpoints
 62
     0
100
AcDbPoint
 10
1237.943780671269
 20
2336.519696498215
 30
0.0
  0
POINT
  5
7021
330
6980
100
AcDbEntity
  8
Defpoints
 62
     0
100
AcDbPoint
 10
1255.943780671269
 20
2336.519696498215
 30
0.0
  0
POINT
  5
7022
330
6980
100
AcDbEntity
  8
Defpoints
 62
     0
100
AcDbPoint
 10
1255.943780671269
 20
2322.58576229257
 30
0.0
  0
ENDBLK
  5
698B
330
6980
100
AcDbEntity
  8
0
100
AcDbBlockEnd
  0
BLOCK
  5
6995
330
698C
100
AcDbEntity
  8
0
100
AcDbBlockBegin
  2
*D9
 70
     1
 10
0.0
 20
0.0
 30
0.0
  3
*D9
  1

  0
LINE
  5
7023
330
698C
100
AcDbEntity
  8
AM_5
100
AcDbLine
 10
1255.943780671269
 20
2323.585762292569
 30
0.0
 11
1255.943780671269
 21
2324.08576229257
 31
0.0
  0
LINE
  5
7024
330
698C
100
AcDbEntity
  8
AM_5
100
AcDbLine
 10
1339.943780671269
 20
2347.385696498215
 30
0.0
 11
1339.943780671269
 21
2321.08576229257
 31
0.0
  0
LINE
  5
7025
330
698C
100
AcDbEntity
  8
AM_5
100
AcDbLine
 10
1260.443780671269
 20
2322.58576229257
 30
0.0
 11
1335.443780671269
 21
2322.58576229257
 31
0.0
  0
SOLID
  5
7026
330
698C
100
AcDbEntity
  8
AM_5
100
AcDbTrace
 10
1260.443780671269
 20
2323.33576229257
 30
0.0
 11
1260.443780671269
 21
2321.83576229257
 31
0.0
 12
1255.943780671269
 22
2322.58576229257
 32
0.0
 13
1255.943780671269
 23
2322.58576229257
 33
0.0
  0
SOLID
  5
7027
330
698C
100
AcDbEntity
  8
AM_5
100
AcDbTrace
 10
1335.443780671269
 20
2323.33576229257
 30
0.0
 11
1335.443780671269
 21
2321.83576229257
 31
0.0
 12
1339.943780671269
 22
2322.58576229257
 32
0.0
 13
1339.943780671269
 23
2322.58576229257
 33
0.0
  0
MTEXT
  5
7028
330
698C
100
AcDbEntity
  8
AM_5
100
AcDbMText
 10
1297.943780671269
 20
2326.58576229257
 30
0.0
 40
5.0
 41
0.0
 71
     5
 72
     1
  1
84
 73
     1
 44
1.0
1001
ACAD
1000
MTEXTBEGIN
1070
    73
1070
     1
1070
    44
1040
1.0
1070
    74
1070
     0
1000
MTEXTEND
  0
POINT
  5
7029
330
698C
100
AcDbEntity
  8
Defpoints
 62
     0
100
AcDbPoint
 10
1255.943780671269
 20
2322.58576229257
 30
0.0
  0
POINT
  5
702A
330
698C
100
AcDbEntity
  8
Defpoints
 62
     0
100
AcDbPoint
 10
1339.943780671269
 20
2348.385696498215
 30
0.0
  0
POINT
  5
702B
330
698C
100
AcDbEntity
  8
Defpoints
 62
     0
100
AcDbPoint
 10
1339.943780671269
 20
2322.58576229257
 30
0.0
  0
ENDBLK
  5
6996
330
698C
100
AcDbEntity
  8
0
100
AcDbBlockEnd
  0
BLOCK
  5
69A1
330
6997
100
AcDbEntity
  8
0
100
AcDbBlockBegin
  2
*D10
 70
     1
 10
0.0
 20
0.0
 30
0.0
  3
*D10
  1

  0
LINE
  5
702C
330
6997
100
AcDbEntity
  8
AM_5
100
AcDbLine
 10
1340.943780671269
 20
2739.35823850999
 30
0.0
 11
1361.165294087224
 21
2739.35823850999
 31
0.0
  0
LINE
  5
702D
330
6997
100
AcDbEntity
  8
AM_5
100
AcDbLine
 10
1340.943780671269
 20
2573.35823850999
 30
0.0
 11
1361.165294087224
 21
2573.35823850999
 31
0.0
  0
LINE
  5
702E
330
6997
100
AcDbEntity
  8
AM_5
100
AcDbLine
 10
1359.665294087224
 20
2734.85823850999
 30
0.0
 11
1359.665294087224
 21
2577.85823850999
 31
0.0
  0
SOLID
  5
702F
330
6997
100
AcDbEntity
  8
AM_5
100
AcDbTrace
 10
1358.915294087224
 20
2734.85823850999
 30
0.0
 11
1360.415294087224
 21
2734.85823850999
 31
0.0
 12
1359.665294087224
 22
2739.35823850999
 32
0.0
 13
1359.665294087224
 23
2739.35823850999
 33
0.0
  0
SOLID
  5
7030
330
6997
100
AcDbEntity
  8
AM_5
100
AcDbTrace
 10
1358.915294087224
 20
2577.85823850999
 30
0.0
 11
1360.415294087224
 21
2577.85823850999
 31
0.0
 12
1359.665294087224
 22
2573.35823850999
 32
0.0
 13
1359.665294087224
 23
2573.35823850999
 33
0.0
  0
MTEXT
  5
7031
330
6997
100
AcDbEntity
  8
AM_5
100
AcDbMText
 10
1355.665294087224
 20
2656.35823850999
 30
0.0
 40
5.0
 41
0.0
 71
     5
 72
     1
  1
%%C166
 11
0.0000000000000001
 21
1.0
 31
0.0
 73
     1
 44
1.0
1001
ACAD
1000
MTEXTBEGIN
1070
    73
1070
     1
1070
    44
1040
1.0
1070
    74
1070
     0
1000
MTEXTEND
  0
POINT
  5
7032
330
6997
100
AcDbEntity
  8
Defpoints
 62
     0
100
AcDbPoint
 10
1339.943780671269
 20
2739.35823850999
 30
0.0
  0
POINT
  5
7033
330
6997
100
AcDbEntity
  8
Defpoints
 62
     0
100
AcDbPoint
 10
1339.943780671269
 20
2573.35823850999
 30
0.0
  0
POINT
  5
7034
330
6997
100
AcDbEntity
  8
Defpoints
 62
     0
100
AcDbPoint
 10
1359.665294087224
 20
2573.35823850999
 30
0.0
  0
ENDBLK
  5
69A2
330
6997
100
AcDbEntity
  8
0
100
AcDbBlockEnd
  0
BLOCK
  5
69AD
330
69A3
100
AcDbEntity
  8
0
100
AcDbBlockBegin
  2
*D11
 70
     1
 10
0.0
 20
0.0
 30
0.0
  3
*D11
  1

  0
LINE
  5
7035
330
69A3
100
AcDbEntity
  8
AM_5
100
AcDbLine
 10
1225.943780671269
 20
2729.71823850999
 30
0.0
 11
1225.943780671269
 21
2774.338853085763
 31
0.0
  0
LINE
  5
7036
330
69A3
100
AcDbEntity
  8
AM_5
100
AcDbLine
 10
1339.943780671269
 20
2753.430172914142
 30
0.0
 11
1339.943780671269
 21
2774.338853085763
 31
0.0
  0
LINE
  5
7037
330
69A3
100
AcDbEntity
  8
AM_5
100
AcDbLine
 10
1230.443780671269
 20
2772.838853085763
 30
0.0
 11
1335.443780671269
 21
2772.838853085763
 31
0.0
  0
SOLID
  5
7038
330
69A3
100
AcDbEntity
  8
AM_5
100
AcDbTrace
 10
1230.443780671269
 20
2773.588853085763
 30
0.0
 11
1230.443780671269
 21
2772.088853085763
 31
0.0
 12
1225.943780671269
 22
2772.838853085763
 32
0.0
 13
1225.943780671269
 23
2772.838853085763
 33
0.0
  0
SOLID
  5
7039
330
69A3
100
AcDbEntity
  8
AM_5
100
AcDbTrace
 10
1335.443780671269
 20
2773.588853085763
 30
0.0
 11
1335.443780671269
 21
2772.088853085763
 31
0.0
 12
1339.943780671269
 22
2772.838853085763
 32
0.0
 13
1339.943780671269
 23
2772.838853085763
 33
0.0
  0
MTEXT
  5
703A
330
69A3
100
AcDbEntity
  8
AM_5
100
AcDbMText
 10
1282.943780671269
 20
2776.838853085763
 30
0.0
 40
5.0
 41
0.0
 71
     5
 72
     1
  1
114
 73
     1
 44
1.0
1001
ACAD
1000
MTEXTBEGIN
1070
    73
1070
     1
1070
    44
1040
1.0
1070
    74
1070
     0
1000
MTEXTEND
  0
POINT
  5
703B
330
69A3
100
AcDbEntity
  8
Defpoints
 62
     0
100
AcDbPoint
 10
1225.943780671269
 20
2728.71823850999
 30
0.0
  0
POINT
  5
703C
330
69A3
100
AcDbEntity
  8
Defpoints
 62
     0
100
AcDbPoint
 10
1339.943780671269
 20
2752.430172914142
 30
0.0
  0
POINT
  5
703D
330
69A3
100
AcDbEntity
  8
Defpoints
 62
     0
100
AcDbPoint
 10
1339.943780671269
 20
2772.838853085763
 30
0.0
  0
ENDBLK
  5
69AE
330
69A3
100
AcDbEntity
  8
0
100
AcDbBlockEnd
  0
BLOCK
  5
69B9
330
69AF
100
AcDbEntity
  8
0
100
AcDbBlockBegin
  2
*D12
 70
     1
 10
0.0
 20
0.0
 30
0.0
  3
*D12
  1

  0
LINE
  5
703E
330
69AF
100
AcDbEntity
  8
AM_5
100
AcDbLine
 10
1217.943780671269
 20
2764.835023191171
 30
0.0
 11
1217.943780671269
 21
2774.338853085763
 31
0.0
  0
LINE
  5
703F
330
69AF
100
AcDbEntity
  8
AM_5
100
AcDbLine
 10
1225.943780671269
 20
2771.437832703324
 30
0.0
 11
1225.943780671269
 21
2774.338853085763
 31
0.0
  0
LINE
  5
7040
330
69AF
100
AcDbEntity
  8
AM_5
100
AcDbLine
 10
1213.443780671269
 20
2772.838853085763
 30
0.0
 11
1208.943780671269
 21
2772.838853085763
 31
0.0
  0
LINE
  5
7041
330
69AF
100
AcDbEntity
  8
AM_5
100
AcDbLine
 10
1230.443780671269
 20
2772.838853085763
 30
0.0
 11
1234.943780671269
 21
2772.838853085763
 31
0.0
  0
LINE
  5
7042
330
69AF
100
AcDbEntity
  8
AM_5
100
AcDbLine
 10
1217.943780671269
 20
2772.838853085763
 30
0.0
 11
1225.943780671269
 21
2772.838853085763
 31
0.0
  0
SOLID
  5
7043
330
69AF
100
AcDbEntity
  8
AM_5
100
AcDbTrace
 10
1213.443780671269
 20
2773.588853085763
 30
0.0
 11
1213.443780671269
 21
2772.088853085763
 31
0.0
 12
1217.943780671269
 22
2772.838853085763
 32
0.0
 13
1217.943780671269
 23
2772.838853085763
 33
0.0
  0
SOLID
  5
7044
330
69AF
100
AcDbEntity
  8
AM_5
100
AcDbTrace
 10
1230.443780671269
 20
2773.588853085763
 30
0.0
 11
1230.443780671269
 21
2772.088853085763
 31
0.0
 12
1225.943780671269
 22
2772.838853085763
 32
0.0
 13
1225.943780671269
 23
2772.838853085763
 33
0.0
  0
MTEXT
  5
7045
330
69AF
100
AcDbEntity
  8
AM_5
100
AcDbMText
 10
1221.943780671269
 20
2776.838853085763
 30
0.0
 40
5.0
 41
0.0
 71
     5
 72
     1
  1
8
 73
     1
 44
1.0
1001
ACAD
1000
MTEXTBEGIN
1070
    73
1070
     1
1070
    44
1040
1.0
1070
    74
1070
     0
1000
MTEXTEND
  0
POINT
  5
7046
330
69AF
100
AcDbEntity
  8
Defpoints
 62
     0
100
AcDbPoint
 10
1217.943780671269
 20
2763.835023191172
 30
0.0
  0
POINT
  5
7047
330
69AF
100
AcDbEntity
  8
Defpoints
 62
     0
100
AcDbPoint
 10
1225.943780671269
 20
2770.437832703324
 30
0.0
  0
POINT
  5
7048
330
69AF
100
AcDbEntity
  8
Defpoints
 62
     0
100
AcDbPoint
 10
1225.943780671269
 20
2772.838853085763
 30
0.0
  0
ENDBLK
  5
69BA
330
69AF
100
AcDbEntity
  8
0
100
AcDbBlockEnd
  0
BLOCK
  5
69C4
330
69BB
100
AcDbEntity
  8
0
100
AcDbBlockBegin
  2
*D13
 70
     1
 10
0.0
 20
0.0
 30
0.0
  3
*D13
  1

  0
LINE
  5
7049
330
69BB
100
AcDbEntity
  8
AM_5
100
AcDbLine
 10
1212.283780671269
 20
2656.35823850999
 30
0.0
 11
1194.221851967299
 21
2656.35823850999
 31
0.0
  0
LINE
  5
704A
330
69BB
100
AcDbEntity
  8
AM_5
100
AcDbLine
 10
1194.721851967299
 20
2702.35823850999
 30
0.0
 11
1194.221851967299
 21
2702.35823850999
 31
0.0
  0
LINE
  5
704B
330
69BB
100
AcDbEntity
  8
AM_5
100
AcDbLine
 10
1195.721851967299
 20
2660.85823850999
 30
0.0
 11
1195.721851967299
 21
2697.85823850999
 31
0.0
  0
SOLID
  5
704C
330
69BB
100
AcDbEntity
  8
AM_5
100
AcDbTrace
 10
1194.971851967299
 20
2660.85823850999
 30
0.0
 11
1196.471851967299
 21
2660.85823850999
 31
0.0
 12
1195.721851967299
 22
2656.35823850999
 32
0.0
 13
1195.721851967299
 23
2656.35823850999
 33
0.0
  0
SOLID
  5
704D
330
69BB
100
AcDbEntity
  8
AM_5
100
AcDbTrace
 10
1194.971851967299
 20
2697.85823850999
 30
0.0
 11
1196.471851967299
 21
2697.85823850999
 31
0.0
 12
1195.721851967299
 22
2702.35823850999
 32
0.0
 13
1195.721851967299
 23
2702.35823850999
 33
0.0
  0
MTEXT
  5
704E
330
69BB
100
AcDbEntity
  8
AM_5
100
AcDbMText
 10
1191.721851967298
 20
2679.35823850999
 30
0.0
 40
5.0
 41
0.0
 71
     5
 72
     1
  1
46
 11
0.0000000000000001
 21
1.0
 31
0.0
 73
     1
 44
1.0
1001
ACAD
1000
MTEXTBEGIN
1070
    73
1070
     1
1070
    44
1040
1.0
1070
    74
1070
     0
1000
MTEXTEND
  0
POINT
  5
704F
330
69BB
100
AcDbEntity
  8
Defpoints
 62
     0
100
AcDbPoint
 10
1213.283780671269
 20
2656.35823850999
 30
0.0
  0
POINT
  5
7050
330
69BB
100
AcDbEntity
  8
Defpoints
 62
     0
100
AcDbPoint
 10
1195.721851967299
 20
2702.35823850999
 30
0.0
  0
POINT
  5
7051
330
69BB
100
AcDbEntity
  8
Defpoints
 62
     0
100
AcDbPoint
 10
1195.721851967299
 20
2702.35823850999
 30
0.0
  0
ENDBLK
  5
69C5
330
69BB
100
AcDbEntity
  8
0
100
AcDbBlockEnd
  0
BLOCK
  5
69D0
330
69C6
100
AcDbEntity
  8
0
100
AcDbBlockBegin
  2
*D14
 70
     1
 10
0.0
 20
0.0
 30
0.0
  3
*D14
  1

  0
LINE
  5
7052
330
69C6
100
AcDbEntity
  8
AM_5
100
AcDbLine
 10
1205.637397190347
 20
2702.35823850999
 30
0.0
 11
1194.221851967299
 21
2702.35823850999
 31
0.0
  0
LINE
  5
7053
330
69C6
100
AcDbEntity
  8
AM_5
100
AcDbLine
 10
1216.943780671269
 20
2754.35823850999
 30
0.0
 11
1194.221851967299
 21
2754.35823850999
 31
0.0
  0
LINE
  5
7054
330
69C6
100
AcDbEntity
  8
AM_5
100
AcDbLine
 10
1195.721851967299
 20
2706.85823850999
 30
0.0
 11
1195.721851967299
 21
2749.85823850999
 31
0.0
  0
SOLID
  5
7055
330
69C6
100
AcDbEntity
  8
AM_5
100
AcDbTrace
 10
1194.971851967299
 20
2706.85823850999
 30
0.0
 11
1196.471851967299
 21
2706.85823850999
 31
0.0
 12
1195.721851967299
 22
2702.35823850999
 32
0.0
 13
1195.721851967299
 23
2702.35823850999
 33
0.0
  0
SOLID
  5
7056
330
69C6
100
AcDbEntity
  8
AM_5
100
AcDbTrace
 10
1194.971851967299
 20
2749.85823850999
 30
0.0
 11
1196.471851967299
 21
2749.85823850999
 31
0.0
 12
1195.721851967299
 22
2754.35823850999
 32
0.0
 13
1195.721851967299
 23
2754.35823850999
 33
0.0
  0
MTEXT
  5
7057
330
69C6
100
AcDbEntity
  8
AM_5
100
AcDbMText
 10
1191.721359841314
 20
2728.35823850999
 30
0.0
 40
5.0
 41
0.0
 71
     5
 72
     1
  1
52
 11
0.0000000000000001
 21
1.0
 31
0.0
 73
     1
 44
1.0
1001
ACAD
1000
MTEXTBEGIN
1070
    73
1070
     1
1070
    44
1040
1.0
1070
    74
1070
     0
1000
MTEXTEND
  0
POINT
  5
7058
330
69C6
100
AcDbEntity
  8
Defpoints
 62
     0
100
AcDbPoint
 10
1206.637397190347
 20
2702.35823850999
 30
0.0
  0
POINT
  5
7059
330
69C6
100
AcDbEntity
  8
Defpoints
 62
     0
100
AcDbPoint
 10
1217.943780671269
 20
2754.35823850999
 30
0.0
  0
POINT
  5
705A
330
69C6
100
AcDbEntity
  8
Defpoints
 62
     0
100
AcDbPoint
 10
1195.721851967299
 20
2754.35823850999
 30
0.0
  0
ENDBLK
  5
69D1
330
69C6
100
AcDbEntity
  8
0
100
AcDbBlockEnd
  0
BLOCK
  5
69DD
330
69D2
100
AcDbEntity
  8
0
100
AcDbBlockBegin
  2
*D15
 70
     1
 10
0.0
 20
0.0
 30
0.0
  3
*D15
  1

  0
LINE
  5
705B
330
69D2
100
AcDbEntity
  8
AM_5
100
AcDbLine
 10
1207.637397190347
 20
2723.35823850999
 30
0.0
 11
1208.137397190347
 21
2723.35823850999
 31
0.0
  0
LINE
  5
705C
330
69D2
100
AcDbEntity
  8
AM_5
100
AcDbLine
 10
1216.943780671269
 20
2733.35823850999
 30
0.0
 11
1205.137397190348
 21
2733.35823850999
 31
0.0
  0
LINE
  5
705D
330
69D2
100
AcDbEntity
  8
AM_5
100
AcDbLine
 10
1206.637397190348
 20
2718.85823850999
 30
0.0
 11
1206.637397190348
 21
2714.35823850999
 31
0.0
  0
LINE
  5
705E
330
69D2
100
AcDbEntity
  8
AM_5
100
AcDbLine
 10
1206.637397190348
 20
2737.85823850999
 30
0.0
 11
1206.637397190348
 21
2742.35823850999
 31
0.0
  0
LINE
  5
705F
330
69D2
100
AcDbEntity
  8
AM_5
100
AcDbLine
 10
1206.637397190348
 20
2723.35823850999
 30
0.0
 11
1206.637397190348
 21
2733.35823850999
 31
0.0
  0
SOLID
  5
7060
330
69D2
100
AcDbEntity
  8
AM_5
100
AcDbTrace
 10
1205.887397190348
 20
2718.85823850999
 30
0.0
 11
1207.387397190348
 21
2718.85823850999
 31
0.0
 12
1206.637397190348
 22
2723.35823850999
 32
0.0
 13
1206.637397190348
 23
2723.35823850999
 33
0.0
  0
SOLID
  5
7061
330
69D2
100
AcDbEntity
  8
AM_5
100
AcDbTrace
 10
1205.887397190348
 20
2737.85823850999
 30
0.0
 11
1207.387397190348
 21
2737.85823850999
 31
0.0
 12
1206.637397190348
 22
2733.35823850999
 32
0.0
 13
1206.637397190348
 23
2733.35823850999
 33
0.0
  0
MTEXT
  5
7062
330
69D2
100
AcDbEntity
  8
AM_5
100
AcDbMText
 10
1202.637397190347
 20
2728.35823850999
 30
0.0
 40
5.0
 41
0.0
 71
     5
 72
     1
  1
10H9
 11
0.0000000000000001
 21
1.0
 31
0.0
 73
     1
 44
1.0
1001
ACAD
1000
MTEXTBEGIN
1070
    73
1070
     1
1070
    44
1040
1.0
1070
    74
1070
     0
1000
MTEXTEND
  0
POINT
  5
7063
330
69D2
100
AcDbEntity
  8
Defpoints
 62
     0
100
AcDbPoint
 10
1206.637397190347
 20
2723.35823850999
 30
0.0
  0
POINT
  5
7064
330
69D2
100
AcDbEntity
  8
Defpoints
 62
     0
100
AcDbPoint
 10
1217.943780671269
 20
2733.35823850999
 30
0.0
  0
POINT
  5
7065
330
69D2
100
AcDbEntity
  8
Defpoints
 62
     0
100
AcDbPoint
 10
1206.637397190348
 20
2733.35823850999
 30
0.0
  0
ENDBLK
  5
69DE
330
69D2
100
AcDbEntity
  8
0
100
AcDbBlockEnd
  0
BLOCK
  5
69E9
330
69DF
100
AcDbEntity
  8
0
100
AcDbBlockBegin
  2
*D16
 70
     1
 10
0.0
 20
0.0
 30
0.0
  3
*D16
  1

  0
LINE
  5
7066
330
69DF
100
AcDbEntity
  8
AM_5
100
AcDbLine
 10
1216.943780671269
 20
2702.35823850999
 30
0.0
 11
1205.137397190347
 21
2702.35823850999
 31
0.0
  0
LINE
  5
7067
330
69DF
100
AcDbEntity
  8
AM_5
100
AcDbLine
 10
1216.943780671269
 20
2723.35823850999
 30
0.0
 11
1205.137397190347
 21
2723.35823850999
 31
0.0
  0
LINE
  5
7068
330
69DF
100
AcDbEntity
  8
AM_5
100
AcDbLine
 10
1206.637397190347
 20
2706.85823850999
 30
0.0
 11
1206.637397190347
 21
2718.85823850999
 31
0.0
  0
SOLID
  5
7069
330
69DF
100
AcDbEntity
  8
AM_5
100
AcDbTrace
 10
1205.887397190347
 20
2706.85823850999
 30
0.0
 11
1207.387397190347
 21
2706.85823850999
 31
0.0
 12
1206.637397190347
 22
2702.35823850999
 32
0.0
 13
1206.637397190347
 23
2702.35823850999
 33
0.0
  0
SOLID
  5
706A
330
69DF
100
AcDbEntity
  8
AM_5
100
AcDbTrace
 10
1205.887397190347
 20
2718.85823850999
 30
0.0
 11
1207.387397190347
 21
2718.85823850999
 31
0.0
 12
1206.637397190347
 22
2723.35823850999
 32
0.0
 13
1206.637397190347
 23
2723.35823850999
 33
0.0
  0
MTEXT
  5
706B
330
69DF
100
AcDbEntity
  8
AM_5
100
AcDbMText
 10
1202.636905064362
 20
2712.858238509991
 30
0.0
 40
5.0
 41
0.0
 71
     5
 72
     1
  1
21
 11
0.0000000000000001
 21
1.0
 31
0.0
 73
     1
 44
1.0
1001
ACAD
1000
MTEXTBEGIN
1070
    73
1070
     1
1070
    44
1040
1.0
1070
    74
1070
     0
1000
MTEXTEND
  0
POINT
  5
706C
330
69DF
100
AcDbEntity
  8
Defpoints
 62
     0
100
AcDbPoint
 10
1217.943780671269
 20
2702.35823850999
 30
0.0
  0
POINT
  5
706D
330
69DF
100
AcDbEntity
  8
Defpoints
 62
     0
100
AcDbPoint
 10
1217.943780671269
 20
2723.35823850999
 30
0.0
  0
POINT
  5
706E
330
69DF
100
AcDbEntity
  8
Defpoints
 62
     0
100
AcDbPoint
 10
1206.637397190347
 20
2723.35823850999
 30
0.0
  0
ENDBLK
  5
69EA
330
69DF
100
AcDbEntity
  8
0
100
AcDbBlockEnd
  0
BLOCK
  5
69F7
330
69EB
100
AcDbEntity
  8
0
100
AcDbBlockBegin
  2
*D17
 70
     1
 10
0.0
 20
0.0
 30
0.0
  3
*D17
  1

  0
LINE
  5
706F
330
69EB
100
AcDbEntity
  8
AM_5
100
AcDbLine
 10
1223.943780671269
 20
2734.35823850999
 30
0.0
 11
1223.943780671269
 21
2765.335023191171
 31
0.0
  0
LINE
  5
7070
330
69EB
100
AcDbEntity
  8
AM_5
100
AcDbLine
 10
1217.943780671269
 20
2755.35823850999
 30
0.0
 11
1217.943780671269
 21
2765.335023191171
 31
0.0
  0
LINE
  5
7071
330
69EB
100
AcDbEntity
  8
AM_5
100
AcDbLine
 10
1228.443780671269
 20
2763.835023191172
 30
0.0
 11
1232.943780671269
 21
2763.835023191172
 31
0.0
  0
LINE
  5
7072
330
69EB
100
AcDbEntity
  8
AM_5
100
AcDbLine
 10
1213.443780671269
 20
2763.835023191172
 30
0.0
 11
1208.943780671269
 21
2763.835023191172
 31
0.0
  0
LINE
  5
7073
330
69EB
100
AcDbEntity
  8
AM_5
100
AcDbLine
 10
1223.943780671269
 20
2763.835023191172
 30
0.0
 11
1217.943780671269
 21
2763.835023191172
 31
0.0
  0
SOLID
  5
7074
330
69EB
100
AcDbEntity
  8
AM_5
100
AcDbTrace
 10
1228.443780671269
 20
2764.585023191171
 30
0.0
 11
1228.443780671269
 21
2763.085023191172
 31
0.0
 12
1223.943780671269
 22
2763.835023191172
 32
0.0
 13
1223.943780671269
 23
2763.835023191172
 33
0.0
  0
SOLID
  5
7075
330
69EB
100
AcDbEntity
  8
AM_5
100
AcDbTrace
 10
1213.443780671269
 20
2764.585023191171
 30
0.0
 11
1213.443780671269
 21
2763.085023191172
 31
0.0
 12
1217.943780671269
 22
2763.835023191172
 32
0.0
 13
1217.943780671269
 23
2763.835023191172
 33
0.0
  0
MTEXT
  5
7076
330
69EB
100
AcDbEntity
  8
AM_5
100
AcDbMText
 10
1220.943780671269
 20
2767.835023191171
 30
0.0
 40
5.0
 41
0.0
 71
     5
 72
     1
  1
6
 73
     1
 44
1.0
1001
ACAD
1000
MTEXTBEGIN
1070
    73
1070
     1
1070
    44
1040
1.0
1070
    74
1070
     0
1000
MTEXTEND
  0
POINT
  5
7077
330
69EB
100
AcDbEntity
  8
Defpoints
 62
     0
100
AcDbPoint
 10
1223.943780671269
 20
2733.35823850999
 30
0.0
  0
POINT
  5
7078
330
69EB
100
AcDbEntity
  8
Defpoints
 62
     0
100
AcDbPoint
 10
1217.943780671269
 20
2754.35823850999
 30
0.0
  0
POINT
  5
7079
330
69EB
100
AcDbEntity
  8
Defpoints
 62
     0
100
AcDbPoint
 10
1217.943780671269
 20
2763.835023191172
 30
0.0
  0
ENDBLK
  5
69F8
330
69EB
100
AcDbEntity
  8
0
100
AcDbBlockEnd
  0
BLOCK
  5
6A02
330
69F9
100
AcDbEntity
  8
0
100
AcDbBlockBegin
  2
*D18
 70
     1
 10
0.0
 20
0.0
 30
0.0
  3
*D18
  1

  0
LINE
  5
707A
330
69F9
100
AcDbEntity
  8
AM_5
100
AcDbLine
 10
1316.443780671269
 20
2763.496736486667
 30
0.0
 11
1316.443780671269
 21
2763.996736486667
 31
0.0
  0
LINE
  5
707B
330
69F9
100
AcDbEntity
  8
AM_5
100
AcDbLine
 10
1278.443780671269
 20
2682.57823850999
 30
0.0
 11
1278.443780671269
 21
2763.996736486667
 31
0.0
  0
LINE
  5
707C
330
69F9
100
AcDbEntity
  8
AM_5
100
AcDbLine
 10
1311.943780671269
 20
2762.496736486667
 30
0.0
 11
1282.943780671269
 21
2762.496736486667
 31
0.0
  0
SOLID
  5
707D
330
69F9
100
AcDbEntity
  8
AM_5
100
AcDbTrace
 10
1311.943780671269
 20
2763.246736486667
 30
0.0
 11
1311.943780671269
 21
2761.746736486667
 31
0.0
 12
1316.443780671269
 22
2762.496736486667
 32
0.0
 13
1316.443780671269
 23
2762.496736486667
 33
0.0
  0
SOLID
  5
707E
330
69F9
100
AcDbEntity
  8
AM_5
100
AcDbTrace
 10
1282.943780671269
 20
2763.246736486667
 30
0.0
 11
1282.943780671269
 21
2761.746736486667
 31
0.0
 12
1278.443780671269
 22
2762.496736486667
 32
0.0
 13
1278.443780671269
 23
2762.496736486667
 33
0.0
  0
MTEXT
  5
707F
330
69F9
100
AcDbEntity
  8
AM_5
100
AcDbMText
 10
1297.443780671269
 20
2766.496736486667
 30
0.0
 40
5.0
 41
0.0
 71
     5
 72
     1
  1
38
 73
     1
 44
1.0
1001
ACAD
1000
MTEXTBEGIN
1070
    73
1070
     1
1070
    44
1040
1.0
1070
    74
1070
     0
1000
MTEXTEND
  0
POINT
  5
7080
330
69F9
100
AcDbEntity
  8
Defpoints
 62
     0
100
AcDbPoint
 10
1316.443780671269
 20
2762.496736486667
 30
0.0
  0
POINT
  5
7081
330
69F9
100
AcDbEntity
  8
Defpoints
 62
     0
100
AcDbPoint
 10
1278.443780671269
 20
2681.57823850999
 30
0.0
  0
POINT
  5
7082
330
69F9
100
AcDbEntity
  8
Defpoints
 62
     0
100
AcDbPoint
 10
1278.443780671269
 20
2762.496736486667
 30
0.0
  0
ENDBLK
  5
6A03
330
69F9
100
AcDbEntity
  8
0
100
AcDbBlockEnd
  0
BLOCK
  5
6A0E
330
6A04
100
AcDbEntity
  8
0
100
AcDbBlockBegin
  2
*D19
 70
     1
 10
0.0
 20
0.0
 30
0.0
  3
*D19
  1

  0
LINE
  5
7083
330
6A04
100
AcDbEntity
  8
AM_5
100
AcDbLine
 10
1316.443780671269
 20
2728.45823850999
 30
0.0
 11
1316.443780671269
 21
2763.996736486667
 31
0.0
  0
LINE
  5
7084
330
6A04
100
AcDbEntity
  8
AM_5
100
AcDbLine
 10
1339.943780671269
 20
2740.35823850999
 30
0.0
 11
1339.943780671269
 21
2763.996736486667
 31
0.0
  0
LINE
  5
7085
330
6A04
100
AcDbEntity
  8
AM_5
100
AcDbLine
 10
1320.943780671269
 20
2762.496736486667
 30
0.0
 11
1335.443780671269
 21
2762.496736486667
 31
0.0
  0
SOLID
  5
7086
330
6A04
100
AcDbEntity
  8
AM_5
100
AcDbTrace
 10
1320.943780671269
 20
2763.246736486667
 30
0.0
 11
1320.943780671269
 21
2761.746736486667
 31
0.0
 12
1316.443780671269
 22
2762.496736486667
 32
0.0
 13
1316.443780671269
 23
2762.496736486667
 33
0.0
  0
SOLID
  5
7087
330
6A04
100
AcDbEntity
  8
AM_5
100
AcDbTrace
 10
1335.443780671269
 20
2763.246736486667
 30
0.0
 11
1335.443780671269
 21
2761.746736486667
 31
0.0
 12
1339.943780671269
 22
2762.496736486667
 32
0.0
 13
1339.943780671269
 23
2762.496736486667
 33
0.0
  0
MTEXT
  5
7088
330
6A04
100
AcDbEntity
  8
AM_5
100
AcDbMText
 10
1328.193780671269
 20
2766.497228612652
 30
0.0
 40
5.0
 41
0.0
 71
     5
 72
     1
  1
23.5
 73
     1
 44
1.0
1001
ACAD
1000
MTEXTBEGIN
1070
    73
1070
     1
1070
    44
1040
1.0
1070
    74
1070
     0
1000
MTEXTEND
  0
POINT
  5
7089
330
6A04
100
AcDbEntity
  8
Defpoints
 62
     0
100
AcDbPoint
 10
1316.443780671269
 20
2727.45823850999
 30
0.0
  0
POINT
  5
708A
330
6A04
100
AcDbEntity
  8
Defpoints
 62
     0
100
AcDbPoint
 10
1339.943780671269
 20
2739.35823850999
 30
0.0
  0
POINT
  5
708B
330
6A04
100
AcDbEntity
  8
Defpoints
 62
     0
100
AcDbPoint
 10
1339.943780671269
 20
2762.496736486667
 30
0.0
  0
ENDBLK
  5
6A0F
330
6A04
100
AcDbEntity
  8
0
100
AcDbBlockEnd
  0
BLOCK
  5
6C32
330
6C28
100
AcDbEntity
  8
0
100
AcDbBlockBegin
  2
*D20
 70
     1
 10
0.0
 20
0.0
 30
0.0
  3
*D20
  1

  0
LINE
  5
708C
330
6C28
100
AcDbEntity
  8
AM_5
100
AcDbLine
 10
1101.926782340497
 20
2340.152671195377
 30
0.0
 11
1116.629607451127
 21
2314.68664296251
 31
0.0
  0
LINE
  5
708D
330
6C28
100
AcDbEntity
  8
AM_5
100
AcDbLine
 10
1120.978726090967
 20
2351.152768623551
 30
0.0
 11
1135.681744951733
 21
2325.686404805762
 31
0.0
  0
LINE
  5
708E
330
6C28
100
AcDbEntity
  8
AM_5
100
AcDbLine
 10
1119.776721051633
 20
2318.235681703565
 30
0.0
 11
1131.034630826695
 21
2324.735441973223
 31
0.0
  0
SOLID
  5
708F
330
6C28
100
AcDbEntity
  8
AM_5
100
AcDbTrace
 10
1119.4017209205
 20
2318.885200680693
 30
0.0
 11
1120.151721182766
 21
2317.586162726436
 31
0.0
 12
1115.879607188861
 22
2315.985680916768
 32
0.0
 13
1115.879607188861
 23
2315.985680916768
 33
0.0
  0
SOLID
  5
7090
330
6C28
100
AcDbEntity
  8
AM_5
100
AcDbTrace
 10
1130.659630695562
 20
2325.384960950351
 30
0.0
 11
1131.409630957828
 21
2324.085922996094
 31
0.0
 12
1134.931744689467
 22
2326.985442760021
 32
0.0
 13
1134.931744689467
 23
2326.985442760021
 33
0.0
  0
MTEXT
  5
7091
330
6C28
100
AcDbEntity
  8
AM_5
100
AcDbMText
 10
1123.405429176711
 20
2324.950089243301
 30
0.0
 40
5.0
 41
0.0
 71
     5
 72
     1
  1
22{}{\C2; h9}
 11
0.8660253028382749
 21
0.5000001748438435
 31
0.0
 73
     1
 44
1.0
1001
ACAD
1000
MTEXTBEGIN
1070
    73
1070
     1
1070
    44
1040
1.0
1070
    74
1070
     0
1000
MTEXTEND
  0
POINT
  5
7092
330
6C28
100
AcDbEntity
  8
Defpoints
 62
     0
100
AcDbPoint
 10
1101.426782165653
 20
2341.018696498215
 30
0.0
  0
POINT
  5
7093
330
6C28
100
AcDbEntity
  8
Defpoints
 62
     0
100
AcDbPoint
 10
1120.478725916123
 20
2352.018793926389
 30
0.0
  0
POINT
  5
7094
330
6C28
100
AcDbEntity
  8
Defpoints
 62
     0
100
AcDbPoint
 10
1134.931744689467
 20
2326.985442760021
 30
0.0
  0
ENDBLK
  5
6C33
330
6C28
100
AcDbEntity
  8
0
100
AcDbBlockEnd
  0
BLOCK
  5
6FCA
330
6FBE
100
AcDbEntity
  8
0
100
AcDbBlockBegin
  2
*D22
 70
     1
 10
0.0
 20
0.0
 30
0.0
  3
*D22
  1

  0
LINE
  5
7095
330
6FBE
100
AcDbEntity
  8
AM_5
100
AcDbLine
 10
1005.458782165653
 20
2421.658696498215
 30
0.0
 11
1005.458782165653
 21
2333.987897972239
 31
0.0
  0
LINE
  5
7096
330
6FBE
100
AcDbEntity
  8
AM_5
100
AcDbLine
 10
1015.958782165653
 20
2419.386696498215
 30
0.0
 11
1015.958782165653
 21
2333.987897972239
 31
0.0
  0
LINE
  5
7097
330
6FBE
100
AcDbEntity
  8
AM_5
100
AcDbLine
 10
1000.958782165653
 20
2335.487897972239
 30
0.0
 11
996.4587821656536
 21
2335.487897972239
 31
0.0
  0
LINE
  5
7098
330
6FBE
100
AcDbEntity
  8
AM_5
100
AcDbLine
 10
1020.458782165653
 20
2335.487897972239
 30
0.0
 11
1037.66588894684
 21
2335.487897972239
 31
0.0
  0
LINE
  5
7099
330
6FBE
100
AcDbEntity
  8
AM_5
100
AcDbLine
 10
1005.458782165653
 20
2335.487897972239
 30
0.0
 11
1015.958782165653
 21
2335.487897972239
 31
0.0
  0
SOLID
  5
709A
330
6FBE
100
AcDbEntity
  8
AM_5
100
AcDbTrace
 10
1000.958782165653
 20
2336.237897972239
 30
0.0
 11
1000.958782165653
 21
2334.737897972239
 31
0.0
 12
1005.458782165653
 22
2335.487897972239
 32
0.0
 13
1005.458782165653
 23
2335.487897972239
 33
0.0
  0
SOLID
  5
709B
330
6FBE
100
AcDbEntity
  8
AM_5
100
AcDbTrace
 10
1020.458782165653
 20
2336.237897972239
 30
0.0
 11
1020.458782165653
 21
2334.737897972239
 31
0.0
 12
1015.958782165653
 22
2335.487897972239
 32
0.0
 13
1015.958782165653
 23
2335.487897972239
 33
0.0
  0
MTEXT
  5
709C
330
6FBE
100
AcDbEntity
  8
AM_5
100
AcDbMText
 10
1031.312335556247
 20
2339.487897972238
 30
0.0
 40
5.0
 41
0.0
 71
     5
 72
     1
  1
10.5
 73
     1
 44
1.0
1001
ACAD
1000
MTEXTBEGIN
1070
    73
1070
     1
1070
    44
1040
1.0
1070
    74
1070
     0
1000
MTEXTEND
  0
POINT
  5
709D
330
6FBE
100
AcDbEntity
  8
Defpoints
 62
     0
100
AcDbPoint
 10
1005.458782165653
 20
2422.658696498216
 30
0.0
  0
POINT
  5
709E
330
6FBE
100
AcDbEntity
  8
Defpoints
 62
     0
100
AcDbPoint
 10
1015.958782165653
 20
2420.386696498216
 30
0.0
  0
POINT
  5
709F
330
6FBE
100
AcDbEntity
  8
Defpoints
 62
     0
100
AcDbPoint
 10
1015.958782165653
 20
2335.487897972239
 30
0.0
  0
ENDBLK
  5
6FCB
330
6FBE
100
AcDbEntity
  8
0
100
AcDbBlockEnd
  0
ENDSEC
  0
SECTION
  2
ENTITIES
  0
TEXT
  5
AE3
330
1F
100
AcDbEntity
  8
M_1
 62
     4
100
AcDbText
 10
298.4979942115772
 20
71.23545134413652
 30
0.0
 40
5.0
  1

 41
0.75
  7
DAYUS
 11
298.4979942115772
 21
71.23545134413652
 31
0.0
100
AcDbText
 73
     1
  0
LINE
  5
2824
330
1F
100
AcDbEntity
  8
LOGO
 62
     1
100
AcDbLine
 10
1678.784030946262
 20
2289.713193750509
 30
0.0
 11
909.4019993792107
 21
2289.713193750509
 31
0.0
  0
LWPOLYLINE
  5
2838
330
1F
100
AcDbEntity
  8
0
 62
     4
100
AcDbPolyline
 90
        4
 70
     1
 43
0.0
 10
909.4019993792105
 20
2289.713193750509
 10
1678.784030946262
 20
2289.713193750509
 10
1678.784030946262
 20
2797.398533879904
 10
909.4019993792105
 20
2797.398533879904
1001
GENIUS_GENREC_14
1002
{
1000
PYDIR
1011
909.4019993792105
1021
2797.398533879904
1031
0.0
1002
}
1002
{
1000
PXDIR
1011
1678.784030946262
1021
2289.713193750509
1031
0.0
1002
}
1002
{
1000
PORI
1011
909.4019993792105
1021
2289.713193750509
1031
0.0
1002
}
1002
{
1000
PINS
1011
909.4019993792105
1021
2289.713193750509
1031
0.0
1002
}
1002
{
1000
PINS2
1011
1678.784030946262
1021
2797.398533879904
1031
0.0
1002
}
1002
{
1000
C
1070
     1
1002
}
1001
GENIUS_GENODEF_13
1002
{
1000
HIER
1070
     0
1002
}
1002
{
1000
MANEDIT
1070
     0
1002
}
1002
{
1000
NOSEL
1070
     0
1002
}
1002
{
1000
BEHIND
1070
     0
1002
}
1002
{
1000
OTHER
1070
     0
1002
}
1002
{
1000
REACTOR
1002
}
1001
GENIUS_GENOBJ-N-REC_13
1002
{
1000
OWNER
1000
GEN
1002
}
  0
LWPOLYLINE
  5
2872
330
1F
100
AcDbEntity
  8
LOGO
 62
     4
100
AcDbPolyline
 90
        4
 70
     1
 43
0.0
 10
909.4019993792105
 20
2289.713193750509
 10
1678.784030946262
 20
2289.713193750509
 10
1678.784030946262
 20
2225.853480368915
 10
909.4019993792105
 20
2225.853480368915
1001
GENIUS_GENREC_14
1002
{
1000
PYDIR
1011
909.4019993792105
1021
2225.853480368915
1031
0.0
1002
}
1002
{
1000
PXDIR
1011
1678.784030946262
1021
2289.713193750509
1031
0.0
1002
}
1002
{
1000
PORI
1011
909.4019993792105
1021
2289.713193750509
1031
0.0
1002
}
1002
{
1000
PINS
1011
909.4019993792105
1021
2289.713193750509
1031
0.0
1002
}
1002
{
1000
PINS2
1011
1678.784030946262
1021
2225.853480368915
1031
0.0
1002
}
1002
{
1000
C
1070
     1
1002
}
1001
GENIUS_GENOBJ-N-REC_13
1002
{
1000
OWNER
1000
GEN
1002
}
1001
GENIUS_GENODEF_13
1002
{
1000
HIER
1070
     0
1002
}
1002
{
1000
MANEDIT
1070
     0
1002
}
1002
{
1000
NOSEL
1070
     0
1002
}
1002
{
1000
BEHIND
1070
     0
1002
}
1002
{
1000
OTHER
1070
     0
1002
}
1002
{
1000
REACTOR
1002
}
  0
LINE
  5
2873
330
1F
100
AcDbEntity
  8
LOGO
 62
     4
100
AcDbLine
 10
1180.30271259153
 20
2254.590351390634
 30
0.0
 11
1180.30271259153
 21
2231.175123150714
 31
0.0
  0
LINE
  5
2874
330
1F
100
AcDbEntity
  8
LOGO
 62
     4
100
AcDbLine
 10
1137.729570337135
 20
2254.590351390634
 30
0.0
 11
1137.729570337135
 21
2231.175123150714
 31
0.0
  0
LINE
  5
2875
330
1F
100
AcDbEntity
  8
LOGO
 62
     4
100
AcDbLine
 10
1180.30271259153
 20
2231.175123150714
 30
0.0
 11
1137.729570337135
 21
2231.175123150714
 31
0.0
  0
LINE
  5
2876
330
1F
100
AcDbEntity
  8
LOGO
 62
     4
100
AcDbLine
 10
1200.124092886124
 20
2283.32722241235
 30
0.0
 11
1137.729570337135
 21
2283.32722241235
 31
0.0
  0
LINE
  5
2877
330
1F
100
AcDbEntity
  8
LOGO
 62
     4
100
AcDbLine
 10
1200.124092886124
 20
2264.169308397872
 30
0.0
 11
1137.729570337135
 21
2264.169308397872
 31
0.0
  0
LINE
  5
2878
330
1F
100
AcDbEntity
  8
LOGO
 62
     4
100
AcDbLine
 10
1137.729570337135
 20
2283.32722241235
 30
0.0
 11
1137.729570337135
 21
2264.169308397872
 31
0.0
  0
LINE
  5
2879
330
1F
100
AcDbEntity
  8
LOGO
 62
     4
100
AcDbLine
 10
1200.124092886124
 20
2283.32722241235
 30
0.0
 11
1200.124092886124
 21
2264.169308397872
 31
0.0
  0
LINE
  5
287A
330
1F
100
AcDbEntity
  8
LOGO
 62
     4
100
AcDbLine
 10
1161.237390184737
 20
2264.169308397872
 30
0.0
 11
1161.237390184737
 21
2254.590351390634
 31
0.0
  0
TEXT
  5
287B
330
1F
100
AcDbEntity
  8
LOGO
  6
Continuous
100
AcDbText
 10
1141.133631617671
 20
2268.168494939527
 30
0.0
 40
11.1770682408
  1
MCHG2
  7
CHINESET
100
AcDbText
  0
LINE
  5
287C
330
1F
100
AcDbEntity
  8
LOGO
 62
     4
100
AcDbLine
 10
1180.30271259153
 20
2254.590351390634
 30
0.0
 11
1137.729570337135
 21
2254.590351390634
 31
0.0
  0
TEXT
  5
287D
330
1F
100
AcDbEntity
  8
LOGO
  6
Continuous
100
AcDbText
 10
1151.391156902052
 20
2234.480132963635
 30
418.5260412297512
 40
4.7901721032
  1
Model
 41
0.8
  7
CHINESET
100
AcDbText
  0
TEXT
  5
287E
330
1F
100
AcDbEntity
  8
LOGO
100
AcDbText
 10
1150.116168807099
 20
2243.360079687198
 30
418.5260412297512
 40
7.983620172000002
  1
型號
  7
CHINESET
100
AcDbText
  0
LINE
  5
288A
330
1F
100
AcDbEntity
  8
LOGO
  6
Continuous
100
AcDbLine
 10
1202.838550637715
 20
2273.680405046006
 30
0.0
 11
1211.297986425287
 21
2273.680405046006
 31
0.0
  0
LINE
  5
288B
330
1F
100
AcDbEntity
  8
LOGO
 62
     4
100
AcDbLine
 10
1228.44730310061
 20
2254.590351390634
 30
0.0
 11
1228.44730310061
 21
2231.175123150714
 31
0.0
  0
LINE
  5
288C
330
1F
100
AcDbEntity
  8
LOGO
 62
     4
100
AcDbLine
 10
1185.874160846215
 20
2254.590351390634
 30
0.0
 11
1185.874160846215
 21
2231.175123150714
 31
0.0
  0
LINE
  5
288D
330
1F
100
AcDbEntity
  8
LOGO
 62
     4
100
AcDbLine
 10
1228.44730310061
 20
2231.175123150714
 30
0.0
 11
1185.874160846215
 21
2231.175123150714
 31
0.0
  0
LINE
  5
288E
330
1F
100
AcDbEntity
  8
LOGO
 62
     4
100
AcDbLine
 10
1246.702511348047
 20
2283.32722241235
 30
0.0
 11
1213.966492492794
 21
2283.32722241235
 31
0.0
  0
LINE
  5
288F
330
1F
100
AcDbEntity
  8
LOGO
 62
     4
100
AcDbLine
 10
1246.702511348047
 20
2264.169308397872
 30
0.0
 11
1213.966492492794
 21
2264.169308397872
 31
0.0
  0
LINE
  5
2890
330
1F
100
AcDbEntity
  8
LOGO
 62
     4
100
AcDbLine
 10
1213.966492492794
 20
2283.32722241235
 30
0.0
 11
1213.966492492794
 21
2264.169308397872
 31
0.0
  0
LINE
  5
2891
330
1F
100
AcDbEntity
  8
LOGO
 62
     4
100
AcDbLine
 10
1246.702511348047
 20
2283.32722241235
 30
0.0
 11
1246.702511348047
 21
2264.169308397872
 31
0.0
  0
LINE
  5
2892
330
1F
100
AcDbEntity
  8
LOGO
 62
     4
100
AcDbLine
 10
1228.685872442674
 20
2264.169308397872
 30
0.0
 11
1228.685872442674
 21
2259.379829894252
 31
0.0
  0
TEXT
  5
2893
330
1F
100
AcDbEntity
  8
LOGO
  6
Continuous
100
AcDbText
 10
1216.808781231119
 20
2268.168494939527
 30
0.0
 40
11.1770682408
  1
125
  7
CHINESET
100
AcDbText
  0
LINE
  5
2894
330
1F
100
AcDbEntity
  8
LOGO
 62
     4
100
AcDbLine
 10
1228.44730310061
 20
2254.590351390634
 30
0.0
 11
1185.874160846215
 21
2254.590351390634
 31
0.0
  0
LINE
  5
2895
330
1F
100
AcDbEntity
  8
LOGO
  6
Continuous
100
AcDbLine
 10
1283.376428269243
 20
2273.680405046006
 30
0.0
 11
1291.835864056815
 21
2273.680405046006
 31
0.0
  0
LINE
  5
2896
330
1F
100
AcDbEntity
  8
LOGO
 62
     4
100
AcDbLine
 10
1327.840089420606
 20
2254.590351390634
 30
0.0
 11
1327.840089420606
 21
2231.175123150714
 31
0.0
  0
LINE
  5
2897
330
1F
100
AcDbEntity
  8
LOGO
 62
     4
100
AcDbLine
 10
1278.830902670963
 20
2254.590351390634
 30
0.0
 11
1278.830902670963
 21
2231.175123150714
 31
0.0
  0
LINE
  5
2898
330
1F
100
AcDbEntity
  8
LOGO
 62
     4
100
AcDbLine
 10
1327.840089420606
 20
2231.175123150714
 30
0.0
 11
1278.830902670963
 21
2231.175123150714
 31
0.0
  0
LINE
  5
2899
330
1F
100
AcDbEntity
  8
LOGO
 62
     4
100
AcDbLine
 10
1314.887858624248
 20
2283.32722241235
 30
0.0
 11
1294.504370124321
 21
2283.32722241235
 31
0.0
  0
LINE
  5
289A
330
1F
100
AcDbEntity
  8
LOGO
 62
     4
100
AcDbLine
 10
1314.887858624248
 20
2264.169308397872
 30
0.0
 11
1294.504370124321
 21
2264.169308397872
 31
0.0
  0
LINE
  5
289B
330
1F
100
AcDbEntity
  8
LOGO
 62
     4
100
AcDbLine
 10
1294.504370124321
 20
2283.32722241235
 30
0.0
 11
1294.504370124321
 21
2264.169308397872
 31
0.0
  0
LINE
  5
289C
330
1F
100
AcDbEntity
  8
LOGO
 62
     4
100
AcDbLine
 10
1314.887858624248
 20
2283.32722241235
 30
0.0
 11
1314.887858624248
 21
2264.169308397872
 31
0.0
  0
LINE
  5
289D
330
1F
100
AcDbEntity
  8
LOGO
 62
     4
100
AcDbLine
 10
1304.696114374285
 20
2264.169308397872
 30
0.0
 11
1304.696114374285
 21
2254.590351390634
 31
0.0
  0
LINE
  5
289F
330
1F
100
AcDbEntity
  8
LOGO
 62
     4
100
AcDbLine
 10
1327.840089420606
 20
2254.590351390634
 30
0.0
 11
1278.830902670963
 21
2254.590351390634
 31
0.0
  0
TEXT
  5
28A2
330
1F
100
AcDbEntity
  8
LOGO
  6
Continuous
100
AcDbText
 10
1194.791494137912
 20
2234.480132963635
 30
418.5260412297512
 40
4.7901721032
  1
Tube I.D.
 41
0.8
  7
CHINESET
100
AcDbText
  0
TEXT
  5
28A3
330
1F
100
AcDbEntity
  8
LOGO
100
AcDbText
 10
1196.722943139159
 20
2243.360079687198
 30
418.5260412297512
 40
7.983620172000002
  1
內徑
  7
CHINESET
100
AcDbText
  0
TEXT
  5
28A4
330
1F
100
AcDbEntity
  8
LOGO
  6
Continuous
100
AcDbText
 10
1283.282833396245
 20
2234.480132963635
 30
418.5260412297512
 40
4.7901721032
  1
Sensor switch
 41
0.8
  7
CHINESET
100
AcDbText
  0
TEXT
  5
28A5
330
1F
100
AcDbEntity
  8
LOGO
100
AcDbText
 10
1282.950698609226
 20
2243.360079687198
 30
418.5260412297512
 40
7.983620172000002
  1
感應器型式
  7
CHINESET
100
AcDbText
  0
LINE
  5
28A6
330
1F
100
AcDbEntity
  8
LOGO
 62
     4
100
AcDbLine
 10
1279.6942633017
 20
2283.32722241235
 30
0.0
 11
1249.406604774178
 21
2283.32722241235
 31
0.0
  0
LINE
  5
28A7
330
1F
100
AcDbEntity
  8
LOGO
 62
     4
100
AcDbLine
 10
1279.6942633017
 20
2264.169308397872
 30
0.0
 11
1249.406604774178
 21
2264.169308397872
 31
0.0
  0
LINE
  5
28A8
330
1F
100
AcDbEntity
  8
LOGO
 62
     4
100
AcDbLine
 10
1249.406604774178
 20
2283.32722241235
 30
0.0
 11
1249.406604774178
 21
2264.169308397872
 31
0.0
  0
LINE
  5
28A9
330
1F
100
AcDbEntity
  8
LOGO
 62
     4
100
AcDbLine
 10
1279.6942633017
 20
2283.32722241235
 30
0.0
 11
1279.6942633017
 21
2264.169308397872
 31
0.0
  0
TEXT
  5
28AA
330
1F
100
AcDbEntity
  8
LOGO
  6
Continuous
100
AcDbText
 10
1253.858953775319
 20
2268.168494939527
 30
0.0
 40
11.1770682408
  1
(M)
  7
CHINESET
100
AcDbText
  0
LINE
  5
28AB
330
1F
100
AcDbEntity
  8
LOGO
 62
     4
100
AcDbLine
 10
1271.832957327155
 20
2254.590351390634
 30
0.0
 11
1271.832957327155
 21
2231.175123150714
 31
0.0
  0
LINE
  5
28AC
330
1F
100
AcDbEntity
  8
LOGO
 62
     4
100
AcDbLine
 10
1237.150345903068
 20
2254.590351390634
 30
0.0
 11
1237.150345903068
 21
2231.175123150714
 31
0.0
  0
LINE
  5
28AD
330
1F
100
AcDbEntity
  8
LOGO
 62
     4
100
AcDbLine
 10
1271.832957327155
 20
2231.175123150714
 30
0.0
 11
1237.150345903068
 21
2231.175123150714
 31
0.0
  0
LINE
  5
28AE
330
1F
100
AcDbEntity
  8
LOGO
 62
     4
100
AcDbLine
 10
1271.832957327155
 20
2254.590351390634
 30
0.0
 11
1237.150345903068
 21
2254.590351390634
 31
0.0
  0
TEXT
  5
28AF
330
1F
100
AcDbEntity
  8
LOGO
  6
Continuous
100
AcDbText
 10
1244.689453042264
 20
2234.480132963635
 30
418.5260412297512
 40
4.7901721032
  1
Magnet
 41
0.8
  7
CHINESET
100
AcDbText
  0
TEXT
  5
28B0
330
1F
100
AcDbEntity
  8
LOGO
100
AcDbText
 10
1242.134927667318
 20
2243.360079687198
 30
418.5260412297512
 40
7.983620172000002
  1
附磁石
  7
CHINESET
100
AcDbText
  0
LINE
  5
28B1
330
1F
100
AcDbEntity
  8
LOGO
 62
     4
100
AcDbLine
 10
1264.55043403794
 20
2264.169308397872
 30
0.0
 11
1264.55043403794
 21
2259.379829894252
 31
0.0
  0
LINE
  5
28B9
330
1F
100
AcDbEntity
  8
LOGO
 62
     4
100
AcDbLine
 10
1228.685872442674
 20
2259.379829894252
 30
0.0
 11
1207.160731973413
 21
2259.379829894252
 31
0.0
  0
LINE
  5
28BA
330
1F
100
AcDbEntity
  8
LOGO
 62
     4
100
AcDbLine
 10
1207.160731973413
 20
2254.590351390634
 30
0.0
 11
1207.160731973413
 21
2259.379829894252
 31
0.0
  0
LINE
  5
28BB
330
1F
100
AcDbEntity
  8
LOGO
 62
     4
100
AcDbLine
 10
1264.55043403794
 20
2259.379829894252
 30
0.0
 11
1254.491651615112
 21
2259.379829894252
 31
0.0
  0
LINE
  5
28BC
330
1F
100
AcDbEntity
  8
LOGO
 62
     4
100
AcDbLine
 10
1254.491651615112
 20
2254.590351390634
 30
0.0
 11
1254.491651615112
 21
2259.379829894252
 31
0.0
  0
TEXT
  5
299D
330
1F
100
AcDbEntity
  8
LOGO
 62
     7
100
AcDbText
 10
1053.59300376058
 20
2261.737339983912
 30
0.0
 40
8.514628450879015
  1
Order example:
 41
0.8
  7
CHINESET
100
AcDbText
  0
TEXT
  5
299E
330
1F
100
AcDbEntity
  8
LOGO
 62
     7
100
AcDbText
 10
1055.120598517781
 20
2273.724173866433
 30
0.0
 40
12.77194267631853
  1
訂購代號:
  7
CHINESET
100
AcDbText
  0
LINE
  5
29A0
330
1F
100
AcDbEntity
  8
LOGO
 62
     4
100
AcDbLine
 10
1049.893368818714
 20
2225.853480368916
 30
0.0
 11
1049.893368818714
 21
2289.713193750509
 31
0.0
  0
TEXT
  5
29A1
330
1F
100
AcDbEntity
  8
LOGO
  6
Continuous
100
AcDbText
 10
932.3406954808442
 20
2238.39862469002
 30
0.0
 40
9.578957007238892
  1
金器工業股份有限公司
  7
CHINESET
100
AcDbText
  0
TEXT
  5
29A2
330
1F
100
AcDbEntity
  8
LOGO
  6
Continuous
100
AcDbText
 10
914.7460465617337
 20
2228.817790958227
 30
0.0
 40
6.385971338159263
  1
MINDMAN INDUSTRIAL CO., LTD.
 41
0.85
  7
CHINESET
100
AcDbText
  0
LINE
  5
29A3
330
1F
100
AcDbEntity
  8
LOGO
100
AcDbLine
 10
1049.893368818714
 20
2276.941251074191
 30
0.0
 11
956.2324558590448
 21
2276.941251074191
 31
0.0
  0
LINE
  5
29A4
330
1F
100
AcDbEntity
  8
LOGO
100
AcDbLine
 10
1049.893368818714
 20
2264.169308397872
 30
0.0
 11
956.2324558590448
 21
2264.169308397872
 31
0.0
  0
LINE
  5
29A5
330
1F
100
AcDbEntity
  8
LOGO
 62
     4
100
AcDbLine
 10
1049.893368818714
 20
2251.397365721555
 30
0.0
 11
909.4019993792107
 21
2251.397365721555
 31
0.0
  0
LINE
  5
29A6
330
1F
100
AcDbEntity
  8
LOGO
 62
     4
100
AcDbLine
 10
956.2324558590448
 20
2251.397365721555
 30
0.0
 11
956.2324558590448
 21
2289.713193750509
 31
0.0
  0
TEXT
  5
29A7
330
1F
100
AcDbEntity
  8
LOGO
100
AcDbText
 10
1020.245269139223
 20
2254.590351390633
 30
0.0
 40
6.385971338159263
  1
mm
  7
CHINESET
 72
     1
 11
1028.151709843611
 21
2257.783337059712
 31
0.0
100
AcDbText
 73
     2
  0
TEXT
  5
29A8
330
1F
100
AcDbEntity
  8
LOGO
100
AcDbText
 10
1016.900236533521
 20
2280.13423674327
 30
0.0
 40
6.385971338159263
  1
1 : 1
  7
CHINESET
 72
     1
 11
1028.151709843611
 21
2283.32722241235
 31
0.0
100
AcDbText
 73
     2
  0
LINE
  5
29A9
330
1F
100
AcDbEntity
  8
LOGO
 62
     4
100
AcDbLine
 10
1007.320226564319
 20
2251.397365721555
 30
0.0
 11
1007.320226564319
 21
2289.713193750509
 31
0.0
  0
CIRCLE
  5
29AA
330
1F
100
AcDbEntity
  8
LOGO
  6
Continuous
100
AcDbCircle
 10
1019.144651241589
 20
2270.568939375455
 30
0.0
 40
3.707845267756792
  0
CIRCLE
  5
29AB
330
1F
100
AcDbEntity
  8
LOGO
  6
Continuous
100
AcDbCircle
 10
1019.144651241589
 20
2270.568939375455
 30
0.0
 40
2.172469089935129
  0
LINE
  5
29AC
330
1F
100
AcDbEntity
  8
LOGO
100
AcDbLine
 10
1042.445181144343
 20
2266.861094107698
 30
0.0
 11
1042.445181144343
 21
2274.276784643213
 31
0.0
  0
LINE
  5
29AD
330
1F
100
AcDbEntity
  8
LOGO
100
AcDbLine
 10
1030.8212990704
 20
2268.396470285519
 30
0.0
 11
1030.8212990704
 21
2272.74140846539
 31
0.0
  0
LINE
  5
29AE
330
1F
100
AcDbEntity
  8
LOGO
  6
Continuous
100
AcDbLine
 10
1030.8212990704
 20
2272.74140846539
 30
0.0
 11
1042.445181144343
 21
2274.276784643213
 31
0.0
  0
LINE
  5
29AF
330
1F
100
AcDbEntity
  8
LOGO
  6
Continuous
100
AcDbLine
 10
1030.8212990704
 20
2268.396470285519
 30
0.0
 11
1042.445181144343
 21
2266.861094107698
 31
0.0
  0
TEXT
  5
29B0
330
1F
100
AcDbEntity
  8
LOGO
100
AcDbText
 10
961.4980313329647
 20
2280.1373794457
 30
418.5260412297512
 40
6.385971338159263
  1
比例 Scale:
 41
0.9
  7
CHINESET
 72
     4
 11
981.776341211682
 21
2283.32722241235
 31
418.5260412297512
100
AcDbText
  0
TEXT
  5
29B1
330
1F
100
AcDbEntity
  8
LOGO
100
AcDbText
 10
961.1302678050082
 20
2267.452122978081
 30
418.5260412297512
 40
6.385971338159263
  1
投影  View:
 41
0.9
  7
CHINESET
 72
     4
 11
981.776341211682
 21
2270.555279736031
 31
418.5260412297512
100
AcDbText
  0
TEXT
  5
29B2
330
1F
100
AcDbEntity
  8
LOGO
100
AcDbText
 10
961.7546105385157
 20
2254.590351390633
 30
418.5260412297512
 40
6.385971338159263
  1
單位  Unit:
 41
0.9
  7
CHINESET
 72
     4
 11
981.776341211682
 21
2257.783337059712
 31
418.5260412297512
100
AcDbText
  0
SOLID
  5
29B4
330
1F
100
AcDbEntity
  8
LOGO
 62
     5
100
AcDbTrace
 10
916.027547129595
 20
2262.013134099801
 30
0.0
 11
918.7886735683271
 21
2262.0131340998
 31
0.0
 12
930.3092356057952
 22
2288.196229639503
 32
0.0
 13
933.0703620445287
 23
2288.196229639501
 33
0.0
  0
SOLID
  5
29B5
330
1F
100
AcDbEntity
  8
LOGO
 62
     5
100
AcDbTrace
 10
919.9312086464262
 20
2262.013134099801
 30
0.0
 11
922.6923350851581
 21
2262.013134099801
 31
0.0
 12
933.0703620445287
 22
2286.101581996325
 32
0.0
 13
930.3092356057952
 23
2275.977451720974
 33
0.0
  0
SOLID
  5
29B6
330
1F
100
AcDbEntity
  8
LOGO
 62
     2
100
AcDbTrace
 10
918.7886735683271
 20
2262.0131340998
 30
0.0
 11
919.9312086464262
 21
2262.013134099801
 31
0.0
 12
933.0703620445287
 22
2288.196229639501
 32
0.0
 13
934.2128971226264
 23
2288.196229639501
 33
0.0
  0
SOLID
  5
29B7
330
1F
100
AcDbEntity
  8
LOGO
 62
     5
100
AcDbTrace
 10
911.6007843371635
 20
2252.492008449001
 30
0.0
 11
912.5528969022445
 21
2252.492008449001
 31
0.0
 12
915.2341199920289
 22
2257.252571274401
 32
0.0
 13
916.1862325571073
 23
2257.252571274401
 33
0.0
  0
SOLID
  5
29B8
330
1F
100
AcDbEntity
  8
LOGO
 62
     5
100
AcDbTrace
 10
915.2341199920289
 20
2257.252571274401
 30
0.0
 11
916.1862325571073
 21
2257.252571274401
 31
0.0
 12
915.2341199920289
 22
2252.492008449001
 32
0.0
 13
916.1862325571073
 23
2252.492008449001
 33
0.0
  0
SOLID
  5
29B9
330
1F
100
AcDbEntity
  8
LOGO
 62
     5
100
AcDbTrace
 10
915.2341199920289
 20
2252.492008449001
 30
0.0
 11
916.1862325571073
 21
2252.492008449001
 31
0.0
 12
918.8674556468971
 22
2257.252571274401
 32
0.0
 13
919.8195682119759
 23
2257.252571274401
 33
0.0
  0
SOLID
  5
29BA
330
1F
100
AcDbEntity
  8
LOGO
 62
     5
100
AcDbTrace
 10
918.8674556468971
 20
2257.252571274401
 30
0.0
 11
919.8195682119759
 21
2257.252571274401
 31
0.0
 12
918.8674556468971
 22
2252.492008449001
 32
0.0
 13
919.8195682119759
 23
2252.492008449001
 33
0.0
  0
POLYLINE
  5
29BB
330
1F
100
AcDbEntity
  8
LOGO
 62
     5
100
AcDb2dPolyline
 66
     1
 10
0.0
 20
0.0
 30
0.0
 40
0.95363838649845
 41
0.95363838649845
  0
VERTEX
  5
29BC
330
29BB
100
AcDbEntity
  8
LOGO
 62
     5
100
AcDbVertex
100
AcDb2dVertex
 10
950.7819444871469
 20
2255.34834614424
 30
0.0
 42
1.0
  0
VERTEX
  5
29BD
330
29BB
100
AcDbEntity
  8
LOGO
 62
     5
100
AcDbVertex
100
AcDb2dVertex
 10
947.921029327651
 20
2255.34834614424
 30
0.0
 42
1.0
  0
SEQEND
  5
29BE
330
29BB
100
AcDbEntity
  8
LOGO
 62
     5
  0
POLYLINE
  5
29BF
330
1F
100
AcDbEntity
  8
LOGO
 62
     5
100
AcDb2dPolyline
 66
     1
 10
0.0
 20
0.0
 30
0.0
 70
     1
  0
VERTEX
  5
29C0
330
29BF
100
AcDbEntity
  8
LOGO
 62
     5
100
AcDbVertex
100
AcDb2dVertex
 10
942.528076998494
 20
2254.8722898617
 30
0.0
 42
1.000000057330635
  0
VERTEX
  5
29C1
330
29BF
100
AcDbEntity
  8
LOGO
 62
     5
100
AcDbVertex
100
AcDb2dVertex
 10
945.3844146937345
 20
2254.8722898617
 30
0.0
 42
1.000000057330635
  0
SEQEND
  5
29C2
330
29BF
100
AcDbEntity
  8
LOGO
 62
     5
  0
CIRCLE
  5
29C3
330
1F
100
AcDbEntity
  8
LOGO
 62
     5
100
AcDbCircle
 10
943.9562458461166
 20
2254.8722898617
 30
0.0
 40
1.428168847620078
  0
POLYLINE
  5
29C4
330
1F
100
AcDbEntity
  8
LOGO
 62
     5
100
AcDb2dPolyline
 66
     1
 10
0.0
 20
0.0
 30
0.0
 70
     1
 40
0.95363838649845
 41
0.95363838649845
  0
VERTEX
  5
29C5
330
29C4
100
AcDbEntity
  8
LOGO
 62
     5
100
AcDbVertex
100
AcDb2dVertex
 10
942.048969073118
 20
2254.8722898617
 30
0.0
 42
1.0
  0
VERTEX
  5
29C6
330
29C4
100
AcDbEntity
  8
LOGO
 62
     5
100
AcDbVertex
100
AcDb2dVertex
 10
945.8635226191116
 20
2254.8722898617
 30
0.0
 42
1.0
  0
SEQEND
  5
29C7
330
29C4
100
AcDbEntity
  8
LOGO
 62
     5
  0
LINE
  5
29C8
330
1F
100
AcDbEntity
  8
LOGO
100
AcDbLine
 10
951.2557120375573
 20
2252.492008449001
 30
0.0
 11
951.2557120375573
 21
2255.34834614424
 31
0.0
  0
SOLID
  5
29C9
330
1F
100
AcDbEntity
  8
LOGO
 62
     5
100
AcDbTrace
 10
945.3843194824823
 20
2257.252571274401
 30
0.0
 11
946.33643204756
 21
2257.252571274401
 31
0.0
 12
945.3843194824823
 22
2252.492008449001
 32
0.0
 13
946.33643204756
 23
2252.492008449001
 33
0.0
  0
SOLID
  5
29CA
330
1F
100
AcDbEntity
  8
LOGO
 62
     5
100
AcDbTrace
 10
947.4472617772372
 20
2252.492008449001
 30
0.0
 11
948.3993743423184
 21
2252.492008449001
 31
0.0
 12
947.4472617772372
 22
2257.252571274401
 32
0.0
 13
948.3993743423184
 23
2257.252571274401
 33
0.0
  0
SOLID
  5
29CB
330
1F
100
AcDbEntity
  8
LOGO
 62
     5
100
AcDbTrace
 10
950.3035994724786
 20
2255.34834614424
 30
0.0
 11
951.2557120375573
 21
2255.34834614424
 31
0.0
 12
950.3035994724786
 22
2252.492008449001
 32
0.0
 13
951.2557120375573
 23
2252.492008449001
 33
0.0
  0
SOLID
  5
29CC
330
1F
100
AcDbEntity
  8
LOGO
 62
     5
100
AcDbTrace
 10
947.3520505207288
 20
2286.101581996325
 30
0.0
 11
944.5909240819982
 21
2275.977451720974
 31
0.0
 12
947.3520505207288
 22
2262.0131340998
 32
0.0
 13
944.5909240819982
 23
2262.0131340998
 33
0.0
  0
SOLID
  5
29CD
330
1F
100
AcDbEntity
  8
LOGO
 62
     5
100
AcDbTrace
 10
948.4945855988263
 20
2262.0131340998
 30
0.0
 11
951.2557120375573
 21
2262.0131340998
 31
0.0
 12
948.4945855988263
 22
2288.196229639501
 32
0.0
 13
951.2557120375573
 23
2288.196229639503
 33
0.0
  0
SOLID
  5
29CE
330
1F
100
AcDbEntity
  8
LOGO
 62
     2
100
AcDbTrace
 10
947.3520505207288
 20
2288.196229639503
 30
0.0
 11
948.4945855988263
 21
2288.196229639501
 31
0.0
 12
947.3520505207288
 22
2262.0131340998
 32
0.0
 13
948.4945855988263
 23
2262.0131340998
 33
0.0
  0
POLYLINE
  5
29CF
330
1F
100
AcDbEntity
  8
LOGO
 62
     5
100
AcDb2dPolyline
 66
     1
 10
0.0
 20
0.0
 30
0.0
 40
0.95363838649845
 41
0.95363838649845
  0
VERTEX
  5
29D0
330
29CF
100
AcDbEntity
  8
LOGO
 62
     5
100
AcDbVertex
100
AcDb2dVertex
 10
937.1349342468283
 20
2255.34834614424
 30
0.0
 42
1.0
  0
VERTEX
  5
29D1
330
29CF
100
AcDbEntity
  8
LOGO
 62
     5
100
AcDbVertex
100
AcDb2dVertex
 10
934.2740190873321
 20
2255.34834614424
 30
0.0
 42
1.0
  0
SEQEND
  5
29D2
330
29CF
100
AcDbEntity
  8
LOGO
 62
     5
  0
POLYLINE
  5
29D3
330
1F
100
AcDbEntity
  8
LOGO
 62
     5
100
AcDb2dPolyline
 66
     1
 10
0.0
 20
0.0
 30
0.0
 40
0.95363838649845
 41
0.95363838649845
  0
VERTEX
  5
29D4
330
29D3
100
AcDbEntity
  8
LOGO
 62
     5
100
AcDbVertex
100
AcDb2dVertex
 10
939.9912719420656
 20
2255.34834614424
 30
0.0
 42
1.0
  0
VERTEX
  5
29D5
330
29D3
100
AcDbEntity
  8
LOGO
 62
     5
100
AcDbVertex
100
AcDb2dVertex
 10
937.1303567825711
 20
2255.34834614424
 30
0.0
 42
1.0
  0
SEQEND
  5
29D6
330
29D3
100
AcDbEntity
  8
LOGO
 62
     5
  0
POLYLINE
  5
29D7
330
1F
100
AcDbEntity
  8
LOGO
 62
     5
100
AcDb2dPolyline
 66
     1
 10
0.0
 20
0.0
 30
0.0
 40
0.95363838649845
 41
0.95363838649845
  0
VERTEX
  5
29D8
330
29D7
100
AcDbEntity
  8
LOGO
 62
     5
100
AcDbVertex
100
AcDb2dVertex
 10
926.3442617017478
 20
2255.34834614424
 30
0.0
 42
1.0
  0
VERTEX
  5
29D9
330
29D7
100
AcDbEntity
  8
LOGO
 62
     5
100
AcDbVertex
100
AcDb2dVertex
 10
923.4833465422534
 20
2255.34834614424
 30
0.0
 42
1.0
  0
SEQEND
  5
29DA
330
29D7
100
AcDbEntity
  8
LOGO
 62
     5
  0
SOLID
  5
29DB
330
1F
100
AcDbEntity
  8
LOGO
 62
     5
100
AcDbTrace
 10
923.009578991841
 20
2257.252571274401
 30
0.0
 11
923.9616915569195
 21
2257.252571274401
 31
0.0
 12
923.009578991841
 22
2252.492008449001
 32
0.0
 13
923.9616915569195
 23
2252.492008449001
 33
0.0
  0
SOLID
  5
29DC
330
1F
100
AcDbEntity
  8
LOGO
 62
     5
100
AcDbTrace
 10
925.8659166870815
 20
2255.34834614424
 30
0.0
 11
926.8180292521627
 21
2255.34834614424
 31
0.0
 12
925.8659166870815
 22
2252.492008449001
 32
0.0
 13
926.8180292521627
 23
2252.492008449001
 33
0.0
  0
POLYLINE
  5
29DD
330
1F
100
AcDbEntity
  8
LOGO
 62
     5
100
AcDb2dPolyline
 66
     1
 10
0.0
 20
0.0
 30
0.0
 70
     1
 40
0.95363838649845
 41
0.95363838649845
  0
VERTEX
  5
29DE
330
29DD
100
AcDbEntity
  8
LOGO
 62
     5
100
AcDbVertex
100
AcDb2dVertex
 10
928.4019588327986
 20
2254.8722898617
 30
0.0
 42
1.0
  0
VERTEX
  5
29DF
330
29DD
100
AcDbEntity
  8
LOGO
 62
     5
100
AcDbVertex
100
AcDb2dVertex
 10
932.2165123787934
 20
2254.8722898617
 30
0.0
 42
1.0
  0
SEQEND
  5
29E0
330
29DD
100
AcDbEntity
  8
LOGO
 62
     5
  0
SOLID
  5
29E1
330
1F
100
AcDbEntity
  8
LOGO
 62
     5
100
AcDbTrace
 10
931.7373092421606
 20
2258.680740122021
 30
0.0
 11
932.6894218072405
 21
2258.680740122021
 31
0.0
 12
931.7373092421606
 22
2252.492008449001
 32
0.0
 13
932.6894218072405
 23
2252.492008449001
 33
0.0
  0
SOLID
  5
29E2
330
1F
100
AcDbEntity
  8
LOGO
 62
     5
100
AcDbTrace
 10
933.8002515369218
 20
2257.252571274401
 30
0.0
 11
934.7523641020002
 21
2257.252571274401
 31
0.0
 12
933.8002515369218
 22
2252.492008449001
 32
0.0
 13
934.7523641020002
 23
2252.492008449001
 33
0.0
  0
SOLID
  5
29E3
330
1F
100
AcDbEntity
  8
LOGO
 62
     5
100
AcDbTrace
 10
936.6565892321593
 20
2255.34834614424
 30
0.0
 11
937.6087017972404
 21
2255.34834614424
 31
0.0
 12
936.6565892321593
 22
2252.492008449001
 32
0.0
 13
937.6087017972404
 23
2252.492008449001
 33
0.0
  0
SOLID
  5
29E4
330
1F
100
AcDbEntity
  8
LOGO
 62
     5
100
AcDbTrace
 10
939.5129269273997
 20
2255.34834614424
 30
0.0
 11
940.4650394924795
 21
2255.34834614424
 31
0.0
 12
939.5129269273997
 22
2252.492008448999
 32
0.0
 13
940.4650394924795
 23
2252.492008448999
 33
0.0
  0
SOLID
  5
29E5
330
1F
100
AcDbEntity
  8
LOGO
 62
     5
100
AcDbTrace
 10
920.9466366970813
 20
2257.919050069956
 30
0.0
 11
921.8987492621641
 21
2257.919050069956
 31
0.0
 12
920.9466366970813
 22
2258.680740122021
 32
0.0
 13
921.8987492621641
 23
2258.680740122021
 33
0.0
  0
SOLID
  5
29E6
330
1F
100
AcDbEntity
  8
LOGO
 62
     5
100
AcDbTrace
 10
920.9466366970813
 20
2257.252571274401
 30
0.0
 11
921.8987492621641
 21
2257.252571274401
 31
0.0
 12
920.9466366970813
 22
2252.492008448999
 32
0.0
 13
921.8987492621641
 23
2252.492008449001
 33
0.0
  0
SOLID
  5
29E7
330
1F
100
AcDbEntity
  8
LOGO
 62
     5
100
AcDbTrace
 10
930.3092356057952
 20
2262.013134099801
 30
0.0
 11
933.0703620445287
 21
2262.013134099801
 31
0.0
 12
930.3092356057952
 22
2275.977451720974
 32
0.0
 13
933.0703620445287
 23
2286.101581996325
 33
0.0
  0
SOLID
  5
29E8
330
1F
100
AcDbEntity
  8
LOGO
 62
     5
100
AcDbTrace
 10
934.2128971226264
 20
2288.196229639501
 30
0.0
 11
936.9740235613567
 21
2288.196229639503
 31
0.0
 12
934.2128971226264
 22
2264.107781742977
 32
0.0
 13
936.9740235613567
 23
2274.231912018328
 33
0.0
  0
SOLID
  5
29E9
330
1F
100
AcDbEntity
  8
LOGO
 62
     2
100
AcDbTrace
 10
933.0703620445287
 20
2288.196229639501
 30
0.0
 11
934.2128971226264
 21
2288.196229639501
 31
0.0
 12
933.0703620445287
 22
2262.013134099801
 32
0.0
 13
934.2128971226264
 23
2262.013134099801
 33
0.0
  0
SOLID
  5
29EA
330
1F
100
AcDbEntity
  8
LOGO
 62
     5
100
AcDbTrace
 10
934.2128971226264
 20
2264.107781742977
 30
0.0
 11
936.9740235613567
 21
2274.231912018328
 31
0.0
 12
947.3520505207288
 22
2288.196229639503
 32
0.0
 13
944.5909240819982
 23
2288.196229639503
 33
0.0
  0
SOLID
  5
29EB
330
1F
100
AcDbEntity
  8
LOGO
 62
     5
100
AcDbTrace
 10
934.2128971226264
 20
2262.013134099801
 30
0.0
 11
936.9740235613567
 21
2262.013134099801
 31
0.0
 12
947.3520505207288
 22
2286.101581996325
 32
0.0
 13
944.5909240819982
 23
2275.977451720974
 33
0.0
  0
SOLID
  5
29EC
330
1F
100
AcDbEntity
  8
LOGO
 62
     2
100
AcDbTrace
 10
933.0703620445287
 20
2262.013134099801
 30
0.0
 11
934.2128971226264
 21
2262.013134099801
 31
0.0
 12
947.3520505207288
 22
2288.196229639503
 32
0.0
 13
948.4945855988263
 23
2288.196229639501
 33
0.0
  0
TEXT
  5
2A2D
330
1F
100
AcDbEntity
  8
LOGO
100
AcDbText
 10
1052.852212113227
 20
2229.250791915793
 30
0.0
 40
6.386896137600001
  1
20809112
 41
0.7
  7
CHINESET
 72
     1
 11
1068.393659381386
 21
2229.250791915793
 31
0.0
100
AcDbText
  0
LINE
  5
2A2E
330
1F
100
AcDbEntity
  8
LOGO
 62
     4
100
AcDbLine
 10
1088.214745644311
 20
2238.625423045236
 30
0.0
 11
1088.214745644314
 21
2225.853480368917
 31
0.0
  0
LINE
  5
2A2F
330
1F
100
AcDbEntity
  8
LOGO
 62
     4
100
AcDbLine
 10
1088.214745644311
 20
2238.625423045236
 30
0.0
 11
1049.893368818714
 21
2238.625423045236
 31
0.0
  0
LINE
  5
2A30
330
1F
100
AcDbEntity
  8
LOGO
  6
AM_ISO08W050x2
 48
0.3
100
AcDbLine
 10
1014.033331019375
 20
2270.568939375455
 30
0.0
 11
1024.255971463803
 21
2270.568939375455
 31
0.0
1001
GENIUS_GENOREF_13
1005
2A35
  0
LINE
  5
2A31
330
1F
100
AcDbEntity
  8
LOGO
  6
AM_ISO08W050x2
 48
0.3
100
AcDbLine
 10
1019.144651241589
 20
2265.457619153242
 30
0.0
 11
1019.144651241589
 21
2275.680259597669
 31
0.0
1001
GENIUS_GENOREF_13
1005
2A34
  0
LINE
  5
2A32
330
1F
100
AcDbEntity
  8
LOGO
  6
AM_ISO08W050x2
 48
0.3
100
AcDbLine
 10
1029.891711588776
 20
2270.568939375455
 30
0.0
 11
1043.615668440743
 21
2270.568939375455
 31
0.0
1001
GENIUS_GENOREF_13
1005
2A33
  0
POINT
  5
2A33
330
1F
100
AcDbEntity
  8
0
 60
     1
100
AcDbPoint
 10
-1846.718893173345
 20
-1185.064967107847
 30
0.0
1001
GENIUS_GENOBJ-N-CRS_13
1002
{
1000
OWNER
1000
GEN
1002
}
1001
GENIUS_GENOLIS_13
1002
{
1000
ENT
1005
0
1005
0
1005
0
1005
2A32
1002
}
1001
GENIUS_GENOENT_13
1002
{
1000
MYREF
1005
2A33
1002
}
1002
{
1000
GRP
1005
0
1002
}
1001
GENIUS_GENODEF_13
1002
{
1000
HIER
1070
    10
1002
}
1002
{
1000
MANEDIT
1070
     1
1002
}
1002
{
1000
NOSEL
1070
     0
1002
}
1002
{
1000
BEHIND
1070
     0
1002
}
1002
{
1000
OTHER
1070
     0
1002
}
1002
{
1000
REACTOR
1002
}
  0
POINT
  5
2A34
330
1F
100
AcDbEntity
  8
0
 60
     1
100
AcDbPoint
 10
-1858.0434783962
 20
-1176.18938062921
 30
0.0
1001
GENIUS_GENOBJ-N-CRS_13
1002
{
1000
OWNER
1000
GEN
1002
}
1001
GENIUS_GENOLIS_13
1002
{
1000
ENT
1005
0
1005
0
1005
0
1005
2A31
1002
}
1001
GENIUS_GENOENT_13
1002
{
1000
MYREF
1005
2A34
1002
}
1002
{
1000
GRP
1005
0
1002
}
1001
GENIUS_GENODEF_13
1002
{
1000
HIER
1070
    10
1002
}
1002
{
1000
MANEDIT
1070
     1
1002
}
1002
{
1000
NOSEL
1070
     0
1002
}
1002
{
1000
BEHIND
1070
     0
1002
}
1002
{
1000
OTHER
1070
     0
1002
}
1002
{
1000
REACTOR
1002
}
  0
POINT
  5
2A35
330
1F
100
AcDbEntity
  8
0
 60
     1
100
AcDbPoint
 10
-1851.684804698363
 20
-1185.064967107847
 30
0.0
1001
GENIUS_GENOBJ-N-CRS_13
1002
{
1000
OWNER
1000
GEN
1002
}
1001
GENIUS_GENOLIS_13
1002
{
1000
ENT
1005
0
1005
0
1005
0
1005
2A30
1002
}
1001
GENIUS_GENOENT_13
1002
{
1000
MYREF
1005
2A35
1002
}
1002
{
1000
GRP
1005
0
1002
}
1001
GENIUS_GENODEF_13
1002
{
1000
HIER
1070
    10
1002
}
1002
{
1000
MANEDIT
1070
     1
1002
}
1002
{
1000
NOSEL
1070
     0
1002
}
1002
{
1000
BEHIND
1070
     0
1002
}
1002
{
1000
OTHER
1070
     0
1002
}
1002
{
1000
REACTOR
1002
}
  0
LINE
  5
6794
330
1F
100
AcDbEntity
  8
0
  6
Continuous
 62
     7
100
AcDbLine
 10
963.9587821656535
 20
2420.386696498216
 30
0.0
 11
1033.454782165653
 21
2420.386696498216
 31
0.0
  0
LINE
  5
6795
330
1F
100
AcDbEntity
  8
AM_7
100
AcDbLine
 10
956.4827821656535
 20
2431.386696498215
 30
0.0
 11
1151.916782165653
 21
2431.386696498215
 31
0.0
  0
LINE
  5
6796
330
1F
100
AcDbEntity
  8
0
  6
Continuous
 62
     7
100
AcDbLine
 10
963.9587821656535
 20
2442.386696498215
 30
0.0
 11
1033.454782165653
 21
2442.386696498215
 31
0.0
  0
LINE
  5
6797
330
1F
100
AcDbEntity
  8
AM_5
100
AcDbLine
 10
991.9487821656534
 20
2552.638696498215
 30
0.0
 11
1022.204782165653
 21
2500.234696498215
 31
0.0
  0
CIRCLE
  5
6798
330
1F
100
AcDbEntity
  8
0
  6
Continuous
 62
     2
100
AcDbCircle
 10
1005.457782165653
 20
2431.385696498215
 30
0.0
 40
5.0
  0
ARC
  5
6799
330
1F
100
AcDbEntity
  8
0
  6
Continuous
 62
     7
100
AcDbCircle
 10
1061.953782165653
 20
2431.385696498215
 30
0.0
 40
73.0
100
AcDbArc
 50
126.7800000000033
 51
171.3329999999874
  0
CIRCLE
  5
679A
330
1F
100
AcDbEntity
  8
0
  6
Continuous
 62
     7
100
AcDbCircle
 10
1005.458782165653
 20
2431.386696498215
 30
0.0
 40
4.187999999999999
  0
ARC
  5
679B
330
1F
100
AcDbEntity
  8
0
  6
Continuous
 62
     7
100
AcDbCircle
 10
1061.953782165653
 20
2431.385696498215
 30
0.0
 40
83.0
100
AcDbArc
 50
67.61600000000337
 51
172.3839999999867
  0
LINE
  5
679C
330
1F
100
AcDbEntity
  8
0
  6
Continuous
 62
     7
100
AcDbLine
 10
1006.838782165653
 20
2369.326696498215
 30
0.0
 11
1007.592782165653
 21
2377.938696498215
 31
0.0
  0
ARC
  5
679D
330
1F
100
AcDbEntity
  8
0
  6
Continuous
 62
     7
100
AcDbCircle
 10
1061.953782165653
 20
2431.385696498215
 30
0.0
 40
73.0
100
AcDbArc
 50
221.9629999999865
 51
233.2199999999967
  0
ARC
  5
679E
330
1F
100
AcDbEntity
  8
0
  6
Continuous
 62
     7
100
AcDbCircle
 10
1061.953782165653
 20
2431.385696498215
 30
0.0
 40
83.0
100
AcDbArc
 50
228.3920000000052
 51
251.6089999999989
  0
LINE
  5
679F
330
1F
100
AcDbEntity
  8
0
  6
Continuous
 62
     7
100
AcDbLine
 10
1008.321782165653
 20
2383.118696498215
 30
0.0
 11
1005.342782165653
 21
2380.619696498215
 31
0.0
  0
LINE
  5
67A0
330
1F
100
AcDbEntity
  8
0
  6
Continuous
 62
     7
100
AcDbLine
 10
1007.795782165654
 20
2390.151696498215
 30
0.0
 11
1004.958782165654
 21
2387.770696498215
 31
0.0
  0
LINE
  5
67A1
330
1F
100
AcDbEntity
  8
0
  6
Continuous
 62
     7
100
AcDbLine
 10
1005.342782165653
 20
2380.619696498215
 30
0.0
 11
1007.592782165653
 21
2377.938696498215
 31
0.0
  0
DIMENSION
  5
67A2
330
1F
100
AcDbEntity
  8
AM_5
100
AcDbDimension
  2
*D4
 10
1005.458782165653
 20
2335.487897972239
 30
0.0
 11
989.9587821656536
 21
2339.487897972238
 31
0.0
 70
    32
 71
     5
 42
31.00000000000012
  3
AM_ISO$0
100
AcDbAlignedDimension
 13
974.4587821656535
 23
2423.522696498215
 33
0.0
 14
1005.458782165653
 24
2423.658696498215
 34
0.0
100
AcDbRotatedDimension
  0
ARC
  5
67A3
330
1F
100
AcDbEntity
  8
0
  6
Continuous
 62
     7
100
AcDbCircle
 10
1061.953782165653
 20
2431.385696498215
 30
0.0
 40
73.0
100
AcDbArc
 50
188.6670000000126
 51
218.0369999999935
  0
LINE
  5
67A4
330
1F
100
AcDbEntity
  8
0
  6
Continuous
 62
     7
100
AcDbLine
 10
963.9587821656535
 20
2451.386696498215
 30
0.0
 11
963.9587821656535
 21
2411.386696498216
 31
0.0
  0
ARC
  5
67A5
330
1F
100
AcDbEntity
  8
0
  6
Continuous
 62
     7
100
AcDbCircle
 10
1061.953782165653
 20
2431.385696498215
 30
0.0
 40
83.0
100
AcDbArc
 50
187.6149999999937
 51
211.6079999999966
  0
LINE
  5
67A6
330
1F
100
AcDbEntity
  8
0
  6
Continuous
 62
     7
100
AcDbLine
 10
963.9587821656535
 20
2411.386696498216
 30
0.0
 11
981.3997821656535
 21
2411.386696498216
 31
0.0
  0
LINE
  5
67A7
330
1F
100
AcDbEntity
  8
0
  6
Continuous
 62
     7
100
AcDbLine
 10
1005.103782165654
 20
2386.945696498215
 30
0.0
 11
1002.128782165653
 21
2384.449696498215
 31
0.0
  0
LINE
  5
67A8
330
1F
100
AcDbEntity
  8
0
  6
Continuous
 62
     7
100
AcDbLine
 10
999.8787821656534
 20
2387.130696498215
 30
0.0
 11
1002.128782165653
 21
2384.450696498215
 31
0.0
  0
LINE
  5
67A9
330
1F
100
AcDbEntity
  8
0
  6
Continuous
 62
     7
100
AcDbLine
 10
991.2667821656537
 20
2387.884696498215
 30
0.0
 11
999.8787821656534
 21
2387.131696498215
 31
0.0
  0
LINE
  5
67AA
330
1F
100
AcDbEntity
  8
0
  6
Continuous
 62
     7
100
AcDbLine
 10
1004.958782165654
 20
2387.770696498215
 30
0.0
 11
1005.103782165654
 21
2386.946696498215
 31
0.0
  0
CIRCLE
  5
67AB
330
1F
100
AcDbEntity
  8
0
  6
Continuous
 62
     2
100
AcDbCircle
 10
974.4577821656536
 20
2431.385696498215
 30
0.0
 40
5.0
  0
CIRCLE
  5
67AC
330
1F
100
AcDbEntity
  8
0
  6
Continuous
 62
     7
100
AcDbCircle
 10
974.4587821656535
 20
2431.386696498215
 30
0.0
 40
4.187999999999999
  0
LINE
  5
67AD
330
1F
100
AcDbEntity
  8
0
  6
Continuous
 62
     7
100
AcDbLine
 10
963.9587821656535
 20
2451.386696498215
 30
0.0
 11
981.3997821656535
 21
2451.386696498215
 31
0.0
  0
LINE
  5
67AE
330
1F
100
AcDbEntity
  8
AM_7
100
AcDbLine
 10
974.4587821656535
 20
2439.492696498215
 30
0.0
 11
974.4587821656535
 21
2423.522696498215
 31
0.0
  0
LINE
  5
67AF
330
1F
100
AcDbEntity
  8
0
  6
Continuous
 62
     7
100
AcDbLine
 10
984.9587821656538
 20
2442.386696498215
 30
0.0
 11
984.9587821656538
 21
2420.386696498216
 31
0.0
  0
LINE
  5
67B0
330
1F
100
AcDbEntity
  8
0
  6
Continuous
 62
     7
100
AcDbLine
 10
994.9587821656537
 20
2442.386696498215
 30
0.0
 11
994.9587821656537
 21
2420.386696498216
 31
0.0
  0
LINE
  5
67B1
330
1F
100
AcDbEntity
  8
AM_7
100
AcDbLine
 10
1005.458782165653
 20
2440.300696498215
 30
0.0
 11
1005.458782165653
 21
2423.658696498215
 31
0.0
  0
LINE
  5
67B2
330
1F
100
AcDbEntity
  8
AM_5
100
AcDbLine
 10
936.4637821656536
 20
2552.638696498215
 30
0.0
 11
991.9487821656534
 21
2552.638696498215
 31
0.0
  0
LINE
  5
67B3
330
1F
100
AcDbEntity
  8
AM_5
100
AcDbLine
 10
936.4637821656536
 20
2542.638696498216
 30
0.0
 11
997.7227821656535
 21
2542.638696498216
 31
0.0
  0
TEXT
  5
67B4
330
1F
100
AcDbEntity
  8
AM_5
100
AcDbText
 10
936.7527821656535
 20
2543.842696498215
 30
0.0
 40
3.2
  1
P.C.D.148
  7
China
100
AcDbText
  0
TEXT
  5
67B5
330
1F
100
AcDbEntity
  8
AM_5
100
AcDbText
 10
936.2367821656535
 20
2554.146696498215
 30
0.0
 40
3.2
  1
3-
  7
China
100
AcDbText
  0
TEXT
  5
67B6
330
1F
100
AcDbEntity
  8
AM_5
100
AcDbText
 10
945.8377821656537
 20
2554.146696498215
 30
0.0
 40
3.2
  1
11BORE17.5xDEPTH34
  7
China
100
AcDbText
  0
LINE
  5
67B7
330
1F
100
AcDbEntity
  8
AM_5
100
AcDbLine
 10
943.6557821656535
 20
2554.148696498215
 30
0.0
 11
944.8187821656535
 21
2557.343696498215
 31
0.0
  0
CIRCLE
  5
67B8
330
1F
100
AcDbEntity
  8
AM_5
100
AcDbCircle
 10
944.2367821656535
 20
2555.746696498215
 30
0.0
 40
0.9
  0
DIMENSION
  5
67B9
330
1F
100
AcDbEntity
  8
AM_5
100
AcDbDimension
  2
*D5
 10
1423.594004810104
 20
2365.610359609802
 30
0.0
 11
1420.410796504457
 21
2372.080675882953
 31
0.0
 70
    33
 71
     5
 42
11.99897838012657
  3
AM_ISO$0
100
AcDbAlignedDimension
 13
1528.005983873308
 23
2363.967287015024
 33
0.0
 14
1526.439860690243
 24
2352.070953952177
 34
0.0
  0
DIMENSION
  5
67BA
330
1F
100
AcDbEntity
  8
AM_5
100
AcDbDimension
  2
*D6
 10
1425.161629499366
 20
2377.518098172542
 30
0.0
 11
1425.63750892961
 21
2411.750328220844
 31
0.0
 70
    33
 71
     5
 42
68.00211865264055
  3
AM_ISO$0
100
AcDbAlignedDimension
 13
1536.88919084971
 23
2431.386696498215
 33
0.0
 14
1528.005983873308
 24
2363.967287015024
 34
0.0
  0
DIMENSION
  5
67BB
330
1F
100
AcDbEntity
  8
AM_5
100
AcDbDimension
  2
*D7
 10
1434.043737457121
 20
2444.929166615347
 30
0.0
 11
1434.906954032201
 21
2482.132514367973
 31
0.0
 70
    33
 71
     5
 42
73.99551950917976
  3
AM_ISO$0
100
AcDbAlignedDimension
 13
1546.540114522131
 23
2504.753269633029
 33
0.0
 14
1536.882117409789
 24
2431.390745145309
 34
0.0
  0
ARC
  5
67BE
330
1F
100
AcDbEntity
  8
0
  6
Continuous
 62
     7
100
AcDbCircle
 10
1536.886140609398
 20
2431.385696498215
 30
0.0
 40
83.0
100
AcDbArc
 50
328.3920000000033
 51
151.6090000000027
  0
CIRCLE
  5
67BF
330
1F
100
AcDbEntity
  8
0
  6
Continuous
 62
     7
100
AcDbCircle
 10
1536.886140609398
 20
2431.385696498215
 30
0.0
 40
65.0
  0
CIRCLE
  5
67C0
330
1F
100
AcDbEntity
  8
0
  6
CENTER
 62
     2
100
AcDbCircle
 10
1536.886140609398
 20
2431.385696498215
 30
0.0
 40
74.0
  0
ARC
  5
67C1
330
1F
100
AcDbEntity
  8
0
  6
Continuous
 62
     7
100
AcDbCircle
 10
1536.886140609398
 20
2431.385696498215
 30
0.0
 40
83.0
100
AcDbArc
 50
208.3899999999992
 51
271.6100000000031
  0
LINE
  5
67C2
330
1F
100
AcDbEntity
  8
0
  6
Continuous
 62
     7
100
AcDbLine
 10
1513.926140609399
 20
2351.623696498216
 30
0.0
 11
1505.206140609399
 21
2336.517696498215
 31
0.0
  0
LINE
  5
67C4
330
1F
100
AcDbEntity
  8
0
  6
Continuous
 62
     7
100
AcDbLine
 10
1513.926140609399
 20
2511.147696498215
 30
0.0
 11
1505.206140609399
 21
2526.256696498216
 31
0.0
  0
LINE
  5
67C5
330
1F
100
AcDbEntity
  8
AM_5
100
AcDbLine
 10
1532.896140609399
 20
2552.638696498215
 30
0.0
 11
1502.386140609399
 21
2499.801696498215
 31
0.0
  0
LINE
  5
67C6
330
1F
100
AcDbEntity
  8
AM_5
100
AcDbLine
 10
1481.946140609398
 20
2552.638696498215
 30
0.0
 11
1532.896140609399
 21
2552.638696498215
 31
0.0
  0
TEXT
  5
67C7
330
1F
100
AcDbEntity
  8
AM_5
100
AcDbText
 10
1500.706140609399
 20
2553.921696498215
 30
0.0
 40
3.2
  1
1.5DEPTH20
  7
China
100
AcDbText
  0
LINE
  5
67C8
330
1F
100
AcDbEntity
  8
0
  6
Continuous
 62
     7
100
AcDbLine
 10
1225.943780671269
 20
2583.35923850999
 30
0.0
 11
1225.943780671269
 21
2597.83323850999
 31
0.0
  0
LINE
  5
67C9
330
1F
100
AcDbEntity
  8
0
  6
Continuous
 62
     7
100
AcDbLine
 10
1231.713780671269
 20
2583.34123850999
 30
0.0
 11
1231.713780671269
 21
2597.83323850999
 31
0.0
  0
LINE
  5
67CA
330
1F
100
AcDbEntity
  8
0
  6
Continuous
 62
     7
100
AcDbLine
 10
1225.943780671269
 20
2592.13823850999
 30
0.0
 11
1231.713780671269
 21
2583.34123850999
 31
0.0
  0
DIMENSION
  5
67CB
330
1F
100
AcDbEntity
  8
AM_5
100
AcDbDimension
  2
*D8
 10
1255.943780671269
 20
2322.58576229257
 30
0.0
 11
1246.943780671269
 21
2326.58576229257
 31
0.0
 70
    32
 71
     5
 42
18.0
  3
AM_ISO$0
100
AcDbAlignedDimension
 13
1237.943780671269
 23
2336.519696498215
 33
0.0
 14
1255.943780671269
 24
2336.519696498215
 34
0.0
100
AcDbRotatedDimension
  0
LINE
  5
67CC
330
1F
100
AcDbEntity
  8
0
  6
Continuous
 62
     7
100
AcDbLine
 10
1231.713780671269
 20
2392.135696498215
 30
0.0
 11
1339.943780671269
 21
2392.135696498215
 31
0.0
  0
LINE
  5
67CD
330
1F
100
AcDbEntity
  8
0
  6
Continuous
 62
     7
100
AcDbLine
 10
1231.713780671269
 20
2414.683696498215
 30
0.0
 11
1339.943780671269
 21
2414.683696498215
 31
0.0
  0
LINE
  5
67CE
330
1F
100
AcDbEntity
  8
0
  6
Continuous
 62
     7
100
AcDbLine
 10
1237.943780671269
 20
2336.519696498215
 30
0.0
 11
1255.943780671269
 21
2336.519696498215
 31
0.0
  0
LINE
  5
67CF
330
1F
100
AcDbEntity
  8
0
  6
Continuous
 62
     7
100
AcDbLine
 10
1237.943780671269
 20
2356.519696498216
 30
0.0
 11
1255.943780671269
 21
2356.519696498216
 31
0.0
  0
LINE
  5
67D0
330
1F
100
AcDbEntity
  8
0
  6
Continuous
 62
     7
100
AcDbLine
 10
1237.943780671269
 20
2371.623696498216
 30
0.0
 11
1255.943780671269
 21
2371.623696498216
 31
0.0
  0
LINE
  5
67D1
330
1F
100
AcDbEntity
  8
AM_7
100
AcDbLine
 10
1213.283780671269
 20
2431.385696498215
 30
0.0
 11
1344.743780671269
 21
2431.385696498215
 31
0.0
  0
LINE
  5
67D2
330
1F
100
AcDbEntity
  8
0
  6
Continuous
 62
     7
100
AcDbLine
 10
1231.713780671269
 20
2448.088696498215
 30
0.0
 11
1339.943780671269
 21
2448.088696498215
 31
0.0
  0
LINE
  5
67D3
330
1F
100
AcDbEntity
  8
0
  6
Continuous
 62
     7
100
AcDbLine
 10
1231.713780671269
 20
2470.851696498215
 30
0.0
 11
1339.943780671269
 21
2470.851696498215
 31
0.0
  0
LINE
  5
67D4
330
1F
100
AcDbEntity
  8
0
  6
Continuous
 62
     7
100
AcDbLine
 10
1231.713780671269
 20
2440.135696498215
 30
0.0
 11
1259.943780671269
 21
2440.135696498215
 31
0.0
  0
LINE
  5
67D5
330
1F
100
AcDbEntity
  8
0
  6
Continuous
 62
     7
100
AcDbLine
 10
1231.713780671269
 20
2422.635696498215
 30
0.0
 11
1259.943780671269
 21
2422.635696498215
 31
0.0
  0
LINE
  5
67D6
330
1F
100
AcDbEntity
  8
0
  6
Continuous
 62
     7
100
AcDbLine
 10
1237.943780671269
 20
2506.251696498215
 30
0.0
 11
1255.943780671269
 21
2506.251696498215
 31
0.0
  0
LINE
  5
67D7
330
1F
100
AcDbEntity
  8
0
  6
Continuous
 62
     7
100
AcDbLine
 10
1237.943780671269
 20
2491.147696498215
 30
0.0
 11
1255.943780671269
 21
2491.147696498215
 31
0.0
  0
LINE
  5
67D8
330
1F
100
AcDbEntity
  8
0
  6
Continuous
 62
     7
100
AcDbLine
 10
1231.713780671269
 20
2573.35823850999
 30
0.0
 11
1339.943780671269
 21
2573.35823850999
 31
0.0
  0
LINE
  5
67D9
330
1F
100
AcDbEntity
  8
0
  6
Continuous
 62
     7
100
AcDbLine
 10
1231.713780671269
 20
2575.05623850999
 30
0.0
 11
1339.943780671269
 21
2575.05623850999
 31
0.0
  0
LINE
  5
67DA
330
1F
100
AcDbEntity
  8
0
  6
Continuous
 62
     7
100
AcDbLine
 10
1231.713780671269
 20
2583.34123850999
 30
0.0
 11
1339.943780671269
 21
2583.34123850999
 31
0.0
  0
LINE
  5
67DB
330
1F
100
AcDbEntity
  8
0
  6
Continuous
 62
     7
100
AcDbLine
 10
1237.943780671269
 20
2526.251696498215
 30
0.0
 11
1255.943780671269
 21
2526.251696498215
 31
0.0
  0
LINE
  5
67DC
330
1F
100
AcDbEntity
  8
AM_7
100
AcDbLine
 10
1017.920782165653
 20
2507.655696498215
 30
0.0
 11
1114.096782165653
 21
2341.073696498215
 31
0.0
  0
LINE
  5
67DD
330
1F
100
AcDbEntity
  8
0
  6
Continuous
 62
     7
100
AcDbLine
 10
1231.713780671269
 20
2422.635696498215
 30
0.0
 11
1231.713780671269
 21
2414.683696498215
 31
0.0
  0
LINE
  5
67DE
330
1F
100
AcDbEntity
  8
0
  6
Continuous
 62
     7
100
AcDbLine
 10
1225.943780671269
 20
2489.210696498215
 30
0.0
 11
1225.943780671269
 21
2373.560696498215
 31
0.0
  0
LINE
  5
67DF
330
1F
100
AcDbEntity
  8
AM_7
100
AcDbLine
 10
1113.607782165654
 20
2520.851696498215
 30
0.0
 11
1017.587782165653
 21
2354.540696498215
 31
0.0
  0
ARC
  5
67E0
330
1F
100
AcDbEntity
  8
0
  6
Continuous
 62
     7
100
AcDbCircle
 10
1061.953782165653
 20
2431.385696498215
 30
0.0
 40
83.0
100
AcDbArc
 50
348.3910000000111
 51
11.60929999998451
  0
ARC
  5
67E1
330
1F
100
AcDbEntity
  8
0
  6
Continuous
 62
     7
100
AcDbCircle
 10
1061.953782165653
 20
2431.385696498215
 30
0.0
 40
41.0
100
AcDbArc
 50
195.562
 51
284.4380000000021
  0
ARC
  5
67E2
330
1F
100
AcDbEntity
  8
0
  6
Continuous
 62
     7
100
AcDbCircle
 10
1061.953782165653
 20
2431.385696498215
 30
0.0
 40
41.0
100
AcDbArc
 50
315.5640000000033
 51
44.43769999999853
  0
ARC
  5
67E3
330
1F
100
AcDbEntity
  8
0
  6
Continuous
 62
     7
100
AcDbCircle
 10
1061.953782165653
 20
2431.385696498215
 30
0.0
 40
73.0
100
AcDbArc
 50
341.9679999999909
 51
353.2200000000027
  0
LINE
  5
67E6
330
1F
100
AcDbEntity
  8
0
  6
Continuous
 62
     7
100
AcDbLine
 10
1143.255782165653
 20
2414.683696498215
 30
0.0
 11
1135.422782165653
 21
2411.031696498215
 31
0.0
  0
LINE
  5
67E7
102
{ACAD_REACTORS
330
6C35
102
}
330
1F
100
AcDbEntity
  8
0
  6
Continuous
 62
     7
100
AcDbLine
 10
1101.426782165653
 20
2341.018696498215
 30
0.0
 11
1066.678782165653
 21
2401.204696498215
 31
0.0
  0
ARC
  5
67E8
330
1F
100
AcDbEntity
  8
0
  6
Continuous
 62
     7
100
AcDbCircle
 10
1061.953782165653
 20
2431.385696498215
 30
0.0
 40
73.0
100
AcDbArc
 50
261.9659999999968
 51
291.3340000000036
  0
ARC
  5
67E9
330
1F
100
AcDbEntity
  8
0
  6
Continuous
 62
     7
100
AcDbCircle
 10
1061.953782165653
 20
2431.385696498215
 30
0.0
 40
83.0
100
AcDbArc
 50
268.3899999999969
 51
292.3850000000006
  0
LINE
  5
67EA
330
1F
100
AcDbEntity
  8
0
  6
Continuous
 62
     7
100
AcDbLine
 10
1066.678782165653
 20
2401.204696498215
 30
0.0
 11
1085.730782165653
 21
2412.204696498215
 31
0.0
  0
ARC
  5
67EB
330
1F
100
AcDbEntity
  8
AM_7
100
AcDbCircle
 10
1061.953782165653
 20
2431.385696498215
 30
0.0
 40
74.0001
100
AcDbArc
 50
231.1589999999964
 51
248.9270000000022
  0
ARC
  5
67EC
330
1F
100
AcDbEntity
  8
0
  6
Continuous
 62
     7
100
AcDbCircle
 10
1024.953782165654
 20
2367.299696498215
 30
0.0
 40
8.75
100
AcDbArc
 50
329.9999999999995
 51
149.9999999999994
  0
LINE
  5
67ED
330
1F
100
AcDbEntity
  8
0
  6
Continuous
 62
     7
100
AcDbLine
 10
1042.846782165653
 20
2357.581696498215
 30
0.0
 11
1035.767782165653
 21
2352.624696498216
 31
0.0
  0
ARC
  5
67EE
330
1F
100
AcDbEntity
  8
0
  6
Continuous
 62
     7
100
AcDbCircle
 10
1061.953782165653
 20
2431.385696498215
 30
0.0
 40
73.0
100
AcDbArc
 50
246.7799999999944
 51
258.0410000000014
  0
CIRCLE
  5
67EF
330
1F
100
AcDbEntity
  8
0
  6
Continuous
 62
     7
100
AcDbCircle
 10
1024.953782165654
 20
2367.299696498215
 30
0.0
 40
5.5
  0
LINE
  5
67F0
330
1F
100
AcDbEntity
  8
0
  6
Continuous
 62
     7
100
AcDbLine
 10
1017.375782165653
 20
2371.675696498215
 30
0.0
 11
1013.107782165653
 21
2364.281696498215
 31
0.0
  0
LINE
  5
67F1
330
1F
100
AcDbEntity
  8
0
  6
Continuous
 62
     7
100
AcDbLine
 10
1032.531782165653
 20
2362.924696498215
 30
0.0
 11
1028.262782165653
 21
2355.531696498215
 31
0.0
  0
LINE
  5
67F2
330
1F
100
AcDbEntity
  8
0
  6
Continuous
 62
     7
100
AcDbLine
 10
1054.664782165653
 20
2355.498696498216
 30
0.0
 11
1059.622782165653
 21
2348.418696498215
 31
0.0
  0
LINE
  5
67F3
330
1F
100
AcDbEntity
  8
0
  6
Continuous
 62
     7
100
AcDbLine
 10
1053.326782165654
 20
2363.864696498215
 30
0.0
 11
1046.975782165653
 21
2364.984696498215
 31
0.0
  0
LINE
  5
67F4
330
1F
100
AcDbEntity
  8
0
  6
Continuous
 62
     7
100
AcDbLine
 10
1052.683782165654
 20
2360.216696498215
 30
0.0
 11
1051.896782165653
 21
2359.929696498215
 31
0.0
  0
LINE
  5
67F5
330
1F
100
AcDbEntity
  8
0
  6
Continuous
 62
     7
100
AcDbLine
 10
1054.664782165653
 20
2355.498696498216
 30
0.0
 11
1051.217782165654
 21
2356.106696498216
 31
0.0
  0
LINE
  5
67F6
330
1F
100
AcDbEntity
  8
0
  6
Continuous
 62
     7
100
AcDbLine
 10
1051.897782165653
 20
2359.929696498215
 30
0.0
 11
1051.222782165653
 21
2356.105696498215
 31
0.0
  0
LINE
  5
67F7
330
1F
100
AcDbEntity
  8
0
  6
Continuous
 62
     7
100
AcDbLine
 10
1046.973782165653
 20
2360.802696498215
 30
0.0
 11
1046.298782165653
 21
2356.973696498215
 31
0.0
  0
LINE
  5
67F8
330
1F
100
AcDbEntity
  8
0
  6
Continuous
 62
     7
100
AcDbLine
 10
1046.974782165653
 20
2364.984696498215
 30
0.0
 11
1046.332782165653
 21
2361.340696498215
 31
0.0
  0
LINE
  5
67F9
330
1F
100
AcDbEntity
  8
0
  6
Continuous
 62
     7
100
AcDbLine
 10
1046.332782165653
 20
2361.340696498215
 30
0.0
 11
1046.973782165653
 21
2360.802696498215
 31
0.0
  0
LINE
  5
67FA
330
1F
100
AcDbEntity
  8
0
  6
Continuous
 62
     7
100
AcDbLine
 10
1046.293782165653
 20
2356.974696498215
 30
0.0
 11
1042.846782165653
 21
2357.582696498215
 31
0.0
  0
LINE
  5
67FB
330
1F
100
AcDbEntity
  8
0
  6
Continuous
 62
     7
100
AcDbLine
 10
1053.326782165654
 20
2363.864696498215
 30
0.0
 11
1052.683782165654
 21
2360.216696498215
 31
0.0
  0
LINE
  5
67FC
330
1F
100
AcDbEntity
  8
0
  6
Continuous
 62
     7
100
AcDbLine
 10
1007.795782165654
 20
2390.151696498215
 30
0.0
 11
1011.941782165654
 21
2385.210696498215
 31
0.0
  0
LINE
  5
67FD
330
1F
100
AcDbEntity
  8
0
  6
Continuous
 62
     7
100
AcDbLine
 10
1011.941782165654
 20
2385.210696498215
 30
0.0
 11
1009.107782165653
 21
2382.832696498216
 31
0.0
  0
LINE
  5
67FE
330
1F
100
AcDbEntity
  8
0
  6
Continuous
 62
     7
100
AcDbLine
 10
1009.107782165653
 20
2382.832696498216
 30
0.0
 11
1008.321782165653
 21
2383.118696498215
 31
0.0
  0
LINE
  5
67FF
102
{ACAD_REACTORS
330
6C35
102
}
330
1F
100
AcDbEntity
  8
0
  6
Continuous
 62
     7
100
AcDbLine
 10
1120.478782165653
 20
2352.018696498215
 30
0.0
 11
1085.730782165653
 21
2412.204696498215
 31
0.0
  0
LINE
  5
6800
330
1F
100
AcDbEntity
  8
0
  6
Continuous
 62
     7
100
AcDbLine
 10
1085.926782165653
 20
2367.865696498215
 30
0.0
 11
1104.978782165654
 21
2378.865696498215
 31
0.0
  0
ARC
  5
6801
330
1F
100
AcDbEntity
  8
0
  6
Continuous
 62
     7
100
AcDbCircle
 10
1061.953782165653
 20
2431.385696498215
 30
0.0
 40
83.0
100
AcDbArc
 50
307.616000000004
 51
331.6100000000008
  0
ARC
  5
6802
330
1F
100
AcDbEntity
  8
0
  6
Continuous
 62
     7
100
AcDbCircle
 10
1061.953782165653
 20
2431.385696498215
 30
0.0
 40
73.0
100
AcDbArc
 50
308.6670000000069
 51
338.0430000000075
  0
LINE
  5
6803
102
{ACAD_REACTORS
330
6C35
102
}
330
1F
100
AcDbEntity
  8
0
  6
Continuous
 62
     7
100
AcDbLine
 10
1093.631782165653
 20
2336.518696498215
 30
0.0
 11
1128.272782165653
 21
2356.518696498215
 31
0.0
  0
LINE
  5
6804
330
1F
100
AcDbEntity
  8
0
  6
Continuous
 62
     7
100
AcDbLine
 10
1090.926782165653
 20
2359.205696498215
 30
0.0
 11
1109.978782165653
 21
2370.205696498215
 31
0.0
  0
LINE
  5
6805
330
1F
100
AcDbEntity
  8
AM_7
100
AcDbLine
 10
1098.371782165654
 20
2351.379696498215
 30
0.0
 11
1112.534782165654
 21
2359.556696498215
 31
0.0
  0
CIRCLE
  5
6806
330
1F
100
AcDbEntity
  8
0
  6
Continuous
 62
     2
100
AcDbCircle
 10
1105.701782165653
 20
2355.611696498215
 30
0.0
 40
5.0
  0
CIRCLE
  5
6807
330
1F
100
AcDbEntity
  8
0
  6
Continuous
 62
     7
100
AcDbCircle
 10
1105.702782165653
 20
2355.612696498215
 30
0.0
 40
4.187999999999999
  0
LINE
  5
6808
330
1F
100
AcDbEntity
  8
0
  6
Continuous
 62
     7
100
AcDbLine
 10
1093.631782165653
 20
2336.518696498215
 30
0.0
 11
1084.911782165653
 21
2351.623696498216
 31
0.0
  0
LINE
  5
6809
330
1F
100
AcDbEntity
  8
0
  6
Continuous
 62
     7
100
AcDbLine
 10
1128.272782165653
 20
2356.518696498215
 30
0.0
 11
1119.551782165653
 21
2371.623696498216
 31
0.0
  0
LINE
  5
680A
330
1F
100
AcDbEntity
  8
0
  6
Continuous
 62
     7
100
AcDbLine
 10
1075.426782165653
 20
2386.052696498215
 30
0.0
 11
1094.478782165653
 21
2397.052696498215
 31
0.0
  0
LINE
  5
680B
330
1F
100
AcDbEntity
  8
AM_7
100
AcDbLine
 10
1082.483782165653
 20
2378.002696498215
 30
0.0
 11
1096.894782165653
 21
2386.322696498215
 31
0.0
  0
CIRCLE
  5
680C
330
1F
100
AcDbEntity
  8
0
  6
Continuous
 62
     2
100
AcDbCircle
 10
1090.201782165653
 20
2382.458696498215
 30
0.0
 40
5.0
  0
CIRCLE
  5
680D
330
1F
100
AcDbEntity
  8
0
  6
Continuous
 62
     7
100
AcDbCircle
 10
1090.202782165653
 20
2382.458696498215
 30
0.0
 40
4.187999999999999
  0
LINE
  5
680E
330
1F
100
AcDbEntity
  8
0
  6
Continuous
 62
     7
100
AcDbLine
 10
1134.971782165653
 20
2391.921696498215
 30
0.0
 11
1131.318782165653
 21
2399.754696498215
 31
0.0
  0
POINT
  5
680F
330
1F
100
AcDbEntity
  8
0
100
AcDbPoint
 10
1125.854782165653
 20
2408.134696498215
 30
0.0
  0
LINE
  5
6810
330
1F
100
AcDbEntity
  8
0
  6
Continuous
 62
     7
100
AcDbLine
 10
1128.874782165653
 20
2404.375696498215
 30
0.0
 11
1132.517782165653
 21
2403.049696498215
 31
0.0
  0
LINE
  5
6811
330
1F
100
AcDbEntity
  8
0
  6
Continuous
 62
     7
100
AcDbLine
 10
1130.580782165653
 20
2409.075696498215
 30
0.0
 11
1134.227782165653
 21
2407.747696498216
 31
0.0
  0
LINE
  5
6812
330
1F
100
AcDbEntity
  8
0
  6
Continuous
 62
     7
100
AcDbLine
 10
1124.751782165653
 20
2405.104696498215
 30
0.0
 11
1126.957782165653
 21
2411.165696498215
 31
0.0
  0
LINE
  5
6813
330
1F
100
AcDbEntity
  8
0
  6
Continuous
 62
     7
100
AcDbLine
 10
1124.751782165653
 20
2405.104696498215
 30
0.0
 11
1128.232782165653
 21
2403.837696498215
 31
0.0
  0
LINE
  5
6814
330
1F
100
AcDbEntity
  8
0
  6
Continuous
 62
     7
100
AcDbLine
 10
1126.957782165653
 20
2411.165696498215
 30
0.0
 11
1130.434782165653
 21
2409.899696498215
 31
0.0
  0
LINE
  5
6815
330
1F
100
AcDbEntity
  8
0
  6
Continuous
 62
     7
100
AcDbLine
 10
1128.232782165653
 20
2403.837696498215
 30
0.0
 11
1128.873782165654
 21
2404.375696498215
 31
0.0
  0
LINE
  5
6816
330
1F
100
AcDbEntity
  8
0
  6
Continuous
 62
     7
100
AcDbLine
 10
1130.434782165653
 20
2409.899696498215
 30
0.0
 11
1130.580782165653
 21
2409.075696498215
 31
0.0
  0
LINE
  5
6817
330
1F
100
AcDbEntity
  8
0
  6
Continuous
 62
     7
100
AcDbLine
 10
1131.318782165653
 20
2399.754696498215
 30
0.0
 11
1132.515782165653
 21
2403.043696498215
 31
0.0
  0
LINE
  5
6818
330
1F
100
AcDbEntity
  8
0
  6
Continuous
 62
     7
100
AcDbLine
 10
1134.225782165653
 20
2407.742696498215
 30
0.0
 11
1135.422782165653
 21
2411.031696498215
 31
0.0
  0
LINE
  5
6821
330
1F
100
AcDbEntity
  8
0
  6
Continuous
 62
     7
100
AcDbLine
 10
1217.943780671269
 20
2341.019696498215
 30
0.0
 11
1217.943780671269
 21
2397.052696498215
 31
0.0
  0
LINE
  5
6822
330
1F
100
AcDbEntity
  8
0
  6
Continuous
 62
     7
100
AcDbLine
 10
1223.943780671269
 20
2370.205696498215
 30
0.0
 11
1223.943780671269
 21
2378.866696498215
 31
0.0
  0
LINE
  5
6823
330
1F
100
AcDbEntity
  8
0
  6
Continuous
 62
     7
100
AcDbLine
 10
1231.713780671269
 20
2365.639696498215
 30
0.0
 11
1231.713780671269
 21
2392.135696498215
 31
0.0
  0
LINE
  5
6824
330
1F
100
AcDbEntity
  8
0
  6
Continuous
 62
     7
100
AcDbLine
 10
1231.713780671269
 20
2365.639696498215
 30
0.0
 11
1225.943780671269
 21
2373.560696498215
 31
0.0
  0
LINE
  5
6825
330
1F
100
AcDbEntity
  8
0
  6
Continuous
 62
     7
100
AcDbLine
 10
1217.943780671269
 20
2341.019696498215
 30
0.0
 11
1237.943780671269
 21
2341.019696498215
 31
0.0
  0
LINE
  5
6826
330
1F
100
AcDbEntity
  8
0
  6
Continuous
 62
     7
100
AcDbLine
 10
1237.943780671269
 20
2336.519696498215
 30
0.0
 11
1237.943780671269
 21
2341.019696498215
 31
0.0
  0
LINE
  5
6827
330
1F
100
AcDbEntity
  8
0
  6
Continuous
 62
     7
100
AcDbLine
 10
1217.943780671269
 20
2352.019696498215
 30
0.0
 11
1237.943780671269
 21
2352.019696498215
 31
0.0
  0
LINE
  5
6828
330
1F
100
AcDbEntity
  8
0
  6
Continuous
 62
     7
100
AcDbLine
 10
1217.943780671269
 20
2370.205696498215
 30
0.0
 11
1223.943780671269
 21
2370.205696498215
 31
0.0
  0
LINE
  5
6829
330
1F
100
AcDbEntity
  8
0
  6
Continuous
 62
     7
100
AcDbLine
 10
1231.713780671269
 20
2365.639696498215
 30
0.0
 11
1237.943780671269
 21
2365.639696498215
 31
0.0
  0
LINE
  5
682A
330
1F
100
AcDbEntity
  8
0
  6
Continuous
 62
     7
100
AcDbLine
 10
1237.943780671269
 20
2352.019696498215
 30
0.0
 11
1237.943780671269
 21
2371.623696498216
 31
0.0
  0
LINE
  5
682B
330
1F
100
AcDbEntity
  8
0
  6
Continuous
 62
     7
100
AcDbLine
 10
1225.943780671269
 20
2396.864696498216
 30
0.0
 11
1231.713780671269
 21
2392.135696498215
 31
0.0
  0
LINE
  5
682C
330
1F
100
AcDbEntity
  8
0
  6
Continuous
 62
     7
100
AcDbLine
 10
1217.943780671269
 20
2378.866696498215
 30
0.0
 11
1223.943780671269
 21
2378.866696498215
 31
0.0
  0
LINE
  5
682D
330
1F
100
AcDbEntity
  8
0
  6
Continuous
 62
     7
100
AcDbLine
 10
1231.713780671269
 20
2414.683696498215
 30
0.0
 11
1225.943780671269
 21
2416.695696498215
 31
0.0
  0
LINE
  5
682E
330
1F
100
AcDbEntity
  8
0
  6
Continuous
 62
     7
100
AcDbLine
 10
1217.943780671269
 20
2397.052696498215
 30
0.0
 11
1225.943780671269
 21
2397.052696498215
 31
0.0
  0
LINE
  5
682F
330
1F
100
AcDbEntity
  8
0
  6
Continuous
 62
     7
100
AcDbLine
 10
1135.954782165653
 20
2422.636696498216
 30
0.0
 11
1144.491782165653
 21
2422.636696498216
 31
0.0
  0
LINE
  5
6830
330
1F
100
AcDbEntity
  8
0
  6
Continuous
 62
     7
100
AcDbLine
 10
1135.954782165653
 20
2440.136696498215
 30
0.0
 11
1144.490782165654
 21
2440.136696498215
 31
0.0
  0
CIRCLE
  5
6831
330
1F
100
AcDbEntity
  8
0
  6
Continuous
 62
     7
100
AcDbCircle
 10
1135.953782165653
 20
2431.385696498215
 30
0.0
 40
5.5
  0
LINE
  5
6832
330
1F
100
AcDbEntity
  8
0
  6
Continuous
 62
     7
100
AcDbLine
 10
1135.421782165653
 20
2451.741696498215
 30
0.0
 11
1143.255782165653
 21
2448.088696498215
 31
0.0
  0
LINE
  5
6833
330
1F
100
AcDbEntity
  8
0
  6
Continuous
 62
     7
100
AcDbLine
 10
1084.910782165653
 20
2511.148696498215
 30
0.0
 11
1093.631782165653
 21
2526.253696498215
 31
0.0
  0
LINE
  5
6834
330
1F
100
AcDbEntity
  8
0
  6
Continuous
 62
     7
100
AcDbLine
 10
1128.272782165653
 20
2506.253696498215
 30
0.0
 11
1093.631782165653
 21
2526.253696498215
 31
0.0
  0
LINE
  5
6835
330
1F
100
AcDbEntity
  8
0
  6
Continuous
 62
     7
100
AcDbLine
 10
1101.425782165653
 20
2521.753696498215
 30
0.0
 11
1066.677782165654
 21
2461.568696498215
 31
0.0
  0
LINE
  5
6836
330
1F
100
AcDbEntity
  8
AM_5
100
AcDbLine
 10
1079.445782165653
 20
2552.638696498215
 30
0.0
 11
1103.203782165653
 21
2511.490696498215
 31
0.0
  0
LINE
  5
6837
330
1F
100
AcDbEntity
  8
0
  6
Continuous
 62
     7
100
AcDbLine
 10
1085.730782165653
 20
2450.568696498215
 30
0.0
 11
1066.677782165654
 21
2461.568696498215
 31
0.0
  0
ARC
  5
6838
330
1F
100
AcDbEntity
  8
0
  6
Continuous
 62
     7
100
AcDbCircle
 10
1061.953782165653
 20
2431.385696498215
 30
0.0
 40
73.0
100
AcDbArc
 50
68.66670000000024
 51
113.2200000000056
  0
ARC
  5
6839
330
1F
100
AcDbEntity
  8
0
  6
Continuous
 62
     7
100
AcDbCircle
 10
1061.953782165653
 20
2431.385696498215
 30
0.0
 40
41.0
100
AcDbArc
 50
75.56310000000249
 51
164.4360000000072
  0
LINE
  5
683A
102
{ACAD_REACTORS
330
6FCD
102
}
330
1F
100
AcDbEntity
  8
0
  6
Continuous
 62
     7
100
AcDbLine
 10
1015.958782165653
 20
2442.386696498215
 30
0.0
 11
1015.958782165653
 21
2420.386696498216
 31
0.0
  0
LINE
  5
683B
330
1F
100
AcDbEntity
  8
0
  6
Continuous
 62
     7
100
AcDbLine
 10
1033.454782165653
 20
2442.386696498215
 30
0.0
 11
1033.454782165653
 21
2420.386696498216
 31
0.0
  0
POINT
  5
683C
330
1F
100
AcDbEntity
  8
0
100
AcDbPoint
 10
1061.953782165653
 20
2431.385696498215
 30
0.0
  0
ARC
  5
683D
330
1F
100
AcDbEntity
  8
0
  6
Continuous
 62
     7
100
AcDbCircle
 10
1024.953782165654
 20
2495.471696498216
 30
0.0
 40
8.75
100
AcDbArc
 50
210.0000000000005
 51
30.00000000000055
  0
ARC
  5
683E
330
1F
100
AcDbEntity
  8
AM_7
100
AcDbCircle
 10
1061.953782165653
 20
2431.385696498215
 30
0.0
 40
74.0001
100
AcDbArc
 50
111.7079999999936
 51
129.045000000005
  0
CIRCLE
  5
683F
330
1F
100
AcDbEntity
  8
0
  6
Continuous
 62
     7
100
AcDbCircle
 10
1024.953782165654
 20
2495.471696498216
 30
0.0
 40
5.5
  0
LINE
  5
6840
330
1F
100
AcDbEntity
  8
0
  6
Continuous
 62
     7
100
AcDbLine
 10
1017.376782165653
 20
2491.096696498216
 30
0.0
 11
1013.107782165653
 21
2498.490696498215
 31
0.0
  0
LINE
  5
6841
330
1F
100
AcDbEntity
  8
0
  6
Continuous
 62
     7
100
AcDbLine
 10
1032.531782165653
 20
2499.846696498215
 30
0.0
 11
1028.263782165653
 21
2507.240696498215
 31
0.0
  0
LINE
  5
6842
330
1F
100
AcDbEntity
  8
0
  6
Continuous
 62
     7
100
AcDbLine
 10
1120.478782165653
 20
2510.753696498215
 30
0.0
 11
1085.730782165653
 21
2450.568696498215
 31
0.0
  0
LINE
  5
6843
330
1F
100
AcDbEntity
  8
0
  6
Continuous
 62
     7
100
AcDbLine
 10
1094.478782165653
 20
2465.720696498215
 30
0.0
 11
1075.425782165653
 21
2476.720696498215
 31
0.0
  0
LINE
  5
6844
330
1F
100
AcDbEntity
  8
0
  6
Continuous
 62
     7
100
AcDbLine
 10
1131.317782165653
 20
2463.017696498215
 30
0.0
 11
1134.970782165654
 21
2470.851696498215
 31
0.0
  0
ARC
  5
6845
330
1F
100
AcDbEntity
  8
0
  6
Continuous
 62
     7
100
AcDbCircle
 10
1061.953782165653
 20
2431.385696498215
 30
0.0
 40
73.0
100
AcDbArc
 50
21.96259999998996
 51
51.3334000000046
  0
ARC
  5
6846
330
1F
100
AcDbEntity
  8
0
  6
Continuous
 62
     7
100
AcDbCircle
 10
1061.953782165653
 20
2431.385696498215
 30
0.0
 40
73.0
100
AcDbArc
 50
6.780329999996979
 51
18.0374000000122
  0
ARC
  5
6847
330
1F
100
AcDbEntity
  8
0
  6
Continuous
 62
     7
100
AcDbCircle
 10
1135.953782165653
 20
2431.385696498215
 30
0.0
 40
8.75
100
AcDbArc
 50
90.0
 51
270.0
  0
ARC
  5
6848
330
1F
100
AcDbEntity
  8
AM_7
100
AcDbCircle
 10
1061.953782165653
 20
2431.385696498215
 30
0.0
 40
74.0001
100
AcDbArc
 50
351.6150000000106
 51
8.433779999988438
  0
POINT
  5
6849
330
1F
100
AcDbEntity
  8
0
100
AcDbPoint
 10
1125.857782165653
 20
2454.644696498216
 30
0.0
  0
LINE
  5
684A
330
1F
100
AcDbEntity
  8
0
  6
Continuous
 62
     7
100
AcDbLine
 10
1128.877782165653
 20
2458.404696498215
 30
0.0
 11
1132.514782165654
 21
2459.728696498215
 31
0.0
  0
LINE
  5
684B
330
1F
100
AcDbEntity
  8
0
  6
Continuous
 62
     7
100
AcDbLine
 10
1130.582782165653
 20
2453.704696498216
 30
0.0
 11
1134.224782165653
 21
2455.029696498215
 31
0.0
  0
LINE
  5
684C
330
1F
100
AcDbEntity
  8
0
  6
Continuous
 62
     7
100
AcDbLine
 10
1124.754782165653
 20
2457.675696498216
 30
0.0
 11
1128.235782165654
 21
2458.942696498215
 31
0.0
  0
LINE
  5
684D
330
1F
100
AcDbEntity
  8
0
  6
Continuous
 62
     7
100
AcDbLine
 10
1126.960782165653
 20
2451.614696498216
 30
0.0
 11
1130.437782165653
 21
2452.879696498215
 31
0.0
  0
LINE
  5
684E
330
1F
100
AcDbEntity
  8
0
  6
Continuous
 62
     7
100
AcDbLine
 10
1128.235782165654
 20
2458.942696498215
 30
0.0
 11
1128.877782165653
 21
2458.404696498215
 31
0.0
  0
LINE
  5
684F
330
1F
100
AcDbEntity
  8
0
  6
Continuous
 62
     7
100
AcDbLine
 10
1130.437782165653
 20
2452.879696498215
 30
0.0
 11
1130.582782165653
 21
2453.704696498216
 31
0.0
  0
LINE
  5
6850
330
1F
100
AcDbEntity
  8
0
  6
Continuous
 62
     7
100
AcDbLine
 10
1131.317782165653
 20
2463.017696498215
 30
0.0
 11
1132.514782165654
 21
2459.728696498215
 31
0.0
  0
LINE
  5
6851
330
1F
100
AcDbEntity
  8
0
  6
Continuous
 62
     7
100
AcDbLine
 10
1134.224782165653
 20
2455.029696498215
 30
0.0
 11
1135.421782165653
 21
2451.740696498215
 31
0.0
  0
LINE
  5
6852
330
1F
100
AcDbEntity
  8
0
  6
Continuous
 62
     7
100
AcDbLine
 10
1124.754782165653
 20
2457.675696498216
 30
0.0
 11
1126.960782165653
 21
2451.614696498216
 31
0.0
  0
LINE
  5
6853
330
1F
100
AcDbEntity
  8
0
  6
Continuous
 62
     7
100
AcDbLine
 10
1109.978782165653
 20
2492.567696498215
 30
0.0
 11
1090.925782165653
 21
2503.567696498215
 31
0.0
  0
LINE
  5
6854
330
1F
100
AcDbEntity
  8
AM_7
100
AcDbLine
 10
1111.248782165653
 20
2503.958696498215
 30
0.0
 11
1099.384782165653
 21
2510.808696498215
 31
0.0
  0
CIRCLE
  5
6855
330
1F
100
AcDbEntity
  8
0
  6
Continuous
 62
     2
100
AcDbCircle
 10
1105.702782165653
 20
2507.159696498215
 30
0.0
 40
5.0
  0
CIRCLE
  5
6856
330
1F
100
AcDbEntity
  8
0
  6
Continuous
 62
     7
100
AcDbCircle
 10
1105.702782165653
 20
2507.160696498215
 30
0.0
 40
4.187999999999999
  0
LINE
  5
6857
330
1F
100
AcDbEntity
  8
0
  6
Continuous
 62
     7
100
AcDbLine
 10
1104.978782165654
 20
2483.907696498215
 30
0.0
 11
1085.925782165653
 21
2494.907696498215
 31
0.0
  0
LINE
  5
6858
330
1F
100
AcDbEntity
  8
AM_7
100
AcDbLine
 10
1097.921782165653
 20
2475.857696498215
 30
0.0
 11
1083.509782165653
 21
2484.177696498215
 31
0.0
  0
CIRCLE
  5
6859
330
1F
100
AcDbEntity
  8
0
  6
Continuous
 62
     2
100
AcDbCircle
 10
1090.201782165653
 20
2480.312696498215
 30
0.0
 40
5.0
  0
CIRCLE
  5
685A
330
1F
100
AcDbEntity
  8
0
  6
Continuous
 62
     7
100
AcDbCircle
 10
1090.202782165653
 20
2480.313696498215
 30
0.0
 40
4.187999999999999
  0
ARC
  5
685B
330
1F
100
AcDbEntity
  8
0
  6
Continuous
 62
     7
100
AcDbCircle
 10
1061.953782165653
 20
2431.385696498215
 30
0.0
 40
83.0
100
AcDbArc
 50
28.39129999999436
 51
52.38440000000822
  0
LINE
  5
685C
330
1F
100
AcDbEntity
  8
0
  6
Continuous
 62
     7
100
AcDbLine
 10
1128.272782165653
 20
2506.253696498215
 30
0.0
 11
1119.551782165653
 21
2491.147696498215
 31
0.0
  0
LINE
  5
685D
330
1F
100
AcDbEntity
  8
AM_5
100
AcDbLine
 10
1028.479782165653
 20
2552.638696498215
 30
0.0
 11
1079.445782165653
 21
2552.638696498215
 31
0.0
  0
TEXT
  5
685E
330
1F
100
AcDbEntity
  8
AM_5
100
AcDbText
 10
1047.234782165653
 20
2553.729696498215
 30
0.0
 40
3.2
  1
1.5DEPTH20
  7
China
100
AcDbText
  0
TEXT
  5
685F
330
1F
100
AcDbEntity
  8
AM_5
100
AcDbText
 10
1028.034782165653
 20
2553.729696498215
 30
0.0
 40
3.2
  1
6-M10
  7
China
100
AcDbText
  0
LINE
  5
6860
330
1F
100
AcDbEntity
  8
AM_5
100
AcDbLine
 10
1044.734782165653
 20
2554.256696498216
 30
0.0
 11
1046.534782165654
 21
2556.401696498215
 31
0.0
  0
LINE
  5
6861
330
1F
100
AcDbEntity
  8
AM_5
100
AcDbLine
 10
1044.734782165653
 20
2556.401696498215
 30
0.0
 11
1046.534782165654
 21
2554.256696498216
 31
0.0
  0
LINE
  5
6862
330
1F
100
AcDbEntity
  8
0
  6
Continuous
 62
     7
100
AcDbLine
 10
1217.943780671269
 20
2521.751696498216
 30
0.0
 11
1217.943780671269
 21
2465.718696498215
 31
0.0
  0
LINE
  5
6863
330
1F
100
AcDbEntity
  8
0
  6
Continuous
 62
     7
100
AcDbLine
 10
1225.943780671269
 20
2466.096696498216
 30
0.0
 11
1231.713780671269
 21
2470.851696498215
 31
0.0
  0
LINE
  5
6864
330
1F
100
AcDbEntity
  8
0
  6
Continuous
 62
     7
100
AcDbLine
 10
1231.713780671269
 20
2440.135696498215
 30
0.0
 11
1231.713780671269
 21
2448.088696498215
 31
0.0
  0
LINE
  5
6865
330
1F
100
AcDbEntity
  8
0
  6
Continuous
 62
     7
100
AcDbLine
 10
1225.943780671269
 20
2423.689696498215
 30
0.0
 11
1231.713780671269
 21
2422.635696498215
 31
0.0
  0
LINE
  5
6866
330
1F
100
AcDbEntity
  8
0
  6
Continuous
 62
     7
100
AcDbLine
 10
1225.943780671269
 20
2439.081696498215
 30
0.0
 11
1231.713780671269
 21
2440.135696498215
 31
0.0
  0
LINE
  5
6867
330
1F
100
AcDbEntity
  8
0
  6
Continuous
 62
     7
100
AcDbLine
 10
1217.943780671269
 20
2442.385696498215
 30
0.0
 11
1225.943780671269
 21
2442.385696498215
 31
0.0
  0
LINE
  5
6868
330
1F
100
AcDbEntity
  8
0
  6
Continuous
 62
     7
100
AcDbLine
 10
1217.943780671269
 20
2420.385696498215
 30
0.0
 11
1225.943780671269
 21
2420.385696498215
 31
0.0
  0
LINE
  5
6869
330
1F
100
AcDbEntity
  8
0
  6
Continuous
 62
     7
100
AcDbLine
 10
1217.943780671269
 20
2442.385696498215
 30
0.0
 11
1217.943780671269
 21
2420.385696498215
 31
0.0
  0
LINE
  5
686A
330
1F
100
AcDbEntity
  8
0
  6
Continuous
 62
     7
100
AcDbLine
 10
1231.713780671269
 20
2448.088696498215
 30
0.0
 11
1225.943780671269
 21
2446.075696498215
 31
0.0
  0
LINE
  5
686B
330
1F
100
AcDbEntity
  8
0
  6
Continuous
 62
     7
100
AcDbLine
 10
1217.943780671269
 20
2465.718696498215
 30
0.0
 11
1225.943780671269
 21
2465.718696498215
 31
0.0
  0
LINE
  5
686C
330
1F
100
AcDbEntity
  8
0
  6
Continuous
 62
     7
100
AcDbLine
 10
1231.713780671269
 20
2497.131696498215
 30
0.0
 11
1231.713780671269
 21
2470.851696498215
 31
0.0
  0
LINE
  5
686D
330
1F
100
AcDbEntity
  8
0
  6
Continuous
 62
     7
100
AcDbLine
 10
1223.943780671269
 20
2492.565696498215
 30
0.0
 11
1223.943780671269
 21
2483.905696498216
 31
0.0
  0
LINE
  5
686E
330
1F
100
AcDbEntity
  8
0
  6
Continuous
 62
     7
100
AcDbLine
 10
1225.943780671269
 20
2489.210696498215
 30
0.0
 11
1231.713780671269
 21
2497.131696498215
 31
0.0
  0
LINE
  5
686F
330
1F
100
AcDbEntity
  8
0
  6
Continuous
 62
     7
100
AcDbLine
 10
1217.943780671269
 20
2483.905696498216
 30
0.0
 11
1223.943780671269
 21
2483.905696498216
 31
0.0
  0
LINE
  5
6870
330
1F
100
AcDbEntity
  8
0
  6
Continuous
 62
     7
100
AcDbLine
 10
1217.943780671269
 20
2510.751696498215
 30
0.0
 11
1237.943780671269
 21
2510.751696498215
 31
0.0
  0
LINE
  5
6871
330
1F
100
AcDbEntity
  8
0
  6
Continuous
 62
     7
100
AcDbLine
 10
1217.943780671269
 20
2492.565696498215
 30
0.0
 11
1223.943780671269
 21
2492.565696498215
 31
0.0
  0
LINE
  5
6872
330
1F
100
AcDbEntity
  8
0
  6
Continuous
 62
     7
100
AcDbLine
 10
1231.713780671269
 20
2497.131696498215
 30
0.0
 11
1237.943780671269
 21
2497.131696498215
 31
0.0
  0
LINE
  5
6873
330
1F
100
AcDbEntity
  8
0
  6
Continuous
 62
     7
100
AcDbLine
 10
1237.943780671269
 20
2510.751696498215
 30
0.0
 11
1237.943780671269
 21
2491.147696498215
 31
0.0
  0
LINE
  5
6874
330
1F
100
AcDbEntity
  8
0
  6
Continuous
 62
     7
100
AcDbLine
 10
1217.943780671269
 20
2521.751696498216
 30
0.0
 11
1237.943780671269
 21
2521.751696498216
 31
0.0
  0
LINE
  5
6875
330
1F
100
AcDbEntity
  8
0
  6
Continuous
 62
     7
100
AcDbLine
 10
1237.943780671269
 20
2526.251696498215
 30
0.0
 11
1237.943780671269
 21
2521.751696498216
 31
0.0
  0
LINE
  5
6876
330
1F
100
AcDbEntity
  8
0
  6
Continuous
 62
     7
100
AcDbLine
 10
1225.943780671269
 20
2583.35923850999
 30
0.0
 11
1231.713780671269
 21
2573.35823850999
 31
0.0
  0
LINE
  5
6877
330
1F
100
AcDbEntity
  8
0
  6
Continuous
 62
     7
100
AcDbLine
 10
1231.713780671269
 20
2575.05623850999
 30
0.0
 11
1225.943780671269
 21
2584.85223850999
 31
0.0
  0
LINE
  5
6878
330
1F
100
AcDbEntity
  8
0
  6
Continuous
 62
     7
100
AcDbLine
 10
1231.713780671269
 20
2573.35823850999
 30
0.0
 11
1231.713780671269
 21
2575.05623850999
 31
0.0
  0
LINE
  5
6879
330
1F
100
AcDbEntity
  8
0
  6
Continuous
 62
     7
100
AcDbLine
 10
1339.943780671269
 20
2514.385696498215
 30
0.0
 11
1339.943780671269
 21
2348.385696498215
 31
0.0
  0
ARC
  5
687A
330
1F
100
AcDbEntity
  8
0
  6
Continuous
 62
     7
100
AcDbCircle
 10
1536.886140609398
 20
2431.385696498215
 30
0.0
 40
83.0
100
AcDbArc
 50
168.3910000000111
 51
191.6089999999889
  0
DIMENSION
  5
687B
330
1F
100
AcDbEntity
  8
AM_5
100
AcDbDimension
  2
*D9
 10
1339.943780671269
 20
2322.58576229257
 30
0.0
 11
1297.943780671269
 21
2326.58576229257
 31
0.0
 70
    32
 71
     5
 42
84.0
  3
AM_ISO$0
100
AcDbAlignedDimension
 13
1255.943780671269
 23
2322.58576229257
 33
0.0
 14
1339.943780671269
 24
2348.385696498215
 34
0.0
100
AcDbRotatedDimension
  0
LINE
  5
687C
330
1F
100
AcDbEntity
  8
0
  6
Continuous
 62
     7
100
AcDbLine
 10
1255.943780671269
 20
2348.385696498215
 30
0.0
 11
1339.943780671269
 21
2348.385696498215
 31
0.0
  0
LINE
  5
687D
330
1F
100
AcDbEntity
  8
0
  6
Continuous
 62
     7
100
AcDbLine
 10
1255.943780671269
 20
2336.519696498215
 30
0.0
 11
1255.943780671269
 21
2371.623696498216
 31
0.0
  0
LINE
  5
687E
330
1F
100
AcDbEntity
  8
0
  6
Continuous
 62
     7
100
AcDbLine
 10
1505.206140609399
 20
2336.518696498215
 30
0.0
 11
1470.566140609399
 21
2356.518696498215
 31
0.0
  0
LINE
  5
687F
330
1F
100
AcDbEntity
  8
0
  6
Continuous
 62
     7
100
AcDbLine
 10
1479.286140609399
 20
2371.622696498215
 30
0.0
 11
1470.566140609399
 21
2356.518696498215
 31
0.0
  0
LINE
  5
6882
330
1F
100
AcDbEntity
  8
0
  6
Continuous
 62
     7
100
AcDbLine
 10
1463.866140609399
 20
2391.921696498215
 30
0.0
 11
1467.526140609399
 21
2399.754696498215
 31
0.0
  0
LINE
  5
6883
330
1F
100
AcDbEntity
  8
0
  6
Continuous
 62
     7
100
AcDbLine
 10
1455.586140609399
 20
2414.683696498215
 30
0.0
 11
1463.416140609399
 21
2411.031696498215
 31
0.0
  0
POINT
  5
6884
330
1F
100
AcDbEntity
  8
0
100
AcDbPoint
 10
1472.986140609399
 20
2408.129696498216
 30
0.0
  0
LINE
  5
6885
330
1F
100
AcDbEntity
  8
0
  6
Continuous
 62
     7
100
AcDbLine
 10
1469.976140609398
 20
2404.371696498215
 30
0.0
 11
1466.326140609399
 21
2403.043696498215
 31
0.0
  0
LINE
  5
6886
330
1F
100
AcDbEntity
  8
0
  6
Continuous
 62
     7
100
AcDbLine
 10
1468.266140609399
 20
2409.070696498215
 30
0.0
 11
1464.616140609399
 21
2407.742696498215
 31
0.0
  0
LINE
  5
6887
330
1F
100
AcDbEntity
  8
0
  6
Continuous
 62
     7
100
AcDbLine
 10
1474.086140609399
 20
2405.098696498215
 30
0.0
 11
1471.886140609399
 21
2411.159696498215
 31
0.0
  0
LINE
  5
6888
330
1F
100
AcDbEntity
  8
0
  6
Continuous
 62
     7
100
AcDbLine
 10
1474.086140609399
 20
2405.098696498215
 30
0.0
 11
1470.616140609399
 21
2403.832696498215
 31
0.0
  0
LINE
  5
6889
330
1F
100
AcDbEntity
  8
0
  6
Continuous
 62
     7
100
AcDbLine
 10
1471.886140609399
 20
2411.159696498215
 30
0.0
 11
1468.406140609399
 21
2409.895696498216
 31
0.0
  0
LINE
  5
688A
330
1F
100
AcDbEntity
  8
0
  6
Continuous
 62
     7
100
AcDbLine
 10
1470.616140609399
 20
2403.832696498215
 30
0.0
 11
1469.976140609398
 21
2404.371696498215
 31
0.0
  0
LINE
  5
688B
330
1F
100
AcDbEntity
  8
0
  6
Continuous
 62
     7
100
AcDbLine
 10
1468.406140609399
 20
2409.895696498216
 30
0.0
 11
1468.266140609399
 21
2409.070696498215
 31
0.0
  0
LINE
  5
688C
330
1F
100
AcDbEntity
  8
0
  6
Continuous
 62
     7
100
AcDbLine
 10
1467.526140609399
 20
2399.754696498215
 30
0.0
 11
1466.326140609399
 21
2403.043696498215
 31
0.0
  0
LINE
  5
688D
330
1F
100
AcDbEntity
  8
0
  6
Continuous
 62
     7
100
AcDbLine
 10
1464.616140609399
 20
2407.742696498215
 30
0.0
 11
1463.416140609399
 21
2411.031696498215
 31
0.0
  0
LINE
  5
688E
330
1F
100
AcDbEntity
  8
0
  6
Continuous
 62
     7
100
AcDbLine
 10
1255.943780671269
 20
2526.251696498215
 30
0.0
 11
1255.943780671269
 21
2491.147696498215
 31
0.0
  0
LINE
  5
688F
330
1F
100
AcDbEntity
  8
0
  6
Continuous
 62
     7
100
AcDbLine
 10
1259.943780671269
 20
2440.135696498215
 30
0.0
 11
1259.943780671269
 21
2422.635696498215
 31
0.0
  0
POINT
  5
6890
330
1F
100
AcDbEntity
  8
0
100
AcDbPoint
 10
1339.943780671269
 20
2431.385696498215
 30
0.0
  0
LINE
  5
6891
330
1F
100
AcDbEntity
  8
0
  6
Continuous
 62
     7
100
AcDbLine
 10
1255.943780671269
 20
2514.385696498215
 30
0.0
 11
1339.943780671269
 21
2514.385696498215
 31
0.0
  0
LINE
  5
6892
330
1F
100
AcDbEntity
  8
0
  6
Continuous
 62
     7
100
AcDbLine
 10
1470.566140609399
 20
2506.256696498216
 30
0.0
 11
1505.206140609399
 21
2526.256696498216
 31
0.0
  0
LINE
  5
6893
330
1F
100
AcDbEntity
  8
0
  6
Continuous
 62
     7
100
AcDbLine
 10
1467.526140609399
 20
2463.017696498215
 30
0.0
 11
1463.866140609399
 21
2470.851696498215
 31
0.0
  0
CIRCLE
  5
6894
330
1F
100
AcDbEntity
  8
0
  6
Continuous
 62
     7
100
AcDbCircle
 10
1462.886140609399
 20
2431.385696498215
 30
0.0
 40
5.5
  0
LINE
  5
6895
330
1F
100
AcDbEntity
  8
0
  6
Continuous
 62
     7
100
AcDbLine
 10
1463.416140609399
 20
2451.741696498215
 30
0.0
 11
1455.586140609399
 21
2448.088696498215
 31
0.0
  0
POINT
  5
6896
330
1F
100
AcDbEntity
  8
0
100
AcDbPoint
 10
1472.986140609399
 20
2454.643696498215
 30
0.0
  0
LINE
  5
6897
330
1F
100
AcDbEntity
  8
0
  6
Continuous
 62
     7
100
AcDbLine
 10
1469.976140609398
 20
2458.400696498215
 30
0.0
 11
1466.326140609399
 21
2459.728696498215
 31
0.0
  0
LINE
  5
6898
330
1F
100
AcDbEntity
  8
0
  6
Continuous
 62
     7
100
AcDbLine
 10
1468.266140609399
 20
2453.702696498215
 30
0.0
 11
1464.616140609399
 21
2455.029696498215
 31
0.0
  0
LINE
  5
6899
330
1F
100
AcDbEntity
  8
0
  6
Continuous
 62
     7
100
AcDbLine
 10
1474.086140609399
 20
2457.673696498215
 30
0.0
 11
1471.886140609399
 21
2451.612696498215
 31
0.0
  0
LINE
  5
689A
330
1F
100
AcDbEntity
  8
0
  6
Continuous
 62
     7
100
AcDbLine
 10
1474.086140609399
 20
2457.673696498215
 30
0.0
 11
1470.616140609399
 21
2458.939696498215
 31
0.0
  0
LINE
  5
689B
330
1F
100
AcDbEntity
  8
0
  6
Continuous
 62
     7
100
AcDbLine
 10
1471.886140609399
 20
2451.612696498215
 30
0.0
 11
1468.406140609399
 21
2452.878696498215
 31
0.0
  0
LINE
  5
689C
330
1F
100
AcDbEntity
  8
0
  6
Continuous
 62
     7
100
AcDbLine
 10
1470.616140609399
 20
2458.939696498215
 30
0.0
 11
1469.976140609398
 21
2458.401696498215
 31
0.0
  0
LINE
  5
689D
330
1F
100
AcDbEntity
  8
0
  6
Continuous
 62
     7
100
AcDbLine
 10
1468.406140609399
 20
2452.878696498215
 30
0.0
 11
1468.266140609399
 21
2453.702696498215
 31
0.0
  0
LINE
  5
689E
330
1F
100
AcDbEntity
  8
0
  6
Continuous
 62
     7
100
AcDbLine
 10
1467.526140609399
 20
2463.017696498215
 30
0.0
 11
1466.326140609399
 21
2459.728696498215
 31
0.0
  0
LINE
  5
689F
330
1F
100
AcDbEntity
  8
0
  6
Continuous
 62
     7
100
AcDbLine
 10
1464.616140609399
 20
2455.029696498215
 30
0.0
 11
1463.416140609399
 21
2451.741696498215
 31
0.0
  0
LINE
  5
68A0
330
1F
100
AcDbEntity
  8
0
  6
Continuous
 62
     7
100
AcDbLine
 10
1479.286140609399
 20
2491.147696498215
 30
0.0
 11
1470.566140609399
 21
2506.256696498216
 31
0.0
  0
TEXT
  5
68A3
330
1F
100
AcDbEntity
  8
AM_5
100
AcDbText
 10
1481.506140609399
 20
2553.921696498215
 30
0.0
 40
3.2
  1
3-M10
  7
China
100
AcDbText
  0
TEXT
  5
68A4
330
1F
100
AcDbEntity
  8
AM_5
100
AcDbText
 10
1481.506140609399
 20
2548.287696498216
 30
0.0
 40
3.2
  1
P.C.D.148
  7
China
100
AcDbText
  0
LINE
  5
68A5
330
1F
100
AcDbEntity
  8
AM_5
100
AcDbLine
 10
1498.206140609399
 20
2554.449696498215
 30
0.0
 11
1500.006140609398
 21
2556.593696498215
 31
0.0
  0
LINE
  5
68A6
330
1F
100
AcDbEntity
  8
AM_5
100
AcDbLine
 10
1498.206140609399
 20
2556.594696498215
 30
0.0
 11
1500.006140609398
 21
2554.449696498215
 31
0.0
  0
LINE
  5
68A7
330
1F
100
AcDbEntity
  8
0
  6
Continuous
 62
     7
100
AcDbLine
 10
1237.943780671269
 20
2590.03823850999
 30
0.0
 11
1255.943780671269
 21
2590.03823850999
 31
0.0
  0
LINE
  5
68A8
330
1F
100
AcDbEntity
  8
0
  6
Continuous
 62
     7
100
AcDbLine
 10
1217.943780671269
 20
2597.83323850999
 30
0.0
 11
1237.943780671269
 21
2597.83323850999
 31
0.0
  0
LINE
  5
68A9
330
1F
100
AcDbEntity
  8
0
  6
Continuous
 62
     7
100
AcDbLine
 10
1237.943780671269
 20
2590.03823850999
 30
0.0
 11
1237.943780671269
 21
2597.83323850999
 31
0.0
  0
LINE
  5
68AA
330
1F
100
AcDbEntity
  8
AM_7
100
AcDbLine
 10
1525.426140609399
 20
2344.370696498215
 30
0.0
 11
1548.906140609399
 21
2522.725696498215
 31
0.0
  0
LINE
  5
68AB
330
1F
100
AcDbEntity
  8
0
  6
Continuous
 62
     7
100
AcDbLine
 10
1634.886140609399
 20
2451.386696498215
 30
0.0
 11
1634.886140609399
 21
2411.386696498216
 31
0.0
  0
LINE
  5
68AC
330
1F
100
AcDbEntity
  8
AM_5
100
AcDbLine
 10
1595.296140609399
 20
2310.385696498215
 30
0.0
 11
1647.196140609399
 21
2310.385696498215
 31
0.0
  0
TEXT
  5
68AD
330
1F
100
AcDbEntity
  8
AM_5
100
AcDbText
 10
1627.966140609398
 20
2312.264696498215
 30
0.0
 40
3.2
  1
DEPTH6
  7
China
100
AcDbText
  0
LINE
  5
68AE
330
1F
100
AcDbEntity
  8
AM_5
100
AcDbLine
 10
1522.136140609399
 20
2357.679696498215
 30
0.0
 11
1516.816140609399
 21
2317.234696498216
 31
0.0
  0
LINE
  5
68AF
330
1F
100
AcDbEntity
  8
AM_5
100
AcDbLine
 10
1532.056140609399
 20
2356.374696498215
 30
0.0
 11
1526.726140609398
 21
2315.929696498215
 31
0.0
  0
LINE
  5
68B0
330
1F
100
AcDbEntity
  8
AM_5
100
AcDbLine
 10
1560.426140609399
 20
2370.796696498215
 30
0.0
 11
1595.296140609399
 21
2310.385696498215
 31
0.0
  0
LINE
  5
68B1
330
1F
100
AcDbEntity
  8
AM_5
100
AcDbLine
 10
1516.946140609398
 20
2318.225696498215
 30
0.0
 11
1570.076140609399
 21
2311.230696498215
 31
0.0
  0
LINE
  5
68B2
330
1F
100
AcDbEntity
  8
AM_5
100
AcDbLine
 10
1526.856140609399
 20
2316.920696498215
 30
0.0
 11
1523.776140609399
 21
2316.515696498215
 31
0.0
  0
LINE
  5
68B3
330
1F
100
AcDbEntity
  8
AM_5
100
AcDbLine
 10
1526.856140609399
 20
2316.920696498215
 30
0.0
 11
1523.986140609399
 21
2318.109696498215
 31
0.0
  0
LINE
  5
68B4
330
1F
100
AcDbEntity
  8
AM_5
100
AcDbLine
 10
1516.946140609398
 20
2318.225696498215
 30
0.0
 11
1520.026140609399
 21
2318.631696498215
 31
0.0
  0
LINE
  5
68B5
330
1F
100
AcDbEntity
  8
AM_5
100
AcDbLine
 10
1516.946140609398
 20
2318.225696498215
 30
0.0
 11
1519.816140609399
 21
2317.037696498215
 31
0.0
  0
TEXT
  5
68B6
330
1F
100
AcDbEntity
  8
AM_5
100
AcDbText
 10
1528.613393609399
 20
2318.414095498215
 30
0.0
 40
3.2
  1
10H9
 50
352.5999999999938
  7
China
100
AcDbText
  0
TEXT
  5
68B7
330
1F
100
AcDbEntity
  8
AM_5
100
AcDbText
 10
1551.670986609399
 20
2315.287226498215
 30
0.0
 40
3.2
  1
DEPTH8
 50
352.4999999999881
  7
China
100
AcDbText
  0
TEXT
  5
68B8
330
1F
100
AcDbEntity
  8
AM_5
100
AcDbText
 10
1542.578563609399
 20
2318.597961498215
 30
0.0
 40
1.6
  1
+0.036
 50
352.4999999999881
  7
China
100
AcDbText
  0
TEXT
  5
68B9
330
1F
100
AcDbEntity
  8
AM_5
100
AcDbText
 10
1543.688563609399
 20
2315.775961498215
 30
0.0
 40
1.6
  1
0
 50
352.4999999999881
  7
China
100
AcDbText
  0
TEXT
  5
68BA
330
1F
100
AcDbEntity
  8
AM_5
100
AcDbText
 10
1601.116140609399
 20
2312.429696498215
 30
0.0
 40
3.2
  1
130H9
  7
China
100
AcDbText
  0
LINE
  5
68BB
330
1F
100
AcDbEntity
  8
AM_5
100
AcDbLine
 10
1598.846140609399
 20
2312.431696498215
 30
0.0
 11
1600.006140609399
 21
2315.626696498215
 31
0.0
  0
CIRCLE
  5
68BC
330
1F
100
AcDbEntity
  8
AM_5
100
AcDbCircle
 10
1599.426140609399
 20
2314.029696498215
 30
0.0
 40
0.9
  0
TEXT
  5
68BD
330
1F
100
AcDbEntity
  8
AM_5
100
AcDbText
 10
1617.886140609399
 20
2314.395696498215
 30
0.0
 40
1.6
  1
+0.100
  7
China
100
AcDbText
  0
TEXT
  5
68BE
330
1F
100
AcDbEntity
  8
AM_5
100
AcDbText
 10
1619.406140609398
 20
2312.122696498216
 30
0.0
 40
1.6
  1
0
  7
China
100
AcDbText
  0
ARC
  5
68BF
330
1F
100
AcDbEntity
  8
0
  6
Continuous
 62
     7
100
AcDbCircle
 10
1536.886140609398
 20
2431.385696498215
 30
0.0
 40
83.0
100
AcDbArc
 50
288.391000000001
 51
311.6079999999947
  0
LINE
  5
68C1
330
1F
100
AcDbEntity
  8
0
  6
Continuous
 62
     7
100
AcDbLine
 10
1544.176140609399
 20
2355.498696498216
 30
0.0
 11
1539.216140609399
 21
2348.418696498215
 31
0.0
  0
ARC
  5
68C2
330
1F
100
AcDbEntity
  8
0
  6
Continuous
 62
     7
100
AcDbCircle
 10
1527.356140609399
 20
2359.009696498215
 30
0.0
 40
5.0
100
AcDbArc
 50
0.0
 51
172.4999999999881
  0
ARC
  5
68C3
330
1F
100
AcDbEntity
  8
0
  6
Continuous
 62
     7
100
AcDbCircle
 10
1527.096140609399
 20
2357.027696498215
 30
0.0
 40
5.0
100
AcDbArc
 50
172.4999999999881
 51
352.4999999999881
  0
LINE
  5
68C4
330
1F
100
AcDbEntity
  8
0
  6
Continuous
 62
     7
100
AcDbLine
 10
1522.136140609399
 20
2357.679696498215
 30
0.0
 11
1522.396140609399
 21
2359.662696498215
 31
0.0
  0
LINE
  5
68C5
330
1F
100
AcDbEntity
  8
0
  6
Continuous
 62
     7
100
AcDbLine
 10
1532.036140609399
 20
2356.249696498215
 30
0.0
 11
1532.316140609399
 21
2358.357696498215
 31
0.0
  0
ARC
  5
68C6
330
1F
100
AcDbEntity
  8
0
  6
Continuous
 62
     7
100
AcDbCircle
 10
1527.356140609399
 20
2359.009696498215
 30
0.0
 40
5.0
100
AcDbArc
 50
352.4999999999881
 51
0.0
  0
LINE
  5
68C7
330
1F
100
AcDbEntity
  8
0
  6
Continuous
 62
     7
100
AcDbLine
 10
1555.996140609399
 20
2357.581696498215
 30
0.0
 11
1563.076140609399
 21
2352.624696498216
 31
0.0
  0
LINE
  5
68C8
330
1F
100
AcDbEntity
  8
0
  6
Continuous
 62
     7
100
AcDbLine
 10
1552.546140609399
 20
2356.974696498215
 30
0.0
 11
1555.996140609399
 21
2357.582696498215
 31
0.0
  0
LINE
  5
68C9
330
1F
100
AcDbEntity
  8
0
  6
Continuous
 62
     7
100
AcDbLine
 10
1546.946140609399
 20
2359.929696498215
 30
0.0
 11
1547.626140609399
 21
2356.106696498216
 31
0.0
  0
LINE
  5
68CA
330
1F
100
AcDbEntity
  8
0
  6
Continuous
 62
     7
100
AcDbLine
 10
1551.876140609399
 20
2360.796696498215
 30
0.0
 11
1552.546140609399
 21
2356.974696498215
 31
0.0
  0
LINE
  5
68CB
330
1F
100
AcDbEntity
  8
0
  6
Continuous
 62
     7
100
AcDbLine
 10
1545.516140609399
 20
2363.858696498215
 30
0.0
 11
1551.866140609399
 21
2364.978696498215
 31
0.0
  0
LINE
  5
68CC
330
1F
100
AcDbEntity
  8
0
  6
Continuous
 62
     7
100
AcDbLine
 10
1545.516140609399
 20
2363.858696498215
 30
0.0
 11
1546.166140609399
 21
2360.215696498215
 31
0.0
  0
LINE
  5
68CD
330
1F
100
AcDbEntity
  8
0
  6
Continuous
 62
     7
100
AcDbLine
 10
1551.866140609399
 20
2364.978696498215
 30
0.0
 11
1552.516140609399
 21
2361.335696498215
 31
0.0
  0
LINE
  5
68CE
330
1F
100
AcDbEntity
  8
0
  6
Continuous
 62
     7
100
AcDbLine
 10
1546.156140609399
 20
2360.215696498215
 30
0.0
 11
1546.946140609399
 21
2359.929696498215
 31
0.0
  0
LINE
  5
68CF
330
1F
100
AcDbEntity
  8
0
  6
Continuous
 62
     7
100
AcDbLine
 10
1552.516140609399
 20
2361.335696498215
 30
0.0
 11
1551.876140609399
 21
2360.797696498215
 31
0.0
  0
LINE
  5
68D0
330
1F
100
AcDbEntity
  8
0
  6
Continuous
 62
     7
100
AcDbLine
 10
1544.176140609399
 20
2355.498696498216
 30
0.0
 11
1547.626140609399
 21
2356.106696498216
 31
0.0
  0
LINE
  5
68D1
330
1F
100
AcDbEntity
  8
0
  6
Continuous
 62
     7
100
AcDbLine
 10
1591.996140609398
 20
2369.326696498215
 30
0.0
 11
1591.246140609398
 21
2377.938696498215
 31
0.0
  0
LINE
  5
68D2
330
1F
100
AcDbEntity
  8
0
  6
Continuous
 62
     7
100
AcDbLine
 10
1607.576140609399
 20
2387.884696498215
 30
0.0
 11
1598.956140609399
 21
2387.131696498215
 31
0.0
  0
LINE
  5
68D3
330
1F
100
AcDbEntity
  8
0
  6
Continuous
 62
     7
100
AcDbLine
 10
1591.046140609399
 20
2390.147696498215
 30
0.0
 11
1586.906140609399
 21
2385.206696498215
 31
0.0
  0
LINE
  5
68D4
330
1F
100
AcDbEntity
  8
0
  6
Continuous
 62
     7
100
AcDbLine
 10
1589.736140609399
 20
2382.828696498215
 30
0.0
 11
1590.526140609399
 21
2383.114696498215
 31
0.0
  0
LINE
  5
68D5
330
1F
100
AcDbEntity
  8
0
  6
Continuous
 62
     7
100
AcDbLine
 10
1586.906140609399
 20
2385.206696498215
 30
0.0
 11
1589.736140609399
 21
2382.828696498215
 31
0.0
  0
LINE
  5
68D6
330
1F
100
AcDbEntity
  8
0
  6
Continuous
 62
     7
100
AcDbLine
 10
1593.736140609399
 20
2386.943696498216
 30
0.0
 11
1596.706140609399
 21
2384.450696498215
 31
0.0
  0
LINE
  5
68D7
330
1F
100
AcDbEntity
  8
0
  6
Continuous
 62
     7
100
AcDbLine
 10
1590.526140609399
 20
2383.114696498215
 30
0.0
 11
1593.496140609398
 21
2380.619696498215
 31
0.0
  0
LINE
  5
68D8
330
1F
100
AcDbEntity
  8
0
  6
Continuous
 62
     7
100
AcDbLine
 10
1591.046140609399
 20
2390.147696498215
 30
0.0
 11
1593.886140609399
 21
2387.767696498215
 31
0.0
  0
LINE
  5
68D9
330
1F
100
AcDbEntity
  8
0
  6
Continuous
 62
     7
100
AcDbLine
 10
1593.886140609399
 20
2387.767696498215
 30
0.0
 11
1593.736140609399
 21
2386.943696498216
 31
0.0
  0
LINE
  5
68DA
330
1F
100
AcDbEntity
  8
0
  6
Continuous
 62
     7
100
AcDbLine
 10
1598.956140609399
 20
2387.131696498215
 30
0.0
 11
1596.706140609399
 21
2384.450696498215
 31
0.0
  0
LINE
  5
68DB
330
1F
100
AcDbEntity
  8
0
  6
Continuous
 62
     7
100
AcDbLine
 10
1593.496140609398
 20
2380.619696498215
 30
0.0
 11
1591.246140609398
 21
2377.938696498215
 31
0.0
  0
LINE
  5
68DC
330
1F
100
AcDbEntity
  8
0
  6
Continuous
 62
     7
100
AcDbLine
 10
1617.436140609398
 20
2411.386696498216
 30
0.0
 11
1634.886140609399
 21
2411.386696498216
 31
0.0
  0
LINE
  5
68DD
330
1F
100
AcDbEntity
  8
AM_5
100
AcDbLine
 10
1549.046140609399
 20
2509.083696498215
 30
0.0
 11
1574.186140609399
 21
2552.638696498215
 31
0.0
  0
POINT
  5
68DF
330
1F
100
AcDbEntity
  8
0
100
AcDbPoint
 10
1536.886140609398
 20
2431.385696498215
 30
0.0
  0
CIRCLE
  5
68E0
330
1F
100
AcDbEntity
  8
0
  6
Continuous
 62
     7
100
AcDbCircle
 10
1546.546140609399
 20
2504.752696498215
 30
0.0
 40
5.0
  0
CIRCLE
  5
68E1
330
1F
100
AcDbEntity
  8
0
  6
Continuous
 62
     2
100
AcDbCircle
 10
1610.886140609399
 20
2431.385696498215
 30
0.0
 40
5.0
  0
CIRCLE
  5
68E2
330
1F
100
AcDbEntity
  8
0
  6
Continuous
 62
     7
100
AcDbCircle
 10
1610.886140609399
 20
2431.386696498215
 30
0.0
 40
4.187999999999999
  0
LINE
  5
68E3
330
1F
100
AcDbEntity
  8
0
  6
Continuous
 62
     7
100
AcDbLine
 10
1617.436140609398
 20
2451.386696498215
 30
0.0
 11
1634.886140609399
 21
2451.386696498215
 31
0.0
  0
LINE
  5
68E4
330
1F
100
AcDbEntity
  8
AM_5
100
AcDbLine
 10
1574.186140609399
 20
2552.638696498215
 30
0.0
 11
1620.316140609399
 21
2552.638696498215
 31
0.0
  0
TEXT
  5
68E5
330
1F
100
AcDbEntity
  8
AM_5
100
AcDbText
 10
1601.676140609399
 20
2553.779696498216
 30
0.0
 40
3.2
  1
DEPTH8
  7
China
100
AcDbText
  0
LINE
  5
68E6
330
1F
100
AcDbEntity
  8
AM_5
100
AcDbLine
 10
1576.516140609399
 20
2553.894696498215
 30
0.0
 11
1577.676140609399
 21
2557.089696498215
 31
0.0
  0
CIRCLE
  5
68E7
330
1F
100
AcDbEntity
  8
AM_5
100
AcDbCircle
 10
1577.096140609399
 20
2555.492696498215
 30
0.0
 40
0.9
  0
TEXT
  5
68E8
330
1F
100
AcDbEntity
  8
AM_5
100
AcDbText
 10
1578.766140609399
 20
2553.779696498216
 30
0.0
 40
3.2
  1
10H9
  7
China
100
AcDbText
  0
TEXT
  5
68E9
330
1F
100
AcDbEntity
  8
AM_5
100
AcDbText
 10
1591.696140609399
 20
2555.535696498215
 30
0.0
 40
1.6
  1
+0.036
  7
China
100
AcDbText
  0
TEXT
  5
68EA
330
1F
100
AcDbEntity
  8
AM_5
100
AcDbText
 10
1593.386140609399
 20
2553.313696498215
 30
0.0
 40
1.6
  1
0
  7
China
100
AcDbText
  0
DIMENSION
  5
68EB
330
1F
100
AcDbEntity
  8
AM_5
100
AcDbDimension
  2
*D10
 10
1359.665294087224
 20
2573.35823850999
 30
0.0
 11
1355.665294087224
 21
2656.35823850999
 31
0.0
 70
    32
  1
%%C<>
 71
     5
 42
166.0
  3
AM_ISO$0
100
AcDbAlignedDimension
 13
1339.943780671269
 23
2739.35823850999
 33
0.0
 14
1339.943780671269
 24
2573.35823850999
 34
0.0
 50
90.0
100
AcDbRotatedDimension
  0
LINE
  5
68EC
330
1F
100
AcDbEntity
  8
0
  6
Continuous
 62
     7
100
AcDbLine
 10
1339.943780671269
 20
2573.35823850999
 30
0.0
 11
1339.943780671269
 21
2739.35823850999
 31
0.0
  0
DIMENSION
  5
68ED
330
1F
100
AcDbEntity
  8
AM_5
100
AcDbDimension
  2
*D11
 10
1339.943780671269
 20
2772.838853085763
 30
0.0
 11
1282.943780671269
 21
2776.838853085763
 31
0.0
 70
    32
 71
     5
 42
114.0
  3
AM_ISO$0
100
AcDbAlignedDimension
 13
1225.943780671269
 23
2728.71823850999
 33
0.0
 14
1339.943780671269
 24
2752.430172914142
 34
0.0
100
AcDbRotatedDimension
1001
ACAD
1000
DSTYLE
1002
{
1070
    40
1040
1.0
1002
}
  0
LINE
  5
68EE
330
1F
100
AcDbEntity
  8
AM_7
100
AcDbLine
 10
1213.283780671269
 20
2656.35823850999
 30
0.0
 11
1344.743780671269
 21
2656.35823850999
 31
0.0
  0
LINE
  5
68EF
330
1F
100
AcDbEntity
  8
0
  6
Continuous
 62
     7
100
AcDbLine
 10
1231.713780671269
 20
2624.74823850999
 30
0.0
 11
1255.943780671269
 21
2624.74823850999
 31
0.0
  0
LINE
  5
68F0
330
1F
100
AcDbEntity
  8
0
  6
Continuous
 62
     7
100
AcDbLine
 10
1237.943780671269
 20
2633.64823850999
 30
0.0
 11
1255.943780671269
 21
2633.64823850999
 31
0.0
  0
LINE
  5
68F1
330
1F
100
AcDbEntity
  8
0
  6
Continuous
 62
     7
100
AcDbLine
 10
1231.713780671269
 20
2690.04823850999
 30
0.0
 11
1259.943780671269
 21
2690.04823850999
 31
0.0
  0
LINE
  5
68F2
330
1F
100
AcDbEntity
  8
0
  6
Continuous
 62
     7
100
AcDbLine
 10
1231.713780671269
 20
2705.20823850999
 30
0.0
 11
1259.943780671269
 21
2705.20823850999
 31
0.0
  0
LINE
  5
68F3
330
1F
100
AcDbEntity
  8
0
  6
Continuous
 62
     7
100
AcDbLine
 10
1217.943780671269
 20
2754.35823850999
 30
0.0
 11
1255.943780671269
 21
2754.35823850999
 31
0.0
  0
LINE
  5
68F4
330
1F
100
AcDbEntity
  8
0
  6
Continuous
 62
     7
100
AcDbLine
 10
1237.943780671269
 20
2736.92823850999
 30
0.0
 11
1255.943780671269
 21
2736.92823850999
 31
0.0
  0
DIMENSION
  5
68F5
330
1F
100
AcDbEntity
  8
AM_5
100
AcDbDimension
  2
*D12
 10
1225.943780671269
 20
2772.838853085763
 30
0.0
 11
1221.943780671269
 21
2776.838853085763
 31
0.0
 70
    32
 71
     5
 42
8.0
  3
AM_ISO$0
100
AcDbAlignedDimension
 13
1217.943780671269
 23
2763.835023191172
 33
0.0
 14
1225.943780671269
 24
2770.437832703324
 34
0.0
100
AcDbRotatedDimension
  0
DIMENSION
  5
68F6
330
1F
100
AcDbEntity
  8
AM_5
100
AcDbDimension
  2
*D13
 10
1195.721851967299
 20
2702.35823850999
 30
0.0
 11
1191.721851967298
 21
2679.35823850999
 31
0.0
 70
    32
 71
     5
 42
46.0
  3
AM_ISO$0
100
AcDbAlignedDimension
 13
1213.283780671269
 23
2656.35823850999
 33
0.0
 14
1195.721851967299
 24
2702.35823850999
 34
0.0
 50
90.0
100
AcDbRotatedDimension
  0
LINE
  5
68F7
330
1F
100
AcDbEntity
  8
0
  6
Continuous
 62
     7
100
AcDbLine
 10
1225.943780671269
 20
2628.55823850999
 30
0.0
 11
1225.943780671269
 21
2728.71823850999
 31
0.0
  0
LINE
  5
68F8
330
1F
100
AcDbEntity
  8
0
  6
Continuous
 62
     7
100
AcDbLine
 10
1231.713780671269
 20
2624.74823850999
 30
0.0
 11
1231.713780671269
 21
2690.04823850999
 31
0.0
  0
LINE
  5
68F9
330
1F
100
AcDbEntity
  8
0
  6
Continuous
 62
     7
100
AcDbLine
 10
1217.943780671269
 20
2597.83323850999
 30
0.0
 11
1217.943780671269
 21
2642.88823850999
 31
0.0
  0
LINE
  5
68FA
330
1F
100
AcDbEntity
  8
0
  6
Continuous
 62
     7
100
AcDbLine
 10
1223.943780671269
 20
2627.38823850999
 30
0.0
 11
1223.943780671269
 21
2632.38823850999
 31
0.0
  0
LINE
  5
68FB
330
1F
100
AcDbEntity
  8
0
  6
Continuous
 62
     7
100
AcDbLine
 10
1237.943780671269
 20
2616.88523850999
 30
0.0
 11
1237.943780671269
 21
2633.64823850999
 31
0.0
  0
LINE
  5
68FC
330
1F
100
AcDbEntity
  8
0
  6
Continuous
 62
     7
100
AcDbLine
 10
1217.943780671269
 20
2616.88523850999
 30
0.0
 11
1237.943780671269
 21
2616.88523850999
 31
0.0
  0
LINE
  5
68FD
330
1F
100
AcDbEntity
  8
0
  6
Continuous
 62
     7
100
AcDbLine
 10
1225.943780671269
 20
2628.55823850999
 30
0.0
 11
1231.713780671269
 21
2624.74823850999
 31
0.0
  0
LINE
  5
68FE
330
1F
100
AcDbEntity
  8
0
  6
Continuous
 62
     7
100
AcDbLine
 10
1217.943780671269
 20
2627.38823850999
 30
0.0
 11
1223.943780671269
 21
2627.38823850999
 31
0.0
  0
LINE
  5
68FF
330
1F
100
AcDbEntity
  8
0
  6
Continuous
 62
     7
100
AcDbLine
 10
1217.943780671269
 20
2632.38823850999
 30
0.0
 11
1223.943780671269
 21
2632.38823850999
 31
0.0
  0
LINE
  5
6900
330
1F
100
AcDbEntity
  8
0
  6
Continuous
 62
     7
100
AcDbLine
 10
1217.943780671269
 20
2642.88823850999
 30
0.0
 11
1225.943780671269
 21
2642.88823850999
 31
0.0
  0
DIMENSION
  5
6902
330
1F
100
AcDbEntity
  8
AM_5
100
AcDbDimension
  2
*D14
 10
1195.721851967299
 20
2754.35823850999
 30
0.0
 11
1191.721359841314
 21
2728.35823850999
 31
0.0
 70
    32
 71
     5
 42
52.0
  3
AM_ISO$0
100
AcDbAlignedDimension
 13
1206.637397190347
 23
2702.35823850999
 33
0.0
 14
1217.943780671269
 24
2754.35823850999
 34
0.0
 50
90.0
100
AcDbRotatedDimension
  0
DIMENSION
  5
6903
330
1F
100
AcDbEntity
  8
AM_5
100
AcDbDimension
  2
*D15
 10
1206.637397190348
 20
2733.35823850999
 30
0.0
 11
1206.637397190347
 21
2728.35823850999
 31
0.0
 70
   160
  1
10H9
 71
     5
 42
10.0
  3
AM_ISO$0
100
AcDbAlignedDimension
 13
1206.637397190347
 23
2723.35823850999
 33
0.0
 14
1217.943780671269
 24
2733.35823850999
 34
0.0
 50
90.0
100
AcDbRotatedDimension
  0
LINE
  5
6904
330
1F
100
AcDbEntity
  8
0
  6
Continuous
 62
     7
100
AcDbLine
 10
1223.943780671269
 20
2733.35823850999
 30
0.0
 11
1223.943780671269
 21
2723.35823850999
 31
0.0
  0
LINE
  5
6905
330
1F
100
AcDbEntity
  8
0
  6
Continuous
 62
     7
100
AcDbLine
 10
1231.713780671269
 20
2738.62823850999
 30
0.0
 11
1231.713780671269
 21
2705.20823850999
 31
0.0
  0
DIMENSION
  5
6906
330
1F
100
AcDbEntity
  8
AM_5
100
AcDbDimension
  2
*D16
 10
1206.637397190347
 20
2723.35823850999
 30
0.0
 11
1202.636905064362
 21
2712.858238509991
 31
0.0
 70
    32
 71
     5
 42
21.0
  3
AM_ISO$0
100
AcDbAlignedDimension
 13
1217.943780671269
 23
2702.35823850999
 33
0.0
 14
1217.943780671269
 24
2723.35823850999
 34
0.0
 50
90.0
100
AcDbRotatedDimension
  0
LINE
  5
6907
330
1F
100
AcDbEntity
  8
0
  6
Continuous
 62
     7
100
AcDbLine
 10
1225.943780671269
 20
2699.31823850999
 30
0.0
 11
1231.713780671269
 21
2705.20823850999
 31
0.0
  0
LINE
  5
6908
330
1F
100
AcDbEntity
  8
0
  6
Continuous
 62
     7
100
AcDbLine
 10
1231.713780671269
 20
2690.04823850999
 30
0.0
 11
1225.943780671269
 21
2685.98823850999
 31
0.0
  0
LINE
  5
6909
330
1F
100
AcDbEntity
  8
0
  6
Continuous
 62
     7
100
AcDbLine
 10
1217.943780671269
 20
2723.35823850999
 30
0.0
 11
1223.943780671269
 21
2723.35823850999
 31
0.0
  0
LINE
  5
690A
330
1F
100
AcDbEntity
  8
0
  6
Continuous
 62
     7
100
AcDbLine
 10
1217.943780671269
 20
2702.35823850999
 30
0.0
 11
1225.943780671269
 21
2702.35823850999
 31
0.0
  0
LINE
  5
690B
330
1F
100
AcDbEntity
  8
0
  6
Continuous
 62
     7
100
AcDbLine
 10
1217.943780671269
 20
2723.35823850999
 30
0.0
 11
1217.943780671269
 21
2702.35823850999
 31
0.0
  0
DIMENSION
  5
690C
330
1F
100
AcDbEntity
  8
AM_5
100
AcDbDimension
  2
*D17
 10
1217.943780671269
 20
2763.835023191172
 30
0.0
 11
1220.943780671269
 21
2767.835023191171
 31
0.0
 70
    32
 71
     5
 42
6.0
  3
AM_ISO$0
100
AcDbAlignedDimension
 13
1223.943780671269
 23
2733.35823850999
 33
0.0
 14
1217.943780671269
 24
2754.35823850999
 34
0.0
100
AcDbRotatedDimension
  0
LINE
  5
690E
330
1F
100
AcDbEntity
  8
0
  6
Continuous
 62
     7
100
AcDbLine
 10
1217.943780671269
 20
2754.35823850999
 30
0.0
 11
1217.943780671269
 21
2733.35823850999
 31
0.0
  0
LINE
  5
690F
330
1F
100
AcDbEntity
  8
0
  6
Continuous
 62
     7
100
AcDbLine
 10
1237.943780671269
 20
2754.35823850999
 30
0.0
 11
1237.943780671269
 21
2736.92823850999
 31
0.0
  0
LINE
  5
6910
330
1F
100
AcDbEntity
  8
0
  6
Continuous
 62
     7
100
AcDbLine
 10
1225.943780671269
 20
2728.70823850999
 30
0.0
 11
1231.713780671269
 21
2738.62823850999
 31
0.0
  0
LINE
  5
6911
330
1F
100
AcDbEntity
  8
0
  6
Continuous
 62
     7
100
AcDbLine
 10
1217.943780671269
 20
2733.35823850999
 30
0.0
 11
1223.943780671269
 21
2733.35823850999
 31
0.0
  0
LINE
  5
6912
330
1F
100
AcDbEntity
  8
0
  6
Continuous
 62
     7
100
AcDbLine
 10
1231.713780671269
 20
2738.62823850999
 30
0.0
 11
1237.943780671269
 21
2738.62823850999
 31
0.0
  0
LEADER
  5
6913
330
1F
100
AcDbEntity
  8
AM_5
100
AcDbLeader
  3
AM_ISO$7
 76
     3
 10
1285.778752408518
 20
2676.964165192991
 30
0.0
 10
1369.930229938657
 20
2721.02262054461
 30
0.0
 10
1403.096923732804
 20
2721.02262054461
 30
0.0
  0
LINE
  5
6914
330
1F
100
AcDbEntity
  8
AM_7
100
AcDbLine
 10
1278.443780671269
 20
2661.40823850999
 30
0.0
 11
1278.443780671269
 21
2681.57823850999
 31
0.0
  0
ARC
  5
6915
330
1F
100
AcDbEntity
  8
0
  6
Continuous
 62
     2
100
AcDbCircle
 10
1278.443780671269
 20
2671.26823850999
 30
0.0
 40
8.333819999999999
100
AcDbArc
 50
1.490829999991846
 51
178.5089999999955
  0
ARC
  5
6916
330
1F
100
AcDbEntity
  8
0
  6
Continuous
 62
     7
100
AcDbCircle
 10
1278.443780671269
 20
2671.26823850999
 30
0.0
 40
7.47815
100
AcDbArc
 50
1.664010000014651
 51
178.3360000000085
  0
LINE
  5
6917
330
1F
100
AcDbEntity
  8
0
  6
Continuous
 62
     7
100
AcDbLine
 10
1255.943780671269
 20
2590.03823850999
 30
0.0
 11
1255.943780671269
 21
2633.64823850999
 31
0.0
  0
LINE
  5
6918
330
1F
100
AcDbEntity
  8
AM_7
100
AcDbLine
 10
1289.023780671269
 20
2671.48823850999
 30
0.0
 11
1268.263780671269
 21
2671.48823850999
 31
0.0
  0
ARC
  5
6919
330
1F
100
AcDbEntity
  8
0
  6
Continuous
 62
     2
100
AcDbCircle
 10
1278.443780671269
 20
2671.69823850999
 30
0.0
 40
8.333819999999999
100
AcDbArc
 50
181.4910000000044
 51
358.5089999999955
  0
ARC
  5
691A
330
1F
100
AcDbEntity
  8
0
  6
Continuous
 62
     7
100
AcDbCircle
 10
1278.443780671269
 20
2671.69823850999
 30
0.0
 40
7.47815
100
AcDbArc
 50
181.6639999999914
 51
358.3360000000085
  0
POINT
  5
691B
330
1F
100
AcDbEntity
  8
0
100
AcDbPoint
 10
1339.943780671269
 20
2656.35823850999
 30
0.0
  0
DIMENSION
  5
691C
330
1F
100
AcDbEntity
  8
AM_5
100
AcDbDimension
  2
*D18
 10
1278.443780671269
 20
2762.496736486667
 30
0.0
 11
1297.443780671269
 21
2766.496736486667
 31
0.0
 70
    32
 71
     5
 42
38.0
  3
AM_ISO$0
100
AcDbAlignedDimension
 13
1316.443780671269
 23
2762.496736486667
 33
0.0
 14
1278.443780671269
 24
2681.57823850999
 34
0.0
100
AcDbRotatedDimension
  0
LINE
  5
691D
330
1F
100
AcDbEntity
  8
0
  6
Continuous
 62
     7
100
AcDbLine
 10
1255.943780671269
 20
2739.35823850999
 30
0.0
 11
1339.943780671269
 21
2739.35823850999
 31
0.0
  0
LINE
  5
691E
330
1F
100
AcDbEntity
  8
AM_7
100
AcDbLine
 10
1327.453780671269
 20
2719.468238509989
 30
0.0
 11
1305.633780671269
 21
2719.468238509989
 31
0.0
  0
ARC
  5
691F
330
1F
100
AcDbEntity
  8
0
  6
Continuous
 62
     2
100
AcDbCircle
 10
1316.443780671269
 20
2711.87823850999
 30
0.0
 40
12.709
100
AcDbArc
 50
66.47889999999865
 51
113.5169999999994
  0
ARC
  5
6920
330
1F
100
AcDbEntity
  8
0
  6
Continuous
 62
     2
100
AcDbCircle
 10
1316.443780671269
 20
2725.28823850999
 30
0.0
 40
11.5608
100
AcDbArc
 50
236.0750000000023
 51
306.0159999999975
  0
ARC
  5
6921
330
1F
100
AcDbEntity
  8
0
  6
Continuous
 62
     7
100
AcDbCircle
 10
1316.443780671269
 20
2711.87823850999
 30
0.0
 40
11.853
100
AcDbArc
 50
66.47889999999865
 51
113.5169999999994
  0
ARC
  5
6922
330
1F
100
AcDbEntity
  8
0
  6
Continuous
 62
     7
100
AcDbCircle
 10
1316.443780671269
 20
2725.28823850999
 30
0.0
 40
10.7048
100
AcDbArc
 50
246.5079999999988
 51
293.4810000000043
  0
LINE
  5
6923
330
1F
100
AcDbEntity
  8
0
  6
Continuous
 62
     7
100
AcDbLine
 10
1259.943780671269
 20
2690.04823850999
 30
0.0
 11
1259.943780671269
 21
2705.20823850999
 31
0.0
  0
ARC
  5
6924
330
1F
100
AcDbEntity
  8
0
  6
Continuous
 62
     2
100
AcDbCircle
 10
1313.683780671269
 20
2717.98823850999
 30
0.0
 40
6.001459999999999
100
AcDbArc
 50
112.637
 51
134.2379999999988
  0
ARC
  5
6925
330
1F
100
AcDbEntity
  8
0
  6
Continuous
 62
     7
100
AcDbCircle
 10
1312.053780671269
 20
2719.29823850999
 30
0.0
 40
3.090619999999999
100
AcDbArc
 50
128.3690000000064
 51
231.7409999999916
  0
ARC
  5
6926
330
1F
100
AcDbEntity
  8
0
  6
Continuous
 62
     7
100
AcDbCircle
 10
1313.683780671269
 20
2717.98823850999
 30
0.0
 40
5.145459999999999
100
AcDbArc
 50
112.6279999999945
 51
133.5380000000097
  0
ARC
  5
6927
330
1F
100
AcDbEntity
  8
0
  6
Continuous
 62
     7
100
AcDbCircle
 10
1314.293780671269
 20
2720.71823850999
 30
0.0
 40
5.664419999999999
100
AcDbArc
 50
222.8269999999948
 51
247.8359999999958
  0
ARC
  5
6928
330
1F
100
AcDbEntity
  8
0
  6
Continuous
 62
     2
100
AcDbCircle
 10
1312.083780671269
 20
2719.17823850999
 30
0.0
 40
4.049999999999999
100
AcDbArc
 50
129.7719999999975
 51
239.3599999999959
  0
LINE
  5
6929
330
1F
100
AcDbEntity
  8
0
  6
Continuous
 62
     7
100
AcDbLine
 10
1255.943780671269
 20
2754.35823850999
 30
0.0
 11
1255.943780671269
 21
2736.92823850999
 31
0.0
  0
LEADER
  5
692A
330
1F
100
AcDbEntity
  8
AM_5
100
AcDbLeader
  3
AM_ISO$7
 76
     3
 10
1322.46872840195
 20
2723.02387535626
 30
0.0
 10
1354.108940705411
 20
2757.251116935218
 30
0.0
 10
1386.091105800543
 20
2757.251116935218
 30
0.0
  0
LINE
  5
692B
330
1F
100
AcDbEntity
  8
AM_7
100
AcDbLine
 10
1316.443780671269
 20
2711.22823850999
 30
0.0
 11
1316.443780671269
 21
2727.45823850999
 31
0.0
  0
ARC
  5
692C
330
1F
100
AcDbEntity
  8
0
  6
Continuous
 62
     2
100
AcDbCircle
 10
1319.203780671269
 20
2717.98823850999
 30
0.0
 40
6.001459999999999
100
AcDbArc
 50
46.70259999999882
 51
67.3812000000007
  0
ARC
  5
692D
330
1F
100
AcDbEntity
  8
0
  6
Continuous
 62
     7
100
AcDbCircle
 10
1319.203780671269
 20
2717.98823850999
 30
0.0
 40
5.145459999999999
100
AcDbArc
 50
46.46179999999328
 51
67.41579999999783
  0
ARC
  5
692E
330
1F
100
AcDbEntity
  8
0
  6
Continuous
 62
     7
100
AcDbCircle
 10
1320.833780671269
 20
2719.29823850999
 30
0.0
 40
3.090619999999999
100
AcDbArc
 50
308.2590000000084
 51
51.05919999999394
  0
ARC
  5
692F
330
1F
100
AcDbEntity
  8
0
  6
Continuous
 62
     7
100
AcDbCircle
 10
1318.593780671269
 20
2720.71823850999
 30
0.0
 40
5.664419999999999
100
AcDbArc
 50
292.1640000000043
 51
317.1730000000053
  0
ARC
  5
6930
330
1F
100
AcDbEntity
  8
0
  6
Continuous
 62
     2
100
AcDbCircle
 10
1320.813780671269
 20
2719.17823850999
 30
0.0
 40
4.049999999999999
100
AcDbArc
 50
306.8099999999927
 51
51.76069999999713
  0
TEXT
  5
6931
330
1F
100
AcDbEntity
  8
AM_5
100
AcDbText
 10
1380.044874461132
 20
2721.780433056185
 30
0.0
 40
3.2
  1
3/8
  7
China
100
AcDbText
  0
TEXT
  5
6932
330
1F
100
AcDbEntity
  8
AM_5
100
AcDbText
 10
1377.234874461132
 20
2721.940433056185
 30
0.0
 40
1.6
  1
C
  7
China
100
AcDbText
  0
TEXT
  5
6933
330
1F
100
AcDbEntity
  8
AM_5
100
AcDbText
 10
1373.434874461133
 20
2721.480433056185
 30
0.0
 40
3.2
  1
R
  7
China
100
AcDbText
  0
DIMENSION
  5
6934
330
1F
100
AcDbEntity
  8
AM_5
100
AcDbDimension
  2
*D19
 10
1339.943780671269
 20
2762.496736486667
 30
0.0
 11
1328.193780671269
 21
2766.497228612652
 31
0.0
 70
    32
 71
     5
 42
23.5
  3
AM_ISO$0
100
AcDbAlignedDimension
 13
1316.443780671269
 23
2727.45823850999
 33
0.0
 14
1339.943780671269
 24
2739.35823850999
 34
0.0
100
AcDbRotatedDimension
  0
TEXT
  5
6935
330
1F
100
AcDbEntity
  8
AM_5
100
AcDbText
 10
1359.131252864269
 20
2758.547481444277
 30
0.0
 40
1.6
  1
C
  7
China
100
AcDbText
  0
TEXT
  5
6936
330
1F
100
AcDbEntity
  8
AM_5
100
AcDbText
 10
1355.781252864269
 20
2758.317481444278
 30
0.0
 40
3.2
  1
R
  7
China
100
AcDbText
  0
TEXT
  5
6937
330
1F
100
AcDbEntity
  8
AM_5
100
AcDbText
 10
1361.821252864269
 20
2758.497481444278
 30
0.0
 40
3.2
  1
3/8
  7
China
100
AcDbText
  0
TEXT
  5
6938
330
1F
100
AcDbEntity
  8
AM_5
100
AcDbText
 10
1354.718564763932
 20
2752.538161750261
 30
0.0
 40
3.2
  1
(Finger opening port)
  7
China
100
AcDbText
  0
TEXT
  5
6939
330
1F
100
AcDbEntity
  8
AM_5
100
AcDbText
 10
1369.895547947705
 20
2716.131330439909
 30
0.0
 40
3.2
  1
(Finger closing port)
  7
China
100
AcDbText
  0
TEXT
  5
693A
330
1F
100
AcDbEntity
  8
AM_5
100
AcDbText
 10
1026.716632590202
 20
2546.811336774871
 30
0.0
 40
3.2
  1
(Thread for mounting 
  7
China
100
AcDbText
  0
TEXT
  5
693B
330
1F
100
AcDbEntity
  8
AM_5
100
AcDbText
 10
1026.716632590202
 20
2540.718869890341
 30
0.0
 40
3.2
  1
attachment)
  7
China
100
AcDbText
  0
TEXT
  5
693C
330
1F
100
AcDbEntity
  8
AM_5
100
AcDbText
 10
935.4256740298849
 20
2536.666029771277
 30
0.0
 40
3.2
  1
(Mounting hole)
  7
China
100
AcDbText
  0
TEXT
  5
693D
330
1F
100
AcDbEntity
  8
AM_5
100
AcDbText
 10
1480.468643857351
 20
2543.480530592052
 30
0.0
 40
3.2
  1
(Mounting thread)
  7
China
100
AcDbText
  0
LINE
  5
6AB6
330
1F
100
AcDbEntity
  8
AM_7
100
AcDbLine
 10
1462.886140609399
 20
2431.385696498215
 30
0.0
 11
1469.386140609399
 21
2431.385696498215
 31
0.0
1001
GENIUS_GENOREF_13
1005
6ABA
  0
LINE
  5
6AB7
330
1F
100
AcDbEntity
  8
AM_7
100
AcDbLine
 10
1462.886140609399
 20
2431.385696498215
 30
0.0
 11
1462.886140609399
 21
2437.885696498215
 31
0.0
1001
GENIUS_GENOREF_13
1005
6ABA
  0
LINE
  5
6AB8
330
1F
100
AcDbEntity
  8
AM_7
100
AcDbLine
 10
1462.886140609399
 20
2431.385696498215
 30
0.0
 11
1456.386140609399
 21
2431.385696498215
 31
0.0
1001
GENIUS_GENOREF_13
1005
6ABA
  0
LINE
  5
6AB9
330
1F
100
AcDbEntity
  8
AM_7
100
AcDbLine
 10
1462.886140609399
 20
2431.385696498215
 30
0.0
 11
1462.886140609399
 21
2424.885696498215
 31
0.0
1001
GENIUS_GENOREF_13
1005
6ABA
  0
POINT
  5
6ABA
330
1F
100
AcDbEntity
  8
0
 60
     1
100
AcDbPoint
 10
0.0
 20
0.0
 30
0.0
1001
GENIUS_GENOBJ-N-CRS_13
1002
{
1000
OWNER
1000
GEN
1002
}
1001
GENIUS_GENOLIS_13
1002
{
1000
ENT
1005
6AB9
1005
6AB8
1005
6AB7
1005
6AB6
1002
}
1001
GENIUS_GENOENT_13
1002
{
1000
MYREF
1005
6ABA
1002
}
1002
{
1000
GRP
1005
0
1002
}
1001
GENIUS_GENODEF_13
1002
{
1000
HIER
1070
    10
1002
}
1002
{
1000
MANEDIT
1070
     0
1002
}
1002
{
1000
NOSEL
1070
     0
1002
}
1002
{
1000
BEHIND
1070
     0
1002
}
1002
{
1000
OTHER
1070
     0
1002
}
1002
{
1000
REACTOR
1002
}
  0
LINE
  5
6AC8
330
1F
100
AcDbEntity
  8
AM_7
100
AcDbLine
 10
1610.886140609399
 20
2431.386696498215
 30
0.0
 11
1616.886140709399
 21
2431.386696498215
 31
0.0
1001
GENIUS_GENOREF_13
1005
6ACC
  0
LINE
  5
6AC9
330
1F
100
AcDbEntity
  8
AM_7
100
AcDbLine
 10
1610.886140609399
 20
2431.386696498215
 30
0.0
 11
1610.886140609399
 21
2437.386696598216
 31
0.0
1001
GENIUS_GENOREF_13
1005
6ACC
  0
LINE
  5
6ACA
330
1F
100
AcDbEntity
  8
AM_7
100
AcDbLine
 10
1610.886140609399
 20
2431.386696498215
 30
0.0
 11
1604.886140509399
 21
2431.386696498215
 31
0.0
1001
GENIUS_GENOREF_13
1005
6ACC
  0
LINE
  5
6ACB
330
1F
100
AcDbEntity
  8
AM_7
100
AcDbLine
 10
1610.886140609399
 20
2431.386696498215
 30
0.0
 11
1610.886140609399
 21
2425.386696398216
 31
0.0
1001
GENIUS_GENOREF_13
1005
6ACC
  0
POINT
  5
6ACC
330
1F
100
AcDbEntity
  8
0
 60
     1
100
AcDbPoint
 10
0.0
 20
0.0
 30
0.0
1001
GENIUS_GENODEF_13
1002
{
1000
HIER
1070
    10
1002
}
1002
{
1000
MANEDIT
1070
     0
1002
}
1002
{
1000
NOSEL
1070
     0
1002
}
1002
{
1000
BEHIND
1070
     0
1002
}
1002
{
1000
OTHER
1070
     0
1002
}
1002
{
1000
REACTOR
1002
}
1001
GENIUS_GENOBJ-N-CRS_13
1002
{
1000
OWNER
1000
GEN
1002
}
1001
GENIUS_GENOENT_13
1002
{
1000
MYREF
1005
6ACC
1002
}
1002
{
1000
GRP
1005
0
1002
}
1001
GENIUS_GENOLIS_13
1002
{
1000
ENT
1005
6ACB
1005
6ACA
1005
6AC9
1005
6AC8
1002
}
  0
CIRCLE
  5
6ACD
330
1F
100
AcDbEntity
  8
0
  6
Continuous
 62
     7
100
AcDbCircle
 10
1573.886140609399
 20
2367.299816618167
 30
0.0
 40
5.5
  0
CIRCLE
  5
6ACE
330
1F
100
AcDbEntity
  8
0
  6
Continuous
 62
     2
100
AcDbCircle
 10
1499.886140609399
 20
2495.471576378264
 30
0.0
 40
5.0
  0
CIRCLE
  5
6ACF
330
1F
100
AcDbEntity
  8
0
  6
Continuous
 62
     7
100
AcDbCircle
 10
1499.885274583995
 20
2495.471076378264
 30
0.0
 40
4.187999999999999
  0
LINE
  5
6AD0
330
1F
100
AcDbEntity
  8
AM_7
100
AcDbLine
 10
1573.886140609398
 20
2367.299816618167
 30
0.0
 11
1570.636140609398
 21
2372.928981742767
 31
0.0
1001
GENIUS_GENOREF_13
1005
6AD8
  0
LINE
  5
6AD1
330
1F
100
AcDbEntity
  8
AM_7
100
AcDbLine
 10
1573.886140609398
 20
2367.299816618167
 30
0.0
 11
1568.256975484799
 21
2364.049816618167
 31
0.0
1001
GENIUS_GENOREF_13
1005
6AD8
  0
LINE
  5
6AD2
330
1F
100
AcDbEntity
  8
AM_7
100
AcDbLine
 10
1573.886140609398
 20
2367.299816618167
 30
0.0
 11
1577.136140609398
 21
2361.670651493568
 31
0.0
1001
GENIUS_GENOREF_13
1005
6AD8
  0
LINE
  5
6AD3
330
1F
100
AcDbEntity
  8
AM_7
100
AcDbLine
 10
1573.886140609398
 20
2367.299816618167
 30
0.0
 11
1579.515305733997
 21
2370.549816618167
 31
0.0
1001
GENIUS_GENOREF_13
1005
6AD8
  0
LINE
  5
6AD4
330
1F
100
AcDbEntity
  8
AM_7
100
AcDbLine
 10
1499.885274583994
 20
2495.471076378264
 30
0.0
 11
1496.885274533994
 21
2500.667228887574
 31
0.0
1001
GENIUS_GENOREF_13
1005
6AD9
  0
LINE
  5
6AD5
330
1F
100
AcDbEntity
  8
AM_7
100
AcDbLine
 10
1499.885274583994
 20
2495.471076378264
 30
0.0
 11
1494.689122074685
 21
2492.471076328264
 31
0.0
1001
GENIUS_GENOREF_13
1005
6AD9
  0
LINE
  5
6AD6
330
1F
100
AcDbEntity
  8
AM_7
100
AcDbLine
 10
1499.885274583994
 20
2495.471076378264
 30
0.0
 11
1502.885274633994
 21
2490.274923868955
 31
0.0
1001
GENIUS_GENOREF_13
1005
6AD9
  0
LINE
  5
6AD7
330
1F
100
AcDbEntity
  8
AM_7
100
AcDbLine
 10
1499.885274583994
 20
2495.471076378264
 30
0.0
 11
1505.081427093303
 21
2498.471076428264
 31
0.0
1001
GENIUS_GENOREF_13
1005
6AD9
  0
POINT
  5
6AD8
330
1F
100
AcDbEntity
  8
0
 60
     1
100
AcDbPoint
 10
4471.742702045147
 20
2281.009540223919
 30
0.0
1001
GENIUS_GENOBJ-N-CRS_13
1002
{
1000
OWNER
1000
GEN
1002
}
1001
GENIUS_GENOLIS_13
1002
{
1000
ENT
1005
6AD3
1005
6AD2
1005
6AD1
1005
6AD0
1002
}
1001
GENIUS_GENOENT_13
1002
{
1000
MYREF
1005
6AD8
1002
}
1002
{
1000
GRP
1005
0
1002
}
1001
GENIUS_GENODEF_13
1002
{
1000
HIER
1070
    10
1002
}
1002
{
1000
MANEDIT
1070
     0
1002
}
1002
{
1000
NOSEL
1070
     0
1002
}
1002
{
1000
BEHIND
1070
     0
1002
}
1002
{
1000
OTHER
1070
     0
1002
}
1002
{
1000
REACTOR
1002
}
  0
POINT
  5
6AD9
330
1F
100
AcDbEntity
  8
0
 60
     1
100
AcDbPoint
 10
4471.742702045147
 20
2281.009540223919
 30
0.0
1001
GENIUS_GENODEF_13
1002
{
1000
HIER
1070
    10
1002
}
1002
{
1000
MANEDIT
1070
     0
1002
}
1002
{
1000
NOSEL
1070
     0
1002
}
1002
{
1000
BEHIND
1070
     0
1002
}
1002
{
1000
OTHER
1070
     0
1002
}
1002
{
1000
REACTOR
1002
}
1001
GENIUS_GENOBJ-N-CRS_13
1002
{
1000
OWNER
1000
GEN
1002
}
1001
GENIUS_GENOENT_13
1002
{
1000
MYREF
1005
6AD9
1002
}
1002
{
1000
GRP
1005
0
1002
}
1001
GENIUS_GENOLIS_13
1002
{
1000
ENT
1005
6AD7
1005
6AD6
1005
6AD5
1005
6AD4
1002
}
  0
CIRCLE
  5
6ADA
330
1F
100
AcDbEntity
  8
0
  6
Continuous
 62
     7
100
AcDbCircle
 10
1573.886140609398
 20
2495.471576378263
 30
0.0
 40
5.5
  0
CIRCLE
  5
6ADB
330
1F
100
AcDbEntity
  8
0
  6
Continuous
 62
     2
100
AcDbCircle
 10
1499.886140609398
 20
2367.299816618166
 30
0.0
 40
5.0
  0
CIRCLE
  5
6ADC
330
1F
100
AcDbEntity
  8
0
  6
Continuous
 62
     7
100
AcDbCircle
 10
1499.887006634802
 20
2367.299316618166
 30
0.0
 40
4.187999999999999
  0
LINE
  5
6ADD
330
1F
100
AcDbEntity
  8
AM_7
100
AcDbLine
 10
1573.886140609398
 20
2495.471576378264
 30
0.0
 11
1570.636140609398
 21
2489.842411253664
 31
0.0
1001
GENIUS_GENOREF_13
1005
6AE5
  0
LINE
  5
6ADE
330
1F
100
AcDbEntity
  8
AM_7
100
AcDbLine
 10
1573.886140609398
 20
2495.471576378264
 30
0.0
 11
1579.515305733997
 21
2492.221576378264
 31
0.0
1001
GENIUS_GENOREF_13
1005
6AE5
  0
LINE
  5
6ADF
330
1F
100
AcDbEntity
  8
AM_7
100
AcDbLine
 10
1573.886140609398
 20
2495.471576378264
 30
0.0
 11
1577.136140609398
 21
2501.100741502862
 31
0.0
1001
GENIUS_GENOREF_13
1005
6AE5
  0
LINE
  5
6AE0
330
1F
100
AcDbEntity
  8
AM_7
100
AcDbLine
 10
1573.886140609398
 20
2495.471576378264
 30
0.0
 11
1568.256975484799
 21
2498.721576378263
 31
0.0
1001
GENIUS_GENOREF_13
1005
6AE5
  0
LINE
  5
6AE1
330
1F
100
AcDbEntity
  8
AM_7
100
AcDbLine
 10
1499.887006634802
 20
2367.299316618166
 30
0.0
 11
1496.887006584802
 21
2362.103164108857
 31
0.0
1001
GENIUS_GENOREF_13
1005
6AE6
  0
LINE
  5
6AE2
330
1F
100
AcDbEntity
  8
AM_7
100
AcDbLine
 10
1499.887006634802
 20
2367.299316618166
 30
0.0
 11
1505.083159144111
 21
2364.299316568167
 31
0.0
1001
GENIUS_GENOREF_13
1005
6AE6
  0
LINE
  5
6AE3
330
1F
100
AcDbEntity
  8
AM_7
100
AcDbLine
 10
1499.887006634802
 20
2367.299316618166
 30
0.0
 11
1502.887006684802
 21
2372.495469127475
 31
0.0
1001
GENIUS_GENOREF_13
1005
6AE6
  0
LINE
  5
6AE4
330
1F
100
AcDbEntity
  8
AM_7
100
AcDbLine
 10
1499.887006634802
 20
2367.299316618166
 30
0.0
 11
1494.690854125493
 21
2370.299316668166
 31
0.0
1001
GENIUS_GENOREF_13
1005
6AE6
  0
POINT
  5
6AE5
330
1F
100
AcDbEntity
  8
0
 60
     1
100
AcDbPoint
 10
260.4591429139978
 20
5013.147549270726
 30
0.0
1001
GENIUS_GENOBJ-N-CRS_13
1002
{
1000
OWNER
1000
GEN
1002
}
1001
GENIUS_GENOLIS_13
1002
{
1000
ENT
1005
6AE0
1005
6ADF
1005
6ADE
1005
6ADD
1002
}
1001
GENIUS_GENOENT_13
1002
{
1000
MYREF
1005
6AE5
1002
}
1002
{
1000
GRP
1005
0
1002
}
1001
GENIUS_GENODEF_13
1002
{
1000
HIER
1070
    10
1002
}
1002
{
1000
MANEDIT
1070
     0
1002
}
1002
{
1000
NOSEL
1070
     0
1002
}
1002
{
1000
BEHIND
1070
     0
1002
}
1002
{
1000
OTHER
1070
     0
1002
}
1002
{
1000
REACTOR
1002
}
  0
POINT
  5
6AE6
330
1F
100
AcDbEntity
  8
0
 60
     1
100
AcDbPoint
 10
260.4591429139978
 20
5013.147549270726
 30
0.0
1001
GENIUS_GENODEF_13
1002
{
1000
HIER
1070
    10
1002
}
1002
{
1000
MANEDIT
1070
     0
1002
}
1002
{
1000
NOSEL
1070
     0
1002
}
1002
{
1000
BEHIND
1070
     0
1002
}
1002
{
1000
OTHER
1070
     0
1002
}
1002
{
1000
REACTOR
1002
}
1001
GENIUS_GENOBJ-N-CRS_13
1002
{
1000
OWNER
1000
GEN
1002
}
1001
GENIUS_GENOENT_13
1002
{
1000
MYREF
1005
6AE6
1002
}
1002
{
1000
GRP
1005
0
1002
}
1001
GENIUS_GENOLIS_13
1002
{
1000
ENT
1005
6AE4
1005
6AE3
1005
6AE2
1005
6AE1
1002
}
  0
LINE
  5
6AF8
330
1F
100
AcDbEntity
  8
AM_7
100
AcDbLine
 10
1536.886140609398
 20
2431.385696498215
 30
0.0
 11
1635.886140614501
 21
2431.385696498215
 31
0.0
1001
GENIUS_GENOREF_13
1005
6AFC
  0
LINE
  5
6AF9
330
1F
100
AcDbEntity
  8
AM_7
100
AcDbLine
 10
1536.886140609398
 20
2431.385696498215
 30
0.0
 11
1536.886140609398
 21
2530.385696503318
 31
0.0
1001
GENIUS_GENOREF_13
1005
6AFC
  0
LINE
  5
6AFA
330
1F
100
AcDbEntity
  8
AM_7
100
AcDbLine
 10
1536.886140609398
 20
2431.385696498215
 30
0.0
 11
1437.886140604297
 21
2431.385696498215
 31
0.0
1001
GENIUS_GENOREF_13
1005
6AFC
  0
LINE
  5
6AFB
330
1F
100
AcDbEntity
  8
AM_7
100
AcDbLine
 10
1536.886140609398
 20
2431.385696498215
 30
0.0
 11
1536.886140609398
 21
2332.385696493113
 31
0.0
1001
GENIUS_GENOREF_13
1005
6AFC
  0
POINT
  5
6AFC
330
1F
100
AcDbEntity
  8
0
 60
     1
100
AcDbPoint
 10
0.0
 20
0.0
 30
0.0
1001
GENIUS_GENOLIS_13
1002
{
1000
ENT
1005
6AFB
1005
6AFA
1005
6AF9
1005
6AF8
1002
}
1001
GENIUS_GENOBJ-N-CRS_13
1002
{
1000
OWNER
1000
GEN
1002
}
1001
GENIUS_GENOENT_13
1002
{
1000
MYREF
1005
6AFC
1002
}
1002
{
1000
GRP
1005
0
1002
}
1001
GENIUS_GENODEF_13
1002
{
1000
HIER
1070
    10
1002
}
1002
{
1000
MANEDIT
1070
     0
1002
}
1002
{
1000
NOSEL
1070
     0
1002
}
1002
{
1000
BEHIND
1070
     0
1002
}
1002
{
1000
OTHER
1070
     0
1002
}
1002
{
1000
REACTOR
1002
}
  0
DIMENSION
  5
6C27
102
{ACAD_XDICTIONARY
360
6C34
102
}
102
{ACAD_REACTORS
330
6C35
102
}
330
1F
100
AcDbEntity
  8
AM_5
100
AcDbDimension
  2
*D20
 10
1134.931744689467
 20
2326.985442760021
 30
0.0
 11
1123.405429176711
 21
2324.950089243301
 31
0.0
 70
    32
  1
<>{}{\C2; h9}
 71
     5
 42
21.99951599354563
  3
AM_ISO$0
100
AcDbAlignedDimension
 13
1101.426782165653
 23
2341.018696498215
 33
0.0
 14
1120.478725916124
 24
2352.01879392639
 34
0.0
 50
30.00001156757625
100
AcDbRotatedDimension
1001
GENIUS_GENDTOL_13
1000
FitTxt
1000
h9
1000
{$3 $T}
1040
22.0
1001
ACAD
1000
DSTYLE
1002
{
1070
   286
1070
     0
1070
   284
1070
     8
1070
    48
1040
0.1
1070
    47
1040
0.1
1070
   272
1070
     3
1070
   274
1070
     3
1002
}
  0
DIMENSION
  5
6FBD
102
{ACAD_XDICTIONARY
360
6FCC
102
}
102
{ACAD_REACTORS
330
6FCD
102
}
330
1F
100
AcDbEntity
  8
AM_5
100
AcDbDimension
  2
*D22
 10
1015.958782165653
 20
2335.487897972239
 30
0.0
 11
1031.312335556247
 21
2339.487897972238
 31
0.0
 70
    32
 71
     5
 42
10.5
  3
AM_ISO$0
100
AcDbAlignedDimension
 13
1005.458782165653
 23
2422.658696498216
 33
0.0
 14
1015.958782165653
 24
2420.386696498216
 34
0.0
 50
0.0000000000001132
100
AcDbRotatedDimension
1001
ACAD
1000
DSTYLE
1002
{
1070
    40
1040
1.0
1070
   144
1040
1.0
1070
   272
1070
     8
1002
}
  0
ENDSEC
  0
SECTION
  2
OBJECTS
  0
DICTIONARY
  5
C
330
0
100
AcDbDictionary
281
     1
  3
ACAD_COLOR
350
8FD
  3
ACAD_GROUP
350
D
  3
ACAD_LAYOUT
350
1A
  3
ACAD_MATERIAL
350
8FC
  3
ACAD_MLINESTYLE
350
17
  3
ACAD_PLOTSETTINGS
350
19
  3
ACAD_PLOTSTYLENAME
350
E
  3
ACAD_TABLESTYLE
350
8FE
  3
ACDBHEADERROUNDTRIPXREC
350
70AC
  3
AcDbVariableDictionary
350
82
  3
AcmDictionary
350
45
  3
AMG
350
2B
  3
AMGSNAPSETTINGS
350
2026
  3
DWGPROPS
350
70AB
  0
DICTIONARY
  5
E05
330
2
100
AcDbDictionary
280
     1
281
     1
  3
ACAD_LAYERFILTERS
360
E57
  3
ACAD_LAYERSTATES
360
E80
  3
ACLYDICTIONARY
360
E56
  3
AMLAYER_GROUPCOLORS
360
1991
  0
DICTIONARY
  5
7D
330
1F
100
AcDbDictionary
280
     1
281
     1
  3
ACAD_SORTENTS
360
19C4
  0
DICTIONARY
  5
6C34
330
6C27
100
AcDbDictionary
280
     1
281
     1
  3
ACAD_DIMASSOC
360
6C35
  0
DICTIONARY
  5
6FCC
330
6FBD
100
AcDbDictionary
280
     1
281
     1
  3
ACAD_DIMASSOC
360
6FCD
  0
DICTIONARY
  5
8FD
102
{ACAD_REACTORS
330
C
102
}
330
C
100
AcDbDictionary
281
     1
  0
DICTIONARY
  5
D
102
{ACAD_REACTORS
330
C
102
}
330
C
100
AcDbDictionary
281
     1
  0
DICTIONARY
  5
1A
102
{ACAD_REACTORS
330
C
102
}
330
C
100
AcDbDictionary
281
     1
  3
Layout1
350
1E
  3
Layout2
350
26
  3
Model
350
22
  0
DICTIONARY
  5
8FC
102
{ACAD_REACTORS
330
C
102
}
330
C
100
AcDbDictionary
281
     1
  0
DICTIONARY
  5
17
102
{ACAD_REACTORS
330
C
102
}
330
C
100
AcDbDictionary
281
     1
  3
Standard
350
18
  0
DICTIONARY
  5
19
102
{ACAD_REACTORS
330
C
102
}
330
C
100
AcDbDictionary
281
     1
  0
ACDBDICTIONARYWDFLT
  5
E
102
{ACAD_REACTORS
330
C
102
}
330
C
100
AcDbDictionary
281
     1
  3
Normal
350
F
100
AcDbDictionaryWithDefault
340
F
  0
DICTIONARY
  5
8FE
102
{ACAD_REACTORS
330
C
102
}
330
C
100
AcDbDictionary
281
     1
  3
Standard
350
8FF
  0
DICTIONARY
  5
70AC
102
{ACAD_REACTORS
330
C
102
}
330
C
100
AcDbDictionary
281
     1
  0
DICTIONARY
  5
82
102
{ACAD_REACTORS
330
C
102
}
330
C
100
AcDbDictionary
281
     1
  3
CTABLESTYLE
350
972
  3
DIMASSOC
350
85
  3
HIDETEXT
350
84
  3
INDEXCTL
350
83
  3
PROJECTNAME
350
973
  0
DICTIONARY
  5
45
102
{ACAD_REACTORS
330
C
102
}
330
C
100
AcDbDictionary
281
     1
  3
AcmStdDictionary
350
4A
  3
AMDTSECTSYM_ARROWCOLOR
350
90B
  0
DICTIONARY
  5
2B
102
{ACAD_REACTORS
330
C
102
}
330
C
100
AcDbDictionary
281
     1
  0
DICTIONARY
  5
2026
102
{ACAD_REACTORS
330
C
102
}
330
C
100
AcDbDictionary
281
     1
  0
XRECORD
  5
70AB
102
{ACAD_REACTORS
330
C
102
}
330
C
100
AcDbXrecord
280
     1
  1
DWGPROPS COOKIE
  2

  3

  4

  6

  7

  8

  9

300
AmdtFileType=84
301
=
302
=
303
=
304
=
305
=
306
=
307
=
308
=
309
=
 40
0.5542760995370371
 41
2453021.369367211
 42
2454721.475352998
  1

 90
        1
  0
DICTIONARY
  5
E57
102
{ACAD_REACTORS
330
E05
102
}
330
E05
100
AcDbDictionary
281
     1
  0
DICTIONARY
  5
E80
102
{ACAD_REACTORS
330
E05
102
}
330
E05
100
AcDbDictionary
281
     1
  0
DICTIONARY
  5
E56
102
{ACAD_REACTORS
330
E05
102
}
330
E05
100
AcDbDictionary
281
     1
1001
ACAD
1000
<All
  0
DICTIONARY
  5
1991
102
{ACAD_REACTORS
330
E05
102
}
330
E05
100
AcDbDictionary
280
     1
281
     1
  0
SORTENTSTABLE
  5
19C4
102
{ACAD_REACTORS
330
7D
102
}
330
7D
100
AcDbSortentsTable
330
1F
331
AE3
  5
AE3
  0
DIMASSOC
  5
6C35
102
{ACAD_REACTORS
330
6C34
102
}
330
6C34
100
AcDbDimAssoc
330
6C27
 90
        3
 70
     0
 71
     2
  1
AcDbOsnapPointRef
 72
    13
331
67E7
 73
     0
 91
        0
 40
0.0
 10
0.0
 20
0.0
 30
2.000000000000000E+50
 75
     0
  1
AcDbOsnapPointRef
 72
     6
331
6803
 73
     0
 91
        0
 40
0.7750048714087399
 10
0.0
 20
0.0
 30
0.0
332
67FF
 74
     0
 92
        0
 75
     0
  0
DIMASSOC
  5
6FCD
102
{ACAD_REACTORS
330
6FCC
102
}
330
6FCC
100
AcDbDimAssoc
330
6FBD
 90
        2
 70
     0
 71
     0
  1
AcDbOsnapPointRef
 72
     1
331
683A
 73
     0
 91
        0
 40
0.0
 10
0.0
 20
0.0
 30
2.000000000000000E+50
 75
     0
  0
LAYOUT
  5
1E
102
{ACAD_XDICTIONARY
360
70AD
102
}
102
{ACAD_REACTORS
330
1A
102
}
330
1A
100
AcDbPlotSettings
  1

  2
自動 RD 上的 Epson Stylus Photo 750 單色
  4

  6

 40
0.0
 41
0.0
 42
0.0
 43
0.0
 44
0.0
 45
0.0
 46
0.0
 47
0.0
 48
0.0
 49
0.0
140
0.0
141
0.0
142
1.0
143
1.0
 70
   688
 72
     0
 73
     0
 74
     5
  7
彩色出圖.ctb
 75
    16
147
1.0
148
0.0
149
0.0
100
AcDbLayout
  1
Layout1
 70
     1
 71
     1
 10
0.0
 20
0.0
 11
420.0
 21
297.0
 12
0.0
 22
0.0
 32
0.0
 14
1.000000000000000E+20
 24
1.000000000000000E+20
 34
1.000000000000000E+20
 15
-1.000000000000000E+20
 25
-1.000000000000000E+20
 35
-1.000000000000000E+20
146
0.0
 13
0.0
 23
0.0
 33
0.0
 16
1.0
 26
0.0
 36
0.0
 17
0.0
 27
1.0
 37
0.0
 76
     0
330
1B
  0
LAYOUT
  5
26
102
{ACAD_XDICTIONARY
360
70B1
102
}
102
{ACAD_REACTORS
330
1A
102
}
330
1A
100
AcDbPlotSettings
  1

  2
自動 RD 上的 Epson Stylus Photo 750 單色
  4

  6

 40
0.0
 41
0.0
 42
0.0
 43
0.0
 44
0.0
 45
0.0
 46
0.0
 47
0.0
 48
0.0
 49
0.0
140
0.0
141
0.0
142
1.0
143
1.0
 70
   688
 72
     0
 73
     0
 74
     5
  7
彩色出圖.ctb
 75
    16
147
1.0
148
0.0
149
0.0
100
AcDbLayout
  1
Layout2
 70
     1
 71
     2
 10
0.0
 20
0.0
 11
12.0
 21
9.0
 12
0.0
 22
0.0
 32
0.0
 14
0.0
 24
0.0
 34
0.0
 15
0.0
 25
0.0
 35
0.0
146
0.0
 13
0.0
 23
0.0
 33
0.0
 16
1.0
 26
0.0
 36
0.0
 17
0.0
 27
1.0
 37
0.0
 76
     0
330
23
  0
LAYOUT
  5
22
102
{ACAD_XDICTIONARY
360
70AF
102
}
102
{ACAD_REACTORS
330
1A
102
}
330
1A
100
AcDbPlotSettings
  1

  2
自動 RD 上的 Epson Stylus Photo 750 單色
  4
A4
  6

 40
3.757083177566528
 41
14.7637300491333
 42
3.757080078125
 43
3.757080078125
 44
209.9733276367187
 45
296.9683227539062
 46
7.54
 47
0.0
 48
0.0
 49
0.0
140
0.0
141
0.0
142
1.0
143
1.817317462545654
 70
 11956
 72
     1
 73
     0
 74
     1
  7
彩色出圖.ctb
 75
     0
147
0.5502615919395967
148
-125.5654918467224
149
222.8859553785132
100
AcDbLayout
  1
Model
 70
     1
 71
     0
 10
0.0
 20
0.0
 11
12.0
 21
9.0
 12
0.0
 22
0.0
 32
0.0
 14
0.0
 24
0.0
 34
0.0
 15
0.0
 25
0.0
 35
0.0
146
0.0
 13
0.0
 23
0.0
 33
0.0
 16
1.0
 26
0.0
 36
0.0
 17
0.0
 27
1.0
 37
0.0
 76
     0
330
1F
  0
MLINESTYLE
  5
18
102
{ACAD_REACTORS
330
17
102
}
330
17
100
AcDbMlineStyle
  2
STANDARD
 70
     0
  3

 62
   256
 51
90.0
 52
90.0
 71
     2
 49
0.5
 62
   256
  6
BYLAYER
 49
-0.5
 62
   256
  6
BYLAYER
  0
ACDBPLACEHOLDER
  5
F
102
{ACAD_REACTORS
330
E
102
}
330
E
  0
TABLESTYLE
  5
8FF
102
{ACAD_REACTORS
330
8FE
102
}
330
8FE
100
AcDbTableStyle
  3
Standard
 70
     0
 71
     0
 40
1.5
 41
1.5
280
     0
281
     0
  7
STANDARD
140
4.5
170
     2
 62
     0
 63
     7
283
     0
274
    -2
284
     1
 64
     0
275
    -2
285
     1
 65
     0
276
    -2
286
     1
 66
     0
277
    -2
287
     1
 67
     0
278
    -2
288
     1
 68
     0
279
    -2
289
     1
 69
     0
  7
STANDARD
140
6.0
170
     5
 62
     0
 63
     7
283
     0
274
    -2
284
     1
 64
     0
275
    -2
285
     1
 65
     0
276
    -2
286
     1
 66
     0
277
    -2
287
     1
 67
     0
278
    -2
288
     1
 68
     0
279
    -2
289
     1
 69
     0
  7
STANDARD
140
4.5
170
     5
 62
     0
 63
     7
283
     0
274
    -2
284
     1
 64
     0
275
    -2
285
     1
 65
     0
276
    -2
286
     1
 66
     0
277
    -2
287
     1
 67
     0
278
    -2
288
     1
 68
     0
279
    -2
289
     1
 69
     0
  0
DICTIONARYVAR
  5
972
102
{ACAD_REACTORS
330
82
102
}
330
82
100
DictionaryVariables
280
     0
  1
STANDARD
  0
DICTIONARYVAR
  5
85
102
{ACAD_REACTORS
330
82
102
}
330
82
100
DictionaryVariables
280
     0
  1
2
  0
DICTIONARYVAR
  5
84
102
{ACAD_REACTORS
330
82
102
}
330
82
100
DictionaryVariables
280
     0
  1
1
  0
DICTIONARYVAR
  5
83
102
{ACAD_REACTORS
330
82
102
}
330
82
100
DictionaryVariables
280
     0
  1
0
  0
DICTIONARYVAR
  5
973
102
{ACAD_REACTORS
330
82
102
}
330
82
100
DictionaryVariables
280
     0
  1

  0
DICTIONARY
  5
4A
102
{ACAD_REACTORS
330
45
102
}
330
45
100
AcDbDictionary
281
     1
  0
XRECORD
  5
90B
102
{ACAD_REACTORS
330
45
102
}
330
45
100
AcDbXrecord
280
     1
 90
-1023410169
  0
DICTIONARY
  5
70AD
330
1E
100
AcDbDictionary
280
     1
281
     1
  3
ACAD_XREC_ROUNDTRIP
360
70AE
  0
DICTIONARY
  5
70B1
330
26
100
AcDbDictionary
280
     1
281
     1
  3
ACAD_XREC_ROUNDTRIP
360
70B2
  0
DICTIONARY
  5
70AF
330
22
100
AcDbDictionary
280
     1
281
     1
  3
ACAD_XREC_ROUNDTRIP
360
70B0
  0
XRECORD
  5
70AE
102
{ACAD_REACTORS
330
70AD
102
}
330
70AD
100
AcDbXrecord
280
     1
102
SHADEPLOT
 70
     0
102
SHADEPLOTRESLEVEL
 70
     2
102
SHADEPLOTCUSTOMDPI
 70
   300
  0
XRECORD
  5
70B2
102
{ACAD_REACTORS
330
70B1
102
}
330
70B1
100
AcDbXrecord
280
     1
102
SHADEPLOT
 70
     0
102
SHADEPLOTRESLEVEL
 70
     2
102
SHADEPLOTCUSTOMDPI
 70
   300
  0
XRECORD
  5
70B0
102
{ACAD_REACTORS
330
70AF
102
}
330
70AF
100
AcDbXrecord
280
     1
102
SHADEPLOT
 70
     0
102
SHADEPLOTRESLEVEL
 70
     2
102
SHADEPLOTCUSTOMDPI
 70
   300
  0
ENDSEC
  0
EOF
